osu file format v14

[General]
AudioFilename: audio.mp3
AudioLeadIn: 0
PreviewTime: 29555
Countdown: 0
SampleSet: Soft
StackLeniency: 0.2
Mode: 0
LetterboxInBreaks: 0
WidescreenStoryboard: 0

[Editor]
Bookmarks: 2127,8984,15841,22698,29555,36412,43269,43698,50127,50555,56984,70698,77555,82698,84412,98127,111841,118698,125555
DistanceSpacing: 1
BeatDivisor: 4
GridSize: 32
TimelineZoom: 1.6

[Metadata]
Title:IN THE DEEP@DIVINE ROAD
TitleUnicode:深奏神路
Artist:takoyaki_o
ArtistUnicode:takoyaki_o
Creator:Strategas
Version:niyuji's Insane
Source:四女神オンライン CYBER DIMENSION NEPTUNE
Tags:xchorse niyuji Cyberdimension Neptunia 4 Goddesses Online ost idea factory compile heart electronic instrumental shinsou shinro
BeatmapID:1748271
BeatmapSetID:809243

[Difficulty]
HPDrainRate:5.5
CircleSize:3.9
OverallDifficulty:7.9
ApproachRate:9
SliderMultiplier:1.77
SliderTickRate:1

[Events]
//Background and Video events
0,0,"insane.jpg",0,0
//Break Periods
//Storyboard Layer 0 (Background)
//Storyboard Layer 1 (Fail)
//Storyboard Layer 2 (Pass)
//Storyboard Layer 3 (Foreground)
//Storyboard Layer 4 (Overlay)
//Storyboard Sound Samples

[TimingPoints]
413,428.571428571429,4,2,25,50,1,0
1270,-100,4,2,25,5,0,0
1698,-142.857142857143,4,2,25,50,0,0
2127,-100,4,2,25,50,0,0
15841,-90.9090909090909,4,2,25,50,0,0
28055,-125,4,2,25,50,0,0
29555,-66.6666666666667,4,2,26,50,0,0
42841,-714.285714285714,4,2,26,50,0,0
43269,-1000,4,2,26,5,0,0
43484,-178.571428571429,4,2,26,40,0,0
43698,-66.6666666666667,4,2,26,50,0,0
50127,-333.333333333333,4,2,26,50,0,0
50555,-66.6666666666667,4,2,26,50,0,0
56984,-125,4,2,26,50,0,0
57037,-125,4,2,26,5,0,0
57412,-125,4,2,26,50,0,0
57465,-125,4,2,26,5,0,0
57841,-125,4,2,26,50,0,0
57894,-125,4,2,26,5,0,0
58269,-125,4,2,26,50,0,0
58322,-125,4,2,26,5,0,0
58698,-125,4,2,26,50,0,0
58751,-125,4,2,26,5,0,0
59127,-125,4,2,26,50,0,0
59180,-125,4,2,26,5,0,0
59555,-125,4,2,26,50,0,0
59608,-125,4,2,26,5,0,0
59984,-125,4,2,26,50,0,0
60037,-125,4,2,26,5,0,0
60412,-125,4,2,26,50,0,0
60465,-125,4,2,26,5,0,0
60841,-125,4,2,26,50,0,0
60894,-125,4,2,26,5,0,0
61269,-125,4,2,26,50,0,0
61322,-125,4,2,26,5,0,0
61698,-125,4,2,26,50,0,0
61751,-125,4,2,26,5,0,0
62127,-125,4,2,26,50,0,0
62180,-125,4,2,26,5,0,0
62555,-125,4,2,26,50,0,0
62608,-125,4,2,26,5,0,0
62984,-125,4,2,26,50,0,0
63037,-125,4,2,26,5,0,0
63412,-125,4,2,26,50,0,0
63465,-125,4,2,26,5,0,0
63841,-125,4,2,26,50,0,0
63894,-125,4,2,26,5,0,0
64269,-125,4,2,26,50,0,0
64322,-125,4,2,26,5,0,0
64698,-125,4,2,26,50,0,0
64751,-125,4,2,26,5,0,0
65127,-125,4,2,26,50,0,0
65180,-125,4,2,26,5,0,0
65555,-125,4,2,26,50,0,0
65608,-125,4,2,26,5,0,0
65984,-125,4,2,26,50,0,0
66037,-125,4,2,26,5,0,0
66412,-125,4,2,26,50,0,0
66465,-125,4,2,26,5,0,0
66841,-125,4,2,26,50,0,0
66894,-125,4,2,26,5,0,0
67269,-125,4,2,26,50,0,0
67322,-125,4,2,26,5,0,0
67698,-125,4,2,26,50,0,0
67751,-125,4,2,26,5,0,0
68127,-125,4,2,26,50,0,0
68180,-125,4,2,26,5,0,0
68555,-125,4,2,26,50,0,0
68608,-125,4,2,26,5,0,0
68984,-125,4,2,26,50,0,0
69305,-125,4,2,26,5,0,0
69412,-125,4,2,26,50,0,0
69734,-125,4,2,26,5,0,0
69841,-125,4,2,26,50,0,0
70162,-125,4,2,26,5,0,0
70269,-83.3333333333333,4,2,26,50,0,0
80984,-142.857142857143,4,2,26,50,0,0
81037,-142.857142857143,4,2,26,5,0,0
81198,-142.857142857143,4,2,26,50,0,0
81251,-142.857142857143,4,2,26,5,0,0
81412,-142.857142857143,4,2,26,50,0,0
81465,-142.857142857143,4,2,26,5,0,0
81627,-142.857142857143,4,2,26,50,0,0
81680,-142.857142857143,4,2,26,5,0,0
81841,-142.857142857143,4,2,26,50,0,0
81894,-142.857142857143,4,2,26,5,0,0
82055,-142.857142857143,4,2,26,50,0,0
82108,-142.857142857143,4,2,26,5,0,0
82269,-142.857142857143,4,2,26,50,0,0
82322,-142.857142857143,4,2,26,5,0,0
82484,-142.857142857143,4,2,26,50,0,0
82537,-142.857142857143,4,2,26,5,0,0
82698,-54.6448087431694,4,2,26,50,0,0
84413,-50,4,2,26,50,0,1
94698,-45.4545454545455,4,2,26,50,0,1
95019,-37.037037037037,4,2,26,50,0,1
95341,-31.25,4,2,26,50,0,1
96305,-37.037037037037,4,2,26,50,0,1
96627,-45.4545454545455,4,2,26,50,0,1
96948,-58.8235294117647,4,2,26,50,0,1
97269,-76.9230769230769,4,2,26,50,0,1
97591,-111.111111111111,4,2,26,50,0,1
97912,-87.719298245614,4,2,26,50,0,1
98127,-50,4,2,26,50,0,1
108734,-58.8235294117647,4,2,26,50,0,1
109055,-47.6190476190476,4,2,26,50,0,1
109377,-58.8235294117647,4,2,26,50,0,1
109698,-45.4545454545455,4,2,26,50,0,1
110019,-58.8235294117647,4,2,26,50,0,1
110341,-50,4,2,26,50,0,1
110662,-41.6666666666667,4,2,26,50,0,1
110984,-45.4545454545455,4,2,26,50,0,1
111841,-31.1526479750779,4,2,26,50,0,1
112269,-100,4,2,26,50,0,1
112698,-31.1526479750779,4,2,26,50,0,1
113127,-100,4,2,26,50,0,1
113555,-31.1526479750779,4,2,26,50,0,1
113984,-100,4,2,26,50,0,1
114412,-31.1526479750779,4,2,26,50,0,1
115698,-100,4,2,26,50,0,1
116127,-31.1526479750779,4,2,26,50,0,1
116555,-100,4,2,26,50,0,1
116984,-31.1526479750779,4,2,26,50,0,1
117412,-100,4,2,26,50,0,1
117841,-31.1526479750779,4,2,26,50,0,1
118269,-666.666666666667,4,2,26,50,0,1
118698,-156.25,4,2,26,50,0,1
118752,-156.25,4,2,26,5,0,1
118912,-156.25,4,2,26,50,0,1
118966,-156.25,4,2,26,5,0,1
119127,-156.25,4,2,26,50,0,1
119181,-156.25,4,2,26,5,0,1
119341,-156.25,4,2,26,50,0,1
119395,-156.25,4,2,26,5,0,1
119555,-156.25,4,2,26,50,0,1
119609,-156.25,4,2,26,5,0,1
119769,-156.25,4,2,26,50,0,1
119823,-156.25,4,2,26,5,0,1
119984,-156.25,4,2,26,50,0,1
120038,-156.25,4,2,26,5,0,1
120198,-156.25,4,2,26,50,0,1
120252,-156.25,4,2,26,5,0,1
120412,-78.125,4,2,26,50,0,1
120466,-78.125,4,2,26,5,0,1
120627,-78.125,4,2,26,50,0,1
120681,-78.125,4,2,26,5,0,1
120841,-52.0833333333333,4,2,26,50,0,1
120894,-52.0833333333333,4,2,26,5,0,1
121055,-52.0833333333333,4,2,26,50,0,1
121108,-52.0833333333333,4,2,26,5,0,1
121269,-39.0625,4,2,26,50,0,1
121323,-39.0625,4,2,26,5,0,1
121484,-39.0625,4,2,26,50,0,1
121538,-39.0625,4,2,26,5,0,1
121698,-31.25,4,2,26,50,0,1
122127,-26.0416666666667,4,2,26,50,0,1
124698,-100,4,2,26,50,0,1
125127,-66.6666666666667,4,2,26,50,0,1
125555,-66.6666666666667,4,2,26,50,0,0

[Colours]
Combo1 : 159,155,215
Combo2 : 228,225,243
Combo3 : 249,235,174

[HitObjects]
156,137,413,6,0,B|142:95|158:63|184:53|211:69|212:77|227:117|168:197|134:156|138:259|184:291|203:302|223:289|156:269|171:226|200:190,1,354,4|0,0:3|0:0,0:0:0:0:
186,212,1698,6,0,B|176:239|184:252|186:273,1,61.9499981094361,2|2,0:0|0:0,0:0:0:0:
256,239,2127,5,6,0:0:0:0:
118,312,2341,1,2,0:0:0:0:
118,309,2448,1,0,3:0:0:0:
118,306,2555,1,2,3:2:0:0:
247,357,2770,1,2,3:2:0:0:
400,272,2984,6,0,P|467:262|507:300,1,88.5,2|2,0:0|3:2,0:0:0:0:
334,358,3305,1,0,3:0:0:0:
333,355,3413,2,0,L|320:297,1,44.25,2|0,0:2|0:0,0:0:0:0:
400,272,3627,2,0,L|409:228,1,44.25,2|0,0:0|3:0,0:0:0:0:
258,172,3841,6,0,P|247:225|267:264,1,88.5,2|2,3:2|0:0,0:0:0:0:
408,225,4163,1,0,3:0:0:0:
409,228,4270,2,0,L|422:286,1,44.25,2|0,3:2|0:0,0:0:0:0:
342,311,4484,2,0,L|332:354,1,44.25,2|0,3:2|0:0,0:0:0:0:
250,365,4698,6,0,P|220:365|187:346,1,44.25,2|0,0:0|3:0,0:0:0:0:
131,302,4913,1,2,3:2:0:0:
123,272,5020,1,0,3:0:0:0:
131,242,5127,2,0,L|144:184,1,44.25,2|0,3:2|0:0,0:0:0:0:
64,159,5341,2,0,L|54:116,1,44.25,2|0,3:2|0:0,0:0:0:0:
157,97,5555,1,0,3:0:0:0:
41,245,5770,6,0,P|36:298|49:341,2,88.5,2|2|2,0:0|3:2|3:2,0:0:0:0:
215,213,6413,2,0,P|220:266|207:309,1,88.5,2|2,0:0|3:2,0:0:0:0:
125,209,6734,1,0,3:0:0:0:
125,206,6841,2,0,P|131:179|144:157,1,44.25,2|0,0:2|0:0,0:0:0:0:
191,94,7055,2,0,P|211:112|223:134,1,44.25,2|0,0:0|3:0,0:0:0:0:
215,213,7270,6,0,B|261:219|261:219|317:204,1,88.5,2|2,3:2|0:0,0:0:0:0:
399,116,7591,1,0,3:0:0:0:
398,119,7698,2,0,P|387:138|382:159,1,44.25,2|0,3:2|0:0,0:0:0:0:
385,247,7913,2,0,P|390:274|403:295,1,44.25,2|0,3:2|0:0,0:0:0:0:
445,364,8127,6,0,P|418:375|380:378,1,44.25,2|0,0:0|3:0,0:0:0:0:
324,340,8341,1,2,3:2:0:0:
294,332,8448,1,0,3:0:0:0:
264,340,8555,2,0,P|230:341|176:303,1,88.5,2|0,3:2|0:0,0:0:0:0:
148,144,8984,6,0,L|144:252,1,88.5,2|2,3:2|0:0,0:0:0:0:
249,170,9305,1,0,3:0:0:0:
248,173,9413,2,0,L|244:281,1,88.5,2|2,3:2|3:2,0:0:0:0:
218,91,9841,5,2,0:0:0:0:
181,104,9948,1,0,3:0:0:0:
199,138,10055,1,2,3:2:0:0:
230,115,10163,1,0,3:0:0:0:
218,91,10270,2,0,P|194:91|178:108,1,44.25,2|0,0:2|0:0,0:0:0:0:
138,187,10484,2,0,P|121:200|99:200,1,44.25,2|0,0:0|3:0,0:0:0:0:
17,110,10698,5,2,3:2:0:0:
17,113,10805,2,0,L|18:171,1,44.25,0|2,0:0|0:0,0:0:0:0:
99,200,11020,1,0,3:0:0:0:
99,197,11127,2,0,L|100:139,1,44.25,2|0,3:2|0:0,0:0:0:0:
180,104,11341,2,0,L|181:162,1,44.25,2|0,3:2|0:0,0:0:0:0:
249,212,11555,5,2,0:0:0:0:
269,189,11663,1,0,3:0:0:0:
297,174,11770,1,2,3:2:0:0:
327,169,11877,1,0,3:0:0:0:
357,174,11984,1,2,3:2:0:0:
220,305,12198,1,2,3:2:0:0:
193,291,12305,1,0,3:0:0:0:
171,270,12413,1,0,3:0:0:0:
325,258,12627,6,0,L|317:360,2,88.5,2|2|2,0:0|3:2|3:2,0:0:0:0:
446,180,13270,2,0,L|438:78,1,88.5,2|2,0:0|3:2,0:0:0:0:
352,73,13591,1,0,3:0:0:0:
353,76,13698,2,0,L|357:134,1,44.25,2|0,0:2|0:0,0:0:0:0:
273,147,13913,2,0,L|277:88,1,44.25,2|0,0:0|3:0,0:0:0:0:
340,204,14127,6,0,P|290:232|238:227,1,88.5,2|2,3:2|0:0,0:0:0:0:
191,181,14448,1,0,3:0:0:0:
188,182,14555,2,0,L|129:186,1,44.25,2|0,3:2|0:0,0:0:0:0:
103,264,14770,2,0,L|161:268,1,44.25,2|0,3:2|0:0,0:0:0:0:
193,342,14984,2,0,L|135:346,2,44.25,2|0|2,0:0|3:0|3:2,0:0:0:0:
278,374,15305,1,0,3:0:0:0:
281,373,15413,2,0,L|340:369,1,44.25,2|0,3:2|0:0,0:0:0:0:
390,314,15627,2,0,L|449:318,1,44.25,2|0,3:2|3:0,0:0:0:0:
508,364,15841,6,0,L|512:254,1,97.3500029708863,6|2,3:2|0:0,0:0:0:0:
386,213,16163,1,0,3:0:0:0:
386,216,16270,2,0,L|390:326,1,97.3500029708863,2|2,3:0|3:2,0:0:0:0:
512,133,16698,1,2,0:3:0:0:
487,133,16805,1,0,3:0:0:0:
463,132,16913,1,2,3:2:0:0:
439,131,17020,1,0,3:0:0:0:
414,130,17127,1,2,0:3:0:0:
250,213,17341,6,0,L|305:215,1,48.6750014854432,2|0,0:0|3:0,0:0:0:0:
386,216,17555,1,2,3:0:0:0:
176,120,17770,6,0,L|174:175,1,48.6750014854432,2|0,0:0|3:0,0:0:0:0:
173,256,17984,1,2,3:0:0:0:
264,126,18198,5,2,3:2:0:0:
97,210,18413,1,2,0:3:0:0:
69,217,18520,1,0,3:0:0:0:
40,212,18627,1,2,3:2:0:0:
17,195,18734,1,0,3:0:0:0:
3,170,18841,1,2,3:0:0:0:
176,120,19055,2,0,L|174:175,1,48.6750014854432,2|0,3:2|3:0,0:0:0:0:
173,256,19270,6,0,L|283:252,1,97.3500029708863,2|2,3:0|0:0,0:0:0:0:
232,382,19591,1,0,3:0:0:0:
229,381,19698,2,0,L|119:377,1,97.3500029708863,2|2,3:0|3:2,0:0:0:0:
6,268,20127,1,2,0:3:0:0:
6,243,20234,1,0,3:0:0:0:
5,219,20341,1,2,3:2:0:0:
4,195,20448,1,0,3:0:0:0:
3,170,20555,1,2,3:0:0:0:
182,37,20770,6,0,L|237:39,1,48.6750014854432,2|0,0:0|3:0,0:0:0:0:
318,40,20984,1,2,3:0:0:0:
270,252,21198,6,0,L|272:197,1,48.6750014854432,2|0,0:0|3:0,0:0:0:0:
273,116,21413,1,2,3:0:0:0:
154,182,21627,5,2,3:2:0:0:
270,252,21841,1,2,0:3:0:0:
293,258,21948,1,0,3:0:0:0:
317,257,22055,1,2,3:2:0:0:
340,249,22163,1,0,3:0:0:0:
360,235,22270,2,0,P|378:214|391:185,1,48.6750014854432,2|0,3:2|0:0,0:0:0:0:
429,99,22484,2,0,P|436:121|450:142,1,48.6750014854432,2|0,3:2|3:0,0:0:0:0:
512,227,22698,5,2,3:0:0:0:
509,363,22913,2,0,L|511:308,1,48.6750014854432,2|0,0:0|3:0,0:0:0:0:
512,227,23127,1,2,3:0:0:0:
421,373,23341,1,2,3:2:0:0:
360,235,23555,1,2,0:3:0:0:
360,210,23663,1,0,3:0:0:0:
359,186,23770,1,2,3:2:0:0:
358,162,23877,1,0,3:0:0:0:
357,137,23984,1,2,0:3:0:0:
509,91,24198,6,0,L|511:146,1,48.6750014854432,2|0,0:0|3:0,0:0:0:0:
512,227,24413,1,2,3:0:0:0:
421,373,24627,6,0,L|366:371,1,48.6750014854432,2|0,0:0|3:0,0:0:0:0:
285,370,24841,1,2,3:0:0:0:
138,281,25055,5,2,3:2:0:0:
309,200,25270,1,2,0:3:0:0:
314,180,25377,1,0,3:0:0:0:
292,175,25484,1,2,3:2:0:0:
288,198,25591,1,0,3:0:0:0:
309,200,25698,1,2,3:0:0:0:
512,227,25913,6,0,L|510:172,1,48.6750014854432,2|0,3:2|3:0,0:0:0:0:
509,91,26127,1,2,3:0:0:0:
449,291,26341,6,0,L|394:289,1,48.6750014854432,2|0,0:0|3:0,0:0:0:0:
313,288,26555,1,2,3:0:0:0:
221,124,26770,5,2,3:2:0:0:
125,286,26984,1,2,0:3:0:0:
100,286,27091,1,0,3:0:0:0:
76,285,27198,1,2,3:2:0:0:
52,284,27305,1,0,3:0:0:0:
27,283,27413,1,2,3:0:0:0:
85,121,27627,6,0,L|140:123,1,48.6750014854432,2|0,0:0|3:0,0:0:0:0:
221,124,27841,1,2,3:0:0:0:
298,209,28055,6,0,P|296:192|291:175,1,35.4,2|0,0:0|3:0,0:0:0:0:
221,124,28270,1,2,0:0:0:0:
323,95,28484,5,2,3:2:0:0:
212,211,28698,5,4,0:3:0:0:
233,241,28805,1,4,0:3:0:0:
298,209,28913,5,2,3:2:0:0:
276,240,29020,1,4,3:0:0:0:
254,342,29127,6,0,L|254:272,1,70.8,8|4,0:0|0:3,0:0:0:0:
104,189,29555,6,0,P|110:221|104:253,1,66.3750025320054,4|0,3:2|0:0,0:0:0:0:
14,136,29770,2,0,P|65:92|148:94,1,132.750005064011,2|8,0:0|0:0,0:0:0:0:
268,204,30091,1,0,0:0:0:0:
195,183,30198,2,0,P|189:150|195:117,1,66.3750025320054,2|0,0:0|0:0,0:0:0:0:
333,47,30413,2,0,P|353:110|338:174,1,132.750005064011,0|2,3:0|0:0,0:0:0:0:
195,183,30734,1,0,0:0:0:0:
268,204,30841,2,0,P|273:236|267:269,1,66.3750025320054,8|0,0:0|0:0,0:0:0:0:
124,279,31055,2,0,P|118:246|124:213,1,66.3750025320054,2|8,0:0|0:3,0:0:0:0:
200,331,31270,6,0,P|130:369|66:353,1,132.750005064011,0|2,3:0|0:0,0:0:0:0:
31,197,31591,2,0,L|38:264,1,66.3750025320054,0|10,0:0|0:0,0:0:0:0:
124,147,31805,2,0,L|123:228,2,66.3750025320054,0|2|0,0:0|0:0|0:0,0:0:0:0:
214,199,32127,2,0,L|197:350,1,132.750005064011,0|2,3:0|0:0,0:0:0:0:
307,249,32448,1,0,0:0:0:0:
306,252,32555,2,0,L|288:331,1,66.3750025320054,8|0,0:0|0:0,0:0:0:0:
405,165,32770,1,2,0:0:0:0:
405,162,32877,1,8,0:3:0:0:
405,159,32984,1,0,3:0:0:0:
365,348,33198,6,0,P|431:359|492:331,1,132.750005064011,2|10,0:0|0:0,0:0:0:0:
381,272,33520,2,0,P|427:319|493:332,1,132.750005064011,0|0,0:0|0:0,0:0:0:0:
483,168,33841,1,0,3:0:0:0:
482,171,33948,2,0,L|472:245,1,66.3750025320054,0|2,0:0|0:0,0:0:0:0:
405,159,34163,1,0,0:0:0:0:
405,156,34270,2,0,L|415:82,1,66.3750025320054,8|0,0:0|0:0,0:0:0:0:
350,8,34484,1,2,0:0:0:0:
349,11,34591,2,0,L|339:85,1,66.3750025320054,8|0,0:3|3:0,0:0:0:0:
72,155,34913,6,0,P|138:144|199:172,1,132.750005064011,2|10,0:0|0:0,0:0:0:0:
87,230,35234,2,0,P|133:183|199:170,1,132.750005064011
152,287,35555,2,0,P|157:221|199:168,1,132.750005064011,0|2,3:0|0:0,0:0:0:0:
246,284,35877,2,0,P|203:233|197:166,1,132.750005064011
320,209,36198,2,0,P|255:209|203:172,1,66.3750025320054,2|8,0:0|0:3,0:0:0:0:
373,269,36413,6,0,P|451:265|501:213,1,132.750005064011,0|2,3:0|0:0,0:0:0:0:
495,85,36734,1,0,0:0:0:0:
494,88,36841,2,0,P|484:135|491:180,1,66.3750025320054,10|0,0:0|0:0,0:0:0:0:
406,168,37055,2,0,P|405:134|396:102,1,66.3750025320054,2|0,0:0|0:0,0:0:0:0:
285,29,37270,2,0,B|267:69|285:116|285:116|319:145,1,132.750005064011,0|2,3:0|0:0,0:0:0:0:
406,168,37591,1,0,0:0:0:0:
324,208,37698,2,0,P|315:176|318:144,1,66.3750025320054,8|0,0:0|0:0,0:0:0:0:
488,128,37913,2,0,P|497:160|494:192,1,66.3750025320054,2|8,0:0|0:3,0:0:0:0:
406,168,38127,6,0,L|397:84,1,66.3750025320054,0|0,3:0|0:0,0:0:0:0:
492,64,38341,1,2,0:0:0:0:
495,62,38448,2,0,L|486:146,1,66.3750025320054,0|10,0:0|0:0,0:0:0:0:
406,168,38663,2,0,L|397:84,2,66.3750025320054,0|2|0,0:0|0:0|0:0,0:0:0:0:
374,278,38984,2,0,B|325:297|325:297|243:264,1,132.750005064011,0|2,3:0|0:0,0:0:0:0:
328,144,39305,1,0,0:0:0:0:
331,142,39413,2,0,L|322:226,1,66.3750025320054,8|0,0:0|0:0,0:0:0:0:
225,165,39627,1,2,0:0:0:0:
225,162,39734,1,8,0:3:0:0:
225,159,39841,1,0,3:0:0:0:
209,366,40055,6,0,P|142:365|72:336,1,132.750005064011,2|10,0:0|0:0,0:0:0:0:
40,197,40377,2,0,P|81:248|138:281,1,132.750005064011,0|0,0:0|0:0,0:0:0:0:
289,263,40698,2,0,P|256:267|226:280,2,66.3750025320054,0|0|2,3:0|0:0|0:0,0:0:0:0:
393,322,41020,2,0,P|425:317|456:305,2,66.3750025320054,0|8|0,0:0|0:0|0:0,0:0:0:0:
393,201,41341,1,2,0:0:0:0:
393,198,41448,1,8,0:3:0:0:
394,195,41555,1,0,3:0:0:0:
189,226,41770,6,0,B|247:253|247:253|275:191,1,132.750005064011,2|10,0:0|0:0,0:0:0:0:
202,132,42091,2,0,B|149:168|149:168|188:224,1,132.750005064011,0|0,0:0|0:0,0:0:0:0:
276,190,42413,2,0,B|270:126|270:126|202:132,1,132.750005064011,0|2,3:0|0:0,0:0:0:0:
189,225,42734,1,0,0:0:0:0:
284,266,42841,6,0,P|295:264|309:261,1,24.7800003024902,8|0,0:1|0:0,0:0:0:0:
308,258,43484,6,0,P|295:260|283:262,1,24.7800003024902,2|0,0:0|0:0,0:0:0:0:
189,225,43698,6,0,P|185:188|195:142,2,66.3750025320054,12|0|2,0:0|0:0|0:0,0:0:0:0:
277,380,44127,2,0,P|306:327|260:244,1,132.750005064011,0|2,3:0|0:0,0:0:0:0:
223,317,44448,1,0,0:0:0:0:
277,380,44555,2,0,L|355:368,1,66.3750025320054,8|0,0:0|0:0,0:0:0:0:
419,293,44770,1,2,0:0:0:0:
419,296,44877,1,8,0:3:0:0:
418,299,44984,1,0,3:0:0:0:
223,317,45198,5,2,0:0:0:0:
222,314,45305,2,0,P|215:265|225:210,1,66.3750025320054,0|8,0:0|0:0,0:0:0:0:
302,195,45520,1,0,0:0:0:0:
303,198,45627,2,0,P|310:247|300:302,1,66.3750025320054,2|0,0:0|0:0,0:0:0:0:
121,306,45841,2,0,P|115:240|135:167,1,132.750005064011,0|2,3:0|0:0,0:0:0:0:
189,63,46163,1,0,0:0:0:0:
186,64,46270,2,0,P|137:71|82:61,1,66.3750025320054,8|0,0:0|0:0,0:0:0:0:
71,148,46484,2,0,P|99:165|131:176,1,66.3750025320054,2|8,0:0|0:3,0:0:0:0:
237,161,46698,1,0,3:0:0:0:
121,306,46913,5,2,0:0:0:0:
202,340,47020,2,0,P|233:329|262:312,1,66.3750025320054,0|8,0:0|0:0,0:0:0:0:
293,231,47234,1,0,0:0:0:0:
374,197,47341,2,0,P|405:207|434:224,1,66.3750025320054,2|0,0:0|0:0,0:0:0:0:
468,357,47555,2,0,B|394:368|394:368|329:328,1,132.750005064011,0|2,3:0|0:0,0:0:0:0:
293,231,47877,1,0,0:0:0:0:
262,312,47984,2,0,P|233:329|202:340,1,66.3750025320054,8|0,0:0|0:0,0:0:0:0:
47,252,48198,1,2,0:0:0:0:
47,255,48305,1,8,0:3:0:0:
48,258,48413,1,0,3:0:0:0:
293,231,48627,6,0,P|306:159|285:76,1,132.750005064011,2|8,0:0|0:0,0:0:0:0:
182,164,48948,2,0,P|250:139|312:79,1,132.750005064011,0|0,0:0|0:0,0:0:0:0:
185,35,49270,2,0,P|240:82|323:105,1,132.750005064011,0|2,3:0|0:0,0:0:0:0:
182,164,49591,2,0,P|250:139|312:79,1,132.750005064011,0|0,0:0|0:0,0:0:0:0:
293,231,49913,2,0,P|303:192|307:154,1,66.3750025320054,2|8,0:0|0:3,0:0:0:0:
206,250,50127,6,0,L|211:299,1,39.8249987846375,8|0,0:3|0:0,0:0:0:0:
257,351,50555,6,0,B|220:376|220:376|209:288,1,132.750005064011,12|2,0:0|0:0,0:0:0:0:
293,231,50877,1,0,0:0:0:0:
296,231,50984,2,0,L|382:246,1,66.3750025320054,0|0,3:0|0:0,0:0:0:0:
476,155,51198,1,2,0:0:0:0:
473,155,51305,2,0,L|387:170,2,66.3750025320054,0|8|0,0:0|0:0|0:0,0:0:0:0:
478,318,51627,1,2,0:0:0:0:
475,317,51734,1,8,0:3:0:0:
471,317,51841,1,0,3:0:0:0:
256,350,52055,1,2,0:0:0:0:
194,311,52163,1,0,0:0:0:0:
131,349,52270,6,0,P|65:358|-2:310,1,132.750005064011,12|2,0:0|0:0,0:0:0:0:
292,186,52698,2,0,P|324:242|314:307,1,132.750005064011,0|2,3:0|0:0,0:0:0:0:
256,350,53020,1,0,0:0:0:0:
194,311,53127,2,0,P|180:279|186:240,1,66.3750025320054,8|0,0:0|0:0,0:0:0:0:
219,187,53341,1,2,0:0:0:0:
292,186,53448,1,8,0:3:0:0:
326,250,53555,1,0,3:0:0:0:
87,248,53770,1,2,0:0:0:0:
121,312,53877,1,0,0:0:0:0:
194,311,53984,6,0,P|255:286|332:324,1,132.750005064011,12|2,0:0|0:0,0:0:0:0:
24,184,54413,2,0,P|85:159|162:197,1,132.750005064011,0|2,3:0|0:0,0:0:0:0:
87,248,54734,1,0,0:0:0:0:
24,184,54841,6,0,P|-1:123|37:46,1,132.750005064011,12|2,0:0|0:0,0:0:0:0:
76,0,55163,1,8,0:3:0:0:
141,58,55270,6,0,P|166:119|128:196,1,132.750005064011,4|2,3:2|0:0,0:0:0:0:
87,248,55591,2,0,P|83:279|101:334,1,66.3750025320054,0|12,0:0|0:0,0:0:0:0:
241,275,55805,1,0,0:0:0:0:
237,273,55913,2,0,P|204:269|172:276,1,66.3750025320054,2|0,0:0|0:0,0:0:0:0:
293,344,56127,2,0,P|326:285|281:194,1,132.750005064011,4|2,3:2|0:0,0:0:0:0:
267,108,56448,1,0,0:0:0:0:
265,108,56555,5,8,0:0:0:0:
218,40,56698,5,0,3:0:0:0:
148,3,56841,5,0,3:3:0:0:
69,2,56984,6,0,P|68:17|69:28,1,17.7,6|0,0:0|0:0,0:0:0:0:
153,88,57413,2,0,P|154:103|153:114,1,17.7,0|0,0:0|0:0,0:0:0:0:
79,185,57841,2,0,P|78:200|79:211,1,17.7,0|0,0:0|0:0,0:0:0:0:
153,105,58270,2,0,P|153:96|152:87,1,17.7,0|0,0:0|0:0,0:0:0:0:
79,185,58698,6,0,P|78:200|79:211,1,17.7,2|0,0:0|0:0,0:0:0:0:
162,270,59127,2,0,P|162:278|162:287,1,17.7,0|0,0:0|0:0,0:0:0:0:
84,362,59555,2,0,P|83:377|84:388,1,17.7,0|0,0:0|0:0,0:0:0:0:
162,287,59984,2,0,P|162:278|162:270,1,17.7,0|0,0:0|0:0,0:0:0:0:
443,2,60413,6,0,P|444:17|443:28,1,17.7,2|0,0:0|0:0,0:0:0:0:
359,88,60841,2,0,P|358:103|359:114,1,17.7
433,185,61270,2,0,P|434:200|433:211,1,17.7
359,105,61698,2,0,P|358:96|359:87,1,17.7,0|0,0:0|0:0,0:0:0:0:
433,185,62127,6,0,P|434:200|433:211,1,17.7,2|0,0:0|0:0,0:0:0:0:
350,270,62555,2,0,P|349:278|349:287,1,17.7,0|0,0:0|0:0,0:0:0:0:
428,362,62984,2,0,P|429:377|428:388,1,17.7
349,287,63413,2,0,P|349:278|350:270,1,17.7,0|0,0:0|0:0,0:0:0:0:
69,2,63841,6,0,P|68:17|69:28,1,17.7,2|0,0:0|0:0,0:0:0:0:
106,123,64270,2,0,P|116:133|125:139,1,17.7,0|0,0:0|0:0,0:0:0:0:
222,172,64698,2,0,P|236:170|247:167,1,17.7,0|0,0:0|0:0,0:0:0:0:
118,135,65127,2,0,P|112:129|106:123,1,17.7,0|0,0:0|0:0,0:0:0:0:
222,172,65555,6,0,P|236:170|247:167,1,17.7,2|0,0:0|0:0,0:0:0:0:
341,129,65984,2,0,P|355:130|366:133,1,17.7,0|0,0:0|0:0,0:0:0:0:
450,192,66413,2,0,P|458:204|463:214,1,17.7,0|0,0:0|0:0,0:0:0:0:
471,315,66841,2,0,P|466:329|462:339,1,17.7,0|0,0:0|0:0,0:0:0:0:
341,129,67270,6,0,P|355:130|366:133,1,17.7,2|0,0:0|0:0,0:0:0:0:
450,192,67698,2,0,P|458:204|463:214,1,17.7,0|0,0:0|0:0,0:0:0:0:
471,315,68127,2,0,P|466:329|462:339,1,17.7,0|0,0:0|0:0,0:0:0:0:
459,206,68555,2,0,P|455:199|450:192,1,17.7,0|0,0:0|0:0,0:0:0:0:
369,384,68984,6,0,P|339:363|310:286,1,106.2,2|0,0:0|0:0,0:0:0:0:
310,270,69413,2,0,P|291:220|251:187,1,106.2,0|0,0:0|0:0,0:0:0:0:
220,182,69841,2,0,P|190:161|161:84,1,106.2,0|0,0:0|0:0,0:0:0:0:
164,66,70270,6,0,P|137:97|99:112,1,53.0999983795166,2|2,0:0|0:0,0:0:0:0:
246,47,70484,2,0,P|245:88|225:124,1,53.0999983795166,2|2,0:0|0:0,0:0:0:0:
316,0,70698,1,0,3:0:0:0:
446,86,71020,5,0,0:0:0:0:
446,89,71127,2,0,L|441:161,1,53.0999983795166,0|2,0:0|0:0,0:0:0:0:
443,145,71341,1,0,0:0:0:0:
434,251,71555,1,2,0:0:0:0:
264,341,71877,5,2,0:0:0:0:
261,341,71984,2,0,L|189:336,1,53.0999983795166,0|0,0:0|0:0,0:0:0:0:
205,338,72198,1,0,0:0:0:0:
99,329,72413,1,2,0:0:0:0:
56,231,72627,6,0,P|44:171|85:111,1,106.199996759033,2|0,0:0|0:0,0:0:0:0:
146,106,72948,2,0,P|193:144|200:216,1,106.199996759033,2|0,0:0|0:0,0:0:0:0:
144,251,73270,1,2,0:0:0:0:
368,133,74127,6,0,P|370:172|357:200,1,53.0999983795166,2|0,0:0|0:0,0:0:0:0:
288,154,74341,2,0,P|288:109|347:56,1,106.199996759033,2|0,0:0|0:0,0:0:0:0:
408,59,74663,1,2,0:0:0:0:
300,238,74877,5,0,0:0:0:0:
366,184,74984,2,0,P|429:168|500:255,1,159.29999513855,2|2,0:0|0:0,0:0:0:0:
417,252,75413,1,0,0:0:0:0:
469,25,75841,6,0,B|501:4|501:4|480:76|395:56,1,159.29999513855,2|0,0:0|0:0,0:0:0:0:
331,24,76270,2,0,P|291:59|357:118,1,159.29999513855,2|0,0:0|0:0,0:0:0:0:
407,58,76698,2,0,P|467:96|427:155,1,159.29999513855,2|0,0:0|0:0,0:0:0:0:
350,120,77127,2,0,P|317:120|281:134,1,53.0999983795166,2|2,0:0|0:0,0:0:0:0:
237,186,77341,2,0,P|211:193|184:192,1,53.0999983795166,2|2,0:0|0:0,0:0:0:0:
109,148,77555,1,2,0:0:0:0:
29,335,77877,5,0,0:0:0:0:
58,349,77984,2,0,L|136:346,1,53.0999983795166,2|0,0:0|0:0,0:0:0:0:
206,345,78198,1,0,0:0:0:0:
203,345,78305,1,0,0:0:0:0:
200,346,78413,1,2,0:0:0:0:
426,372,78734,5,0,0:0:0:0:
440,343,78841,2,0,L|437:265,1,53.0999983795166,2|0,0:0|0:0,0:0:0:0:
388,166,79055,2,0,L|386:220,1,53.0999983795166,0|0,0:0|0:0,0:0:0:0:
431,90,79270,6,0,P|399:80|365:82,1,53.0999983795166,2|0,0:0|0:0,0:0:0:0:
307,130,79484,2,0,P|247:127|193:81,1,106.199996759033,0|2,0:0|0:0,0:0:0:0:
204,14,79805,2,0,P|256:15|302:42,1,106.199996759033,0|0,0:0|0:0,0:0:0:0:
307,130,80127,1,2,0:0:0:0:
224,244,80341,6,0,P|192:241|163:218,1,53.0999983795166,0|0,0:0|0:0,0:0:0:0:
118,164,80555,1,2,0:0:0:0:
114,157,80663,1,0,0:0:0:0:
111,147,80770,1,0,0:0:0:0:
109,136,80877,1,0,0:0:0:0:
109,124,80984,6,0,L|132:129,1,15.487499527359,2|0,0:0|0:0,0:0:0:0:
167,58,81198,2,0,L|184:73,1,15.487499527359,2|0,0:0|0:0,0:0:0:0:
259,27,81413,2,0,L|266:49,1,15.487499527359,2|0,0:0|0:0,0:0:0:0:
359,57,81627,2,0,L|353:79,1,15.487499527359,2|0,0:0|0:0,0:0:0:0:
426,150,81841,2,0,L|410:167,1,15.487499527359,2|0,0:0|0:0,0:0:0:0:
417,273,82055,2,0,L|394:280,1,15.487499527359,2|0,0:0|0:0,0:0:0:0:
315,361,82270,2,0,L|292:355,1,15.487499527359,2|0,0:0|0:0,0:0:0:0:
173,344,82484,2,0,L|155:328,1,15.487499527359,2|0,0:0|0:0,0:0:0:0:
96,192,82698,6,0,B|58:168|43:104|50:72|148:40|214:46|210:145|226:244|173:344|173:344|232:223|270:259|397:256|438:204|450:131|396:58|348:43|275:60|252:138|280:161,1,971.729982577778,0|2,3:0|0:0,0:0:0:0:
269,140,84091,2,0,P|307:207|389:192,1,161.954997096296,2|0,0:0|0:0,0:0:0:0:
458,78,84413,6,0,P|475:145|419:271,1,177,4|2,3:2|0:0,0:0:0:0:
210,196,84841,1,8,0:0:0:0:
207,195,84948,2,0,P|185:130|275:61,1,177,0|0,0:0|0:0,0:0:0:0:
368,94,85270,2,0,B|384:107|386:142|386:142|343:129|343:129|312:155|267:140,1,177,0|2,3:0|0:0,0:0:0:0:
299,248,85591,1,0,0:0:0:0:
299,251,85698,2,0,P|330:228|381:222,1,88.5,8|0,0:0|0:0,0:0:0:0:
425,340,85913,1,2,0:0:0:0:
431,346,86020,1,8,0:3:0:0:
429,345,86127,6,0,P|444:255|371:222,1,177,0|2,3:2|0:0,0:0:0:0:
510,218,86448,1,0,0:0:0:0:
512,215,86555,2,0,P|432:170|376:227,1,177,8|2,0:0|0:0,0:0:0:0:
373,214,86984,2,0,P|441:162|513:202,1,177,0|2,3:0|0:0,0:0:0:0:
512,215,87841,6,0,P|443:168|378:220,1,177,0|2,3:2|0:0,0:0:0:0:
454,352,88163,1,0,0:0:0:0:
452,350,88270,2,0,B|410:342|370:357|370:357|339:344|339:344|304:359|260:347,1,177,8|2,0:0|0:0,0:0:0:0:
221,208,88591,1,0,0:0:0:0:
218,210,88698,1,0,3:0:0:0:
215,212,88805,2,0,P|213:298|280:351,1,177,0|0,0:0|0:0,0:0:0:0:
386,262,89127,2,0,P|345:246|302:256,1,88.5,8|0,0:0|0:0,0:0:0:0:
434,330,89341,1,2,0:0:0:0:
437,332,89448,1,8,0:3:0:0:
440,334,89555,6,0,B|481:346|481:346|471:316|471:316|498:263|473:216,1,177,0|2,3:2|0:0,0:0:0:0:
422,146,89877,1,0,0:0:0:0:
419,145,89984,2,0,B|378:133|378:133|388:163|388:163|361:216|386:263,1,177,0|2,3:0|0:0,0:0:0:0:
511,147,90413,2,0,P|479:74|378:64,1,177,0|2,3:0|0:0,0:0:0:0:
360,262,90841,1,8,0:0:0:0:
360,262,91270,6,0,P|282:288|185:226,1,177,0|2,3:2|0:0,0:0:0:0:
133,107,91591,1,0,0:0:0:0:
133,104,91698,2,0,P|194:158|189:273,1,177,8|2,0:0|0:0,0:0:0:0:
62,41,92127,2,0,P|97:19|146:14,1,88.5,0|0,3:0|0:0,0:0:0:0:
345,144,92448,1,0,0:0:0:0:
262,111,92555,2,0,L|280:312,1,177,8|2,0:0|0:0,0:0:0:0:
354,240,92877,1,8,0:3:0:0:
278,287,92984,6,0,P|222:287|187:263,1,88.5,0|0,3:2|0:0,0:0:0:0:
117,136,93198,1,2,0:0:0:0:
114,134,93305,1,0,0:0:0:0:
111,132,93413,2,0,P|157:159|194:279,1,177,0|2,3:0|0:0,0:0:0:0:
38,173,93841,2,0,P|54:258|122:311,1,177,0|2,3:0|0:0,0:0:0:0:
196,270,94163,1,0,0:0:0:0:
278,287,94270,1,8,0:0:0:0:
278,287,94698,6,0,B|321:252|366:275|383:308|383:308|366:354|298:337,1,194.700005941773,6|0,3:2|0:0,0:0:0:0:
250,204,95020,2,0,B|198:161|144:189|123:229|123:229|144:284|225:264,1,238.950000911522,2|0,0:0|0:0,0:0:0:0:
297,117,95341,2,0,B|358:66|422:99|447:147|447:147|422:212|325:188,1,283.2,2|0,0:0|3:0,0:0:0:0:
224,39,95663,2,0,B|162:-11|98:21|73:69|73:69|98:134|195:110,1,283.2,2|0,0:0|0:0,0:0:0:0:
297,117,95984,2,0,B|358:66|422:99|447:147|447:147|422:212|325:188,1,283.2,10|0,0:0|0:0,0:0:0:0:
250,204,96305,2,0,B|198:161|144:189|123:229|123:229|144:284|225:264,1,238.950000911522,2|0,0:0|0:0,0:0:0:0:
278,287,96627,2,0,B|321:252|366:275|383:308|383:308|366:354|298:337,1,194.700005941773,2|0,0:0|0:0,0:0:0:0:
213,344,96948,2,0,B|180:317|147:335|134:359|134:359|147:393|198:381,1,150.450002869606,2|0,0:0|0:0,0:0:0:0:
278,287,97270,6,0,P|242:261|158:248,1,115.049994733429,2|2,3:2|0:0,0:0:0:0:
173,246,97591,2,0,P|215:237|247:217,1,79.649997569275,2|0,0:0|0:0,0:0:0:0:
246,218,97913,2,0,P|212:212|180:187,1,50.4449993842163,2|0,0:0|0:0,0:0:0:0:
102,56,98127,6,0,P|186:78|247:142,1,177,4|2,3:2|0:0,0:0:0:0:
247,218,98448,1,0,0:0:0:0:
174,246,98555,2,0,P|119:245|74:224,2,88.5,8|0|2,0:0|0:0|0:0,0:0:0:0:
392,57,98984,6,0,P|307:79|247:142,1,177,0|2,3:0|0:0,0:0:0:0:
247,218,99305,1,0,0:0:0:0:
320,246,99413,2,0,P|375:245|420:224,1,88.5,8|0,0:0|0:0,0:0:0:0:
502,174,99627,5,2,0:0:0:0:
504,171,99734,1,8,0:3:0:0:
506,168,99841,2,0,B|472:150|472:150|533:214|488:314,1,177,0|2,3:2|0:0,0:0:0:0:
467,377,100163,1,0,0:0:0:0:
464,377,100270,2,0,P|401:318|405:233,1,177,8|2,0:0|0:0,0:0:0:0:
396,235,100698,2,0,P|394:322|456:382,1,177,0|2,3:0|0:0,0:0:0:0:
464,377,101555,6,0,P|401:318|404:233,1,177,0|2,3:2|0:0,0:0:0:0:
417,103,101877,1,0,0:0:0:0:
416,100,101984,2,0,B|435:89|435:89|469:177|376:262,1,177,8|2,0:0|0:0,0:0:0:0:
266,242,102305,1,0,0:0:0:0:
263,240,102413,1,0,3:0:0:0:
260,237,102520,2,0,P|330:191|405:232,1,177,0|0,0:0|0:0,0:0:0:0:
296,323,102841,2,0,P|253:328|212:313,1,88.5,8|0,0:0|0:0,0:0:0:0:
206,163,103055,1,2,0:0:0:0:
206,160,103163,1,8,0:3:0:0:
206,156,103270,6,0,P|132:171|173:235,1,177,0|2,3:2|0:0,0:0:0:0:
135,89,103698,2,0,P|114:172|172:234,1,177,0|2,3:0|0:0,0:0:0:0:
26,161,104127,2,0,P|85:224|172:234,1,177,0|2,3:0|0:0,0:0:0:0:
54,290,104448,1,0,0:0:0:0:
52,293,104555,1,8,0:0:0:0:
52,293,104984,6,0,P|101:343|206:316,1,177,0|2,3:2|0:0,0:0:0:0:
144,188,105305,1,0,0:0:0:0:
142,185,105413,2,0,P|207:239|197:323,1,177,8|2,0:0|0:0,0:0:0:0:
269,91,105841,2,0,P|306:124|332:169,1,88.5,0|0,3:0|0:0,0:0:0:0:
335,361,106163,1,0,0:0:0:0:
302,278,106270,2,0,L|503:296,1,177,8|2,0:0|0:0,0:0:0:0:
431,370,106591,1,8,0:3:0:0:
478,293,106698,6,0,B|511:192|511:192|423:200,1,177,0|2,3:2|0:0,0:0:0:0:
305,276,107020,1,0,0:0:0:0:
302,278,107127,2,0,B|285:173|285:173|370:194,1,177,0|2,3:0|0:0,0:0:0:0:
478,294,107448,1,0,0:0:0:0:
478,293,107555,2,0,B|511:192|511:192|423:200,1,177,0|2,3:0|0:0,0:0:0:0:
384,349,107877,1,0,0:0:0:0:
384,346,107984,1,8,0:0:0:0:
384,346,108413,6,0,B|314:392|250:354|250:354|260:306,1,177,0|2,3:2|0:0,0:0:0:0:
286,199,108734,2,0,P|335:200|285:205,1,150.450002869606
162,313,109055,6,0,B|104:251|131:181|131:181|179:183,1,185.849994328308,2|0,0:0|3:0,0:0:0:0:
318,182,109377,2,0,P|317:231|312:181,1,150.450002869606
164,88,109698,6,0,B|214:19|288:33|288:33|295:82,1,194.700005941773,8|2,0:0|0:0,0:0:0:0:
335,214,110020,2,0,P|286:213|336:208,1,150.450002869606,8|0,0:3|0:0,0:0:0:0:
248,315,110341,6,0,B|199:333|161:313|161:313|111:296|59:336,1,177,2|0,0:0|3:0,0:0:0:0:
205,236,110663,2,0,B|229:163|228:109|185:66|185:66|159:94,1,212.399993518067
70,213,110984,2,0,P|128:282|205:236,1,194.700005941773,0|2,3:0|0:0,0:0:0:0:
52,326,111305,1,0,0:0:0:0:
52,326,111413,5,8,0:0:0:0:
66,8,111627,1,8,0:0:0:0:
52,326,111841,6,0,B|109:254|132:103|68:7|68:7|24:53|31:135|31:135,1,426.127486995621,12|8,0:0|0:3,0:0:0:0:
48,197,112270,6,0,L|109:208,1,44.25,8|0,0:0|0:0,0:0:0:0:
160,126,112484,2,0,L|99:115,1,44.25,2|0,0:0|0:0,0:0:0:0:
292,324,112698,6,0,B|382:331|413:235|413:235|349:152|248:141|184:234,1,426.127486995621,8|0,0:0|0:0,0:0:0:0:
301,224,113127,6,0,L|312:163,1,44.25,8|0,0:0|0:0,0:0:0:0:
363,89,113341,2,0,L|413:53,1,44.25,2|8,0:0|0:3,0:0:0:0:
500,27,113555,6,0,B|491:158|491:158|505:239|505:239|474:383|474:383|448:351|384:354,1,426.127486995621,8|8,0:0|0:3,0:0:0:0:
458,170,113984,6,0,L|471:236,1,44.25,8|0,0:0|0:0,0:0:0:0:
371,280,114198,2,0,L|384:214,1,44.25,2|0,0:0|0:0,0:0:0:0:
281,361,114413,6,0,B|262:371|200:366|168:315|165:233|188:181|248:158|296:164|296:164|307:201|298:254|267:260,1,426.127486995621,8|0,0:0|0:0,0:0:0:0:
155,283,114841,5,8,0:0:0:0:
157,230,114948,1,2,0:0:0:0:
183,175,115055,1,2,0:0:0:0:
241,136,115163,1,2,0:0:0:0:
319,140,115270,6,0,B|373:166|436:137|436:137|365:237|396:354|396:354|392:308|416:266,1,426.127486995621,8|8,0:0|0:3,0:0:0:0:
477,174,115698,6,0,P|455:155|425:145,1,44.25,8|0,0:0|0:0,0:0:0:0:
341,226,115913,2,0,P|363:245|393:255,1,44.25,2|0,0:0|0:0,0:0:0:0:
497,46,116127,6,0,B|521:4|521:4|466:46|393:50|393:50|333:24|333:24|261:66|207:35|207:35|246:41|281:17,1,426.127486995621,8|0,0:0|0:0,0:0:0:0:
131,2,116555,6,0,P|126:30|129:75,1,44.25,8|0,0:0|0:0,0:0:0:0:
140,151,116770,2,0,P|138:173|134:194,1,44.25,2|8,0:0|0:3,0:0:0:0:
112,302,116984,6,0,B|127:383|217:393|281:330|255:269|230:243|230:243|269:197|269:197|227:158|244:87,1,426.127486995621,8|8,0:0|0:3,0:0:0:0:
364,248,117413,6,0,P|343:254|321:254,1,44.25,8|0,0:0|0:0,0:0:0:0:
324,127,117627,2,0,P|346:126|366:133,1,44.25,2|0,0:0|0:0,0:0:0:0:
355,357,117841,6,0,B|408:319|454:339|472:370|472:370|446:331|422:241|482:191|502:126|461:64,1,426.127486995621,8|8,0:0|0:3,0:0:0:0:
421,14,118270,6,0,P|428:16|433:22,1,13.2749995948792,0|0,3:0|0:0,0:0:0:0:
481,79,118698,6,0,P|465:91|459:93,1,14.16,12|0,0:0|0:0,0:0:0:0:
238,219,118913,2,0,P|220:210|215:206,1,14.16,0|0,3:0|0:0,0:0:0:0:
495,186,119127,6,0,P|475:182|470:179,1,14.16,8|0,3:2|0:0,0:0:0:0:
224,112,119341,2,0,P|217:93|216:87,1,14.16,0|0,3:0|0:0,0:0:0:0:
430,272,119555,6,0,P|418:255|416:249,1,14.16,8|0,3:2|0:0,0:0:0:0:
290,28,119770,2,0,P|298:10|302:5,1,14.16,0|0,3:0|0:0,0:0:0:0:
322,285,119984,6,0,P|325:265|328:260,1,14.16,8|0,3:2|0:0,0:0:0:0:
395,13,120198,2,0,P|413:6|419:5,1,14.16,0|0,3:0|0:0,0:0:0:0:
238,219,120413,6,0,P|259:207|281:206,1,28.32,8|0,3:2|0:0,0:0:0:0:
505,171,120627,2,0,P|494:179|481:184,1,28.32,0|0,3:0|0:0,0:0:0:0:
190,128,120841,6,0,P|217:129|245:137,1,42.4800010371094,8|0,3:2|0:0,0:0:0:0:
482,270,121055,2,0,P|455:269|427:261,1,42.4800010371094,0|0,3:0|0:0,0:0:0:0:
216,30,121270,6,0,P|241:43|264:61,1,56.64,8|0,3:2|0:0,0:0:0:0:
427,351,121484,2,0,P|401:338|379:320,1,56.64,0|0,3:0|0:0,0:0:0:0:
313,195,121698,5,8,3:2:0:0:
314,154,121805,1,2,0:0:0:0:
339,112,121913,1,2,3:2:0:0:
391,91,122020,1,2,0:0:0:0:
453,106,122127,5,4,3:2:0:0:
461,114,122234,1,8,0:3:0:0:
448,117,122341,1,8,0:3:0:0:
439,107,122448,1,8,0:3:0:0:
451,96,122555,1,8,3:3:0:0:
466,100,122663,1,8,0:3:0:0:
474,112,122770,1,8,0:3:0:0:
464,131,122877,1,8,0:3:0:0:
440,137,122984,5,4,3:2:0:0:
422,130,123091,1,8,0:3:0:0:
412,108,123198,1,8,0:3:0:0:
418,88,123305,1,8,0:3:0:0:
436,77,123413,1,8,3:3:0:0:
465,81,123520,1,8,0:3:0:0:
480,96,123627,1,8,0:3:0:0:
478,124,123734,1,8,0:3:0:0:
462,144,123841,5,4,3:2:0:0:
439,150,123948,1,8,0:3:0:0:
414,144,124055,1,8,0:3:0:0:
395,127,124163,1,8,0:3:0:0:
383,101,124270,1,8,0:3:0:0:
363,68,124377,1,8,0:3:0:0:
324,38,124484,1,8,0:3:0:0:
266,35,124591,1,8,0:3:0:0:
209,83,124698,5,4,0:3:0:0:
209,86,124805,2,0,P|206:114|211:143,1,44.25,4|2,0:3|0:0,0:0:0:0:
233,267,125020,1,8,0:3:0:0:
233,264,125127,6,0,P|233:232|220:196,1,66.3750025320054,10|0,0:0|0:0,0:0:0:0:
86,288,125341,2,0,P|115:271|137:247,1,66.3750025320054,2|0,0:0|0:0,0:0:0:0:
54,197,125555,1,4,0:0:0:0:
