osu file format v14

[General]
AudioFilename: audio.mp3
AudioLeadIn: 0
PreviewTime: 127181
Countdown: 0
SampleSet: None
StackLeniency: 0.7
Mode: 1
LetterboxInBreaks: 0
EpilepsyWarning: 1
WidescreenStoryboard: 1

[Editor]
Bookmarks: 72334,122419,163219,199217,247043,291160
DistanceSpacing: 0.6
BeatDivisor: 4
GridSize: 32
TimelineZoom: 3.599998

[Metadata]
Title:I.R.I.S
TitleUnicode:I.R.I.S
Artist:takehirotei as "Infinite Limit"
ArtistUnicode:takehirotei as "Infinite Limit"
Creator:Jerry
Version:Streets of IRIS
Source:osu!taiko Malaysian Tournament 2022
Tags:IRIS OTMT2022 grand finals tiebreaker tb custom song map track original ler1211 rinze cdh cdhsausageboy TaikOseania MTNTWarz taiko_maniac1811 [Zeth] CallMeLyra HiroChair Iyouka Slyk frenchcore hitech hardcore psytrance psystyle machinegun midtempo noise all rounder schranz neurofunk hardstyle speedstyle piano night pieces metal metalcore speedcore dubcore electronic instrumental
BeatmapID:3891701
BeatmapSetID:1889529

[Difficulty]
HPDrainRate:4
CircleSize:5
OverallDifficulty:7.2
ApproachRate:5
SliderMultiplier:1.4
SliderTickRate:1

[Events]
//Background and Video events
0,0,"rbg.jpg",0,136
//Break Periods
//Storyboard Layer 0 (Background)
//Storyboard Layer 1 (Fail)
//Storyboard Layer 2 (Pass)
//Storyboard Layer 3 (Foreground)
//Storyboard Layer 4 (Overlay)
//Storyboard Sound Samples

[TimingPoints]
335,260.869565217391,4,1,0,85,1,0
25439,-98.7654320987654,4,1,0,85,0,0
25504,-97.5609756097561,4,1,0,85,0,0
25570,-96.3855421686747,4,1,0,85,0,0
25635,-95.2380952380952,4,1,0,85,0,0
25700,-94.1176470588235,4,1,0,85,0,0
25765,-93.0232558139535,4,1,0,85,0,0
25830,-91.9540229885058,4,1,0,85,0,0
25896,-90.9090909090909,4,1,0,85,0,0
25961,-89.8876404494382,4,1,0,85,0,0
26026,-88.8888888888889,4,1,0,85,0,0
26091,-87.9120879120879,4,1,0,85,0,0
26157,-86.9565217391304,4,1,0,85,0,0
26222,-86.0215053763441,4,1,0,85,0,0
26287,-85.1063829787234,4,1,0,85,0,0
26352,-84.2105263157895,4,1,0,85,0,0
26387,-83.3333333333333,4,1,0,85,0,0
30200,-86.9565217391304,4,1,0,85,0,0
30265,-88.8888888888889,4,1,0,85,0,0
30330,-90.9090909090909,4,1,0,85,0,0
30461,-95.2380952380952,4,1,0,85,0,0
30528,-100,4,1,0,85,0,0
33787,-100.946372239748,4,1,0,85,0,0
33852,-101.910828025478,4,1,0,85,0,0
33917,-102.893890675241,4,1,0,85,0,0
33983,-103.896103896104,4,1,0,85,0,0
34048,-104.918032786885,4,1,0,85,0,0
34113,-105.960264900662,4,1,0,85,0,0
34178,-107.023411371237,4,1,0,85,0,0
34244,-108.108108108108,4,1,0,85,0,0
34309,-109.215017064846,4,1,0,85,0,0
34374,-110.344827586207,4,1,0,85,0,0
34439,-111.498257839721,4,1,0,85,0,0
34504,-112.676056338028,4,1,0,85,0,0
34570,-113.879003558719,4,1,0,85,0,0
34635,-115.107913669065,4,1,0,85,0,0
34700,-116.363636363636,4,1,0,85,0,0
34765,-117.647058823529,4,1,0,85,0,0
36300,-111.111111111111,4,1,0,85,0,0
36822,-105.263157894737,4,1,0,85,0,0
37439,-104.234527687296,4,1,0,85,0,0
37504,-103.225806451613,4,1,0,85,0,0
37570,-102.23642172524,4,1,0,85,0,0
37635,-101.26582278481,4,1,0,85,0,0
37700,-100.313479623824,4,1,0,85,0,0
37765,-99.3788819875776,4,1,0,85,0,0
37830,-98.4615384615385,4,1,0,85,0,0
37896,-97.5609756097561,4,1,0,85,0,0
37961,-96.6767371601208,4,1,0,85,0,0
38026,-95.8083832335329,4,1,0,85,0,0
38091,-94.9554896142433,4,1,0,85,0,0
38157,-94.1176470588235,4,1,0,85,0,0
38222,-93.2944606413994,4,1,0,85,0,0
38287,-92.485549132948,4,1,0,85,0,0
38352,-91.6905444126075,4,1,0,85,0,0
38417,-90.9090909090909,4,1,0,85,0,0
38648,-86.9565217391304,4,1,0,85,0,0
38909,-100,4,1,0,85,0,0
43082,-90.9090909090909,4,1,0,85,0,0
46309,-91.4285714285714,4,1,0,85,0,0
46374,-91.9540229885058,4,1,0,85,0,0
46439,-92.485549132948,4,1,0,85,0,0
46504,-93.0232558139535,4,1,0,85,0,0
46570,-93.5672514619883,4,1,0,85,0,0
46635,-94.1176470588235,4,1,0,85,0,0
46700,-94.6745562130178,4,1,0,85,0,0
46765,-95.2380952380952,4,1,0,85,0,0
46830,-95.8083832335329,4,1,0,85,0,0
46896,-96.3855421686747,4,1,0,85,0,0
46961,-96.969696969697,4,1,0,85,0,0
47026,-97.5609756097561,4,1,0,85,0,0
47091,-98.159509202454,4,1,0,85,0,0
47157,-98.7654320987654,4,1,0,85,0,0
47222,-99.3788819875776,4,1,0,85,0,0
47287,-100,4,1,0,85,0,0
54678,-101.685953102438,4,1,0,85,0,0
54765,-103.429836818746,4,1,0,85,0,0
54852,-105.23446765566,4,1,0,85,0,0
54939,-107.103190711154,4,1,0,85,0,0
55026,-109.039601002292,4,1,0,85,0,0
55113,-111.047197279788,4,1,0,85,0,0
55200,-113.130106410178,4,1,0,85,0,0
55287,-115.292647326709,4,1,0,85,0,0
55374,-117.539613788337,4,1,0,85,0,0
55461,-119.875760761547,4,1,0,85,0,0
55548,-122.306654582769,4,1,0,85,0,0
55635,-124.838334357008,4,1,0,85,0,0
57691,-117.647058823529,4,1,0,85,0,0
59778,-111.111111111111,4,1,0,85,0,0
61865,-105.263157894737,4,1,0,85,0,0
63952,-90.9090909090909,4,1,0,85,0,0
66039,-83.3333333333333,4,1,0,85,0,0
67148,-86.9565217391304,4,1,0,85,0,0
68159,-40,4,1,0,85,0,0
68224,-41.2371134020619,4,1,0,85,0,0
68289,-42.5531914893617,4,1,0,85,0,0
68354,-43.956043956044,4,1,0,85,0,0
68419,-45.4545454545455,4,1,0,85,0,0
68485,-47.0588235294118,4,1,0,85,0,0
68550,-48.780487804878,4,1,0,85,0,0
68615,-50.6329113924051,4,1,0,85,0,0
68680,-52.6315789473684,4,1,0,85,0,0
68746,-54.7945205479452,4,1,0,85,0,0
68811,-57.1428571428571,4,1,0,85,0,0
68876,-59.7014925373134,4,1,0,85,0,0
68941,-62.5,4,1,0,85,0,0
69006,-65.5737704918033,4,1,0,85,0,0
69072,-68.9655172413793,4,1,0,85,0,0
69137,-72.7272727272727,4,1,0,85,0,0
69202,-76.9230769230769,4,1,0,85,0,0
69267,-81.6326530612245,4,1,0,85,0,0
69332,-86.9565217391304,4,1,0,85,0,0
69398,-93.0232558139535,4,1,0,85,0,0
69463,-100,4,1,0,85,0,0
69496,-50,4,1,0,85,0,0
69789,-100,4,1,0,85,0,0
72300,-200,4,1,0,70,0,0
72334,521.739130434783,4,1,0,70,1,0
88441,-62.5,4,1,0,80,0,0
88572,-60.2409638554217,4,1,0,80,0,0
88702,-58.1395348837209,4,1,0,80,0,0
88832,-56.8181818181818,4,1,0,80,0,0
89023,-55.5555555555556,4,1,0,80,0,0
89030,260.869565217391,4,1,0,85,1,0
89030,-111.111111111111,4,1,0,85,0,0
95352,-111.987166233624,4,1,0,80,0,0
95417,-112.870128609336,4,1,0,80,0,0
95483,-113.760052698459,4,1,0,80,0,0
95548,-114.656993390593,4,1,0,80,0,0
95613,-115.561006008119,4,1,0,80,0,0
95678,-116.472146309605,4,1,0,80,0,0
95744,-117.390470493247,4,1,0,80,0,0
95809,-118.316035200335,4,1,0,80,0,0
95874,-119.248897518749,4,1,0,80,0,0
95939,-120.189114986477,4,1,0,80,0,0
96004,-121.136745595165,4,1,0,80,0,0
96070,-122.091847793694,4,1,0,80,0,0
96135,-123.054480491785,4,1,0,80,0,0
96200,-124.024703063632,4,1,0,80,0,0
96265,-125.002575351566,4,1,0,80,0,0
96330,-125.988157669742,4,1,0,80,0,0
96396,-126.981510807866,4,1,0,80,0,0
96461,-127.982696034935,4,1,0,80,0,0
96526,-128.991775103025,4,1,0,80,0,0
96591,-130.008810251094,4,1,0,80,0,0
96657,-131.033864208825,4,1,0,80,0,0
96722,-132.06700020049,4,1,0,80,0,0
96787,-133.108281948856,4,1,0,80,0,0
96852,-134.157773679107,4,1,0,80,0,0
96917,-135.215540122816,4,1,0,80,0,0
96983,-136.281646521928,4,1,0,80,0,0
97048,-137.356158632788,4,1,0,80,0,0
97113,-138.439142730199,4,1,0,80,0,0
97178,-139.530665611505,4,1,0,80,0,0
97244,-140.630794600715,4,1,0,80,0,0
97309,-141.739597552652,4,1,0,80,0,0
97374,-142.857142857143,4,1,0,80,0,0
101613,-141.261959597849,4,1,0,80,0,0
101678,-139.684588605971,4,1,0,80,0,0
101744,-138.124830984692,4,1,0,80,0,0
101809,-136.582490058135,4,1,0,80,0,0
101874,-135.057371346562,4,1,0,80,0,0
101939,-133.549282541848,4,1,0,80,0,0
102005,-132.058033483239,4,1,0,80,0,0
102070,-130.583436133365,4,1,0,80,0,0
102135,-129.125304554538,4,1,0,80,0,0
102200,-127.683454885302,4,1,0,80,0,0
102265,-126.257705317249,4,1,0,80,0,0
102331,-124.847876072097,4,1,0,80,0,0
102396,-123.453789379017,4,1,0,80,0,0
102461,-122.075269452221,4,1,0,80,0,0
102526,-120.712142468794,4,1,0,80,0,0
102591,-119.364236546776,4,1,0,80,0,0
102657,-118.031381723491,4,1,0,80,0,0
102722,-116.713409934115,4,1,0,80,0,0
102787,-115.410154990482,4,1,0,80,0,0
102852,-114.121452560129,4,1,0,80,0,0
102918,-112.847140145577,4,1,0,80,0,0
102983,-111.587057063842,4,1,0,80,0,0
103048,-110.341044426167,4,1,0,80,0,0
103113,-109.108945117996,4,1,0,80,0,0
103178,-107.890603779156,4,1,0,80,0,0
103244,-106.685866784271,4,1,0,80,0,0
103309,-105.494582223389,4,1,0,80,0,0
103374,-104.316599882826,4,1,0,80,0,0
103439,-103.15177122623,4,1,0,80,0,0
103505,-101.999949375844,4,1,0,80,0,0
103570,-100.860989093992,4,1,0,80,0,0
103635,-99.7347467647625,4,1,0,80,0,0
103700,-98.6210803758993,4,1,0,80,0,0
103765,-97.5198495008958,4,1,0,80,0,0
103831,-96.4309152812873,4,1,0,80,0,0
103896,-95.3541404091419,4,1,0,80,0,0
103961,-94.2893891097469,4,1,0,80,0,0
104026,-93.2365271244888,4,1,0,80,0,0
104091,-92.1954216939233,4,1,0,80,0,0
104157,-91.1659415410357,4,1,0,80,0,0
104222,-90.1479568546877,4,1,0,80,0,0
104287,-89.141339273249,4,1,0,80,0,0
104352,-88.1459618684111,4,1,0,80,0,0
104418,-87.1616991291834,4,1,0,80,0,0
104483,-86.1884269460663,4,1,0,80,0,0
104548,-85.2260225954019,4,1,0,80,0,0
104613,-84.2743647238994,4,1,0,80,0,0
104678,-83.3333333333333,4,1,0,80,0,0
105200,-125,4,1,0,80,0,0
105265,-124.131377577046,4,1,0,80,0,0
105330,-123.268791193401,4,1,0,80,0,0
105396,-122.412198904753,4,1,0,80,0,0
105461,-121.561559058259,4,1,0,80,0,0
105526,-120.716830290521,4,1,0,80,0,0
105591,-119.877971525575,4,1,0,80,0,0
105657,-119.044941972892,4,1,0,80,0,0
105722,-118.217701125397,4,1,0,80,0,0
105787,-117.396208757496,4,1,0,80,0,0
105852,-116.580424923124,4,1,0,80,0,0
105917,-115.770309953798,4,1,0,80,0,0
105983,-114.965824456693,4,1,0,80,0,0
106048,-114.166929312721,4,1,0,80,0,0
106113,-113.373585674634,4,1,0,80,0,0
106178,-112.585754965133,4,1,0,80,0,0
106243,-111.803398874989,4,1,0,80,0,0
106309,-111.026479361187,4,1,0,80,0,0
106374,-110.254958645069,4,1,0,80,0,0
106439,-109.488799210501,4,1,0,80,0,0
106504,-108.727963802049,4,1,0,80,0,0
106570,-107.972415423164,4,1,0,80,0,0
106635,-107.222117334388,4,1,0,80,0,0
106700,-106.477033051562,4,1,0,80,0,0
106765,-105.737126344056,4,1,0,80,0,0
106830,-105.002361233007,4,1,0,80,0,0
106896,-104.272701989566,4,1,0,80,0,0
106961,-103.548113133165,4,1,0,80,0,0
107026,-102.828559429789,4,1,0,80,0,0
107091,-102.114005890263,4,1,0,80,0,0
107157,-101.404417768551,4,1,0,80,0,0
107222,-100.699760560068,4,1,0,80,0,0
107287,-99.9999999999998,4,1,0,80,0,0
107517,-83.3333333333333,4,1,0,80,0,0
107582,-85.1063829787234,4,1,0,80,0,0
107648,-86.9565217391304,4,1,0,80,0,0
107780,-83.3333333333333,4,1,0,90,0,0
107812,-83.3333333333333,4,1,0,90,0,1
112769,-83.3333333333333,4,1,0,90,0,0
113026,-111.111111111111,4,1,0,90,0,0
113091,-109.7262670683,4,1,0,90,0,0
113156,-108.358683162696,4,1,0,90,0,0
113222,-107.008144270913,4,1,0,90,0,0
113287,-105.674437950781,4,1,0,90,0,0
113352,-104.357354407919,4,1,0,90,0,0
113417,-103.056686462742,4,1,0,90,0,0
113483,-101.772229517864,4,1,0,90,0,0
113548,-100.503781525921,4,1,0,90,0,0
113613,-99.251142957786,4,1,0,90,0,0
113678,-98.0141167711807,4,1,0,90,0,0
113743,-96.7925083796832,4,1,0,90,0,0
113809,-95.5861256221183,4,1,0,90,0,0
113874,-94.3947787323299,4,1,0,90,0,0
113939,-93.2182803093307,4,1,0,90,0,0
114004,-92.0564452878236,4,1,0,90,0,0
114041,-83.3333333333333,4,1,0,90,0,0
114073,-83.3333333333333,4,1,0,90,0,1
120302,-71.4285714285714,4,1,0,90,0,1
120334,-71.4285714285714,4,1,0,80,0,0
120398,-33.3333333333333,4,1,0,80,0,0
121376,-142.857142857143,4,1,0,80,0,0
122417,-83.33333,4,1,0,85,0,0
122419,600,4,1,0,85,1,0
122565,-85.28166,4,1,0,85,0,0
122602,-85.77968,4,1,0,85,0,0
122715,-87.3373,4,1,0,85,0,0
122752,-87.85968,4,1,0,85,0,0
122865,-89.494484,4,1,0,85,0,0
122902,-90.043076,4,1,0,85,0,0
123015,-91.76093,4,1,0,85,0,0
123052,-92.33775,4,1,0,85,0,0
123165,-94.145164,4,1,0,85,0,0
123202,-94.75244,4,1,0,85,0,0
123315,-96.65659,4,1,0,85,0,0
123352,-97.296814,4,1,0,85,0,0
123465,-99.30568,4,1,0,85,0,0
123502,-99.9816,4,1,0,85,0,0
123615,-83.32056,4,1,0,85,0,0
123765,-85.28166,4,1,0,85,0,0
123802,-85.77968,4,1,0,85,0,0
123915,-87.3373,4,1,0,85,0,0
123952,-87.85968,4,1,0,85,0,0
124065,-89.494484,4,1,0,85,0,0
124102,-90.043076,4,1,0,85,0,0
124215,-91.76093,4,1,0,85,0,0
124252,-92.33775,4,1,0,85,0,0
124365,-94.145164,4,1,0,85,0,0
124402,-94.75244,4,1,0,85,0,0
124515,-96.65659,4,1,0,85,0,0
124552,-97.296814,4,1,0,85,0,0
124665,-99.30568,4,1,0,85,0,0
124702,-99.9816,4,1,0,85,0,0
124815,-83.31945,4,1,0,85,0,0
124965,-85.455475,4,1,0,85,0,0
125115,-87.70391,4,1,0,85,0,0
125265,-90.07386,4,1,0,85,0,0
125415,-92.57544,4,1,0,85,0,0
125565,-95.21996,4,1,0,85,0,0
125715,-98.02,4,1,0,85,0,0
125865,-100.98969,4,1,0,85,0,0
126015,-104.14496,4,1,0,85,0,0
126315,-111.08642,4,1,0,85,0,0
126914,-100.06671,4,1,0,85,0,0
126964,-98.42519,4,1,0,85,0,0
127014,-96.83667,4,1,0,85,0,0
127064,-95.2986,4,1,0,85,0,0
127114,-93.80863,4,1,0,85,0,0
127164,-92.364525,4,1,0,85,0,0
127214,-90.964226,4,1,0,85,0,0
127219,-90.964226,4,1,0,85,0,1
127365,-91.85165,4,1,0,85,0,1
127515,-92.81395,4,1,0,85,0,1
127590,-93.30271,4,1,0,85,0,1
127665,-93.79663,4,1,0,85,0,1
127815,-90.9090909090909,4,1,0,85,0,1
127965,-95.82578,4,1,0,85,0,1
128115,-96.87363,4,1,0,85,0,1
128190,-97.406204,4,1,0,85,0,1
128265,-97.94466,4,1,0,85,0,1
128415,-99.03963,4,1,0,85,0,1
128565,-100.159355,4,1,0,85,0,1
128715,-101.304695,4,1,0,85,0,1
128790,-101.887245,4,1,0,85,0,1
128865,-102.47654,4,1,0,85,0,1
129015,-90.9090909090909,4,1,0,85,0,1
129165,-104.903465,4,1,0,85,0,1
129315,-106.16055,4,1,0,85,0,1
129390,-106.80046,4,1,0,85,0,1
129465,-107.448135,4,1,0,85,0,1
129615,-108.76733,4,1,0,85,0,1
129765,-110.11933,4,1,0,85,0,1
129915,-111.505356,4,1,0,85,0,1
129990,-112.21154,4,1,0,85,0,1
130065,-112.92672,4,1,0,85,0,1
130215,-90.9090909090909,4,1,0,85,0,1
130365,-115.881004,4,1,0,85,0,1
130515,-117.41688,4,1,0,85,0,1
130590,-118.20019,4,1,0,85,0,1
130665,-118.99401,4,1,0,85,0,1
130815,-120.6141,4,1,0,85,0,1
130965,-122.27889,4,1,0,85,0,1
131115,-123.990295,4,1,0,85,0,1
131190,-124.86408,4,1,0,85,0,1
131265,-125.75029,4,1,0,85,0,1
131415,-90.9090909090909,4,1,0,85,0,1
131565,-129.42453,4,1,0,85,0,1
131715,-131.34337,4,1,0,85,0,1
131867,-133.333333333333,4,1,0,85,0,1
132016,-100,4,1,0,85,0,1
132166,-98.59155,4,1,0,85,0,1
132316,-97.22223,4,1,0,85,0,1
132391,-96.55173,4,1,0,85,0,1
132466,-95.89041,4,1,0,85,0,1
132616,-94.5946,4,1,0,85,0,1
132766,-93.33333,4,1,0,85,0,1
132916,-92.10527,4,1,0,85,0,1
132991,-91.50327,4,1,0,85,0,1
133066,-90.90909,4,1,0,85,0,1
133216,-100,4,1,0,85,0,1
133316,-99.0991,4,1,0,85,0,1
133416,-98.21429,4,1,0,85,0,1
133516,-97.34514,4,1,0,85,0,1
133616,-96.491234,4,1,0,85,0,1
133716,-95.652176,4,1,0,85,0,1
133816,-94.82759,4,1,0,85,0,1
133916,-94.0171,4,1,0,85,0,1
134016,-93.22034,4,1,0,85,0,1
134116,-92.43698,4,1,0,85,0,1
134216,-91.666664,4,1,0,85,0,1
134316,-90.90909,4,1,0,85,0,1
134416,-76.92308,4,1,0,85,0,1
134491,-77.51938,4,1,0,85,0,1
134566,-78.125,4,1,0,85,0,1
134641,-78.74016,4,1,0,85,0,1
134716,-79.36508,4,1,0,85,0,1
134791,-80,4,1,0,85,0,1
134866,-80.64516,4,1,0,85,0,1
134941,-81.30081,4,1,0,85,0,1
135016,-81.96721,4,1,0,85,0,1
135091,-82.64462,4,1,0,85,0,1
135166,-83.33333,4,1,0,85,0,1
135241,-84.03361,4,1,0,85,0,1
135316,-84.745766,4,1,0,85,0,1
135391,-85.470085,4,1,0,85,0,1
135466,-86.2069,4,1,0,85,0,1
135541,-86.95652,4,1,0,85,0,1
135616,-66.666664,4,1,0,85,0,1
135666,-67.52411,4,1,0,85,0,1
135716,-68.40391,4,1,0,85,0,1
135766,-69.30692,4,1,0,85,0,1
135816,-70.234116,4,1,0,85,0,1
135866,-71.18644,4,1,0,85,0,1
135916,-72.16495,4,1,0,85,0,1
135991,-73.68421,4,1,0,85,0,1
136066,-75.268814,4,1,0,85,0,1
136141,-76.92308,4,1,0,85,0,1
136216,-66.666664,4,1,0,85,0,1
136266,-67.52411,4,1,0,85,0,1
136316,-68.40391,4,1,0,85,0,1
136366,-69.30692,4,1,0,85,0,1
136416,-70.234116,4,1,0,85,0,1
136466,-71.18644,4,1,0,85,0,1
136516,-72.16495,4,1,0,85,0,1
136591,-73.68421,4,1,0,85,0,1
136666,-75.268814,4,1,0,85,0,1
136741,-76.92308,4,1,0,85,0,1
136781,-66.6666666666667,4,1,0,85,0,1
136819,-66.6666666666667,4,1,0,85,0,0
137013,-83.29862,4,1,0,85,0,0
137213,-86.918724,4,1,0,85,0,0
137413,-90.86779,4,1,0,85,0,0
137613,-95.192764,4,1,0,85,0,0
137813,-99.95002,4,1,0,85,0,0
138016,-86.95652,4,1,0,85,0,0
138166,-88.60479,4,1,0,85,0,0
138316,-90.31675,4,1,0,85,0,0
138391,-91.19778,4,1,0,85,0,0
138466,-92.09617,4,1,0,85,0,0
138616,-93.94712,4,1,0,85,0,0
138766,-95.87399,4,1,0,85,0,0
138916,-97.88157,4,1,0,85,0,0
138991,-98.91721,4,1,0,85,0,0
139066,-99.975006,4,1,0,85,0,0
139215,-76.92308,4,1,0,85,0,0
139335,-79.86813,4,1,0,85,0,0
139455,-83.04766,4,1,0,85,0,0
139575,-86.490845,4,1,0,85,0,0
139695,-90.23189,4,1,0,85,0,0
139815,-94.311195,4,1,0,85,0,0
139965,-99.96007,4,1,0,85,0,0
140114,-76.92308,4,1,0,85,0,0
140164,-77.928795,4,1,0,85,0,0
140214,-78.961174,4,1,0,85,0,0
140264,-80.02127,4,1,0,85,0,0
140314,-81.110214,4,1,0,85,0,0
140364,-82.2292,4,1,0,85,0,0
140414,-83.3795,4,1,0,85,0,0
140717,-66.6666666666667,4,1,0,85,0,0
141016,-100,4,1,0,85,0,0
141166,-97.560974,4,1,0,85,0,0
141316,-95.2381,4,1,0,85,0,0
141391,-94.117645,4,1,0,85,0,0
141466,-93.023254,4,1,0,85,0,0
141615,-90.90909,4,1,0,85,0,0
141619,-90.90909,4,1,0,85,0,1
141766,-92.47592,4,1,0,85,0,1
141916,-94.08677,4,1,0,85,0,1
141991,-94.91343,4,1,0,85,0,1
142066,-95.75474,4,1,0,85,0,1
142216,-90.9090909090909,4,1,0,85,0,1
142366,-99.27462,4,1,0,85,0,1
142516,-101.133415,4,1,0,85,0,1
142591,-102.089165,4,1,0,85,0,1
142666,-103.06315,4,1,0,85,0,1
142816,-105.067955,4,1,0,85,0,1
142966,-107.152306,4,1,0,85,0,1
143116,-109.32103,4,1,0,85,0,1
143191,-110.438644,4,1,0,85,0,1
143266,-111.57935,4,1,0,85,0,1
143416,-90.9090909090909,4,1,0,85,0,1
143566,-116.387985,4,1,0,85,0,1
143716,-118.95114,4,1,0,85,0,1
143791,-120.27552,4,1,0,85,0,1
143866,-121.62974,4,1,0,85,0,1
144016,-124.43175,4,1,0,85,0,1
144166,-127.36591,4,1,0,85,0,1
144316,-130.44179,4,1,0,85,0,1
144466,-133.6699,4,1,0,85,0,1
144616,-90.9090909090909,4,1,0,85,0,1
144766,-140.63043,4,1,0,85,0,1
144916,-144.38979,4,1,0,85,0,1
145066,-148.35567,4,1,0,85,0,1
145216,-152.54556,4,1,0,85,0,1
145366,-156.97899,4,1,0,85,0,1
145516,-161.67784,4,1,0,85,0,1
145666,-166.66666,4,1,0,85,0,1
145816,-100,4,1,0,85,0,1
145891,-97.560974,4,1,0,85,0,1
145966,-95.2381,4,1,0,85,0,1
146041,-93.023254,4,1,0,85,0,1
146116,-90.90909,4,1,0,85,0,1
146166,-89.55224,4,1,0,85,0,1
146216,-88.2353,4,1,0,85,0,1
146266,-86.95652,4,1,0,85,0,1
146381,-33.3333333333333,4,1,0,85,0,1
146419,-33.3333333333333,4,1,0,85,0,0
146567,-10,4,1,0,85,0,0
148669,-100,4,1,0,85,0,0
148820,-12.5,4,1,0,85,0,0
150616,-100,4,1,0,85,0,0
150653,-98.90218,4,1,0,85,0,0
150766,-95.69379,4,1,0,85,0,0
150803,-94.688,4,1,0,85,0,0
150916,-91.74312,4,1,0,85,0,0
150953,-90.818275,4,1,0,85,0,0
151066,-88.10573,4,1,0,85,0,0
151103,-87.25242,4,1,0,85,0,0
151116,-86.95652,4,1,0,85,0,0
151217,-76.9230769230769,4,1,0,85,0,0
151516,-50,4,1,0,85,0,0
151566,-50.60241,4,1,0,85,0,0
151616,-51.21951,4,1,0,85,0,0
151666,-51.851852,4,1,0,85,0,0
151741,-52.83019,4,1,0,85,0,0
151816,-53.846157,4,1,0,85,0,0
151916,-55.263157,4,1,0,85,0,0
152016,-56.75676,4,1,0,85,0,0
152116,-58.333332,4,1,0,85,0,0
152216,-59.999996,4,1,0,85,0,0
152266,-60.869568,4,1,0,85,0,0
152316,-61.76471,4,1,0,85,0,0
152366,-62.68657,4,1,0,85,0,0
152416,-63.636364,4,1,0,85,0,0
152491,-65.11628,4,1,0,85,0,0
152566,-66.666664,4,1,0,85,0,0
153544,-100,4,1,0,85,0,0
153620,-12.5,4,1,0,85,0,0
155416,-100,4,1,0,85,0,0
155491,-96.77419,4,1,0,85,0,0
155566,-93.75001,4,1,0,85,0,0
155641,-90.90909,4,1,0,85,0,0
155716,-88.2353,4,1,0,85,0,0
155791,-85.71428,4,1,0,85,0,0
155866,-83.33333,4,1,0,85,0,0
156017,-33.3333333333333,4,1,0,85,0,0
156167,-10,4,1,0,85,0,0
158344,-100,4,1,0,85,0,0
158420,-12.5,4,1,0,85,0,0
160215,-66.64442,4,1,0,85,0,0
160265,-67.77551,4,1,0,85,0,0
160315,-68.94568,4,1,0,85,0,0
160365,-70.156944,4,1,0,85,0,0
160415,-71.41154,4,1,0,85,0,0
160465,-72.71182,4,1,0,85,0,0
160515,-74.06034,4,1,0,85,0,0
160565,-75.45981,4,1,0,85,0,0
160615,-76.9132,4,1,0,85,0,0
160665,-78.423676,4,1,0,85,0,0
160715,-79.99466,4,1,0,85,0,0
160765,-81.62987,4,1,0,85,0,0
160815,-83.33333,4,1,0,85,0,0
160967,-10,4,1,0,85,0,0
163217,-99.99998,4,1,0,85,0,0
163367,-99.87194,4,1,0,85,0,0
163517,-99.49638,4,1,0,85,0,0
163667,-98.87887,4,1,0,85,0,0
163817,-98.02839,4,1,0,85,0,0
163967,-96.95708,4,1,0,85,0,0
164117,-95.679756,4,1,0,85,0,0
164267,-94.21345,4,1,0,85,0,0
164417,-92.57687,4,1,0,85,0,0
164567,-90.789856,4,1,0,85,0,0
164717,-88.87284,4,1,0,85,0,0
164867,-86.84634,4,1,0,85,0,0
165017,-84.73051,4,1,0,85,0,0
165167,-82.54481,4,1,0,85,0,0
165317,-80.30764,4,1,0,85,0,0
165392,-79.17518,4,1,0,85,0,0
165467,-78.03617,4,1,0,85,0,0
165542,-76.89253,4,1,0,85,0,0
165617,-57.150196,4,1,0,85,0,0
165692,-57.42617,4,1,0,85,0,0
165767,-57.703472,4,1,0,85,0,0
165917,-58.262096,4,1,0,85,0,0
165967,-58.4495,4,1,0,85,0,0
166067,-58.826126,4,1,0,85,0,0
166217,-59.395622,4,1,0,85,0,0
166367,-59.97063,4,1,0,85,0,0
166442,-60.26022,4,1,0,85,0,0
166517,-60.5512,4,1,0,85,0,0
166667,-61.137398,4,1,0,85,0,0
166817,-61.729267,4,1,0,85,0,0
166892,-62.02735,4,1,0,85,0,0
166967,-62.326874,4,1,0,85,0,0
167042,-62.627834,4,1,0,85,0,0
167117,-62.930256,4,1,0,85,0,0
167167,-63.13268,4,1,0,85,0,0
167267,-63.539482,4,1,0,85,0,0
167417,-64.15461,4,1,0,85,0,0
167567,-64.77568,4,1,0,85,0,0
167642,-65.08848,4,1,0,85,0,0
167717,-65.40277,4,1,0,85,0,0
167867,-66.03594,4,1,0,85,0,0
167942,-66.35481,4,1,0,85,0,0
168017,-66.675224,4,1,0,85,0,0
168167,-65.48658,4,1,0,85,0,0
168242,-64.90023,4,1,0,85,0,0
168317,-64.31913,4,1,0,85,0,0
168467,-63.172493,4,1,0,85,0,0
168542,-62.60687,4,1,0,85,0,0
168617,-62.0463,4,1,0,85,0,0
168767,-60.940174,4,1,0,85,0,0
168817,-60.575874,4,1,0,85,0,0
168917,-59.85378,4,1,0,85,0,0
169067,-58.786747,4,1,0,85,0,0
169142,-58.260384,4,1,0,85,0,0
169217,-57.73873,4,1,0,85,0,0
169292,-57.221756,4,1,0,85,0,0
169367,-56.709408,4,1,0,85,0,0
169442,-56.201645,4,1,0,85,0,0
169517,-55.698425,4,1,0,85,0,0
169592,-55.199715,4,1,0,85,0,0
169667,-54.705475,4,1,0,85,0,0
169742,-54.215656,4,1,0,85,0,0
169817,-53.730225,4,1,0,85,0,0
169867,-53.40901,4,1,0,85,0,0
169967,-52.772358,4,1,0,85,0,0
170117,-51.831566,4,1,0,85,0,0
170267,-50.907543,4,1,0,85,0,0
170342,-98.74132,4,1,0,85,0,0
170419,300,4,1,0,85,1,0
170490,-100.67114,4,1,0,85,0,0
170565,-101.35136,4,1,0,85,0,0
170640,-102.04082,4,1,0,85,0,0
170715,-102.73972,4,1,0,85,0,0
170790,-103.44828,4,1,0,85,0,0
170865,-104.16667,4,1,0,85,0,0
170915,-104.65116,4,1,0,85,0,0
170965,-105.14018,4,1,0,85,0,0
171015,-105.633804,4,1,0,85,0,0
171065,-106.13207,4,1,0,85,0,0
171115,-106.63507,4,1,0,85,0,0
171165,-107.14286,4,1,0,85,0,0
171240,-107.91367,4,1,0,85,0,0
171315,-108.69565,4,1,0,85,0,0
171390,-109.48905,4,1,0,85,0,0
171465,-110.29412,4,1,0,85,0,0
171540,-111.111115,4,1,0,85,0,0
171615,-100,4,1,0,85,0,0
171665,-100.96153,4,1,0,85,0,0
171715,-101.94175,4,1,0,85,0,0
171765,-102.94117,4,1,0,85,0,0
171840,-104.47761,4,1,0,85,0,0
171915,-106.06061,4,1,0,85,0,0
171990,-107.692314,4,1,0,85,0,0
172065,-109.375,4,1,0,85,0,0
172140,-111.111115,4,1,0,85,0,0
172442,-108.10811,4,1,0,85,0,0
172517,-105.26316,4,1,0,85,0,0
172667,-100,4,1,0,85,0,0
172817,-100.03334,4,1,0,85,0,0
172867,-100.874245,4,1,0,85,0,0
172917,-101.72939,4,1,0,85,0,0
172967,-102.59918,4,1,0,85,0,0
173042,-103.9321,4,1,0,85,0,0
173117,-105.3001,4,1,0,85,0,0
173167,-106.2323,4,1,0,85,0,0
173217,-107.18113,4,1,0,85,0,0
173267,-108.14708,4,1,0,85,0,0
173342,-109.62909,4,1,0,85,0,0
173417,-111.152275,4,1,0,85,0,0
173640,-108.10811,4,1,0,85,0,0
173715,-105.26316,4,1,0,85,0,0
173940,-104.94476,4,1,0,85,0,0
174015,-104.01302,4,1,0,85,0,0
174090,-102.5347,4,1,0,85,0,0
174165,-100.6103,4,1,0,85,0,0
174240,-98.36086,4,1,0,85,0,0
174315,-95.91429,4,1,0,85,0,0
174365,-94.23498,4,1,0,85,0,0
174415,-92.5565,4,1,0,85,0,0
174465,-90.90909,4,1,0,85,0,0
174540,-88.55329,4,1,0,85,0,0
174615,-86.40037,4,1,0,85,0,0
174665,-85.106384,4,1,0,85,0,0
174715,-83.94091,4,1,0,85,0,0
174765,-82.9142,4,1,0,85,0,0
174815,-82.034256,4,1,0,85,0,0
174865,-81.307175,4,1,0,85,0,0
174915,-80.737495,4,1,0,85,0,0
175065,-80,4,1,0,85,0,0
175217,-66.670616,4,1,0,85,0,0
175517,-67.2686,4,1,0,85,0,0
175817,-67.877396,4,1,0,85,0,0
176117,-68.49733,4,1,0,85,0,0
176267,-68.81155,4,1,0,85,0,0
176342,-68.96975,4,1,0,85,0,0
176417,-69.12867,4,1,0,85,0,0
176717,-69.77177,4,1,0,85,0,0
176867,-70.097824,4,1,0,85,0,0
176942,-70.262,4,1,0,85,0,0
177017,-70.42695,4,1,0,85,0,0
177167,-70.75916,4,1,0,85,0,0
177317,-71.09454,4,1,0,85,0,0
177467,-71.43311,4,1,0,85,0,0
177617,-66.67654,4,1,0,85,0,0
177917,-68.19042,4,1,0,85,0,0
178217,-69.77464,4,1,0,85,0,0
178367,-70.59469,4,1,0,85,0,0
178442,-71.011986,4,1,0,85,0,0
178517,-71.43423,4,1,0,85,0,0
178667,-72.29399,4,1,0,85,0,0
178817,-73.17469,4,1,0,85,0,0
179117,-75.00208,4,1,0,85,0,0
179267,-75.95043,4,1,0,85,0,0
179417,-76.92308,4,1,0,85,0,0
179717,-66.6666666666667,4,1,0,85,0,0
179790,-64,4,1,0,85,0,0
179865,-61.53846,4,1,0,85,0,0
179940,-59.25926,4,1,0,85,0,0
180019,150,4,1,0,85,1,0
180019,-114.28571,4,1,0,85,0,0
182565,-121.673004,4,1,0,85,0,0
182715,-130.0813,4,1,0,85,0,0
182865,-139.73799,4,1,0,85,0,0
182940,-145.12473,4,1,0,85,0,0
183015,-150.94339,4,1,0,85,0,0
183165,-164.10257,4,1,0,85,0,0
183315,-179.77528,4,1,0,85,0,0
183619,300,4,1,0,85,1,0
183619,-111.111115,4,1,0,85,0,0
183765,-111.10043,4,1,0,85,0,0
183915,-110.99035,4,1,0,85,0,0
184065,-110.61363,4,1,0,85,0,0
184215,-109.75998,4,1,0,85,0,0
184365,-108.20257,4,1,0,85,0,0
184515,-105.73119,4,1,0,85,0,0
184665,-102.192345,4,1,0,85,0,0
184815,-90.9090909090909,4,1,0,85,0,0
192090,-90.39548,4,1,0,85,0,0
192165,-89.88764,4,1,0,85,0,0
192240,-89.385475,4,1,0,85,0,0
192315,-88.888885,4,1,0,85,0,0
192390,-88.39779,4,1,0,85,0,0
192465,-87.91209,4,1,0,85,0,0
192540,-87.431694,4,1,0,85,0,0
192615,-86.95652,4,1,0,85,0,0
192690,-86.48649,4,1,0,85,0,0
192765,-86.02151,4,1,0,85,0,0
192840,-85.56149,4,1,0,85,0,0
192915,-85.106384,4,1,0,85,0,0
192990,-84.65609,4,1,0,85,0,0
193065,-84.210526,4,1,0,85,0,0
193140,-83.76963,4,1,0,85,0,0
193217,-83.38966,4,1,0,85,0,0
193367,-87.72505,4,1,0,85,0,0
193517,-92.28583,4,1,0,85,0,0
193667,-97.08373,4,1,0,85,0,0
193742,-99.575424,4,1,0,85,0,0
193817,-102.13106,4,1,0,85,0,0
193892,-104.7523,4,1,0,85,0,0
193967,-107.44081,4,1,0,85,0,0
194042,-110.19831,4,1,0,85,0,0
194117,-113.0266,4,1,0,85,0,0
194192,-115.927475,4,1,0,85,0,0
194267,-118.9028,4,1,0,85,0,0
194342,-121.95449,4,1,0,85,0,0
194419,600,8,1,0,85,1,0
194419,-62.542255,8,1,0,85,0,0
194567,-100,16,1,0,85,0,0
199217,600,4,1,0,25,1,0
199217,-200,4,1,0,25,0,0
213652,-196.078431372549,4,1,0,25,0,0
213915,-200,4,1,0,25,0,0
217814,-192.305,4,1,0,25,0,0
218114,-191.49704,4,1,0,25,0,0
218417,545.454545454546,4,1,0,25,1,0
218417,-209.76172,4,1,0,25,0,0
218959,-209.75728,4,1,0,25,0,0
219232,-209.74362,4,1,0,25,0,0
219507,500,4,1,0,25,1,8
219754,-228.69681,4,1,0,25,0,8
220004,-228.55844,4,1,0,25,0,8
220254,-228.32442,4,1,0,25,0,8
220507,461.538461538462,4,1,0,25,1,0
220507,-246.94849,4,1,0,25,0,0
220965,-245.61447,4,1,0,25,0,0
221196,-244.54091,4,1,0,25,0,0
221430,428.571428571429,4,1,0,25,1,8
221641,-259.96158,4,1,0,25,0,8
221855,-257.646,4,1,0,25,0,8
222069,-254.79344,4,1,0,25,0,8
222287,400,4,1,0,25,1,0
222287,-269.2727,4,1,0,25,0,0
222687,375,4,1,0,25,1,8
222687,-277.7693,4,1,0,25,0,8
222871,-272.35202,4,1,0,25,0,8
223062,352.941176470588,4,1,0,25,1,8
223235,-276.16006,4,1,0,25,0,8
223414,333.333333333333,4,1,0,25,1,8
223414,-284.64584,4,1,0,25,0,8
223580,315.789473684211,4,1,0,25,1,8
223580,-292.14063,4,1,0,25,0,8
223737,300,4,1,0,25,1,0
223737,-298.71274,4,1,0,25,0,0
224037,285.714285714286,4,1,0,25,1,8
224037,-294.68286,4,1,0,25,0,8
224176,-285.20596,4,1,0,25,0,8
224322,272.727272727273,4,1,0,25,1,8
224455,-278.564,4,1,0,25,0,8
224594,260.869565217391,4,1,0,25,1,8
224594,-280.67136,4,1,0,25,0,8
224724,250,4,1,0,25,1,8
224724,-282.25925,4,1,0,25,0,8
224849,240,4,1,0,25,1,0
224849,-283.3526,4,1,0,25,0,0
224966,-273.12173,4,1,0,25,0,0
225089,230.769230769231,4,1,0,25,1,8
225089,-273.4567,4,1,0,25,0,8
225201,-263.38995,4,1,0,25,0,8
225319,222.222222222222,4,1,0,25,1,8
225427,-253.3413,4,1,0,25,0,8
225541,220.588235294118,4,1,0,25,1,8
225541,-245.46507,4,1,0,25,0,8
225651,218.978102189781,4,1,0,25,1,8
225651,-237.71567,4,1,0,25,0,8
225760,217.391304347826,4,1,0,25,1,0
225760,-230.11298,4,1,0,25,0,0
225865,-221.07191,4,1,0,25,0,0
225977,215.827338129496,4,1,0,25,1,8
225977,-213.71155,4,1,0,25,0,8
226081,-205.14821,4,1,0,25,0,8
226202,214.285714285714,4,1,0,25,1,8
226306,-190.03574,4,1,0,25,0,8
226416,212.765957446809,4,1,0,25,1,8
226416,-183.46281,4,1,0,25,0,8
226522,211.267605633803,4,1,0,25,1,8
226522,-177.11067,4,1,0,25,0,8
226627,209.79020979021,4,1,0,25,1,0
226627,-170.98077,4,1,0,25,0,0
226728,-163.92662,4,1,0,25,0,0
226836,208.333333333333,4,1,0,25,1,8
226836,-158.15724,4,1,0,25,0,8
226937,-151.55898,4,1,0,25,0,8
227044,206.896551724138,4,1,0,25,1,8
227141,-140.18272,4,1,0,25,0,8
227250,205.479452054795,4,1,0,25,1,8
227250,-135.1196,4,1,0,25,0,8
227346,-129.72076,4,1,0,25,0,8
227455,204.081632653061,4,1,0,25,1,0
227455,-125.02964,4,1,0,25,0,0
227552,-119.98452,4,1,0,25,0,0
227659,202.702702702703,4,1,0,25,1,8
227659,-115.73544,4,1,0,25,0,8
227751,-111.06155,4,1,0,25,0,8
227861,271.493212669683,4,1,0,25,1,8
227861,-91.11612,4,1,0,25,0,8
227996,337.078651685393,4,1,0,25,1,8
227996,-82.65418,4,1,0,25,0,8
228168,508.474576271186,4,1,0,25,1,8
228168,-63.531967,4,1,0,25,0,8
228408,606.060606060606,4,1,0,25,1,8
228408,-66.666664,4,1,0,25,0,8
228711,800,4,1,0,25,1,0
228711,-64.51613,4,1,0,25,0,0
229111,600,4,1,0,25,1,8
229408,-125,4,1,0,25,0,8
230011,480,4,1,0,25,1,8
230011,-156.2338,4,1,0,25,0,8
230248,-156.19383,4,1,0,25,0,8
230728,-155.9519,4,1,0,25,0,8
230971,400,4,1,0,25,1,0
230971,-186.83768,4,1,0,25,0,0
231368,-185.96674,4,1,0,25,0,0
231568,-185.31154,4,1,0,25,0,0
231771,342.857142857143,4,1,0,25,1,8
231771,-215.22336,4,1,0,25,0,8
231939,-214.20369,4,1,0,25,0,8
232110,-212.9928,4,1,0,25,0,8
232282,-211.56511,4,1,0,25,0,8
232456,300,4,1,0,25,1,0
232456,-239.9106,4,1,0,25,0,0
232603,-238.04054,4,1,0,25,0,0
232753,-235.9529,4,1,0,25,0,0
232903,-233.64023,4,1,0,25,0,0
233056,266.666666666667,4,1,0,25,1,8
233056,-259.98413,4,1,0,25,0,8
233186,-257.22705,4,1,0,25,0,8
233319,-254.2619,4,1,0,25,0,8
233453,-251.06464,4,1,0,25,0,8
233589,240,4,1,0,25,1,0
233589,-275.20584,4,1,0,25,0,0
233826,-267.869,4,1,0,25,0,0
233946,-263.94052,4,1,0,25,0,0
234066,230.769230769231,4,1,0,25,1,8
234066,-270.35004,4,1,0,25,0,8
234178,-266.12222,4,1,0,25,0,8
234293,-261.75357,4,1,0,25,0,8
234409,-257.2138,4,1,0,25,0,8
234527,222.222222222222,4,1,0,25,1,0
234527,-262.30634,4,1,0,25,0,0
234746,-252.72536,4,1,0,25,0,0
234857,-247.8013,4,1,0,25,0,0
234968,-242.80318,4,1,0,25,0,0
235079,-237.74237,4,1,0,25,0,0
235190,-232.63055,4,1,0,25,0,0
235301,-227.47923,4,1,0,25,0,0
235415,214.285714285714,5,1,0,25,1,0
235415,-230.53323,5,1,0,25,0,0
235626,-220.13904,5,1,0,25,0,0
235733,-214.94305,5,1,0,25,0,0
235840,-209.76071,5,1,0,25,0,0
235947,-204.60107,5,1,0,25,0,0
236162,-194.33713,5,1,0,25,0,0
236269,-189.29643,5,1,0,25,0,0
236376,-184.31024,5,1,0,25,0,0
236486,206.896551724138,5,1,0,25,1,0
236486,-185.79175,5,1,0,25,0,0
236586,-180.94698,5,1,0,25,0,0
236689,-176.17166,5,1,0,25,0,0
236793,-171.42497,5,1,0,25,0,0
237000,-162.21754,5,1,0,25,0,0
237103,-157.76196,5,1,0,25,0,0
237207,-153.35175,5,1,0,25,0,0
237310,-149.07393,5,1,0,25,0,0
237414,-144.84726,5,1,0,25,0,0
237520,200,6,1,0,25,1,0
237520,-145.60808,6,1,0,25,0,0
237617,-141.59033,6,1,0,25,0,0
237717,-137.6648,6,1,0,25,0,0
237817,-133.83182,6,1,0,25,0,0
237917,-130.0915,6,1,0,25,0,0
238017,-126.44378,6,1,0,25,0,0
238117,-122.88826,6,1,0,25,0,0
238217,-119.4244,6,1,0,25,0,0
238317,-116.051445,6,1,0,25,0,0
238417,-112.76847,6,1,0,25,0,0
238517,-109.57445,6,1,0,25,0,0
238617,-106.46815,6,1,0,25,0,0
238720,206.896551724138,6,1,0,25,1,0
238923,-105.5867,6,1,0,25,0,0
239027,-108.52467,6,1,0,25,0,0
239130,-111.51494,6,1,0,25,0,0
239234,-114.61786,6,1,0,25,0,0
239340,250,6,1,0,25,1,8
239340,-97.469826,6,1,0,25,0,8
239399,-99.07768,6,1,0,25,0,8
239462,-100.73866,6,1,0,25,0,8
239524,-102.400444,6,1,0,25,0,8
239590,262.008733624454,6,1,0,25,1,8
239590,-99.34509,6,1,0,25,0,8
239718,-102.83952,6,1,0,25,0,8
239852,276.497695852535,6,1,0,25,1,8
239852,-100.87835,6,1,0,25,0,8
239987,-104.61979,6,1,0,25,0,8
240128,300,4,1,0,25,1,0
240428,285.714285714286,4,1,0,25,1,8
240428,-99.984955,4,1,0,25,0,8
240567,-97.69541,4,1,0,25,0,8
240713,272.727272727273,4,1,0,25,1,8
240713,-99.98762,4,1,0,25,0,8
240846,-97.79367,4,1,0,25,0,8
240985,260.869565217391,4,1,0,25,1,0
240985,-99.99552,4,1,0,25,0,0
241245,250,4,1,0,25,1,8
241245,-100.00294,4,1,0,25,0,8
241367,-97.98096,4,1,0,25,0,8
241495,240,4,1,0,25,1,8
241495,-99.99983,4,1,0,25,0,8
241612,-98.057976,4,1,0,25,0,8
241735,272.727272727273,4,1,0,25,1,0
241735,-84.61539,4,1,0,25,0,0
242007,260.869565217391,4,1,0,25,1,8
242134,-97.89701,4,1,0,25,0,8
242267,250,4,1,0,25,1,8
242267,-100.005135,4,1,0,25,0,8
242389,-97.98211,4,1,0,25,0,8
242517,240,4,1,0,25,1,0
242757,283.018867924528,4,1,0,25,1,8
242898,363.636363636364,4,1,0,25,1,8
242898,-85.83419,4,1,0,25,0,8
243079,618.556701030928,4,1,0,25,1,8
243079,-57.2164,4,1,0,25,0,8
243388,1578.94736842105,4,1,0,25,1,8
243388,-27.777777,4,1,0,25,0,8
244177,441.176470588235,7,1,0,25,1,1
244177,-200,7,1,0,25,0,1
244229,-195.26958,7,1,0,25,0,1
244284,-190.65103,7,1,0,25,0,1
244394,-181.73906,7,1,0,25,0,1
246985,-100,7,1,0,70,0,1
247043,220.588235294118,4,1,0,70,1,0
247043,-200,4,1,0,70,0,0
247923,-133.333333333333,4,1,0,85,0,0
248805,-111.111111111111,4,1,0,85,0,0
254982,-108.695652173913,4,1,0,85,0,0
255202,-106.382978723404,4,1,0,85,0,0
255313,-105.263157894737,4,1,0,85,0,0
255423,-104.166666666667,4,1,0,85,0,0
255533,-103.092783505155,4,1,0,85,0,0
255643,-102.040816326531,4,1,0,85,0,0
255754,-101.010101010101,4,1,0,85,0,0
255864,-100,4,1,0,85,0,0
262041,-83.3333333333333,4,1,0,85,0,0
262482,-121.212121212121,4,1,0,85,0,0
262592,-125,4,1,0,85,0,0
262702,-129.032258064516,4,1,0,85,0,0
262813,-133.333333333333,4,1,0,85,0,0
262923,-200,4,1,0,85,0,0
262925,-200,4,1,0,85,0,1
268363,-192.00436,4,1,0,85,0,1
268510,-184.62343,4,1,0,85,0,1
268657,-177.78897,4,1,0,85,0,1
268804,-171.44244,4,1,0,85,0,1
268951,-165.5334,4,1,0,85,0,1
269098,-160.01813,4,1,0,85,0,1
269245,-154.85852,4,1,0,85,0,1
269392,-150.02124,4,1,0,85,0,1
269540,-145.44704,4,1,0,85,0,1
269650,-142.224,4,1,0,85,0,1
269760,-139.1407,4,1,0,85,0,1
269870,-136.18826,4,1,0,85,0,1
269981,-133.33333,4,1,0,85,0,1
272775,-131.86812,4,1,0,85,0,1
272922,-130.43477,4,1,0,85,0,1
273069,-129.03224,4,1,0,85,0,1
273179,-128.00232,4,1,0,85,0,1
273290,-126.979546,4,1,0,85,0,1
273345,-126.478806,4,1,0,85,0,1
273400,-125.981995,4,1,0,85,0,1
273455,-125.48907,4,1,0,85,0,1
273510,-125,4,1,0,85,0,1
273620,-124.03319,4,1,0,85,0,1
273731,-123.072624,4,1,0,85,0,1
273841,-122.135284,4,1,0,85,0,1
273951,-121.21211,4,1,0,85,0,1
274062,-120.29459,4,1,0,85,0,1
274172,-119.39893,4,1,0,85,0,1
274227,-118.9561,4,1,0,85,0,1
274282,-118.516525,4,1,0,85,0,1
274337,-118.080185,4,1,0,85,0,1
274392,-117.64706,4,1,0,85,0,1
274503,-116.78252,4,1,0,85,0,1
274613,-115.93822,4,1,0,85,0,1
274723,-115.106026,4,1,0,85,0,1
274834,-114.278305,4,1,0,85,0,1
274944,-113.469696,4,1,0,85,0,1
274999,-113.06967,4,1,0,85,0,1
275054,-112.672455,4,1,0,85,0,1
275165,-111.87924,4,1,0,85,0,1
275275,-111.10411,4,1,0,85,0,1
275495,-109.58563,4,1,0,85,0,1
275606,-108.835144,4,1,0,85,0,1
275716,-108.10148,4,1,0,85,0,1
275826,-107.37765,4,1,0,85,0,1
275937,-106.65699,4,1,0,85,0,1
276142,-105.256874,4,1,0,85,0,1
276160,-105.256874,4,1,0,85,0,0
276267,-104.57051,4,1,0,85,0,0
276378,-103.88693,4,1,0,85,0,0
276488,-103.21825,4,1,0,85,0,0
276598,-102.558136,4,1,0,85,0,0
276672,-102.11879,4,1,0,85,0,0
276745,-101.68905,4,1,0,85,0,0
276819,-101.2571,4,1,0,85,0,0
276929,-100.62176,4,1,0,85,0,0
277024,-99.98866,4,1,0,85,0,0
277043,-99.98866,4,1,0,85,0,1
290278,-99.98866,4,1,0,85,0,0
290496,-90.9090909090909,4,1,0,85,0,0
290717,-83.3333333333333,4,1,0,85,0,0
290938,-76.9230769230769,4,1,0,85,0,0
291142,-90.9090909090909,4,1,0,85,0,0
291160,-90.9090909090909,4,1,0,85,0,1
304837,-90.9090909090909,4,1,0,85,0,0
305278,-90.9090909090909,4,1,0,85,0,1
305719,-90.9090909090909,4,1,0,85,0,0
306160,-90.9090909090909,4,1,0,85,0,1
306601,-90.9090909090909,4,1,0,85,0,0
307043,-90.9090909090909,4,1,0,85,0,1
308556,-111.111111111111,4,1,0,85,0,1
308807,-125,4,1,0,85,0,0
308887,-133.333333333333,4,1,0,85,0,0
308998,-140.845070422535,4,1,0,85,0,0
309108,-147.058823529412,4,1,0,85,0,0
309218,-153.846153846154,4,1,0,85,0,0
309439,-181.818181818182,4,1,0,85,0,0
309685,-147.058823529412,4,1,0,85,0,0
309770,-153.846153846154,4,1,0,85,0,0
309880,-161.290322580645,4,1,0,85,0,0
309990,-169.491525423729,4,1,0,85,0,0
310101,-178.571428571429,4,1,0,85,0,0
310321,-200,4,1,0,85,0,0
310542,-192.307692307692,4,1,0,85,0,0
310983,-153.846153846154,4,1,0,85,0,0
311424,-120.481927710843,4,1,0,85,0,0
312337,-90.9090909090909,4,1,0,85,0,1
314101,-90.9090909090909,4,1,0,85,0,0
314129,-20,4,1,0,85,0,0
314212,-90.9090909090909,4,1,0,85,0,0
316748,220.588235294118,4,1,0,85,1,8
317190,220.588235294118,4,1,0,85,1,1
317190,-90.9090909090909,4,1,0,85,0,1
320719,-66.6666666666667,4,1,0,85,0,0

[HitObjects]
256,192,335,5,0,0:0:0:0:
256,192,465,1,8,0:0:0:0:
256,192,595,1,8,0:0:0:0:
256,192,639,1,8,0:0:0:0:
256,192,682,1,8,0:0:0:0:
256,192,726,1,0,0:0:0:0:
256,192,856,1,8,0:0:0:0:
256,192,921,1,0,0:0:0:0:
256,192,987,1,0,0:0:0:0:
256,192,1052,1,0,0:0:0:0:
256,192,1117,1,8,0:0:0:0:
256,192,1182,1,8,0:0:0:0:
256,192,1248,1,8,0:0:0:0:
256,192,1313,1,8,0:0:0:0:
256,192,1378,1,0,0:0:0:0:
256,192,1508,1,8,0:0:0:0:
256,192,1574,1,8,0:0:0:0:
256,192,1639,1,0,0:0:0:0:
256,192,1769,1,8,0:0:0:0:
256,192,1900,1,0,0:0:0:0:
256,192,2030,1,8,0:0:0:0:
256,192,2095,1,8,0:0:0:0:
256,192,2161,1,0,0:0:0:0:
256,192,2291,1,8,0:0:0:0:
256,192,2421,1,0,0:0:0:0:
256,192,2552,1,8,0:0:0:0:
256,192,2617,1,8,0:0:0:0:
256,192,2682,1,0,0:0:0:0:
256,192,2813,1,8,0:0:0:0:
256,192,2943,1,0,0:0:0:0:
256,192,3074,1,8,0:0:0:0:
256,192,3139,1,0,0:0:0:0:
256,192,3204,1,8,0:0:0:0:
256,192,3334,1,8,0:0:0:0:
256,192,3465,1,0,0:0:0:0:
256,192,3595,1,8,0:0:0:0:
256,192,3661,1,8,0:0:0:0:
256,192,3726,1,0,0:0:0:0:
256,192,3856,1,8,0:0:0:0:
256,192,3987,1,0,0:0:0:0:
256,192,4117,1,8,0:0:0:0:
256,192,4182,1,8,0:0:0:0:
256,192,4248,1,0,0:0:0:0:
256,192,4378,1,8,0:0:0:0:
256,192,4508,1,0,0:0:0:0:
256,192,4574,1,8,0:0:0:0:
256,192,4639,1,0,0:0:0:0:
256,192,4704,1,0,0:0:0:0:
256,192,4769,1,8,0:0:0:0:
256,192,4900,1,0,0:0:0:0:
256,192,4965,1,0,0:0:0:0:
256,192,5030,1,8,0:0:0:0:
256,192,5095,1,8,0:0:0:0:
256,192,5161,1,0,0:0:0:0:
256,192,5226,1,0,0:0:0:0:
256,192,5291,1,8,0:0:0:0:
256,192,5356,1,0,0:0:0:0:
256,192,5421,1,8,0:0:0:0:
256,192,5487,1,8,0:0:0:0:
256,192,5552,1,0,0:0:0:0:
256,192,5682,1,8,0:0:0:0:
256,192,5813,1,0,0:0:0:0:
256,192,5878,1,0,0:0:0:0:
256,192,5943,1,8,0:0:0:0:
256,192,6008,1,8,0:0:0:0:
256,192,6074,1,0,0:0:0:0:
256,192,6204,1,8,0:0:0:0:
256,192,6269,1,8,0:0:0:0:
256,192,6334,1,0,0:0:0:0:
256,192,6465,1,8,0:0:0:0:
256,192,6595,1,0,0:0:0:0:
256,192,6726,1,8,0:0:0:0:
256,192,6791,1,0,0:0:0:0:
256,192,6856,1,8,0:0:0:0:
256,192,6987,1,8,0:0:0:0:
256,192,7052,1,0,0:0:0:0:
256,192,7117,1,0,0:0:0:0:
256,192,7182,1,8,0:0:0:0:
256,192,7248,1,0,0:0:0:0:
256,192,7313,1,0,0:0:0:0:
256,192,7378,1,8,0:0:0:0:
256,192,7508,1,8,0:0:0:0:
256,192,7639,1,0,0:0:0:0:
256,192,7769,1,8,0:0:0:0:
256,192,7834,1,8,0:0:0:0:
256,192,7900,1,0,0:0:0:0:
256,192,8030,1,8,0:0:0:0:
256,192,8161,1,0,0:0:0:0:
256,192,8226,1,8,0:0:0:0:
256,192,8291,1,0,0:0:0:0:
256,192,8356,1,0,0:0:0:0:
256,192,8421,1,8,0:0:0:0:
256,192,8552,1,8,0:0:0:0:
256,192,8682,1,8,0:0:0:0:
256,192,8748,1,8,0:0:0:0:
256,192,8813,1,0,0:0:0:0:
256,192,8878,1,0,0:0:0:0:
256,192,8943,1,8,0:0:0:0:
256,192,9008,1,0,0:0:0:0:
256,192,9074,1,8,0:0:0:0:
256,192,9139,1,8,0:0:0:0:
256,192,9204,1,0,0:0:0:0:
256,192,9248,1,0,0:0:0:0:
256,192,9291,1,0,0:0:0:0:
256,192,9334,1,8,0:0:0:0:
256,192,9378,1,8,0:0:0:0:
256,192,9421,1,8,0:0:0:0:
256,192,9465,1,0,0:0:0:0:
256,192,9530,1,0,0:0:0:0:
256,192,9595,1,8,0:0:0:0:
256,192,9661,1,8,0:0:0:0:
256,192,9726,1,4,0:0:0:0:
256,192,9856,1,0,0:0:0:0:
256,192,9921,1,0,0:0:0:0:
256,192,9987,1,8,0:0:0:0:
256,192,10117,1,0,0:0:0:0:
256,192,10248,1,8,0:0:0:0:
256,192,10378,1,8,0:0:0:0:
256,192,10443,1,0,0:0:0:0:
256,192,10508,1,8,0:0:0:0:
256,192,10639,1,8,0:0:0:0:
256,192,10769,1,8,0:0:0:0:
256,192,10834,1,0,0:0:0:0:
256,192,10900,1,0,0:0:0:0:
256,192,10965,1,0,0:0:0:0:
256,192,11030,1,8,0:0:0:0:
256,192,11161,1,8,0:0:0:0:
256,192,11291,1,0,0:0:0:0:
256,192,11356,1,8,0:0:0:0:
256,192,11421,1,8,0:0:0:0:
256,192,11487,1,0,0:0:0:0:
256,192,11552,1,8,0:0:0:0:
256,192,11682,1,8,0:0:0:0:
256,192,11813,1,0,0:0:0:0:
256,192,11943,1,0,0:0:0:0:
256,192,12008,1,0,0:0:0:0:
256,192,12074,1,8,0:0:0:0:
256,192,12204,1,8,0:0:0:0:
256,192,12269,1,0,0:0:0:0:
256,192,12334,1,0,0:0:0:0:
256,192,12400,1,8,0:0:0:0:
256,192,12530,1,0,0:0:0:0:
256,192,12595,1,8,0:0:0:0:
256,192,12726,1,8,0:0:0:0:
256,192,12791,1,8,0:0:0:0:
256,192,12856,1,0,0:0:0:0:
256,192,12987,1,8,0:0:0:0:
256,192,13052,1,0,0:0:0:0:
256,192,13117,1,8,0:0:0:0:
256,192,13248,1,8,0:0:0:0:
256,192,13313,1,0,0:0:0:0:
256,192,13378,1,8,0:0:0:0:
256,192,13443,1,8,0:0:0:0:
256,192,13508,1,0,0:0:0:0:
256,192,13574,1,0,0:0:0:0:
256,192,13639,1,8,0:0:0:0:
256,192,13769,1,8,0:0:0:0:
256,192,13900,1,0,0:0:0:0:
256,192,13965,1,8,0:0:0:0:
256,192,14030,1,8,0:0:0:0:
256,192,14095,1,0,0:0:0:0:
256,192,14161,1,8,0:0:0:0:
256,192,14291,1,8,0:0:0:0:
256,192,14356,1,0,0:0:0:0:
256,192,14421,1,0,0:0:0:0:
256,192,14487,1,8,0:0:0:0:
256,192,14552,1,8,0:0:0:0:
256,192,14617,1,0,0:0:0:0:
256,192,14682,1,8,0:0:0:0:
256,192,14813,1,0,0:0:0:0:
256,192,14878,1,8,0:0:0:0:
256,192,14943,1,0,0:0:0:0:
256,192,15074,1,8,0:0:0:0:
256,192,15139,1,0,0:0:0:0:
256,192,15204,1,8,0:0:0:0:
256,192,15269,1,8,0:0:0:0:
256,192,15334,1,0,0:0:0:0:
256,192,15400,1,0,0:0:0:0:
256,192,15465,1,8,0:0:0:0:
256,192,15595,1,8,0:0:0:0:
256,192,15661,1,8,0:0:0:0:
256,192,15726,1,0,0:0:0:0:
256,192,15856,1,8,0:0:0:0:
256,192,15987,1,0,0:0:0:0:
256,192,16052,1,0,0:0:0:0:
256,192,16117,1,0,0:0:0:0:
256,192,16182,1,0,0:0:0:0:
256,192,16248,1,8,0:0:0:0:
256,192,16313,1,8,0:0:0:0:
256,192,16378,1,0,0:0:0:0:
256,192,16443,1,8,0:0:0:0:
256,192,16508,1,0,0:0:0:0:
256,192,16574,1,0,0:0:0:0:
256,192,16639,1,0,0:0:0:0:
256,192,16704,1,0,0:0:0:0:
256,192,16769,1,8,0:0:0:0:
256,192,16834,1,8,0:0:0:0:
256,192,16900,1,0,0:0:0:0:
256,192,16965,1,8,0:0:0:0:
256,192,17030,1,0,0:0:0:0:
256,192,17095,1,0,0:0:0:0:
256,192,17161,1,0,0:0:0:0:
256,192,17226,1,0,0:0:0:0:
256,192,17291,1,8,0:0:0:0:
256,192,17356,1,8,0:0:0:0:
256,192,17421,1,0,0:0:0:0:
256,192,17487,1,8,0:0:0:0:
256,192,17552,1,0,0:0:0:0:
256,192,17595,1,0,0:0:0:0:
256,192,17639,1,0,0:0:0:0:
256,192,17682,1,8,0:0:0:0:
256,192,17726,1,8,0:0:0:0:
256,192,17769,1,8,0:0:0:0:
256,192,17813,1,0,0:0:0:0:
256,192,18074,1,4,0:0:0:0:
256,192,18204,1,8,0:0:0:0:
256,192,18269,1,0,0:0:0:0:
256,192,18334,1,8,0:0:0:0:
256,192,18465,1,8,0:0:0:0:
256,192,18530,1,8,0:0:0:0:
256,192,18595,1,0,0:0:0:0:
256,192,18726,1,0,0:0:0:0:
256,192,18791,1,0,0:0:0:0:
256,192,18856,1,8,0:0:0:0:
256,192,18987,1,8,0:0:0:0:
256,192,19117,1,0,0:0:0:0:
256,192,19182,1,8,0:0:0:0:
256,192,19248,1,0,0:0:0:0:
256,192,19313,1,0,0:0:0:0:
256,192,19378,1,8,0:0:0:0:
256,192,19508,1,0,0:0:0:0:
256,192,19574,1,0,0:0:0:0:
256,192,19639,1,0,0:0:0:0:
256,192,19704,1,8,0:0:0:0:
256,192,19769,1,0,0:0:0:0:
256,192,19834,1,0,0:0:0:0:
256,192,19900,1,8,0:0:0:0:
256,192,20030,1,8,0:0:0:0:
256,192,20161,1,0,0:0:0:0:
256,192,20291,1,8,0:0:0:0:
256,192,20356,1,0,0:0:0:0:
256,192,20421,1,8,0:0:0:0:
256,192,20552,1,8,0:0:0:0:
256,192,20682,1,0,0:0:0:0:
256,192,20748,1,8,0:0:0:0:
256,192,20813,1,0,0:0:0:0:
256,192,20878,1,0,0:0:0:0:
256,192,20943,1,8,0:0:0:0:
256,192,21074,1,8,0:0:0:0:
256,192,21204,1,8,0:0:0:0:
256,192,21269,1,0,0:0:0:0:
256,192,21334,1,0,0:0:0:0:
256,192,21400,1,0,0:0:0:0:
256,192,21465,1,8,0:0:0:0:
256,192,21530,1,0,0:0:0:0:
256,192,21595,1,8,0:0:0:0:
256,192,21661,1,0,0:0:0:0:
256,192,21726,1,0,0:0:0:0:
256,192,21791,1,0,0:0:0:0:
256,192,21856,1,8,0:0:0:0:
256,192,21921,1,8,0:0:0:0:
256,192,21987,1,0,0:0:0:0:
256,192,22052,1,0,0:0:0:0:
256,192,22117,1,8,0:0:0:0:
256,192,22182,1,8,0:0:0:0:
256,192,22248,1,0,0:0:0:0:
256,192,22378,1,8,0:0:0:0:
256,192,22508,1,8,0:0:0:0:
256,192,22639,1,8,0:0:0:0:
256,192,22704,1,8,0:0:0:0:
256,192,22769,1,0,0:0:0:0:
256,192,22834,1,0,0:0:0:0:
256,192,22900,1,8,0:0:0:0:
256,192,23030,1,8,0:0:0:0:
256,192,23161,1,8,0:0:0:0:
256,192,23291,1,0,0:0:0:0:
256,192,23356,1,0,0:0:0:0:
256,192,23421,1,8,0:0:0:0:
256,192,23552,1,8,0:0:0:0:
256,192,23682,1,0,0:0:0:0:
256,192,23813,1,8,0:0:0:0:
256,192,23878,1,0,0:0:0:0:
256,192,23943,1,0,0:0:0:0:
256,192,24008,1,0,0:0:0:0:
256,192,24074,1,8,0:0:0:0:
256,192,24204,1,8,0:0:0:0:
256,192,24334,1,0,0:0:0:0:
256,192,24400,1,8,0:0:0:0:
256,192,24465,1,8,0:0:0:0:
256,192,24530,1,0,0:0:0:0:
256,192,24595,1,8,0:0:0:0:
256,192,24726,1,8,0:0:0:0:
256,192,24791,1,0,0:0:0:0:
256,192,24856,1,8,0:0:0:0:
256,192,24921,1,8,0:0:0:0:
256,192,24987,1,0,0:0:0:0:
256,192,25052,1,0,0:0:0:0:
256,192,25117,1,8,0:0:0:0:
256,192,25248,1,8,0:0:0:0:
256,192,25378,1,0,0:0:0:0:
256,192,25443,1,0,0:0:0:0:
256,192,25508,1,0,0:0:0:0:
256,192,25574,1,0,0:0:0:0:
256,192,25639,1,8,0:0:0:0:
256,192,25704,1,0,0:0:0:0:
256,192,25769,1,8,0:0:0:0:
256,192,25834,1,8,0:0:0:0:
256,192,25900,1,0,0:0:0:0:
256,192,25965,1,8,0:0:0:0:
256,192,26030,1,0,0:0:0:0:
256,192,26095,1,0,0:0:0:0:
256,192,26161,1,8,0:0:0:0:
256,192,26226,1,0,0:0:0:0:
256,192,26291,1,8,0:0:0:0:
256,192,26356,1,0,0:0:0:0:
256,192,26421,1,8,0:0:0:0:
256,192,26454,1,8,0:0:0:0:
256,192,26552,1,0,0:0:0:0:
256,192,26682,1,8,0:0:0:0:
256,192,26715,1,8,0:0:0:0:
256,192,26943,1,8,0:0:0:0:
256,192,26976,1,8,0:0:0:0:
256,192,27204,1,8,0:0:0:0:
256,192,27237,1,8,0:0:0:0:
256,192,27334,1,8,0:0:0:0:
256,192,27465,1,0,0:0:0:0:
256,192,27498,1,0,0:0:0:0:
256,192,27595,1,8,0:0:0:0:
256,192,27726,1,0,0:0:0:0:
256,192,27758,1,0,0:0:0:0:
256,192,27856,1,8,0:0:0:0:
256,192,28117,1,8,0:0:0:0:
256,192,28150,1,8,0:0:0:0:
256,192,28248,1,8,0:0:0:0:
256,192,28280,1,8,0:0:0:0:
256,192,28378,1,0,0:0:0:0:
256,192,28639,1,0,0:0:0:0:
256,192,28671,1,0,0:0:0:0:
256,192,28769,1,8,0:0:0:0:
256,192,28802,1,8,0:0:0:0:
256,192,28900,1,8,0:0:0:0:
256,192,29030,1,0,0:0:0:0:
256,192,29063,1,0,0:0:0:0:
256,192,29161,1,8,0:0:0:0:
256,192,29291,1,0,0:0:0:0:
256,192,29324,1,0,0:0:0:0:
256,192,29421,1,8,0:0:0:0:
256,192,29552,1,0,0:0:0:0:
256,192,29584,1,0,0:0:0:0:
256,192,29682,1,0,0:0:0:0:
256,192,29715,1,0,0:0:0:0:
256,192,29813,1,8,0:0:0:0:
256,192,29845,1,8,0:0:0:0:
256,192,29943,1,8,0:0:0:0:
256,192,29976,1,8,0:0:0:0:
256,192,30074,1,0,0:0:0:0:
256,192,30204,1,0,0:0:0:0:
256,192,30269,1,0,0:0:0:0:
256,192,30334,1,8,0:0:0:0:
256,192,30465,1,8,0:0:0:0:
256,192,30595,1,0,0:0:0:0:
256,192,30661,1,0,0:0:0:0:
256,192,30726,1,0,0:0:0:0:
256,192,30791,1,0,0:0:0:0:
256,192,30856,1,8,0:0:0:0:
256,192,30987,1,8,0:0:0:0:
256,192,31117,1,0,0:0:0:0:
256,192,31182,1,8,0:0:0:0:
256,192,31248,1,0,0:0:0:0:
256,192,31313,1,0,0:0:0:0:
256,192,31378,1,8,0:0:0:0:
256,192,31508,1,8,0:0:0:0:
256,192,31639,1,8,0:0:0:0:
256,192,31704,1,0,0:0:0:0:
256,192,31769,1,0,0:0:0:0:
256,192,31834,1,0,0:0:0:0:
256,192,31900,1,8,0:0:0:0:
256,192,31965,1,8,0:0:0:0:
256,192,32030,1,0,0:0:0:0:
256,192,32095,1,0,0:0:0:0:
256,192,32161,1,8,0:0:0:0:
256,192,32226,1,0,0:0:0:0:
256,192,32291,1,0,0:0:0:0:
256,192,32356,1,0,0:0:0:0:
256,192,32421,1,8,0:0:0:0:
256,192,32552,1,8,0:0:0:0:
256,192,32682,1,0,0:0:0:0:
256,192,32813,1,0,0:0:0:0:
256,192,32878,1,0,0:0:0:0:
256,192,32943,1,8,0:0:0:0:
256,192,33074,1,8,0:0:0:0:
256,192,33139,1,0,0:0:0:0:
256,192,33204,1,8,0:0:0:0:
256,192,33334,1,8,0:0:0:0:
256,192,33400,1,8,0:0:0:0:
256,192,33465,1,0,0:0:0:0:
256,192,33595,1,0,0:0:0:0:
256,192,33726,1,8,0:0:0:0:
256,192,33791,1,8,0:0:0:0:
256,192,33856,1,8,0:0:0:0:
256,192,33921,1,8,0:0:0:0:
256,192,33987,1,8,0:0:0:0:
256,192,34052,1,8,0:0:0:0:
256,192,34117,1,8,0:0:0:0:
256,192,34182,1,8,0:0:0:0:
256,192,34248,1,8,0:0:0:0:
256,192,34313,1,8,0:0:0:0:
256,192,34378,1,8,0:0:0:0:
256,192,34443,1,8,0:0:0:0:
256,192,34508,1,8,0:0:0:0:
256,192,34574,1,8,0:0:0:0:
256,192,34639,1,8,0:0:0:0:
256,192,34704,1,8,0:0:0:0:
256,192,34769,1,0,0:0:0:0:
256,192,34900,1,0,0:0:0:0:
256,192,34965,1,0,0:0:0:0:
256,192,35030,1,8,0:0:0:0:
256,192,35161,1,0,0:0:0:0:
256,192,35226,1,8,0:0:0:0:
256,192,35291,1,8,0:0:0:0:
256,192,35421,1,8,0:0:0:0:
256,192,35487,1,8,0:0:0:0:
256,192,35552,1,0,0:0:0:0:
256,192,35682,1,8,0:0:0:0:
256,192,35813,1,0,0:0:0:0:
256,192,35878,1,8,0:0:0:0:
256,192,35943,1,0,0:0:0:0:
256,192,36008,1,0,0:0:0:0:
256,192,36074,1,8,0:0:0:0:
256,192,36204,1,8,0:0:0:0:
256,192,36334,1,0,0:0:0:0:
256,192,36400,1,0,0:0:0:0:
256,192,36465,1,0,0:0:0:0:
256,192,36530,1,0,0:0:0:0:
256,192,36595,1,8,0:0:0:0:
256,192,36726,1,8,0:0:0:0:
256,192,36856,1,0,0:0:0:0:
256,192,36921,1,0,0:0:0:0:
256,192,36987,1,0,0:0:0:0:
256,192,37052,1,0,0:0:0:0:
256,192,37117,1,8,0:0:0:0:
256,192,37248,1,8,0:0:0:0:
256,192,37378,1,8,0:0:0:0:
256,192,37443,1,0,0:0:0:0:
256,192,37508,1,0,0:0:0:0:
256,192,37574,1,0,0:0:0:0:
256,192,37639,1,8,0:0:0:0:
256,192,37704,1,0,0:0:0:0:
256,192,37769,1,0,0:0:0:0:
256,192,37834,1,0,0:0:0:0:
256,192,37900,1,8,0:0:0:0:
256,192,37965,1,0,0:0:0:0:
256,192,38030,1,8,0:0:0:0:
256,192,38095,1,0,0:0:0:0:
256,192,38161,1,8,0:0:0:0:
256,192,38226,1,0,0:0:0:0:
256,192,38291,1,8,0:0:0:0:
256,192,38356,1,0,0:0:0:0:
256,192,38421,1,8,0:0:0:0:
256,192,38682,1,8,0:0:0:0:
256,192,38943,1,4,0:0:0:0:
256,192,39074,1,8,0:0:0:0:
256,192,39139,1,0,0:0:0:0:
256,192,39204,1,8,0:0:0:0:
256,192,39334,1,8,0:0:0:0:
256,192,39465,1,0,0:0:0:0:
256,192,39530,1,8,0:0:0:0:
256,192,39595,1,0,0:0:0:0:
256,192,39661,1,0,0:0:0:0:
256,192,39726,1,8,0:0:0:0:
256,192,39856,1,8,0:0:0:0:
256,192,39987,1,0,0:0:0:0:
256,192,40052,1,8,0:0:0:0:
256,192,40182,1,8,0:0:0:0:
256,192,40248,1,0,0:0:0:0:
256,192,40378,1,8,0:0:0:0:
256,192,40508,1,0,0:0:0:0:
256,192,40574,1,0,0:0:0:0:
256,192,40704,1,8,0:0:0:0:
256,192,40769,1,0,0:0:0:0:
256,192,40900,1,8,0:0:0:0:
256,192,41030,1,8,0:0:0:0:
256,192,41095,1,0,0:0:0:0:
256,192,41161,1,0,0:0:0:0:
256,192,41226,1,0,0:0:0:0:
256,192,41291,1,8,0:0:0:0:
256,192,41421,1,8,0:0:0:0:
256,192,41552,1,0,0:0:0:0:
256,192,41617,1,8,0:0:0:0:
256,192,41748,1,0,0:0:0:0:
256,192,41813,1,8,0:0:0:0:
256,192,41943,1,8,0:0:0:0:
256,192,42074,1,8,0:0:0:0:
256,192,42139,1,8,0:0:0:0:
256,192,42204,1,0,0:0:0:0:
256,192,42269,1,0,0:0:0:0:
256,192,42334,1,8,0:0:0:0:
256,192,42465,1,8,0:0:0:0:
256,192,42595,1,8,0:0:0:0:
256,192,42661,1,0,0:0:0:0:
256,192,42726,1,0,0:0:0:0:
256,192,42791,1,0,0:0:0:0:
256,192,42856,1,8,0:0:0:0:
256,192,42921,1,8,0:0:0:0:
256,192,42987,1,0,0:0:0:0:
256,192,43052,1,0,0:0:0:0:
256,192,43117,1,0,0:0:0:0:
256,192,43182,1,0,0:0:0:0:
256,192,43248,1,0,0:0:0:0:
256,192,43313,1,0,0:0:0:0:
256,192,43378,1,8,0:0:0:0:
256,192,43443,1,8,0:0:0:0:
256,192,43508,1,0,0:0:0:0:
256,192,43574,1,0,0:0:0:0:
256,192,43639,1,0,0:0:0:0:
256,192,43704,1,0,0:0:0:0:
256,192,43769,1,0,0:0:0:0:
256,192,43834,1,0,0:0:0:0:
256,192,43900,1,8,0:0:0:0:
256,192,43965,1,8,0:0:0:0:
256,192,44030,1,0,0:0:0:0:
256,192,44095,1,0,0:0:0:0:
256,192,44161,1,0,0:0:0:0:
256,192,44226,1,0,0:0:0:0:
256,192,44291,1,0,0:0:0:0:
256,192,44356,1,0,0:0:0:0:
256,192,44421,1,8,0:0:0:0:
256,192,44487,1,8,0:0:0:0:
256,192,44552,1,0,0:0:0:0:
256,192,44617,1,0,0:0:0:0:
256,192,44682,1,0,0:0:0:0:
256,192,44748,1,0,0:0:0:0:
256,192,44813,1,0,0:0:0:0:
256,192,44878,1,0,0:0:0:0:
256,192,44943,1,8,0:0:0:0:
256,192,45008,1,8,0:0:0:0:
256,192,45074,1,0,0:0:0:0:
256,192,45139,1,0,0:0:0:0:
256,192,45204,1,8,0:0:0:0:
256,192,45334,1,8,0:0:0:0:
256,192,45465,1,0,0:0:0:0:
256,192,45595,1,8,0:0:0:0:
256,192,45726,1,0,0:0:0:0:
256,192,45791,1,8,0:0:0:0:
256,192,45856,1,0,0:0:0:0:
256,192,45921,1,0,0:0:0:0:
256,192,45987,1,8,0:0:0:0:
256,192,46117,1,8,0:0:0:0:
256,192,46248,1,8,0:0:0:0:
256,192,46313,1,0,0:0:0:0:
256,192,46378,1,0,0:0:0:0:
256,192,46443,1,0,0:0:0:0:
256,192,46508,1,8,0:0:0:0:
256,192,46574,1,0,0:0:0:0:
256,192,46639,1,8,0:0:0:0:
256,192,46704,1,8,0:0:0:0:
256,192,46769,1,0,0:0:0:0:
256,192,46834,1,8,0:0:0:0:
256,192,46900,1,0,0:0:0:0:
256,192,46965,1,0,0:0:0:0:
256,192,47030,1,8,0:0:0:0:
256,192,47095,1,8,0:0:0:0:
256,192,47161,1,8,0:0:0:0:
256,192,47226,1,8,0:0:0:0:
256,192,47291,1,4,0:0:0:0:
256,192,47487,1,0,0:0:0:0:
256,192,47552,1,8,0:0:0:0:
256,192,47617,1,0,0:0:0:0:
256,192,47682,1,8,0:0:0:0:
256,192,47813,1,0,0:0:0:0:
256,192,47878,1,0,0:0:0:0:
256,192,47943,1,8,0:0:0:0:
256,192,48074,1,0,0:0:0:0:
256,192,48204,1,8,0:0:0:0:
256,192,48334,1,8,0:0:0:0:
256,192,48465,1,0,0:0:0:0:
256,192,48530,1,0,0:0:0:0:
256,192,48595,1,8,0:0:0:0:
256,192,48726,1,8,0:0:0:0:
256,192,48856,1,0,0:0:0:0:
256,192,48921,1,0,0:0:0:0:
256,192,48987,1,8,0:0:0:0:
256,192,49052,1,8,0:0:0:0:
256,192,49117,1,0,0:0:0:0:
256,192,49248,1,8,0:0:0:0:
256,192,49378,1,0,0:0:0:0:
256,192,49443,1,0,0:0:0:0:
256,192,49508,1,0,0:0:0:0:
256,192,49574,1,0,0:0:0:0:
256,192,49639,1,8,0:0:0:0:
256,192,49769,1,8,0:0:0:0:
256,192,49900,1,8,0:0:0:0:
256,192,49965,1,0,0:0:0:0:
256,192,50030,1,8,0:0:0:0:
256,192,50095,1,8,0:0:0:0:
256,192,50161,1,0,0:0:0:0:
256,192,50226,1,0,0:0:0:0:
256,192,50291,1,8,0:0:0:0:
256,192,50421,1,8,0:0:0:0:
256,192,50552,1,0,0:0:0:0:
256,192,50617,1,8,0:0:0:0:
256,192,50682,1,0,0:0:0:0:
256,192,50748,1,0,0:0:0:0:
256,192,50813,1,8,0:0:0:0:
256,192,50943,1,8,0:0:0:0:
256,192,51008,1,0,0:0:0:0:
256,192,51074,1,0,0:0:0:0:
256,192,51139,1,0,0:0:0:0:
256,192,51204,1,8,0:0:0:0:
256,192,51334,1,8,0:0:0:0:
256,192,51465,1,0,0:0:0:0:
256,192,51530,1,0,0:0:0:0:
256,192,51595,1,8,0:0:0:0:
256,192,51726,1,8,0:0:0:0:
256,192,51856,1,8,0:0:0:0:
256,192,51987,1,0,0:0:0:0:
256,192,52052,1,8,0:0:0:0:
256,192,52117,1,0,0:0:0:0:
256,192,52182,1,0,0:0:0:0:
256,192,52248,1,8,0:0:0:0:
256,192,52378,1,8,0:0:0:0:
256,192,52508,1,0,0:0:0:0:
256,192,52574,1,0,0:0:0:0:
256,192,52639,1,8,0:0:0:0:
256,192,52704,1,8,0:0:0:0:
256,192,52769,1,0,0:0:0:0:
256,192,52900,1,8,0:0:0:0:
256,192,53030,1,0,0:0:0:0:
256,192,53095,1,0,0:0:0:0:
256,192,53161,1,0,0:0:0:0:
256,192,53226,1,0,0:0:0:0:
256,192,53291,1,8,0:0:0:0:
256,192,53421,1,8,0:0:0:0:
256,192,53552,1,8,0:0:0:0:
256,192,53617,1,0,0:0:0:0:
256,192,53682,1,0,0:0:0:0:
256,192,53748,1,0,0:0:0:0:
256,192,53813,1,8,0:0:0:0:
256,192,53878,1,0,0:0:0:0:
256,192,53943,1,0,0:0:0:0:
256,192,54008,1,0,0:0:0:0:
256,192,54074,1,8,0:0:0:0:
256,192,54139,1,0,0:0:0:0:
256,192,54204,1,8,0:0:0:0:
256,192,54269,1,0,0:0:0:0:
256,192,54334,1,8,0:0:0:0:
256,192,54400,1,0,0:0:0:0:
256,192,54465,1,8,0:0:0:0:
256,192,54530,1,0,0:0:0:0:
256,192,54595,1,8,0:0:0:0:
256,192,54682,1,0,0:0:0:0:
256,192,54769,1,0,0:0:0:0:
256,192,54856,1,8,0:0:0:0:
256,192,54943,1,0,0:0:0:0:
256,192,55030,1,0,0:0:0:0:
256,192,55117,1,8,0:0:0:0:
256,192,55204,1,8,0:0:0:0:
256,192,55291,1,0,0:0:0:0:
256,192,55378,1,8,0:0:0:0:
256,192,55465,1,8,0:0:0:0:
256,192,55552,1,0,0:0:0:0:
256,192,55639,1,4,0:0:0:0:
256,192,56161,1,0,0:0:0:0:
256,192,56682,1,0,0:0:0:0:
256,192,57204,1,0,0:0:0:0:
256,94,57726,5,0,0:0:0:0:
256,94,57900,1,0,0:0:0:0:
256,94,58074,1,0,0:0:0:0:
256,94,58248,1,0,0:0:0:0:
256,94,58421,1,0,0:0:0:0:
256,94,58595,1,0,0:0:0:0:
256,94,58769,1,0,0:0:0:0:
256,94,58943,1,0,0:0:0:0:
256,94,59117,1,0,0:0:0:0:
256,94,59291,1,0,0:0:0:0:
256,94,59465,1,0,0:0:0:0:
256,94,59639,1,0,0:0:0:0:
256,94,59813,1,0,0:0:0:0:
256,94,59943,1,0,0:0:0:0:
256,94,60074,1,0,0:0:0:0:
256,94,60204,1,0,0:0:0:0:
255,98,60334,1,0,0:0:0:0:
255,98,60465,1,0,0:0:0:0:
255,98,60595,1,0,0:0:0:0:
255,98,60726,1,0,0:0:0:0:
250,95,60856,1,0,0:0:0:0:
250,95,60987,1,0,0:0:0:0:
250,95,61117,1,0,0:0:0:0:
250,95,61248,1,0,0:0:0:0:
255,98,61378,1,0,0:0:0:0:
255,98,61508,1,0,0:0:0:0:
255,98,61639,1,0,0:0:0:0:
259,96,61769,1,0,0:0:0:0:
261,114,61900,1,0,0:0:0:0:
261,114,62004,1,0,0:0:0:0:
261,114,62108,1,0,0:0:0:0:
261,114,62213,1,0,0:0:0:0:
261,114,62317,1,0,0:0:0:0:
261,114,62421,1,0,0:0:0:0:
261,114,62526,1,0,0:0:0:0:
261,114,62630,1,0,0:0:0:0:
261,114,62734,1,0,0:0:0:0:
261,114,62839,1,0,0:0:0:0:
261,114,62943,1,0,0:0:0:0:
261,114,63048,1,0,0:0:0:0:
261,114,63152,1,0,0:0:0:0:
261,114,63256,1,0,0:0:0:0:
261,114,63361,1,0,0:0:0:0:
261,114,63465,1,0,0:0:0:0:
255,119,63987,1,0,0:0:0:0:
255,119,64074,1,0,0:0:0:0:
255,119,64161,1,0,0:0:0:0:
255,119,64248,1,0,0:0:0:0:
255,119,64334,1,0,0:0:0:0:
255,118,64421,1,0,0:0:0:0:
255,119,64508,1,0,0:0:0:0:
255,119,64595,1,0,0:0:0:0:
255,119,64682,1,0,0:0:0:0:
255,119,64769,1,0,0:0:0:0:
255,119,64856,1,0,0:0:0:0:
255,118,64943,1,0,0:0:0:0:
255,119,65030,1,0,0:0:0:0:
255,119,65117,1,0,0:0:0:0:
255,119,65204,1,0,0:0:0:0:
255,119,65291,1,0,0:0:0:0:
255,119,65378,1,0,0:0:0:0:
255,118,65465,1,0,0:0:0:0:
255,119,65552,1,0,0:0:0:0:
255,119,65639,1,0,0:0:0:0:
255,119,65726,1,0,0:0:0:0:
255,119,65813,1,0,0:0:0:0:
255,119,65900,1,0,0:0:0:0:
255,118,65987,5,0,0:0:0:0:
255,119,66074,1,0,0:0:0:0:
255,119,66148,1,0,0:0:0:0:
255,119,66223,1,0,0:0:0:0:
255,119,66297,1,0,0:0:0:0:
255,119,66372,1,0,0:0:0:0:
256,123,66446,1,0,0:0:0:0:
255,119,66521,1,0,0:0:0:0:
255,119,66595,1,0,0:0:0:0:
255,119,66670,1,0,0:0:0:0:
255,119,66744,1,0,0:0:0:0:
255,119,66819,1,0,0:0:0:0:
255,119,66894,1,0,0:0:0:0:
256,123,66968,1,0,0:0:0:0:
255,119,67043,1,0,0:0:0:0:
255,119,67117,1,0,0:0:0:0:
256,192,67182,12,0,67639,0:0:0:0:
255,119,68161,5,0,0:0:0:0:
255,119,68226,1,0,0:0:0:0:
255,119,68291,1,0,0:0:0:0:
255,119,68356,1,0,0:0:0:0:
255,119,68421,1,0,0:0:0:0:
255,119,68487,1,0,0:0:0:0:
255,119,68552,1,0,0:0:0:0:
255,119,68617,1,0,0:0:0:0:
255,119,68682,1,0,0:0:0:0:
255,119,68748,1,0,0:0:0:0:
255,119,68813,1,0,0:0:0:0:
255,119,68878,1,0,0:0:0:0:
255,119,68943,1,0,0:0:0:0:
255,119,69008,1,0,0:0:0:0:
255,119,69074,1,0,0:0:0:0:
255,119,69139,1,0,0:0:0:0:
255,119,69204,1,0,0:0:0:0:
255,119,69269,1,0,0:0:0:0:
255,119,69334,1,0,0:0:0:0:
255,119,69400,1,0,0:0:0:0:
156,114,69465,5,0,0:0:0:0:
256,192,69530,12,0,69726,0:0:0:0:
256,192,70248,5,12,0:0:0:0:
256,192,70769,1,0,0:0:0:0:
256,192,71030,1,0,0:0:0:0:
256,192,71291,5,4,0:0:0:0:
256,192,72334,5,4,0:0:0:0:
256,192,72855,1,8,0:0:0:0:
256,192,73899,1,8,0:0:0:0:
256,192,74420,1,8,0:0:0:0:
256,192,74486,1,8,0:0:0:0:
256,192,74551,1,8,0:0:0:0:
256,192,75203,1,0,0:0:0:0:
256,192,75464,1,8,0:0:0:0:
256,192,75986,1,8,0:0:0:0:
256,192,76247,1,8,0:0:0:0:
256,192,76507,1,0,0:0:0:0:
256,192,77551,1,8,0:0:0:0:
256,192,78334,1,0,0:0:0:0:
256,192,78464,1,0,0:0:0:0:
256,192,78594,1,8,0:0:0:0:
256,192,80160,1,0,0:0:0:0:
256,192,80420,1,8,0:0:0:0:
256,192,80681,1,0,0:0:0:0:
256,192,81203,1,8,0:0:0:0:
256,192,81464,1,8,0:0:0:0:
256,192,81725,1,0,0:0:0:0:
256,192,82507,1,0,0:0:0:0:
256,192,82638,1,0,0:0:0:0:
256,192,82768,1,8,0:0:0:0:
256,192,83160,1,8,0:0:0:0:
256,192,83551,1,8,0:0:0:0:
256,192,83812,1,0,0:0:0:0:
256,192,84334,1,8,0:0:0:0:
256,192,84855,1,8,0:0:0:0:
256,192,86420,1,8,0:0:0:0:
256,192,86942,12,0,87986,0:0:0:0:
256,192,88507,5,8,0:0:0:0:
256,192,88638,1,0,0:0:0:0:
256,192,88768,1,8,0:0:0:0:
256,192,88899,1,0,0:0:0:0:
256,192,89030,5,8,0:0:0:0:
256,192,89160,1,8,0:0:0:0:
256,192,89225,1,8,0:0:0:0:
256,192,89290,1,0,0:0:0:0:
256,192,89421,1,0,0:0:0:0:
256,192,89551,1,8,0:0:0:0:
256,192,89682,1,0,0:0:0:0:
256,192,89812,1,8,0:0:0:0:
256,192,89877,1,0,0:0:0:0:
256,192,89943,1,8,0:0:0:0:
256,192,90073,1,0,0:0:0:0:
256,192,90203,1,0,0:0:0:0:
256,192,90334,1,8,0:0:0:0:
256,192,90399,1,0,0:0:0:0:
256,192,90464,1,0,0:0:0:0:
256,192,90595,1,8,0:0:0:0:
256,192,90660,1,8,0:0:0:0:
256,192,90725,1,0,0:0:0:0:
256,192,90856,1,8,0:0:0:0:
256,192,90986,1,0,0:0:0:0:
256,192,91116,1,8,0:0:0:0:
256,192,91247,1,0,0:0:0:0:
256,192,91312,1,0,0:0:0:0:
256,192,91377,1,8,0:0:0:0:
256,192,91508,1,8,0:0:0:0:
256,192,91638,1,0,0:0:0:0:
256,192,91703,1,0,0:0:0:0:
256,192,91769,1,0,0:0:0:0:
256,192,91899,1,8,0:0:0:0:
256,192,92030,1,8,0:0:0:0:
256,192,92160,1,0,0:0:0:0:
256,192,92290,1,8,0:0:0:0:
256,192,92356,1,8,0:0:0:0:
256,192,92421,1,0,0:0:0:0:
256,192,92551,1,0,0:0:0:0:
256,192,92616,1,0,0:0:0:0:
256,192,92682,1,8,0:0:0:0:
256,192,92812,1,0,0:0:0:0:
256,192,92877,1,8,0:0:0:0:
256,192,92943,1,0,0:0:0:0:
256,192,93073,1,8,0:0:0:0:
256,192,93138,1,0,0:0:0:0:
256,192,93203,1,8,0:0:0:0:
256,192,93334,1,0,0:0:0:0:
256,192,93464,1,8,0:0:0:0:
256,192,93595,1,0,0:0:0:0:
256,192,93660,1,0,0:0:0:0:
256,192,93725,1,8,0:0:0:0:
256,192,93856,1,8,0:0:0:0:
256,192,93986,1,0,0:0:0:0:
256,192,94051,1,0,0:0:0:0:
256,192,94116,1,0,0:0:0:0:
256,192,94247,1,8,0:0:0:0:
256,192,94312,1,0,0:0:0:0:
256,192,94377,1,0,0:0:0:0:
256,192,94508,1,0,0:0:0:0:
256,192,94573,1,8,0:0:0:0:
256,192,94638,1,8,0:0:0:0:
256,192,94769,1,8,0:0:0:0:
256,192,94834,1,8,0:0:0:0:
256,192,94899,1,8,0:0:0:0:
256,192,95030,1,0,0:0:0:0:
256,192,95160,1,8,0:0:0:0:
256,192,95290,1,0,0:0:0:0:
256,192,95421,1,0,0:0:0:0:
256,192,95486,1,0,0:0:0:0:
256,192,95551,1,8,0:0:0:0:
256,192,95682,5,0,0:0:0:0:
256,192,95812,1,8,0:0:0:0:
256,192,95943,1,8,0:0:0:0:
256,192,96073,1,0,0:0:0:0:
256,192,96203,1,8,0:0:0:0:
256,192,96334,1,0,0:0:0:0:
256,192,96464,1,8,0:0:0:0:
256,192,96529,1,8,0:0:0:0:
256,192,96595,1,0,0:0:0:0:
256,192,96725,1,0,0:0:0:0:
256,192,96856,1,8,0:0:0:0:
256,192,96986,1,8,0:0:0:0:
256,192,97116,1,0,0:0:0:0:
256,192,97247,1,0,0:0:0:0:
256,192,97377,1,4,0:0:0:0:
256,192,97638,1,8,0:0:0:0:
256,192,97769,1,0,0:0:0:0:
256,192,97899,1,8,0:0:0:0:
256,192,98029,1,8,0:0:0:0:
256,192,98160,1,0,0:0:0:0:
256,192,98290,1,0,0:0:0:0:
256,192,98421,1,8,0:0:0:0:
256,192,98551,1,0,0:0:0:0:
256,192,98616,1,8,0:0:0:0:
256,192,98747,1,8,0:0:0:0:
256,192,98812,1,0,0:0:0:0:
256,192,98943,1,8,0:0:0:0:
256,192,99073,1,0,0:0:0:0:
256,192,99203,1,8,0:0:0:0:
256,192,99334,1,8,0:0:0:0:
256,192,99464,1,0,0:0:0:0:
256,192,99725,1,8,0:0:0:0:
256,192,99856,1,0,0:0:0:0:
256,192,99921,1,8,0:0:0:0:
256,192,99986,1,8,0:0:0:0:
256,192,100116,1,0,0:0:0:0:
256,192,100247,1,8,0:0:0:0:
256,192,100377,1,8,0:0:0:0:
256,192,100508,1,0,0:0:0:0:
256,192,100638,1,0,0:0:0:0:
256,192,100703,1,0,0:0:0:0:
256,192,100769,1,8,0:0:0:0:
256,192,100899,1,8,0:0:0:0:
256,192,101029,1,0,0:0:0:0:
256,192,101160,1,8,0:0:0:0:
256,192,101225,1,8,0:0:0:0:
256,192,101290,1,0,0:0:0:0:
256,192,101356,1,0,0:0:0:0:
256,192,101421,1,8,0:0:0:0:
256,192,101551,1,0,0:0:0:0:
256,192,101682,1,8,0:0:0:0:
256,192,101812,1,0,0:0:0:0:
256,192,101943,1,0,0:0:0:0:
256,192,102073,1,8,0:0:0:0:
256,192,102203,1,0,0:0:0:0:
256,192,102269,1,0,0:0:0:0:
256,192,102334,1,8,0:0:0:0:
256,192,102464,1,0,0:0:0:0:
256,192,102529,1,0,0:0:0:0:
256,192,102595,1,8,0:0:0:0:
256,192,102725,1,0,0:0:0:0:
256,192,102790,1,8,0:0:0:0:
256,192,102856,1,0,0:0:0:0:
256,192,102986,1,8,0:0:0:0:
256,192,103116,1,0,0:0:0:0:
256,192,103182,1,0,0:0:0:0:
256,192,103247,1,8,0:0:0:0:
256,192,103312,1,8,0:0:0:0:
256,192,103377,1,0,0:0:0:0:
256,192,103508,1,8,0:0:0:0:
256,192,103573,1,8,0:0:0:0:
256,192,103638,1,0,0:0:0:0:
256,192,103703,1,0,0:0:0:0:
256,192,103769,1,8,0:0:0:0:
256,192,103834,1,0,0:0:0:0:
256,192,103899,1,8,0:0:0:0:
256,192,103964,1,8,0:0:0:0:
256,192,104029,1,8,0:0:0:0:
256,192,104095,1,8,0:0:0:0:
256,192,104160,1,0,0:0:0:0:
256,192,104225,1,8,0:0:0:0:
256,192,104290,1,0,0:0:0:0:
256,192,104356,1,0,0:0:0:0:
256,192,104421,1,8,0:0:0:0:
256,192,104486,1,0,0:0:0:0:
256,192,104551,1,8,0:0:0:0:
256,192,104616,1,8,0:0:0:0:
256,192,104682,1,0,0:0:0:0:
256,192,105203,1,0,0:0:0:0:
256,192,105464,1,0,0:0:0:0:
256,192,105725,1,8,0:0:0:0:
256,192,105856,1,8,0:0:0:0:
256,192,105986,1,0,0:0:0:0:
256,192,106116,1,0,0:0:0:0:
256,192,106247,1,8,0:0:0:0:
256,192,106508,1,0,0:0:0:0:
256,192,106769,1,8,0:0:0:0:
256,192,106899,1,8,0:0:0:0:
256,192,107029,1,0,0:0:0:0:
256,192,107160,1,8,0:0:0:0:
256,192,107290,1,0,0:0:0:0:
256,192,107551,1,8,0:0:0:0:
256,192,107616,1,8,0:0:0:0:
256,192,107682,1,8,0:0:0:0:
256,192,107812,1,4,0:0:0:0:
256,192,107943,1,8,0:0:0:0:
256,192,108008,1,0,0:0:0:0:
256,192,108073,1,8,0:0:0:0:
256,192,108138,1,8,0:0:0:0:
256,192,108203,1,0,0:0:0:0:
256,192,108334,1,8,0:0:0:0:
256,192,108399,1,0,0:0:0:0:
256,192,108464,1,0,0:0:0:0:
256,192,108529,1,8,0:0:0:0:
256,192,108595,1,0,0:0:0:0:
256,192,108660,1,0,0:0:0:0:
256,192,108725,1,8,0:0:0:0:
256,192,108790,1,8,0:0:0:0:
256,192,108856,1,0,0:0:0:0:
256,192,108986,1,8,0:0:0:0:
256,192,109116,1,0,0:0:0:0:
256,192,109182,1,0,0:0:0:0:
256,192,109247,1,8,0:0:0:0:
256,192,109312,1,0,0:0:0:0:
256,192,109377,1,8,0:0:0:0:
256,192,109443,1,8,0:0:0:0:
256,192,109508,1,0,0:0:0:0:
256,192,109573,1,8,0:0:0:0:
256,192,109638,1,0,0:0:0:0:
256,192,109769,1,8,0:0:0:0:
256,192,109834,1,8,0:0:0:0:
256,192,109899,1,0,0:0:0:0:
256,192,109964,1,8,0:0:0:0:
256,192,110029,1,0,0:0:0:0:
256,192,110095,1,0,0:0:0:0:
256,192,110160,1,8,0:0:0:0:
256,192,110225,1,0,0:0:0:0:
256,192,110290,1,8,0:0:0:0:
256,192,110356,1,8,0:0:0:0:
256,192,110421,1,0,0:0:0:0:
256,192,110551,1,0,0:0:0:0:
256,192,110616,1,0,0:0:0:0:
256,192,110682,1,8,0:0:0:0:
256,192,110747,1,0,0:0:0:0:
256,192,110812,1,0,0:0:0:0:
256,192,110877,1,0,0:0:0:0:
256,192,110943,1,8,0:0:0:0:
256,192,111073,1,8,0:0:0:0:
256,192,111138,1,8,0:0:0:0:
256,192,111203,1,0,0:0:0:0:
256,192,111269,1,8,0:0:0:0:
256,192,111334,1,0,0:0:0:0:
256,192,111399,1,0,0:0:0:0:
256,192,111464,1,8,0:0:0:0:
256,192,111595,1,0,0:0:0:0:
256,192,111660,1,8,0:0:0:0:
256,192,111725,1,8,0:0:0:0:
256,192,111790,1,0,0:0:0:0:
256,192,111856,1,8,0:0:0:0:
256,192,111921,1,8,0:0:0:0:
256,192,111986,1,0,0:0:0:0:
256,192,112116,1,8,0:0:0:0:
256,192,112182,1,0,0:0:0:0:
256,192,112247,1,8,0:0:0:0:
256,192,112312,1,8,0:0:0:0:
256,192,112377,1,0,0:0:0:0:
256,192,112443,1,8,0:0:0:0:
256,192,112508,1,0,0:0:0:0:
256,192,112573,1,0,0:0:0:0:
256,192,112638,1,8,0:0:0:0:
256,192,112703,1,8,0:0:0:0:
256,192,112769,1,0,0:0:0:0:
256,192,113029,1,8,0:0:0:0:
256,192,113095,1,0,0:0:0:0:
256,192,113160,1,0,0:0:0:0:
256,192,113225,1,8,0:0:0:0:
256,192,113290,1,0,0:0:0:0:
256,192,113356,1,0,0:0:0:0:
256,192,113421,1,8,0:0:0:0:
256,192,113486,1,0,0:0:0:0:
256,192,113551,1,8,0:0:0:0:
256,192,113616,1,8,0:0:0:0:
256,192,113682,1,0,0:0:0:0:
256,192,113747,1,0,0:0:0:0:
256,192,113812,1,8,0:0:0:0:
256,192,113856,1,0,0:0:0:0:
256,192,113899,1,0,0:0:0:0:
256,192,113943,1,8,0:0:0:0:
256,192,114073,1,4,0:0:0:0:
256,192,114203,1,8,0:0:0:0:
256,192,114334,1,0,0:0:0:0:
256,192,114399,1,0,0:0:0:0:
256,192,114464,1,8,0:0:0:0:
256,192,114508,1,8,0:0:0:0:
256,192,114551,1,8,0:0:0:0:
256,192,114595,1,0,0:0:0:0:
256,192,114660,1,0,0:0:0:0:
256,192,114725,1,8,0:0:0:0:
256,192,114790,1,0,0:0:0:0:
256,192,114856,1,8,0:0:0:0:
256,192,114921,1,8,0:0:0:0:
256,192,114986,1,0,0:0:0:0:
256,192,115029,1,0,0:0:0:0:
256,192,115073,1,0,0:0:0:0:
256,192,115116,1,8,0:0:0:0:
256,192,115247,1,0,0:0:0:0:
256,192,115312,1,0,0:0:0:0:
256,192,115377,1,8,0:0:0:0:
256,192,115443,1,8,0:0:0:0:
256,192,115508,1,0,0:0:0:0:
256,192,115551,1,8,0:0:0:0:
256,192,115595,1,8,0:0:0:0:
256,192,115638,1,0,0:0:0:0:
256,192,115769,1,8,0:0:0:0:
256,192,115834,1,8,0:0:0:0:
256,192,115964,1,0,0:0:0:0:
256,192,116029,1,8,0:0:0:0:
256,192,116073,1,8,0:0:0:0:
256,192,116116,1,8,0:0:0:0:
256,192,116160,1,0,0:0:0:0:
256,192,116290,1,0,0:0:0:0:
256,192,116356,1,0,0:0:0:0:
256,192,116421,1,8,0:0:0:0:
256,192,116486,1,8,0:0:0:0:
256,192,116551,1,0,0:0:0:0:
256,192,116595,1,0,0:0:0:0:
256,192,116638,1,0,0:0:0:0:
256,192,116682,1,8,0:0:0:0:
256,192,116747,1,8,0:0:0:0:
256,192,116812,1,0,0:0:0:0:
256,192,116877,1,0,0:0:0:0:
256,192,116943,1,8,0:0:0:0:
256,192,117008,1,0,0:0:0:0:
256,192,117073,1,8,0:0:0:0:
256,192,117116,1,8,0:0:0:0:
256,192,117160,1,8,0:0:0:0:
256,192,117203,1,0,0:0:0:0:
256,192,117334,1,8,0:0:0:0:
256,192,117399,1,8,0:0:0:0:
256,192,117464,1,0,0:0:0:0:
256,192,117529,1,0,0:0:0:0:
256,192,117595,1,8,0:0:0:0:
256,192,117638,1,0,0:0:0:0:
256,192,117682,1,0,0:0:0:0:
256,192,117725,1,8,0:0:0:0:
256,192,117856,1,0,0:0:0:0:
256,192,117921,1,0,0:0:0:0:
256,192,117986,1,8,0:0:0:0:
256,192,118019,1,8,0:0:0:0:
256,192,118051,1,8,0:0:0:0:
256,192,118084,1,8,0:0:0:0:
256,192,118116,1,0,0:0:0:0:
256,192,118182,1,0,0:0:0:0:
256,192,118247,1,8,0:0:0:0:
256,192,118377,1,0,0:0:0:0:
256,192,118508,1,8,0:0:0:0:
256,192,118573,1,8,0:0:0:0:
256,192,118638,1,0,0:0:0:0:
256,192,118682,1,0,0:0:0:0:
256,192,118725,1,0,0:0:0:0:
256,192,118769,1,8,0:0:0:0:
256,192,118834,1,0,0:0:0:0:
256,192,118899,1,0,0:0:0:0:
256,192,118964,1,8,0:0:0:0:
256,192,119029,1,8,0:0:0:0:
256,192,119095,1,0,0:0:0:0:
256,192,119160,1,8,0:0:0:0:
256,192,119290,5,4,0:0:0:0:
256,192,119486,1,4,0:0:0:0:
256,192,119682,1,4,0:0:0:0:
256,192,119812,1,8,0:0:0:0:
256,192,119856,1,8,0:0:0:0:
256,192,119899,1,8,0:0:0:0:
256,192,119943,1,0,0:0:0:0:
256,192,120008,1,0,0:0:0:0:
256,192,120073,1,8,0:0:0:0:
256,192,120116,1,0,0:0:0:0:
256,192,120160,1,0,0:0:0:0:
256,192,120203,1,8,0:0:0:0:
256,192,120334,1,4,0:0:0:0:
256,192,120399,12,0,122290,0:0:0:0:
256,192,122419,5,0,0:0:0:0:
256,192,122569,1,8,0:0:0:0:
256,192,122606,1,8,0:0:0:0:
256,192,122719,1,8,0:0:0:0:
256,192,122756,1,8,0:0:0:0:
256,192,122869,1,8,0:0:0:0:
256,192,122906,1,8,0:0:0:0:
256,192,123019,1,0,0:0:0:0:
256,192,123056,1,0,0:0:0:0:
256,192,123169,1,8,0:0:0:0:
256,192,123206,1,8,0:0:0:0:
256,192,123319,1,8,0:0:0:0:
256,192,123356,1,8,0:0:0:0:
256,192,123469,1,8,0:0:0:0:
256,192,123506,1,8,0:0:0:0:
256,192,123619,1,0,0:0:0:0:
256,192,123769,1,8,0:0:0:0:
256,192,123806,1,8,0:0:0:0:
256,192,123919,1,0,0:0:0:0:
256,192,123956,1,0,0:0:0:0:
256,192,124069,1,0,0:0:0:0:
256,192,124106,1,0,0:0:0:0:
256,192,124219,1,8,0:0:0:0:
256,192,124256,1,8,0:0:0:0:
256,192,124369,1,0,0:0:0:0:
256,192,124406,1,0,0:0:0:0:
256,192,124519,1,8,0:0:0:0:
256,192,124556,1,8,0:0:0:0:
256,192,124669,1,0,0:0:0:0:
256,192,124706,1,0,0:0:0:0:
256,192,124819,1,8,0:0:0:0:
256,192,124969,1,0,0:0:0:0:
256,192,125119,1,8,0:0:0:0:
256,192,125269,1,8,0:0:0:0:
256,192,125419,1,0,0:0:0:0:
256,192,125569,1,8,0:0:0:0:
256,192,125719,1,8,0:0:0:0:
256,192,125869,1,8,0:0:0:0:
256,192,126019,1,0,0:0:0:0:
256,192,126319,1,0,0:0:0:0:
256,192,126919,1,8,0:0:0:0:
256,192,126969,1,8,0:0:0:0:
256,192,127019,1,8,0:0:0:0:
256,192,127069,1,0,0:0:0:0:
256,192,127119,1,0,0:0:0:0:
256,192,127169,1,0,0:0:0:0:
256,192,127219,5,12,0:0:0:0:
256,192,127369,1,0,0:0:0:0:
256,192,127519,1,0,0:0:0:0:
256,192,127594,1,0,0:0:0:0:
256,192,127669,1,0,0:0:0:0:
256,192,127819,1,8,0:0:0:0:
256,192,127969,1,0,0:0:0:0:
256,192,128119,1,0,0:0:0:0:
256,192,128194,1,0,0:0:0:0:
256,192,128269,1,0,0:0:0:0:
256,192,128419,1,0,0:0:0:0:
256,192,128569,1,0,0:0:0:0:
256,192,128719,1,0,0:0:0:0:
256,192,128794,1,0,0:0:0:0:
256,192,128869,1,0,0:0:0:0:
256,192,129019,1,8,0:0:0:0:
256,192,129169,1,0,0:0:0:0:
256,192,129319,1,0,0:0:0:0:
256,192,129394,1,0,0:0:0:0:
256,192,129469,1,0,0:0:0:0:
256,192,129619,1,0,0:0:0:0:
256,192,129769,1,0,0:0:0:0:
256,192,129919,1,0,0:0:0:0:
256,192,129994,1,0,0:0:0:0:
256,192,130069,1,0,0:0:0:0:
256,192,130219,1,8,0:0:0:0:
256,192,130369,1,0,0:0:0:0:
256,192,130519,1,0,0:0:0:0:
256,192,130594,1,0,0:0:0:0:
256,192,130669,1,0,0:0:0:0:
256,192,130819,1,0,0:0:0:0:
256,192,130969,1,0,0:0:0:0:
256,192,131119,1,0,0:0:0:0:
256,192,131194,1,0,0:0:0:0:
256,192,131269,1,0,0:0:0:0:
256,192,131419,1,8,0:0:0:0:
256,192,131569,1,0,0:0:0:0:
256,192,131719,2,8,L|288:192,1,26.6477100379322
256,192,132019,1,0,0:0:0:0:
256,192,132169,1,8,0:0:0:0:
256,192,132319,1,0,0:0:0:0:
256,192,132394,1,0,0:0:0:0:
256,192,132469,1,0,0:0:0:0:
256,192,132619,1,8,0:0:0:0:
256,192,132769,1,0,0:0:0:0:
256,192,132919,1,8,0:0:0:0:
256,192,132994,1,0,0:0:0:0:
256,192,133069,1,8,0:0:0:0:
256,192,133219,1,0,0:0:0:0:
256,192,133319,1,0,0:0:0:0:
256,192,133419,1,0,0:0:0:0:
256,192,133519,1,8,0:0:0:0:
256,192,133619,1,8,0:0:0:0:
256,192,133719,1,8,0:0:0:0:
256,192,133819,1,0,0:0:0:0:
256,192,133919,1,0,0:0:0:0:
256,192,134019,1,8,0:0:0:0:
256,192,134119,1,0,0:0:0:0:
256,192,134219,1,8,0:0:0:0:
256,192,134319,1,8,0:0:0:0:
256,192,134419,1,0,0:0:0:0:
256,192,134494,1,0,0:0:0:0:
256,192,134569,1,8,0:0:0:0:
256,192,134644,1,8,0:0:0:0:
256,192,134719,1,0,0:0:0:0:
256,192,134794,1,0,0:0:0:0:
256,192,134869,1,8,0:0:0:0:
256,192,134944,1,0,0:0:0:0:
256,192,135019,1,8,0:0:0:0:
256,192,135094,1,8,0:0:0:0:
256,192,135169,1,8,0:0:0:0:
256,192,135244,1,0,0:0:0:0:
256,192,135319,1,8,0:0:0:0:
256,192,135394,1,8,0:0:0:0:
256,192,135469,1,0,0:0:0:0:
256,192,135544,1,0,0:0:0:0:
256,192,135619,1,8,0:0:0:0:
256,192,135669,1,8,0:0:0:0:
256,192,135719,1,8,0:0:0:0:
256,192,135769,1,8,0:0:0:0:
256,192,135819,1,8,0:0:0:0:
256,192,135869,1,8,0:0:0:0:
256,192,135919,1,0,0:0:0:0:
256,192,135994,1,0,0:0:0:0:
256,192,136069,1,0,0:0:0:0:
256,192,136144,1,0,0:0:0:0:
256,192,136219,1,8,0:0:0:0:
256,192,136269,1,8,0:0:0:0:
256,192,136319,1,0,0:0:0:0:
256,192,136369,1,0,0:0:0:0:
256,192,136419,1,8,0:0:0:0:
256,192,136469,1,8,0:0:0:0:
256,192,136519,1,0,0:0:0:0:
256,192,136594,1,0,0:0:0:0:
256,192,136669,1,0,0:0:0:0:
256,192,136744,1,0,0:0:0:0:
256,192,136819,1,12,0:0:0:0:
256,192,137019,1,0,0:0:0:0:
256,192,137219,1,0,0:0:0:0:
256,192,137419,1,8,0:0:0:0:
256,192,137619,1,0,0:0:0:0:
256,192,137819,1,0,0:0:0:0:
256,192,138019,1,8,0:0:0:0:
256,192,138169,1,8,0:0:0:0:
256,192,138319,1,0,0:0:0:0:
256,192,138394,1,0,0:0:0:0:
256,192,138469,1,0,0:0:0:0:
256,192,138619,1,8,0:0:0:0:
256,192,138769,1,0,0:0:0:0:
256,192,138919,1,8,0:0:0:0:
256,192,138994,1,0,0:0:0:0:
256,192,139069,1,8,0:0:0:0:
256,192,139219,1,0,0:0:0:0:
256,192,139339,1,8,0:0:0:0:
256,192,139459,1,0,0:0:0:0:
256,192,139579,1,0,0:0:0:0:
256,192,139699,1,0,0:0:0:0:
256,192,139819,1,8,0:0:0:0:
256,192,139969,1,0,0:0:0:0:
256,192,140119,1,8,0:0:0:0:
256,192,140169,1,0,0:0:0:0:
256,192,140219,1,8,0:0:0:0:
256,192,140269,1,0,0:0:0:0:
256,192,140319,1,8,0:0:0:0:
256,192,140369,1,8,0:0:0:0:
256,192,140419,1,0,0:0:0:0:
256,192,140719,1,8,0:0:0:0:
256,192,140756,1,8,0:0:0:0:
256,192,141019,1,0,0:0:0:0:
256,192,141169,1,8,0:0:0:0:
256,192,141319,1,8,0:0:0:0:
256,192,141394,1,8,0:0:0:0:
256,192,141469,1,0,0:0:0:0:
256,192,141619,1,8,0:0:0:0:
256,192,141769,1,0,0:0:0:0:
256,192,141919,1,0,0:0:0:0:
256,192,141994,1,0,0:0:0:0:
256,192,142069,1,0,0:0:0:0:
256,192,142219,1,8,0:0:0:0:
256,192,142369,1,0,0:0:0:0:
256,192,142519,1,0,0:0:0:0:
256,192,142594,1,0,0:0:0:0:
256,192,142669,1,0,0:0:0:0:
256,192,142819,1,0,0:0:0:0:
256,192,142969,1,0,0:0:0:0:
256,192,143119,1,0,0:0:0:0:
256,192,143194,1,0,0:0:0:0:
256,192,143269,1,0,0:0:0:0:
256,192,143419,1,8,0:0:0:0:
256,192,143569,1,0,0:0:0:0:
256,192,143719,1,0,0:0:0:0:
256,192,143794,1,0,0:0:0:0:
256,192,143869,1,0,0:0:0:0:
256,192,144019,1,0,0:0:0:0:
256,192,144169,1,8,0:0:0:0:
256,192,144319,1,0,0:0:0:0:
256,192,144469,1,0,0:0:0:0:
256,192,144619,1,8,0:0:0:0:
256,192,144769,1,8,0:0:0:0:
256,192,144919,1,8,0:0:0:0:
256,192,145069,1,0,0:0:0:0:
256,192,145219,1,8,0:0:0:0:
256,192,145369,1,8,0:0:0:0:
256,192,145519,1,0,0:0:0:0:
256,192,145669,1,0,0:0:0:0:
256,192,145819,1,8,0:0:0:0:
256,192,145894,1,8,0:0:0:0:
256,192,145969,1,8,0:0:0:0:
256,192,146044,1,8,0:0:0:0:
256,192,146119,1,8,0:0:0:0:
256,192,146169,1,8,0:0:0:0:
256,192,146219,1,8,0:0:0:0:
256,192,146269,1,0,0:0:0:0:
256,192,146419,1,4,0:0:0:0:
256,192,146569,12,0,148219,0:0:0:0:
256,192,148820,6,12,L|576:192,8,280
256,192,150619,5,8,0:0:0:0:
256,192,150656,1,8,0:0:0:0:
256,192,150769,1,8,0:0:0:0:
256,192,150806,1,8,0:0:0:0:
256,192,150919,1,8,0:0:0:0:
256,192,150956,1,8,0:0:0:0:
256,192,151069,1,8,0:0:0:0:
256,192,151106,1,8,0:0:0:0:
256,192,151219,1,0,0:0:0:0:
256,192,151519,1,8,0:0:0:0:
256,192,151569,1,0,0:0:0:0:
256,192,151619,1,0,0:0:0:0:
256,192,151669,1,8,0:0:0:0:
256,192,151744,1,8,0:0:0:0:
256,192,151819,1,0,0:0:0:0:
256,192,151919,1,8,0:0:0:0:
256,192,152019,1,8,0:0:0:0:
256,192,152119,1,8,0:0:0:0:
256,192,152219,1,0,0:0:0:0:
256,192,152269,1,0,0:0:0:0:
256,192,152319,1,0,0:0:0:0:
256,192,152369,1,0,0:0:0:0:
256,192,152419,1,8,0:0:0:0:
256,192,152494,1,8,0:0:0:0:
256,192,152569,1,0,0:0:0:0:
256,192,153620,2,4,L|480:192,16,140
256,192,155419,1,8,0:0:0:0:
256,192,155494,1,0,0:0:0:0:
256,192,155569,1,0,0:0:0:0:
256,192,155644,1,8,0:0:0:0:
256,192,155719,1,0,0:0:0:0:
256,192,155794,1,0,0:0:0:0:
256,192,155869,1,8,0:0:0:0:
256,192,156019,1,4,0:0:0:0:
256,192,156169,12,0,157519,0:0:0:0:
256,192,158420,6,12,L|352:192,24,93.3333333333333
256,192,160219,5,8,0:0:0:0:
256,192,160269,1,8,0:0:0:0:
256,192,160319,1,8,0:0:0:0:
256,192,160369,1,8,0:0:0:0:
256,192,160419,1,8,0:0:0:0:
256,192,160469,1,8,0:0:0:0:
256,192,160519,1,8,0:0:0:0:
256,192,160569,1,8,0:0:0:0:
256,192,160619,1,8,0:0:0:0:
256,192,160669,1,8,0:0:0:0:
256,192,160719,1,8,0:0:0:0:
256,192,160769,1,8,0:0:0:0:
256,192,160819,1,0,0:0:0:0:
256,192,160969,12,8,162619,0:0:0:0:
256,192,163219,5,0,0:0:0:0:
256,192,163369,1,0,0:0:0:0:
256,192,163519,1,0,0:0:0:0:
256,192,163669,1,0,0:0:0:0:
256,192,163819,1,0,0:0:0:0:
256,192,163969,1,0,0:0:0:0:
256,192,164119,1,0,0:0:0:0:
256,192,164269,1,0,0:0:0:0:
256,192,164419,1,0,0:0:0:0:
256,192,164569,1,0,0:0:0:0:
256,192,164719,1,0,0:0:0:0:
256,192,164869,1,0,0:0:0:0:
256,192,165019,1,0,0:0:0:0:
256,192,165169,1,0,0:0:0:0:
256,192,165319,5,0,0:0:0:0:
256,192,165394,1,0,0:0:0:0:
256,192,165469,1,0,0:0:0:0:
256,192,165544,1,0,0:0:0:0:
256,192,165619,1,8,0:0:0:0:
256,192,165694,1,8,0:0:0:0:
256,192,165769,1,0,0:0:0:0:
256,192,165919,1,8,0:0:0:0:
256,192,165969,1,8,0:0:0:0:
256,192,166069,1,8,0:0:0:0:
256,192,166219,1,0,0:0:0:0:
256,192,166369,1,0,0:0:0:0:
256,192,166444,1,0,0:0:0:0:
256,192,166519,1,8,0:0:0:0:
256,192,166669,1,8,0:0:0:0:
256,192,166819,1,8,0:0:0:0:
256,192,166894,1,8,0:0:0:0:
256,192,166969,1,0,0:0:0:0:
256,192,167044,1,0,0:0:0:0:
256,192,167119,1,8,0:0:0:0:
256,192,167169,1,8,0:0:0:0:
256,192,167269,1,8,0:0:0:0:
256,192,167419,1,0,0:0:0:0:
256,192,167569,1,0,0:0:0:0:
256,192,167644,1,0,0:0:0:0:
256,192,167719,1,8,0:0:0:0:
256,192,167869,1,8,0:0:0:0:
256,192,167944,1,8,0:0:0:0:
256,192,168019,1,0,0:0:0:0:
256,192,168169,1,0,0:0:0:0:
256,192,168244,1,0,0:0:0:0:
256,192,168319,1,8,0:0:0:0:
256,192,168469,1,8,0:0:0:0:
256,192,168544,1,8,0:0:0:0:
256,192,168619,1,0,0:0:0:0:
256,192,168769,1,8,0:0:0:0:
256,192,168819,1,8,0:0:0:0:
256,192,168919,1,0,0:0:0:0:
256,192,169069,1,8,0:0:0:0:
256,192,169144,1,8,0:0:0:0:
256,192,169219,1,0,0:0:0:0:
256,192,169294,1,0,0:0:0:0:
256,192,169369,1,0,0:0:0:0:
256,192,169444,1,0,0:0:0:0:
256,192,169519,1,8,0:0:0:0:
256,192,169594,1,8,0:0:0:0:
256,192,169669,1,0,0:0:0:0:
256,192,169744,1,0,0:0:0:0:
256,192,169819,1,8,0:0:0:0:
256,192,169869,1,8,0:0:0:0:
256,192,169969,1,8,0:0:0:0:
256,192,170119,1,0,0:0:0:0:
256,192,170269,1,8,0:0:0:0:
256,192,170419,1,0,0:0:0:0:
256,192,170494,1,0,0:0:0:0:
256,192,170569,1,8,0:0:0:0:
256,192,170644,1,8,0:0:0:0:
256,192,170719,1,0,0:0:0:0:
256,192,170794,1,0,0:0:0:0:
256,192,170869,1,8,0:0:0:0:
256,192,170919,1,8,0:0:0:0:
256,192,170969,1,8,0:0:0:0:
256,192,171019,1,0,0:0:0:0:
256,192,171069,1,0,0:0:0:0:
256,192,171119,1,0,0:0:0:0:
256,192,171169,1,8,0:0:0:0:
256,192,171244,1,0,0:0:0:0:
256,192,171319,1,8,0:0:0:0:
256,192,171394,1,8,0:0:0:0:
256,192,171469,1,8,0:0:0:0:
256,192,171544,1,0,0:0:0:0:
256,192,171619,1,0,0:0:0:0:
256,192,171669,1,0,0:0:0:0:
256,192,171719,1,0,0:0:0:0:
256,192,171769,1,0,0:0:0:0:
256,192,171844,1,0,0:0:0:0:
256,192,171919,1,8,0:0:0:0:
256,192,171994,1,8,0:0:0:0:
256,192,172069,1,0,0:0:0:0:
256,192,172144,1,0,0:0:0:0:
256,192,172369,1,0,0:0:0:0:
256,192,172444,1,0,0:0:0:0:
256,192,172519,1,8,0:0:0:0:
256,192,172669,1,8,0:0:0:0:
256,192,172819,1,0,0:0:0:0:
256,192,172869,1,8,0:0:0:0:
256,192,172919,1,8,0:0:0:0:
256,192,172969,1,8,0:0:0:0:
256,192,173044,1,0,0:0:0:0:
256,192,173119,1,8,0:0:0:0:
256,192,173169,1,8,0:0:0:0:
256,192,173219,1,8,0:0:0:0:
256,192,173269,1,0,0:0:0:0:
256,192,173344,1,8,0:0:0:0:
256,192,173419,1,8,0:0:0:0:
256,192,173569,1,0,0:0:0:0:
256,192,173644,1,0,0:0:0:0:
256,192,173719,1,8,0:0:0:0:
256,192,173869,1,0,0:0:0:0:
256,192,173944,1,8,0:0:0:0:
256,192,174019,1,0,0:0:0:0:
256,192,174094,1,0,0:0:0:0:
256,192,174169,1,0,0:0:0:0:
256,192,174244,1,0,0:0:0:0:
256,192,174319,1,8,0:0:0:0:
256,192,174369,1,8,0:0:0:0:
256,192,174419,1,8,0:0:0:0:
256,192,174469,1,0,0:0:0:0:
256,192,174544,1,0,0:0:0:0:
256,192,174619,1,8,0:0:0:0:
256,192,174669,1,8,0:0:0:0:
256,192,174719,1,8,0:0:0:0:
256,192,174769,1,0,0:0:0:0:
256,192,174819,1,0,0:0:0:0:
256,192,174869,1,0,0:0:0:0:
256,192,174919,1,8,0:0:0:0:
256,192,175069,1,0,0:0:0:0:
256,192,175219,1,4,0:0:0:0:
256,192,175519,1,4,0:0:0:0:
256,192,175819,1,4,0:0:0:0:
256,192,176119,1,4,0:0:0:0:
256,192,176269,1,8,0:0:0:0:
256,192,176344,1,8,0:0:0:0:
256,192,176419,1,0,0:0:0:0:
256,192,176719,1,4,0:0:0:0:
256,192,176869,1,8,0:0:0:0:
256,192,176944,1,0,0:0:0:0:
256,192,177019,1,0,0:0:0:0:
256,192,177169,1,4,0:0:0:0:
256,192,177319,1,12,0:0:0:0:
256,192,177469,1,4,0:0:0:0:
256,192,177619,1,4,0:0:0:0:
256,192,177919,1,4,0:0:0:0:
256,192,178219,1,4,0:0:0:0:
256,192,178369,1,8,0:0:0:0:
256,192,178444,1,8,0:0:0:0:
256,192,178519,1,0,0:0:0:0:
256,192,178669,1,4,0:0:0:0:
256,192,178819,1,12,0:0:0:0:
256,192,179119,1,12,0:0:0:0:
256,192,179269,1,12,0:0:0:0:
256,192,179419,1,12,0:0:0:0:
256,192,179719,1,8,0:0:0:0:
256,192,179794,1,8,0:0:0:0:
256,192,179869,1,8,0:0:0:0:
256,192,179944,1,8,0:0:0:0:
256,192,180019,1,8,0:0:0:0:
256,192,180169,1,8,0:0:0:0:
256,192,180319,1,8,0:0:0:0:
256,192,180469,1,0,0:0:0:0:
256,192,180619,1,8,0:0:0:0:
256,192,180769,1,8,0:0:0:0:
256,192,180919,1,8,0:0:0:0:
256,192,180994,1,8,0:0:0:0:
256,192,181069,1,0,0:0:0:0:
256,192,181106,1,0,0:0:0:0:
256,192,181144,1,0,0:0:0:0:
256,192,181181,1,0,0:0:0:0:
256,192,181219,1,8,0:0:0:0:
256,192,181369,1,8,0:0:0:0:
256,192,181519,1,0,0:0:0:0:
256,192,181669,1,8,0:0:0:0:
256,192,181819,1,8,0:0:0:0:
256,192,181856,1,8,0:0:0:0:
256,192,181894,1,8,0:0:0:0:
256,192,181931,1,8,0:0:0:0:
256,192,181969,1,8,0:0:0:0:
256,192,182044,1,8,0:0:0:0:
256,192,182119,1,0,0:0:0:0:
256,192,182194,1,0,0:0:0:0:
256,192,182269,1,0,0:0:0:0:
256,192,182344,1,0,0:0:0:0:
256,192,182419,1,8,0:0:0:0:
256,192,182569,1,8,0:0:0:0:
256,192,182719,1,0,0:0:0:0:
256,192,182869,1,0,0:0:0:0:
256,192,182944,1,0,0:0:0:0:
256,192,183019,1,8,0:0:0:0:
256,192,183169,1,8,0:0:0:0:
256,192,183319,1,0,0:0:0:0:
256,192,183619,1,0,0:0:0:0:
256,192,183769,1,0,0:0:0:0:
256,192,183919,1,8,0:0:0:0:
256,192,184069,1,0,0:0:0:0:
256,192,184219,1,8,0:0:0:0:
256,192,184369,1,8,0:0:0:0:
256,192,184519,1,0,0:0:0:0:
256,192,184669,1,8,0:0:0:0:
256,192,184819,1,0,0:0:0:0:
256,192,184894,1,0,0:0:0:0:
256,192,184969,1,8,0:0:0:0:
256,192,185119,1,8,0:0:0:0:
256,192,185194,1,0,0:0:0:0:
256,192,185269,1,8,0:0:0:0:
256,192,185344,1,0,0:0:0:0:
256,192,185419,1,8,0:0:0:0:
256,192,185494,1,8,0:0:0:0:
256,192,185569,1,0,0:0:0:0:
256,192,185644,1,0,0:0:0:0:
256,192,185719,1,8,0:0:0:0:
256,192,185869,1,0,0:0:0:0:
256,192,185944,1,0,0:0:0:0:
256,192,186019,1,8,0:0:0:0:
256,192,186094,1,8,0:0:0:0:
256,192,186169,1,8,0:0:0:0:
256,192,186244,1,0,0:0:0:0:
256,192,186319,1,8,0:0:0:0:
256,192,186394,1,8,0:0:0:0:
256,192,186469,1,0,0:0:0:0:
256,192,186544,1,0,0:0:0:0:
256,192,186619,1,8,0:0:0:0:
256,192,186694,1,0,0:0:0:0:
256,192,186769,1,8,0:0:0:0:
256,192,186844,1,8,0:0:0:0:
256,192,186919,1,0,0:0:0:0:
256,192,186994,1,8,0:0:0:0:
256,192,187144,1,0,0:0:0:0:
256,192,187219,1,8,0:0:0:0:
256,192,187294,1,8,0:0:0:0:
256,192,187369,1,0,0:0:0:0:
256,192,187444,1,0,0:0:0:0:
256,192,187519,1,8,0:0:0:0:
256,192,187594,1,8,0:0:0:0:
256,192,187669,1,8,0:0:0:0:
256,192,187744,1,0,0:0:0:0:
256,192,187819,1,8,0:0:0:0:
256,192,187894,1,8,0:0:0:0:
256,192,187969,1,0,0:0:0:0:
256,192,188044,1,0,0:0:0:0:
256,192,188119,1,8,0:0:0:0:
256,192,188194,1,8,0:0:0:0:
256,192,188269,1,8,0:0:0:0:
256,192,188344,1,0,0:0:0:0:
256,192,188419,1,0,0:0:0:0:
256,192,188494,1,8,0:0:0:0:
256,192,188569,1,8,0:0:0:0:
256,192,188719,1,0,0:0:0:0:
256,192,188794,1,0,0:0:0:0:
256,192,188869,1,8,0:0:0:0:
256,192,188944,1,8,0:0:0:0:
256,192,189019,1,0,0:0:0:0:
256,192,189169,1,8,0:0:0:0:
256,192,189244,1,8,0:0:0:0:
256,192,189319,1,0,0:0:0:0:
256,192,189394,1,8,0:0:0:0:
256,192,189469,1,8,0:0:0:0:
256,192,189519,1,8,0:0:0:0:
256,192,189569,1,0,0:0:0:0:
256,192,189619,1,8,0:0:0:0:
256,192,189694,1,8,0:0:0:0:
256,192,189769,1,0,0:0:0:0:
256,192,189919,1,8,0:0:0:0:
256,192,189994,1,0,0:0:0:0:
256,192,190069,1,8,0:0:0:0:
256,192,190144,1,0,0:0:0:0:
256,192,190219,1,8,0:0:0:0:
256,192,190294,1,8,0:0:0:0:
256,192,190369,1,0,0:0:0:0:
256,192,190444,1,0,0:0:0:0:
256,192,190519,1,8,0:0:0:0:
256,192,190669,1,0,0:0:0:0:
256,192,190744,1,0,0:0:0:0:
256,192,190819,1,8,0:0:0:0:
256,192,190894,1,8,0:0:0:0:
256,192,190969,1,8,0:0:0:0:
256,192,191044,1,0,0:0:0:0:
256,192,191119,1,8,0:0:0:0:
256,192,191194,1,8,0:0:0:0:
256,192,191269,1,0,0:0:0:0:
256,192,191344,1,0,0:0:0:0:
256,192,191419,1,8,0:0:0:0:
256,192,191494,1,0,0:0:0:0:
256,192,191569,1,8,0:0:0:0:
256,192,191644,1,0,0:0:0:0:
256,192,191719,1,8,0:0:0:0:
256,192,191794,1,8,0:0:0:0:
256,192,191869,1,0,0:0:0:0:
256,192,191944,1,8,0:0:0:0:
256,192,192019,1,0,0:0:0:0:
256,192,192094,1,8,0:0:0:0:
256,192,192169,1,8,0:0:0:0:
256,192,192244,1,8,0:0:0:0:
256,192,192319,1,0,0:0:0:0:
256,192,192394,1,8,0:0:0:0:
256,192,192469,1,8,0:0:0:0:
256,192,192544,1,8,0:0:0:0:
256,192,192619,1,0,0:0:0:0:
256,192,192694,1,0,0:0:0:0:
256,192,192769,1,8,0:0:0:0:
256,192,192844,1,8,0:0:0:0:
256,192,192919,1,0,0:0:0:0:
256,192,192994,1,0,0:0:0:0:
256,192,193069,1,8,0:0:0:0:
256,192,193144,1,8,0:0:0:0:
256,192,193219,1,0,0:0:0:0:
256,192,193369,1,0,0:0:0:0:
256,192,193519,1,8,0:0:0:0:
256,192,193669,1,8,0:0:0:0:
256,192,193744,1,0,0:0:0:0:
256,192,193819,1,0,0:0:0:0:
256,192,193894,1,8,0:0:0:0:
256,192,193969,1,0,0:0:0:0:
256,192,194044,1,8,0:0:0:0:
256,192,194119,1,0,0:0:0:0:
256,192,194194,1,8,0:0:0:0:
256,192,194269,1,8,0:0:0:0:
256,192,194344,1,8,0:0:0:0:
256,192,194419,1,0,0:0:0:0:
288,208,199217,5,0,0:0:0:0:
413,201,200117,1,0,0:0:0:0:
413,201,201017,1,0,0:0:0:0:
413,201,201617,1,8,0:0:0:0:
476,190,203417,1,8,0:0:0:0:
392,179,204017,1,8,0:0:0:0:
267,159,204917,1,0,0:0:0:0:
346,187,205517,1,8,0:0:0:0:
471,175,206417,1,0,0:0:0:0:
305,201,207617,1,8,0:0:0:0:
227,167,208217,1,0,0:0:0:0:
271,238,208817,1,0,0:0:0:0:
271,238,210617,1,0,0:0:0:0:
312,234,211217,1,8,0:0:0:0:
407,189,212717,1,0,0:0:0:0:
386,192,213017,1,0,0:0:0:0:
407,189,213317,1,8,0:0:0:0:
386,187,213617,1,0,0:0:0:0:
380,187,213654,1,8,0:0:0:0:
449,289,215417,1,8,0:0:0:0:
464,249,216017,1,8,0:0:0:0:
338,235,217817,1,0,0:0:0:0:
358,230,218117,1,0,0:0:0:0:
338,235,218417,1,8,0:0:0:0:
358,230,218962,1,0,0:0:0:0:
399,227,219235,1,8,0:0:0:0:
327,175,219757,1,0,0:0:0:0:
360,200,220007,1,0,0:0:0:0:
335,234,220257,1,8,0:0:0:0:
323,190,220507,1,0,0:0:0:0:
395,292,220968,1,8,0:0:0:0:
381,248,221199,1,0,0:0:0:0:
296,225,221644,1,8,0:0:0:0:
296,225,221858,1,8,0:0:0:0:
266,195,222072,1,0,0:0:0:0:
266,195,222287,1,8,0:0:0:0:
296,225,222687,1,0,0:0:0:0:
336,214,222874,1,8,0:0:0:0:
278,278,223238,1,8,0:0:0:0:
296,225,223414,1,0,0:0:0:0:
296,225,223580,1,0,0:0:0:0:
338,213,223737,1,8,0:0:0:0:
425,202,224037,1,0,0:0:0:0:
338,213,224179,1,8,0:0:0:0:
400,272,224458,1,0,0:0:0:0:
426,237,224594,1,8,0:0:0:0:
383,246,224724,1,0,0:0:0:0:
342,230,224849,1,8,0:0:0:0:
300,236,224969,1,0,0:0:0:0:
343,236,225089,1,0,0:0:0:0:
376,211,225204,1,8,0:0:0:0:
300,236,225430,1,0,0:0:0:0:
341,230,225541,1,8,0:0:0:0:
343,236,225651,1,0,0:0:0:0:
342,230,225760,1,8,0:0:0:0:
342,230,225868,1,8,0:0:0:0:
343,236,225977,1,0,0:0:0:0:
376,211,226084,1,8,0:0:0:0:
459,223,226309,1,8,0:0:0:0:
492,198,226416,1,0,0:0:0:0:
459,223,226522,1,0,0:0:0:0:
417,218,226627,1,8,0:0:0:0:
427,177,226731,1,8,0:0:0:0:
376,211,226836,1,0,0:0:0:0:
417,218,226940,1,8,0:0:0:0:
417,218,227147,1,0,0:0:0:0:
374,215,227250,1,8,0:0:0:0:
332,215,227352,1,0,0:0:0:0:
376,211,227455,1,8,0:0:0:0:
410,187,227557,1,8,0:0:0:0:
332,215,227659,1,0,0:0:0:0:
376,211,227760,1,8,0:0:0:0:
326,242,227996,1,0,0:0:0:0:
357,190,228168,1,8,0:0:0:0:
376,211,228408,1,8,0:0:0:0:
379,242,228711,1,4,0:0:0:0:
282,224,229411,1,8,0:0:0:0:
362,156,230011,1,0,0:0:0:0:
384,191,230251,1,8,0:0:0:0:
363,272,230731,1,8,0:0:0:0:
363,272,230971,1,8,0:0:0:0:
391,193,231371,1,0,0:0:0:0:
349,200,231571,1,8,0:0:0:0:
300,205,231771,1,8,0:0:0:0:
332,231,231942,1,0,0:0:0:0:
332,231,232113,1,8,0:0:0:0:
332,231,232285,1,0,0:0:0:0:
284,233,232456,1,8,0:0:0:0:
317,258,232606,1,0,0:0:0:0:
317,258,232756,1,0,0:0:0:0:
332,231,232906,1,8,0:0:0:0:
332,231,233056,1,8,0:0:0:0:
332,231,233189,1,0,0:0:0:0:
332,231,233322,1,8,0:0:0:0:
332,231,233456,1,0,0:0:0:0:
377,238,233589,1,8,0:0:0:0:
299,270,233829,1,0,0:0:0:0:
408,177,233949,1,8,0:0:0:0:
369,194,234066,1,8,0:0:0:0:
329,206,234181,1,0,0:0:0:0:
287,203,234296,1,8,0:0:0:0:
305,241,234412,1,0,0:0:0:0:
261,235,234527,1,8,0:0:0:0:
344,224,234749,1,8,0:0:0:0:
302,218,234860,1,0,0:0:0:0:
329,206,234971,1,8,0:0:0:0:
329,206,235082,1,8,0:0:0:0:
329,206,235193,1,0,0:0:0:0:
344,224,235304,1,0,0:0:0:0:
261,235,235415,1,8,0:0:0:0:
329,186,235629,1,0,0:0:0:0:
362,210,235736,1,0,0:0:0:0:
362,210,235843,1,8,0:0:0:0:
362,210,235950,1,8,0:0:0:0:
387,129,236165,1,8,0:0:0:0:
344,224,236272,1,0,0:0:0:0:
302,230,236379,1,0,0:0:0:0:
302,230,236486,1,8,0:0:0:0:
362,210,236589,1,0,0:0:0:0:
344,224,236692,1,8,0:0:0:0:
344,224,236796,1,8,0:0:0:0:
362,210,237003,1,8,0:0:0:0:
399,229,237106,1,0,0:0:0:0:
344,224,237210,1,8,0:0:0:0:
316,192,237313,1,0,0:0:0:0:
316,192,237417,1,0,0:0:0:0:
399,229,237520,1,8,0:0:0:0:
362,210,237620,1,0,0:0:0:0:
320,203,237720,1,8,0:0:0:0:
344,224,237820,1,8,0:0:0:0:
383,210,237920,1,8,0:0:0:0:
341,209,238020,1,0,0:0:0:0:
304,229,238120,1,8,0:0:0:0:
320,203,238220,1,0,0:0:0:0:
344,224,238320,1,8,0:0:0:0:
347,182,238420,1,8,0:0:0:0:
362,210,238520,1,0,0:0:0:0:
304,229,238620,1,8,0:0:0:0:
347,182,238720,1,8,0:0:0:0:
304,229,238926,1,8,0:0:0:0:
342,211,239030,1,8,0:0:0:0:
380,226,239133,1,0,0:0:0:0:
342,211,239237,1,0,0:0:0:0:
362,210,239340,1,8,0:0:0:0:
362,210,239402,1,8,0:0:0:0:
362,210,239465,1,8,0:0:0:0:
362,210,239527,1,8,0:0:0:0:
375,194,239590,1,0,0:0:0:0:
335,207,239721,1,8,0:0:0:0:
342,211,239852,1,0,0:0:0:0:
300,211,239990,1,8,0:0:0:0:
261,212,240128,1,8,0:0:0:0:
338,169,240428,1,8,0:0:0:0:
261,212,240570,1,0,0:0:0:0:
261,212,240713,1,0,0:0:0:0:
302,205,240849,1,0,0:0:0:0:
289,247,240985,1,8,0:0:0:0:
249,168,241245,1,8,0:0:0:0:
289,247,241370,1,0,0:0:0:0:
323,220,241495,1,0,0:0:0:0:
282,229,241615,1,8,0:0:0:0:
282,192,241735,1,8,0:0:0:0:
352,244,242007,1,8,0:0:0:0:
323,220,242137,1,0,0:0:0:0:
285,242,242267,1,8,0:0:0:0:
326,250,242392,1,8,0:0:0:0:
282,229,242517,1,8,0:0:0:0:
282,229,242757,1,8,0:0:0:0:
294,198,242898,1,0,0:0:0:0:
324,218,243079,1,8,0:0:0:0:
310,227,243388,1,8,0:0:0:0:
167,178,244177,1,0,0:0:0:0:
176,181,244232,1,0,0:0:0:0:
185,184,244287,1,0,0:0:0:0:
205,189,244397,1,8,0:0:0:0:
276,218,247043,5,2,0:0:0:0:
256,192,247263,1,2,0:0:0:0:
256,192,247484,1,2,0:0:0:0:
256,192,247704,1,2,0:0:0:0:
256,192,247925,1,4,0:0:0:0:
256,192,248145,1,2,0:0:0:0:
256,192,248256,1,2,0:0:0:0:
256,192,248366,1,0,0:0:0:0:
256,192,248476,1,2,0:0:0:0:
256,192,248587,1,0,0:0:0:0:
256,192,248697,1,0,0:0:0:0:
256,192,248807,1,6,0:0:0:0:
256,192,249028,1,0,0:0:0:0:
256,192,249248,1,0,0:0:0:0:
256,192,249469,1,0,0:0:0:0:
256,192,249690,1,2,0:0:0:0:
256,192,249910,1,0,0:0:0:0:
256,192,250020,1,0,0:0:0:0:
256,192,250131,1,2,0:0:0:0:
256,192,250241,1,0,0:0:0:0:
256,192,250462,1,0,0:0:0:0:
256,192,250572,1,2,0:0:0:0:
256,192,250793,1,2,0:0:0:0:
256,192,250903,1,2,0:0:0:0:
256,192,251013,1,0,0:0:0:0:
256,192,251123,1,2,0:0:0:0:
256,192,251344,1,0,0:0:0:0:
256,192,251454,1,2,0:0:0:0:
256,192,251565,1,2,0:0:0:0:
256,192,251675,1,0,0:0:0:0:
256,192,251785,1,0,0:0:0:0:
256,192,251895,1,2,0:0:0:0:
256,192,252006,1,0,0:0:0:0:
256,192,252116,1,2,0:0:0:0:
256,192,252226,1,2,0:0:0:0:
256,192,252337,1,4,0:0:0:0:
256,192,252557,1,2,0:0:0:0:
256,192,252668,1,2,0:0:0:0:
256,192,252778,1,0,0:0:0:0:
256,192,252888,1,0,0:0:0:0:
256,192,252998,1,2,0:0:0:0:
256,192,253109,1,0,0:0:0:0:
256,192,253219,1,2,0:0:0:0:
256,192,253440,1,0,0:0:0:0:
256,192,253550,1,0,0:0:0:0:
256,192,253660,1,2,0:0:0:0:
256,192,253770,1,0,0:0:0:0:
256,192,253991,1,0,0:0:0:0:
256,192,254101,1,6,0:0:0:0:
256,192,254322,1,0,0:0:0:0:
256,192,254432,1,2,0:0:0:0:
256,192,254543,1,0,0:0:0:0:
256,192,254653,1,0,0:0:0:0:
256,192,254763,1,2,0:0:0:0:
256,192,254984,1,4,0:0:0:0:
256,192,255204,1,2,0:0:0:0:
256,192,255315,1,2,0:0:0:0:
256,192,255425,1,0,0:0:0:0:
256,192,255535,1,0,0:0:0:0:
256,192,255645,1,0,0:0:0:0:
256,192,255756,1,0,0:0:0:0:
256,192,255866,1,6,0:0:0:0:
256,192,255976,1,0,0:0:0:0:
256,192,256087,1,0,0:0:0:0:
256,192,256197,1,0,0:0:0:0:
256,192,256307,1,2,0:0:0:0:
256,192,256418,1,0,0:0:0:0:
256,192,256528,1,2,0:0:0:0:
256,192,256638,1,2,0:0:0:0:
256,192,256748,1,0,0:0:0:0:
256,192,256969,1,0,0:0:0:0:
256,192,257024,1,0,0:0:0:0:
256,192,257079,1,2,0:0:0:0:
256,192,257300,1,2,0:0:0:0:
256,192,257410,1,0,0:0:0:0:
256,192,257631,1,6,0:0:0:0:
256,192,257741,1,0,0:0:0:0:
256,192,257796,1,0,0:0:0:0:
256,192,257851,1,2,0:0:0:0:
256,192,257962,1,2,0:0:0:0:
256,192,258017,1,0,0:0:0:0:
256,192,258072,1,2,0:0:0:0:
256,192,258182,1,2,0:0:0:0:
256,192,258293,1,0,0:0:0:0:
256,192,258403,1,0,0:0:0:0:
256,192,258513,1,2,0:0:0:0:
256,192,258660,1,0,0:0:0:0:
256,192,258807,1,0,0:0:0:0:
256,192,258954,1,2,0:0:0:0:
256,192,259065,1,2,0:0:0:0:
256,192,259175,1,0,0:0:0:0:
256,192,259230,1,0,0:0:0:0:
256,192,259285,1,0,0:0:0:0:
256,192,259340,1,0,0:0:0:0:
256,192,259395,1,6,0:0:0:0:
256,192,259506,1,0,0:0:0:0:
256,192,259616,1,2,0:0:0:0:
256,192,259671,1,2,0:0:0:0:
256,192,259726,1,0,0:0:0:0:
256,192,259837,1,2,0:0:0:0:
256,192,259947,1,0,0:0:0:0:
256,192,260002,1,0,0:0:0:0:
256,192,260057,1,2,0:0:0:0:
256,192,260168,1,0,0:0:0:0:
256,192,260278,1,2,0:0:0:0:
256,192,260388,1,0,0:0:0:0:
256,192,260443,1,0,0:0:0:0:
256,192,260498,1,0,0:0:0:0:
256,192,260609,1,2,0:0:0:0:
256,192,260719,1,0,0:0:0:0:
256,192,260774,1,2,0:0:0:0:
256,192,260829,1,0,0:0:0:0:
256,192,260884,1,0,0:0:0:0:
256,192,260940,1,2,0:0:0:0:
256,192,261050,1,0,0:0:0:0:
256,192,261160,1,6,0:0:0:0:
256,192,261381,1,0,0:0:0:0:
256,192,261601,1,2,0:0:0:0:
256,192,261712,1,2,0:0:0:0:
256,192,261822,1,0,0:0:0:0:
256,192,261932,1,0,0:0:0:0:
256,192,262043,1,6,0:0:0:0:
256,192,262153,1,6,0:0:0:0:
256,192,262484,1,2,0:0:0:0:
256,192,262594,1,2,0:0:0:0:
256,192,262704,1,0,0:0:0:0:
256,192,262815,1,2,0:0:0:0:
256,192,262925,5,0,0:0:0:0:
256,192,263035,1,0,0:0:0:0:
256,192,263366,1,0,0:0:0:0:
256,192,263476,1,0,0:0:0:0:
256,192,263807,1,2,0:0:0:0:
256,192,263918,1,0,0:0:0:0:
256,192,264028,1,0,0:0:0:0:
256,192,264138,1,0,0:0:0:0:
256,192,264248,1,2,0:0:0:0:
256,192,264359,1,2,0:0:0:0:
256,192,264469,1,2,0:0:0:0:
256,192,264579,1,2,0:0:0:0:
256,192,264690,1,0,0:0:0:0:
256,192,264800,1,0,0:0:0:0:
256,192,265131,1,0,0:0:0:0:
256,192,265241,1,0,0:0:0:0:
256,192,265572,1,2,0:0:0:0:
256,192,265719,1,0,0:0:0:0:
256,192,265866,1,0,0:0:0:0:
256,192,266013,1,2,0:0:0:0:
256,192,266123,1,0,0:0:0:0:
256,192,266234,1,2,0:0:0:0:
256,192,266289,1,2,0:0:0:0:
256,192,266344,1,2,0:0:0:0:
256,192,266399,1,2,0:0:0:0:
256,192,266454,1,0,0:0:0:0:
256,192,266565,1,0,0:0:0:0:
256,192,266895,1,0,0:0:0:0:
256,192,267006,1,0,0:0:0:0:
256,192,267337,1,2,0:0:0:0:
256,192,267447,1,0,0:0:0:0:
256,192,267557,1,0,0:0:0:0:
256,192,267668,1,0,0:0:0:0:
256,192,267778,1,2,0:0:0:0:
256,192,267888,1,2,0:0:0:0:
256,192,267998,1,2,0:0:0:0:
256,192,268109,1,2,0:0:0:0:
256,192,268219,1,0,0:0:0:0:
256,192,268366,1,2,0:0:0:0:
256,192,268513,1,0,0:0:0:0:
256,192,268660,1,2,0:0:0:0:
256,192,268807,1,2,0:0:0:0:
256,192,268954,1,0,0:0:0:0:
256,192,269101,1,2,0:0:0:0:
256,192,269248,1,0,0:0:0:0:
256,192,269395,1,0,0:0:0:0:
256,192,269543,1,2,0:0:0:0:
256,192,269653,1,2,0:0:0:0:
256,192,269763,1,2,0:0:0:0:
256,192,269873,1,2,0:0:0:0:
256,192,269984,1,4,0:0:0:0:
256,192,270094,1,0,0:0:0:0:
256,192,270425,1,0,0:0:0:0:
256,192,270535,1,0,0:0:0:0:
256,192,270866,1,2,0:0:0:0:
256,192,270976,1,2,0:0:0:0:
256,192,271087,1,0,0:0:0:0:
256,192,271197,1,0,0:0:0:0:
256,192,271307,1,2,0:0:0:0:
256,192,271418,1,2,0:0:0:0:
256,192,271528,1,2,0:0:0:0:
256,192,271638,1,2,0:0:0:0:
256,192,271748,1,0,0:0:0:0:
256,192,271859,1,0,0:0:0:0:
256,192,272190,1,0,0:0:0:0:
256,192,272300,1,0,0:0:0:0:
256,192,272631,1,2,0:0:0:0:
256,192,272778,1,0,0:0:0:0:
256,192,272925,1,0,0:0:0:0:
256,192,273072,1,2,0:0:0:0:
256,192,273182,1,2,0:0:0:0:
256,192,273293,1,0,0:0:0:0:
256,192,273348,1,0,0:0:0:0:
256,192,273403,1,0,0:0:0:0:
256,192,273458,1,0,0:0:0:0:
256,192,273513,1,2,0:0:0:0:
256,192,273623,1,2,0:0:0:0:
256,192,273734,1,0,0:0:0:0:
256,192,273844,1,2,0:0:0:0:
256,192,273954,1,0,0:0:0:0:
256,192,274065,1,0,0:0:0:0:
256,192,274175,1,2,0:0:0:0:
256,192,274230,1,2,0:0:0:0:
256,192,274285,1,0,0:0:0:0:
256,192,274340,1,0,0:0:0:0:
256,192,274395,1,2,0:0:0:0:
256,192,274506,1,0,0:0:0:0:
256,192,274616,1,2,0:0:0:0:
256,192,274726,1,2,0:0:0:0:
256,192,274837,1,0,0:0:0:0:
256,192,274947,1,0,0:0:0:0:
256,192,275002,1,0,0:0:0:0:
256,192,275057,1,0,0:0:0:0:
256,192,275168,1,0,0:0:0:0:
256,192,275278,1,6,0:0:0:0:
256,192,275498,1,0,0:0:0:0:
256,192,275609,1,2,0:0:0:0:
256,192,275719,1,0,0:0:0:0:
256,192,275829,1,0,0:0:0:0:
256,192,275940,1,2,0:0:0:0:
256,192,276160,1,0,0:0:0:0:
256,192,276270,1,0,0:0:0:0:
256,192,276381,1,0,0:0:0:0:
256,192,276491,1,0,0:0:0:0:
256,192,276601,1,2,0:0:0:0:
256,192,276675,1,0,0:0:0:0:
256,192,276748,1,0,0:0:0:0:
256,192,276822,1,2,0:0:0:0:
256,192,276932,1,0,0:0:0:0:
256,192,277043,5,6,0:0:0:0:
256,192,277208,1,0,0:0:0:0:
256,192,277263,1,2,0:0:0:0:
256,192,277373,1,0,0:0:0:0:
256,192,277484,1,2,0:0:0:0:
256,192,277539,1,2,0:0:0:0:
256,192,277594,1,0,0:0:0:0:
256,192,277649,1,0,0:0:0:0:
256,192,277704,1,2,0:0:0:0:
256,192,277815,1,2,0:0:0:0:
256,192,277925,1,0,0:0:0:0:
256,192,278035,1,2,0:0:0:0:
256,192,278090,1,0,0:0:0:0:
256,192,278145,1,2,0:0:0:0:
256,192,278201,1,2,0:0:0:0:
256,192,278256,1,0,0:0:0:0:
256,192,278366,1,2,0:0:0:0:
256,192,278476,1,0,0:0:0:0:
256,192,278531,1,0,0:0:0:0:
256,192,278587,1,2,0:0:0:0:
256,192,278697,1,0,0:0:0:0:
256,192,278807,1,2,0:0:0:0:
256,192,278862,1,0,0:0:0:0:
256,192,278918,1,0,0:0:0:0:
256,192,278973,1,0,0:0:0:0:
256,192,279028,1,2,0:0:0:0:
256,192,279138,1,2,0:0:0:0:
256,192,279248,1,0,0:0:0:0:
256,192,279359,1,2,0:0:0:0:
256,192,279414,1,2,0:0:0:0:
256,192,279469,1,0,0:0:0:0:
256,192,279579,1,2,0:0:0:0:
256,192,279690,1,0,0:0:0:0:
256,192,279800,1,2,0:0:0:0:
256,192,279855,1,2,0:0:0:0:
256,192,279910,1,0,0:0:0:0:
256,192,279965,1,2,0:0:0:0:
256,192,280020,1,0,0:0:0:0:
256,192,280076,1,0,0:0:0:0:
256,192,280131,1,2,0:0:0:0:
256,192,280241,1,0,0:0:0:0:
256,192,280351,1,2,0:0:0:0:
256,192,280462,1,2,0:0:0:0:
256,192,280572,1,4,0:0:0:0:
256,192,280737,1,0,0:0:0:0:
256,192,280793,1,2,0:0:0:0:
256,192,280903,1,0,0:0:0:0:
256,192,281013,1,2,0:0:0:0:
256,192,281068,1,2,0:0:0:0:
256,192,281123,1,2,0:0:0:0:
256,192,281179,1,2,0:0:0:0:
256,192,281234,1,0,0:0:0:0:
256,192,281344,1,2,0:0:0:0:
256,192,281454,1,0,0:0:0:0:
256,192,281509,1,0,0:0:0:0:
256,192,281565,1,2,0:0:0:0:
256,192,281620,1,0,0:0:0:0:
256,192,281675,1,2,0:0:0:0:
256,192,281730,1,2,0:0:0:0:
256,192,281785,1,0,0:0:0:0:
256,192,281895,1,2,0:0:0:0:
256,192,281951,1,2,0:0:0:0:
256,192,282006,1,0,0:0:0:0:
256,192,282061,1,2,0:0:0:0:
256,192,282116,1,0,0:0:0:0:
256,192,282171,1,0,0:0:0:0:
256,192,282226,1,2,0:0:0:0:
256,192,282337,1,4,0:0:0:0:
256,192,282447,1,2,0:0:0:0:
256,192,282557,1,0,0:0:0:0:
256,192,282668,1,6,0:0:0:0:
256,192,282778,1,0,0:0:0:0:
256,192,282833,1,0,0:0:0:0:
256,192,282888,1,0,0:0:0:0:
256,192,282943,1,0,0:0:0:0:
256,192,282998,1,6,0:0:0:0:
256,192,283109,1,0,0:0:0:0:
256,192,283219,1,6,0:0:0:0:
256,192,283329,1,0,0:0:0:0:
256,192,283384,1,0,0:0:0:0:
256,192,283440,1,2,0:0:0:0:
256,192,283495,1,2,0:0:0:0:
256,192,283550,1,0,0:0:0:0:
256,192,283660,1,6,0:0:0:0:
256,192,283770,1,0,0:0:0:0:
256,192,283881,1,2,0:0:0:0:
256,192,283936,1,2,0:0:0:0:
256,192,283991,1,0,0:0:0:0:
256,192,284101,1,6,0:0:0:0:
256,192,284322,1,2,0:0:0:0:
256,192,284432,1,0,0:0:0:0:
256,192,284543,1,2,0:0:0:0:
256,192,284763,1,0,0:0:0:0:
256,192,284873,1,0,0:0:0:0:
256,192,284984,1,2,0:0:0:0:
256,192,285094,1,0,0:0:0:0:
256,192,285204,1,2,0:0:0:0:
256,192,285315,1,2,0:0:0:0:
256,192,285425,1,0,0:0:0:0:
256,192,285535,1,0,0:0:0:0:
256,192,285645,1,2,0:0:0:0:
256,192,285756,1,0,0:0:0:0:
256,192,285866,1,6,0:0:0:0:
256,192,285976,1,0,0:0:0:0:
256,192,286031,1,0,0:0:0:0:
256,192,286087,1,2,0:0:0:0:
256,192,286197,1,0,0:0:0:0:
256,192,286307,1,2,0:0:0:0:
256,192,286362,1,2,0:0:0:0:
256,192,286418,1,0,0:0:0:0:
256,192,286473,1,0,0:0:0:0:
256,192,286528,1,2,0:0:0:0:
256,192,286638,1,2,0:0:0:0:
256,192,286748,1,4,0:0:0:0:
256,192,286859,1,2,0:0:0:0:
256,192,286914,1,2,0:0:0:0:
256,192,286969,1,0,0:0:0:0:
256,192,287079,1,0,0:0:0:0:
256,192,287190,1,2,0:0:0:0:
256,192,287245,1,2,0:0:0:0:
256,192,287300,1,2,0:0:0:0:
256,192,287410,1,0,0:0:0:0:
256,192,287520,1,2,0:0:0:0:
256,192,287631,1,4,0:0:0:0:
256,192,287741,1,0,0:0:0:0:
256,192,287851,1,2,0:0:0:0:
256,192,287906,1,2,0:0:0:0:
256,192,287962,1,0,0:0:0:0:
256,192,288017,1,0,0:0:0:0:
256,192,288072,1,2,0:0:0:0:
256,192,288182,1,0,0:0:0:0:
256,192,288237,1,0,0:0:0:0:
256,192,288293,1,2,0:0:0:0:
256,192,288348,1,2,0:0:0:0:
256,192,288403,1,2,0:0:0:0:
256,192,288458,1,2,0:0:0:0:
256,192,288513,1,0,0:0:0:0:
256,192,288587,1,2,0:0:0:0:
256,192,288660,1,2,0:0:0:0:
256,192,288734,1,0,0:0:0:0:
256,192,288807,1,2,0:0:0:0:
256,192,288881,1,2,0:0:0:0:
256,192,288954,1,0,0:0:0:0:
256,192,289065,1,0,0:0:0:0:
256,192,289175,1,2,0:0:0:0:
256,192,289285,1,0,0:0:0:0:
256,192,289395,1,6,0:0:0:0:
256,192,289561,1,0,0:0:0:0:
256,192,289616,1,2,0:0:0:0:
256,192,289726,1,0,0:0:0:0:
256,192,289837,1,2,0:0:0:0:
256,192,289892,5,2,0:0:0:0:
256,192,289947,1,0,0:0:0:0:
256,192,290057,5,2,0:0:0:0:
256,192,290168,1,0,0:0:0:0:
256,192,290278,5,6,0:0:0:0:
256,192,290498,1,6,0:0:0:0:
256,192,290719,1,6,0:0:0:0:
256,192,290940,1,6,0:0:0:0:
362,156,291160,5,8,0:0:0:0:
362,156,291270,1,8,0:0:0:0:
362,156,291381,1,0,0:0:0:0:
362,156,291436,1,0,0:0:0:0:
362,156,291491,1,8,0:0:0:0:
362,156,291601,1,0,0:0:0:0:
362,156,291712,1,8,0:0:0:0:
362,156,291822,1,0,0:0:0:0:
362,156,291877,1,0,0:0:0:0:
362,156,291932,1,8,0:0:0:0:
362,156,291987,1,8,0:0:0:0:
362,156,292043,1,0,0:0:0:0:
362,156,292153,1,8,0:0:0:0:
362,156,292263,1,0,0:0:0:0:
362,156,292337,1,8,0:0:0:0:
362,156,292410,1,8,0:0:0:0:
362,156,292484,1,0,0:0:0:0:
362,156,292539,1,0,0:0:0:0:
362,156,292594,1,8,0:0:0:0:
362,156,292649,1,8,0:0:0:0:
362,156,292704,1,0,0:0:0:0:
362,156,292759,1,0,0:0:0:0:
362,156,292815,1,0,0:0:0:0:
362,156,292870,1,0,0:0:0:0:
362,156,292925,1,8,0:0:0:0:
362,156,293035,1,8,0:0:0:0:
362,156,293145,1,0,0:0:0:0:
362,156,293256,1,8,0:0:0:0:
362,156,293311,1,8,0:0:0:0:
362,156,293366,1,0,0:0:0:0:
362,156,293476,1,8,0:0:0:0:
362,156,293587,1,0,0:0:0:0:
362,156,293642,1,0,0:0:0:0:
362,156,293697,1,8,0:0:0:0:
362,156,293807,1,0,0:0:0:0:
362,156,293918,1,8,0:0:0:0:
362,156,293973,1,8,0:0:0:0:
362,156,294028,1,0,0:0:0:0:
362,156,294083,1,0,0:0:0:0:
362,156,294138,1,0,0:0:0:0:
362,156,294248,1,8,0:0:0:0:
362,156,294359,1,8,0:0:0:0:
362,156,294469,1,0,0:0:0:0:
362,156,294524,1,0,0:0:0:0:
362,156,294579,1,8,0:0:0:0:
362,156,294634,1,0,0:0:0:0:
362,156,294690,1,8,0:0:0:0:
362,156,294800,1,0,0:0:0:0:
362,156,294910,1,0,0:0:0:0:
362,156,295020,1,8,0:0:0:0:
362,156,295076,1,8,0:0:0:0:
362,156,295131,1,0,0:0:0:0:
362,156,295241,1,8,0:0:0:0:
362,156,295296,1,8,0:0:0:0:
362,156,295351,1,0,0:0:0:0:
362,156,295406,1,8,0:0:0:0:
362,156,295462,1,0,0:0:0:0:
362,156,295572,1,8,0:0:0:0:
362,156,295682,1,0,0:0:0:0:
362,156,295737,1,0,0:0:0:0:
362,156,295793,1,8,0:0:0:0:
362,156,295848,1,8,0:0:0:0:
362,156,295903,1,0,0:0:0:0:
362,156,295958,1,0,0:0:0:0:
362,156,296013,1,8,0:0:0:0:
362,156,296050,1,8,0:0:0:0:
362,156,296087,1,8,0:0:0:0:
362,156,296123,1,8,0:0:0:0:
362,156,296234,1,0,0:0:0:0:
362,156,296289,1,0,0:0:0:0:
362,156,296344,1,8,0:0:0:0:
362,156,296399,1,0,0:0:0:0:
362,156,296454,1,8,0:0:0:0:
362,156,296565,1,0,0:0:0:0:
362,156,296675,1,8,0:0:0:0:
362,156,296730,1,8,0:0:0:0:
362,156,296785,1,0,0:0:0:0:
362,156,296895,1,8,0:0:0:0:
362,156,296951,1,8,0:0:0:0:
362,156,297006,1,0,0:0:0:0:
362,156,297061,1,0,0:0:0:0:
362,156,297116,1,0,0:0:0:0:
362,156,297171,1,0,0:0:0:0:
362,156,297226,1,8,0:0:0:0:
362,156,297281,1,0,0:0:0:0:
362,156,297337,1,8,0:0:0:0:
362,156,297447,1,0,0:0:0:0:
362,156,297557,1,8,0:0:0:0:
362,156,297612,1,8,0:0:0:0:
362,156,297668,1,0,0:0:0:0:
362,156,297778,1,8,0:0:0:0:
362,156,297815,1,8,0:0:0:0:
362,156,297851,1,8,0:0:0:0:
362,156,297888,1,0,0:0:0:0:
362,156,297943,1,0,0:0:0:0:
362,156,297998,1,8,0:0:0:0:
362,156,298109,1,0,0:0:0:0:
362,156,298219,1,0,0:0:0:0:
362,156,298329,1,8,0:0:0:0:
362,156,298440,1,0,0:0:0:0:
362,156,298495,1,0,0:0:0:0:
362,156,298550,1,8,0:0:0:0:
362,156,298660,1,0,0:0:0:0:
362,156,298697,1,0,0:0:0:0:
362,156,298734,1,0,0:0:0:0:
362,156,298770,1,8,0:0:0:0:
362,156,298826,1,8,0:0:0:0:
362,156,298881,1,0,0:0:0:0:
362,156,298991,1,0,0:0:0:0:
362,156,299101,1,0,0:0:0:0:
362,156,299212,1,8,0:0:0:0:
362,156,299322,1,0,0:0:0:0:
362,156,299377,1,0,0:0:0:0:
362,156,299432,1,8,0:0:0:0:
362,156,299543,1,0,0:0:0:0:
362,156,299653,1,0,0:0:0:0:
362,156,299708,1,0,0:0:0:0:
362,156,299763,1,8,0:0:0:0:
362,156,299818,1,8,0:0:0:0:
362,156,299873,1,0,0:0:0:0:
362,156,299929,1,8,0:0:0:0:
362,156,299984,1,0,0:0:0:0:
362,156,300094,1,8,0:0:0:0:
362,156,300204,1,0,0:0:0:0:
362,156,300259,1,0,0:0:0:0:
362,156,300315,1,8,0:0:0:0:
362,156,300370,1,8,0:0:0:0:
362,156,300425,1,0,0:0:0:0:
362,156,300535,1,8,0:0:0:0:
362,156,300572,1,8,0:0:0:0:
362,156,300609,1,8,0:0:0:0:
362,156,300645,1,0,0:0:0:0:
362,156,300756,1,8,0:0:0:0:
362,156,300811,1,0,0:0:0:0:
362,156,300866,1,8,0:0:0:0:
362,156,300921,1,8,0:0:0:0:
362,156,300976,1,0,0:0:0:0:
362,156,301031,1,0,0:0:0:0:
362,156,301087,1,8,0:0:0:0:
362,156,301160,1,8,0:0:0:0:
362,156,301234,1,8,0:0:0:0:
362,156,301307,1,0,0:0:0:0:
362,156,301418,1,0,0:0:0:0:
362,156,301528,1,8,0:0:0:0:
362,156,301565,1,8,0:0:0:0:
362,156,301601,1,8,0:0:0:0:
362,156,301638,1,8,0:0:0:0:
362,156,301748,1,0,0:0:0:0:
362,156,301859,1,0,0:0:0:0:
362,156,301914,1,0,0:0:0:0:
362,156,301969,1,8,0:0:0:0:
362,156,302079,1,8,0:0:0:0:
362,156,302190,1,0,0:0:0:0:
362,156,302245,1,0,0:0:0:0:
362,156,302300,1,0,0:0:0:0:
362,156,302410,1,8,0:0:0:0:
362,156,302520,1,8,0:0:0:0:
362,156,302631,1,0,0:0:0:0:
362,156,302741,1,0,0:0:0:0:
362,156,302796,1,0,0:0:0:0:
362,156,302851,1,8,0:0:0:0:
362,156,302962,1,0,0:0:0:0:
362,156,303072,1,8,0:0:0:0:
362,156,303127,1,8,0:0:0:0:
362,156,303182,1,0,0:0:0:0:
362,156,303237,1,8,0:0:0:0:
362,156,303293,1,0,0:0:0:0:
362,156,303348,1,0,0:0:0:0:
362,156,303403,1,8,0:0:0:0:
362,156,303458,1,8,0:0:0:0:
362,156,303513,1,0,0:0:0:0:
362,156,303623,1,8,0:0:0:0:
362,156,303734,1,8,0:0:0:0:
362,156,303844,1,8,0:0:0:0:
362,156,303954,1,0,0:0:0:0:
362,156,304175,1,0,0:0:0:0:
362,156,304285,1,0,0:0:0:0:
362,156,304395,1,8,0:0:0:0:
362,156,304451,1,8,0:0:0:0:
362,156,304506,1,8,0:0:0:0:
362,156,304561,1,8,0:0:0:0:
362,156,304616,1,0,0:0:0:0:
362,156,304671,1,0,0:0:0:0:
362,156,304726,1,0,0:0:0:0:
362,156,304781,1,0,0:0:0:0:
362,156,304837,1,8,0:0:0:0:
362,156,304947,1,8,0:0:0:0:
362,156,305057,1,0,0:0:0:0:
362,156,305168,1,0,0:0:0:0:
362,156,305278,1,0,0:0:0:0:
362,156,305333,1,8,0:0:0:0:
362,156,305388,1,0,0:0:0:0:
362,156,305443,1,0,0:0:0:0:
362,156,305498,1,8,0:0:0:0:
362,156,305554,1,0,0:0:0:0:
362,156,305609,1,8,0:0:0:0:
362,156,305664,1,8,0:0:0:0:
362,156,305719,1,0,0:0:0:0:
362,156,305829,1,8,0:0:0:0:
362,156,305884,1,0,0:0:0:0:
362,156,305940,1,8,0:0:0:0:
362,156,306050,1,8,0:0:0:0:
362,156,306160,1,0,0:0:0:0:
362,156,306215,1,0,0:0:0:0:
362,156,306270,1,8,0:0:0:0:
362,156,306326,1,0,0:0:0:0:
362,156,306381,1,8,0:0:0:0:
362,156,306436,1,0,0:0:0:0:
362,156,306491,1,8,0:0:0:0:
362,156,306546,1,8,0:0:0:0:
362,156,306601,1,0,0:0:0:0:
362,156,306712,1,0,0:0:0:0:
362,156,306822,1,8,0:0:0:0:
362,156,306877,1,0,0:0:0:0:
362,156,306932,1,8,0:0:0:0:
362,156,307043,1,0,0:0:0:0:
362,156,307153,1,0,0:0:0:0:
362,156,307263,1,8,0:0:0:0:
362,156,307318,1,8,0:0:0:0:
362,156,307373,1,8,0:0:0:0:
362,156,307484,1,0,0:0:0:0:
362,156,307594,1,0,0:0:0:0:
362,156,307649,1,0,0:0:0:0:
362,156,307704,1,8,0:0:0:0:
362,156,307815,1,8,0:0:0:0:
362,156,307925,1,0,0:0:0:0:
362,156,308035,1,0,0:0:0:0:
362,156,308090,1,0,0:0:0:0:
362,156,308145,1,8,0:0:0:0:
362,156,308256,1,0,0:0:0:0:
362,156,308366,1,0,0:0:0:0:
362,156,308587,1,8,0:0:0:0:
362,156,308807,5,0,0:0:0:0:
362,156,308918,1,0,0:0:0:0:
362,156,309028,1,8,0:0:0:0:
362,156,309138,5,8,0:0:0:0:
362,156,309248,1,8,0:0:0:0:
362,156,309469,5,0,0:0:0:0:
362,156,309690,1,0,0:0:0:0:
362,156,309800,5,0,0:0:0:0:
362,156,309910,1,8,0:0:0:0:
362,156,310020,5,8,0:0:0:0:
362,156,310131,1,0,0:0:0:0:
362,156,310351,5,0,0:0:0:0:
362,156,310572,1,8,0:0:0:0:
362,156,310599,1,8,0:0:0:0:
362,156,311013,5,8,0:0:0:0:
362,156,311454,5,0,0:0:0:0:
362,156,312337,5,0,0:0:0:0:
362,156,312447,5,0,0:0:0:0:
362,156,312557,5,8,0:0:0:0:
362,156,312594,1,8,0:0:0:0:
362,156,312631,1,8,0:0:0:0:
362,156,312668,1,8,0:0:0:0:
362,156,312778,5,0,0:0:0:0:
362,156,312888,5,0,0:0:0:0:
362,156,312943,5,0,0:0:0:0:
362,156,312998,5,8,0:0:0:0:
362,156,313109,5,0,0:0:0:0:
362,156,313219,5,0,0:0:0:0:
362,156,313329,5,8,0:0:0:0:
362,156,313550,5,0,0:0:0:0:
362,156,313660,5,0,0:0:0:0:
362,156,313770,5,8,0:0:0:0:
362,156,313826,5,8,0:0:0:0:
362,156,313881,5,0,0:0:0:0:
362,156,313991,5,8,0:0:0:0:
362,156,314101,5,4,0:0:0:0:
256,192,314156,12,0,316307,0:0:0:0:
362,156,317190,5,8,0:0:0:0:
362,156,317245,5,8,0:0:0:0:
362,156,317300,5,8,0:0:0:0:
362,156,317355,5,8,0:0:0:0:
362,156,317410,5,0,0:0:0:0:
362,156,317465,5,0,0:0:0:0:
362,156,317520,5,0,0:0:0:0:
362,156,317576,5,0,0:0:0:0:
362,156,317631,5,8,0:0:0:0:
362,156,317686,5,8,0:0:0:0:
362,156,317741,5,0,0:0:0:0:
362,156,317796,5,0,0:0:0:0:
362,156,317851,5,8,0:0:0:0:
362,156,317906,5,8,0:0:0:0:
362,156,317962,5,0,0:0:0:0:
362,156,318017,5,0,0:0:0:0:
362,156,318072,5,8,0:0:0:0:
362,156,318109,1,8,0:0:0:0:
362,156,318145,1,8,0:0:0:0:
362,156,318182,1,0,0:0:0:0:
362,156,318237,5,0,0:0:0:0:
362,156,318293,5,8,0:0:0:0:
362,156,318348,1,8,0:0:0:0:
362,156,318403,5,0,0:0:0:0:
362,156,318440,1,0,0:0:0:0:
362,156,318476,1,0,0:0:0:0:
362,156,318513,1,8,0:0:0:0:
362,156,318568,1,8,0:0:0:0:
362,156,318623,1,0,0:0:0:0:
362,156,318679,1,0,0:0:0:0:
362,156,318734,1,8,0:0:0:0:
362,156,318770,1,8,0:0:0:0:
362,156,318807,1,8,0:0:0:0:
362,156,318844,1,0,0:0:0:0:
362,156,318899,1,0,0:0:0:0:
362,156,318954,1,8,0:0:0:0:
362,156,319028,1,0,0:0:0:0:
362,156,319101,1,0,0:0:0:0:
362,156,319175,1,8,0:0:0:0:
362,156,319248,1,8,0:0:0:0:
362,156,319322,1,8,0:0:0:0:
362,156,319395,1,0,0:0:0:0:
362,156,319469,1,8,0:0:0:0:
362,156,319506,1,8,0:0:0:0:
362,156,319543,1,8,0:0:0:0:
362,156,319579,1,8,0:0:0:0:
362,156,319616,1,0,0:0:0:0:
362,156,319690,1,0,0:0:0:0:
362,156,319763,1,8,0:0:0:0:
362,156,319837,1,0,0:0:0:0:
362,156,319873,1,0,0:0:0:0:
362,156,319910,1,0,0:0:0:0:
362,156,319947,1,8,0:0:0:0:
362,156,320002,1,0,0:0:0:0:
362,156,320057,1,8,0:0:0:0:
362,156,320094,1,8,0:0:0:0:
362,156,320131,1,8,0:0:0:0:
362,156,320168,1,0,0:0:0:0:
362,156,320223,1,0,0:0:0:0:
362,156,320278,1,8,0:0:0:0:
362,156,320315,1,8,0:0:0:0:
362,156,320351,1,8,0:0:0:0:
362,156,320388,1,0,0:0:0:0:
362,156,320443,1,0,0:0:0:0:
362,156,320498,1,8,0:0:0:0:
362,156,320572,1,8,0:0:0:0:
362,156,320645,1,8,0:0:0:0:
362,156,320719,1,4,0:0:0:0:
