osu file format v14

[General]
AudioFilename: diu lei lou mou.ogg
AudioLeadIn: 0
PreviewTime: 10708
Countdown: 0
SampleSet: Normal
StackLeniency: 0.7
Mode: 1
LetterboxInBreaks: 0
WidescreenStoryboard: 1

[Editor]
DistanceSpacing: 1.4
BeatDivisor: 12
GridSize: 32
TimelineZoom: 2.850001

[Metadata]
Title:Unwelcome School x Sua Deng O Dok Zua
TitleUnicode:Unwelcome School x 山頂黑毒蛇
Artist:takehirotei
ArtistUnicode:takehirotei
Creator:MTNTWarz
Version:Oni
Source:ブルーアーカイブ -Blue Archive-
Tags:taikoseania blue archive ブルアカ buruaka shan ding hei du she k lou K佬 ah beng jsaw dissy 低清 mitsukiyo ミツキヨ novelty meme mashup electronic chinese malaysia hardbass steady bom bibi
BeatmapID:3504801
BeatmapSetID:1714300

[Difficulty]
HPDrainRate:6.5
CircleSize:5
OverallDifficulty:5.5
ApproachRate:5
SliderMultiplier:1.4
SliderTickRate:1

[Events]
//Background and Video events
0,0,"aru ah beng.png",0,70
//Break Periods
//Storyboard Layer 0 (Background)
//Storyboard Layer 1 (Fail)
//Storyboard Layer 2 (Pass)
//Storyboard Layer 3 (Foreground)
//Storyboard Layer 4 (Overlay)
//Storyboard Sound Samples

[TimingPoints]
42,333.333333333333,4,1,0,70,1,0
42,-111.111111111111,4,1,0,70,0,0
5375,-111.111111111111,4,1,0,70,0,0
5708,-110.32096867192,4,1,0,70,0,0
6041,-109.539662008863,4,1,0,70,0,0
6292,-108.962055219253,4,1,0,70,0,0
6542,-108.390507962485,4,1,0,70,0,0
6708,-108.014301545152,4,1,0,70,0,0
6875,-107.638454806851,4,1,0,70,0,0
7042,-107.26521459272,4,1,0,70,0,0
7208,-106.896765783103,4,1,0,70,0,0
7375,-106.528642718687,4,1,0,70,0,0
7542,-106.163046382113,4,1,0,70,0,0
7625,-105.982274741507,4,1,0,70,0,0
8041,-105.085435313263,4,1,0,70,0,0
8208,-104.729661240294,4,1,0,70,0,0
8375,-104.376288034913,4,1,0,70,0,0
8541,-104.027386226339,4,1,0,70,0,0
8708,-103.678728400265,4,1,0,70,0,0
8875,-103.332399887987,4,1,0,70,0,0
8958,-103.16113185694,4,1,0,70,0,0
9041,-102.99043062201,4,1,0,70,0,0
9208,-102.648677648181,4,1,0,70,0,0
9375,-102.309185249733,4,1,0,70,0,0
9458,-102.141289518951,4,1,0,70,0,0
9541,-101.973943939992,4,1,0,70,0,0
9708,-101.638892714502,4,1,0,70,0,0
9791,-101.473187978786,4,1,0,70,0,0
9875,-101.306036004236,4,1,0,70,0,0
9958,-101.141413943654,4,1,0,70,0,0
10041,-100.977326035966,4,1,0,70,0,0
10208,-100.648781343153,4,1,0,70,0,0
10291,-100.486286714647,4,1,0,70,0,0
10541,-100,4,1,0,70,0,0
10708,-90.9090909090909,4,1,0,80,0,0
32041,-90.9090909090909,4,1,0,80,0,0
32375,-111.111111111111,4,1,0,80,0,0
37375,-111.111111111111,4,1,0,80,0,0
37541,-111.10998166679,4,1,0,80,0,0
37625,-111.107253220374,4,1,0,80,0,0
37708,-111.101994319216,4,1,0,80,0,0
37875,-111.080255484588,4,1,0,80,0,0
38041,-111.038218642311,4,1,0,80,0,0
38125,-111.007042009227,4,1,0,80,0,0
38208,-110.968575788637,4,1,0,80,0,0
38375,-110.864745011086,4,1,0,80,0,0
38541,-110.72106729127,4,1,0,80,0,0
38708,-110.529335523323,4,1,0,80,0,0
38875,-110.283981251723,4,1,0,80,0,0
38958,-110.140207489414,4,1,0,80,0,0
39041,-109.980976826765,4,1,0,80,0,0
39208,-109.610980941068,4,1,0,80,0,0
39375,-109.170305676856,4,1,0,80,0,0
39458,-108.923466601908,4,1,0,80,0,0
39541,-108.657407058827,4,1,0,80,0,0
39625,-108.368044972739,4,1,0,80,0,0
39708,-108.061785224785,4,1,0,80,0,0
40041,-106.621460464856,4,1,0,80,0,0
40208,-105.766977548044,4,1,0,80,0,0
40291,-105.308626546818,4,1,0,80,0,0
40375,-104.82180293501,4,1,0,80,0,0
40541,-103.791594485206,4,1,0,80,0,0
40708,-102.66393886706,4,1,0,80,0,0
40791,-102.069667610408,4,1,0,80,0,0
40875,-101.445599797109,4,1,0,80,0,0
40958,-100.806826328339,4,1,0,80,0,0
41041,-100.14633135658,4,1,0,80,0,0
41208,-98.752945720324,4,1,0,80,0,0
41375,-97.27626459144,4,1,0,80,0,0
41458,-96.512568562639,4,1,0,80,0,0
41541,-95.729828130656,4,1,0,80,0,0
41708,-94.099651833393,4,1,0,80,0,0
41791,-93.263282832144,4,1,0,80,0,0
41875,-92.400092400092,4,1,0,80,0,0
41958,-91.531367194038,4,1,0,80,0,0
42041,-90.647682721015,4,1,0,80,0,0
42208,-88.827510652341,4,1,0,80,0,0
42375,-86.95652173913,4,1,0,80,0,0
42708,-86.9565217391304,4,1,0,90,0,1
50708,-86.9565217391304,4,1,0,70,0,0
51041,-111.111111111111,4,1,0,70,0,0

[HitObjects]
256,192,42,5,8,0:0:0:0:
256,192,375,1,0,0:0:0:0:
256,192,708,1,8,0:0:0:0:
256,192,958,1,8,0:0:0:0:
256,192,1208,1,0,0:0:0:0:
256,192,1375,1,0,0:0:0:0:
256,192,1541,1,8,0:0:0:0:
256,192,1708,1,0,0:0:0:0:
256,192,1875,1,0,0:0:0:0:
256,192,2041,1,8,0:0:0:0:
256,192,2208,1,8,0:0:0:0:
256,192,2291,1,0,0:0:0:0:
256,192,2708,1,8,0:0:0:0:
256,192,2875,1,8,0:0:0:0:
256,192,3041,1,0,0:0:0:0:
256,192,3208,1,8,0:0:0:0:
256,192,3375,1,0,0:0:0:0:
256,192,3541,1,0,0:0:0:0:
256,192,3708,1,8,0:0:0:0:
256,192,3875,1,8,0:0:0:0:
256,192,4041,1,0,0:0:0:0:
256,192,4208,1,0,0:0:0:0:
256,192,4375,1,8,0:0:0:0:
256,192,4541,1,0,0:0:0:0:
256,192,4708,1,8,0:0:0:0:
256,192,5041,1,0,0:0:0:0:
256,192,5375,1,8,0:0:0:0:
256,192,5708,1,0,0:0:0:0:
256,192,6041,1,8,0:0:0:0:
256,192,6291,1,8,0:0:0:0:
256,192,6541,1,0,0:0:0:0:
256,192,6708,1,0,0:0:0:0:
256,192,6875,1,8,0:0:0:0:
256,192,7041,1,0,0:0:0:0:
256,192,7208,1,0,0:0:0:0:
256,192,7375,1,8,0:0:0:0:
256,192,7541,1,8,0:0:0:0:
256,192,7625,1,0,0:0:0:0:
256,192,8041,1,8,0:0:0:0:
256,192,8208,1,0,0:0:0:0:
256,192,8375,1,0,0:0:0:0:
256,192,8541,1,8,0:0:0:0:
256,192,8708,1,0,0:0:0:0:
256,192,8875,1,0,0:0:0:0:
256,192,8958,1,0,0:0:0:0:
256,192,9041,1,8,0:0:0:0:
256,192,9208,1,0,0:0:0:0:
256,192,9375,1,8,0:0:0:0:
256,192,9458,1,0,0:0:0:0:
256,192,9541,1,0,0:0:0:0:
256,192,9708,1,8,0:0:0:0:
256,192,9791,1,8,0:0:0:0:
256,192,9875,1,8,0:0:0:0:
256,192,9958,1,8,0:0:0:0:
256,192,10041,1,0,0:0:0:0:
256,192,10208,1,8,0:0:0:0:
256,192,10291,1,0,0:0:0:0:
256,192,10541,1,0,0:0:0:0:
256,192,10708,1,12,0:0:0:0:
256,192,10875,1,0,0:0:0:0:
256,192,10958,1,0,0:0:0:0:
256,192,11041,1,8,0:0:0:0:
256,192,11208,1,0,0:0:0:0:
256,192,11375,1,8,0:0:0:0:
256,192,11458,1,0,0:0:0:0:
256,192,11625,1,0,0:0:0:0:
256,192,11708,1,8,0:0:0:0:
256,192,11875,1,0,0:0:0:0:
256,192,12041,1,8,0:0:0:0:
256,192,12125,1,8,0:0:0:0:
256,192,12208,1,0,0:0:0:0:
256,192,12375,1,8,0:0:0:0:
256,192,12541,1,8,0:0:0:0:
256,192,12708,1,0,0:0:0:0:
256,192,12791,1,0,0:0:0:0:
256,192,12875,1,8,0:0:0:0:
256,192,12958,1,8,0:0:0:0:
256,192,13041,1,0,0:0:0:0:
256,192,13375,1,8,0:0:0:0:
256,192,13541,1,8,0:0:0:0:
256,192,13708,1,0,0:0:0:0:
256,192,13791,1,0,0:0:0:0:
256,192,13875,1,8,0:0:0:0:
256,192,13958,1,0,0:0:0:0:
256,192,14041,1,8,0:0:0:0:
256,192,14208,1,0,0:0:0:0:
256,192,14375,1,8,0:0:0:0:
256,192,14458,1,8,0:0:0:0:
256,192,14541,1,0,0:0:0:0:
256,192,14708,1,8,0:0:0:0:
256,192,14875,1,0,0:0:0:0:
256,192,14958,1,0,0:0:0:0:
256,192,15041,1,8,0:0:0:0:
256,192,15208,1,0,0:0:0:0:
256,192,15375,1,8,0:0:0:0:
256,192,15458,1,8,0:0:0:0:
256,192,15541,1,8,0:0:0:0:
256,192,15625,1,8,0:0:0:0:
256,192,15708,1,0,0:0:0:0:
256,192,15875,1,0,0:0:0:0:
256,192,16041,1,8,0:0:0:0:
256,192,16208,1,0,0:0:0:0:
256,192,16291,1,0,0:0:0:0:
256,192,16375,1,8,0:0:0:0:
256,192,16541,1,0,0:0:0:0:
256,192,16708,1,8,0:0:0:0:
256,192,16791,1,0,0:0:0:0:
256,192,16958,1,0,0:0:0:0:
256,192,17041,1,8,0:0:0:0:
256,192,17208,1,0,0:0:0:0:
256,192,17375,1,8,0:0:0:0:
256,192,17458,1,8,0:0:0:0:
256,192,17541,1,0,0:0:0:0:
256,192,17708,1,8,0:0:0:0:
256,192,17875,1,8,0:0:0:0:
256,192,18041,1,0,0:0:0:0:
256,192,18125,1,0,0:0:0:0:
256,192,18208,1,8,0:0:0:0:
256,192,18291,1,8,0:0:0:0:
256,192,18375,1,0,0:0:0:0:
256,192,18708,1,8,0:0:0:0:
256,192,18875,1,8,0:0:0:0:
256,192,19041,1,0,0:0:0:0:
256,192,19125,1,0,0:0:0:0:
256,192,19208,1,8,0:0:0:0:
256,192,19375,1,0,0:0:0:0:
256,192,19541,1,8,0:0:0:0:
256,192,19625,1,8,0:0:0:0:
256,192,19708,1,0,0:0:0:0:
256,192,19875,1,0,0:0:0:0:
256,192,20041,1,8,0:0:0:0:
256,192,20208,1,8,0:0:0:0:
256,192,20375,1,0,0:0:0:0:
256,192,20458,1,8,0:0:0:0:
256,192,20541,1,8,0:0:0:0:
256,192,20625,1,8,0:0:0:0:
256,192,20708,1,0,0:0:0:0:
256,192,20875,1,0,0:0:0:0:
256,192,21041,1,8,0:0:0:0:
256,192,21208,1,0,0:0:0:0:
256,192,21375,1,12,0:0:0:0:
256,192,21708,1,8,0:0:0:0:
256,192,21875,1,0,0:0:0:0:
256,192,22041,1,8,0:0:0:0:
256,192,22125,1,0,0:0:0:0:
256,192,22291,1,0,0:0:0:0:
256,192,22375,1,8,0:0:0:0:
256,192,22541,1,0,0:0:0:0:
256,192,22708,1,8,0:0:0:0:
256,192,22791,1,8,0:0:0:0:
256,192,22875,1,0,0:0:0:0:
256,192,23041,1,8,0:0:0:0:
256,192,23208,1,8,0:0:0:0:
256,192,23375,1,0,0:0:0:0:
256,192,23458,1,0,0:0:0:0:
256,192,23541,1,8,0:0:0:0:
256,192,23625,1,8,0:0:0:0:
256,192,23708,1,0,0:0:0:0:
256,192,23875,1,0,0:0:0:0:
256,192,23958,1,0,0:0:0:0:
256,192,24041,1,8,0:0:0:0:
256,192,24208,1,8,0:0:0:0:
256,192,24375,1,0,0:0:0:0:
256,192,24458,1,0,0:0:0:0:
256,192,24541,1,8,0:0:0:0:
256,192,24625,1,0,0:0:0:0:
256,192,24708,1,8,0:0:0:0:
256,192,24875,1,0,0:0:0:0:
256,192,25041,1,8,0:0:0:0:
256,192,25125,1,8,0:0:0:0:
256,192,25208,1,0,0:0:0:0:
256,192,25375,1,8,0:0:0:0:
256,192,25541,1,0,0:0:0:0:
256,192,25708,1,0,0:0:0:0:
256,192,25875,1,8,0:0:0:0:
256,192,26041,1,8,0:0:0:0:
256,192,26375,1,8,0:0:0:0:
256,192,26541,1,0,0:0:0:0:
256,192,26625,1,0,0:0:0:0:
256,192,26708,1,8,0:0:0:0:
256,192,26875,1,0,0:0:0:0:
256,192,27041,1,8,0:0:0:0:
256,192,27125,1,8,0:0:0:0:
256,192,27208,1,0,0:0:0:0:
256,192,27375,1,8,0:0:0:0:
256,192,27458,1,0,0:0:0:0:
256,192,27625,1,0,0:0:0:0:
256,192,27708,1,8,0:0:0:0:
256,192,27875,1,0,0:0:0:0:
256,192,28041,1,8,0:0:0:0:
256,192,28208,1,0,0:0:0:0:
256,192,28291,1,0,0:0:0:0:
256,192,28375,1,8,0:0:0:0:
256,192,28541,1,8,0:0:0:0:
256,192,28708,1,0,0:0:0:0:
256,192,28791,1,8,0:0:0:0:
256,192,28875,1,0,0:0:0:0:
256,192,28958,1,0,0:0:0:0:
256,192,29041,1,8,0:0:0:0:
256,192,29208,1,0,0:0:0:0:
256,192,29375,1,8,0:0:0:0:
256,192,29541,1,0,0:0:0:0:
256,192,29625,1,0,0:0:0:0:
256,192,29708,1,8,0:0:0:0:
256,192,29875,1,0,0:0:0:0:
256,192,30041,1,8,0:0:0:0:
256,192,30125,1,8,0:0:0:0:
256,192,30208,1,8,0:0:0:0:
256,192,30375,1,0,0:0:0:0:
256,192,30541,1,8,0:0:0:0:
256,192,30708,1,0,0:0:0:0:
256,192,30791,1,0,0:0:0:0:
256,192,30875,1,8,0:0:0:0:
256,192,30958,1,0,0:0:0:0:
256,192,31041,1,8,0:0:0:0:
256,192,31208,1,0,0:0:0:0:
256,192,31375,1,8,0:0:0:0:
256,192,31458,1,8,0:0:0:0:
256,192,31541,1,0,0:0:0:0:
256,192,31625,1,0,0:0:0:0:
256,192,31708,1,8,0:0:0:0:
256,192,31875,1,8,0:0:0:0:
256,192,32041,1,4,0:0:0:0:
256,192,32375,1,0,0:0:0:0:
256,192,32708,1,8,0:0:0:0:
256,192,33041,1,8,0:0:0:0:
256,192,33375,1,8,0:0:0:0:
256,192,33541,1,0,0:0:0:0:
256,192,33625,1,0,0:0:0:0:
256,192,33708,1,8,0:0:0:0:
256,192,33875,1,0,0:0:0:0:
256,192,34041,1,8,0:0:0:0:
256,192,34125,1,8,0:0:0:0:
256,192,34208,1,0,0:0:0:0:
256,192,34375,1,0,0:0:0:0:
256,192,34541,1,8,0:0:0:0:
256,192,34708,1,0,0:0:0:0:
256,192,35041,1,0,0:0:0:0:
256,192,35375,1,8,0:0:0:0:
256,192,35708,1,8,0:0:0:0:
256,192,36041,1,0,0:0:0:0:
256,192,36208,1,0,0:0:0:0:
256,192,36291,1,0,0:0:0:0:
256,192,36375,1,8,0:0:0:0:
256,192,36541,1,0,0:0:0:0:
256,192,36708,1,8,0:0:0:0:
256,192,36791,1,0,0:0:0:0:
256,192,36875,1,8,0:0:0:0:
256,192,37041,1,8,0:0:0:0:
256,192,37375,1,0,0:0:0:0:
256,192,37541,1,8,0:0:0:0:
256,192,37625,1,8,0:0:0:0:
256,192,37708,1,8,0:0:0:0:
256,192,37875,1,0,0:0:0:0:
256,192,38041,1,8,0:0:0:0:
256,192,38125,1,8,0:0:0:0:
256,192,38208,1,0,0:0:0:0:
256,192,38375,1,8,0:0:0:0:
256,192,38541,1,8,0:0:0:0:
256,192,38708,1,0,0:0:0:0:
256,192,38875,1,0,0:0:0:0:
256,192,38958,1,0,0:0:0:0:
256,192,39041,1,8,0:0:0:0:
256,192,39208,1,0,0:0:0:0:
256,192,39375,1,8,0:0:0:0:
256,192,39458,1,0,0:0:0:0:
256,192,39541,1,8,0:0:0:0:
256,192,39625,1,8,0:0:0:0:
256,192,39708,1,0,0:0:0:0:
256,192,40041,1,8,0:0:0:0:
256,192,40208,1,0,0:0:0:0:
256,192,40291,1,0,0:0:0:0:
256,192,40375,1,8,0:0:0:0:
256,192,40541,1,0,0:0:0:0:
256,192,40708,1,8,0:0:0:0:
256,192,40791,1,8,0:0:0:0:
256,192,40875,1,0,0:0:0:0:
256,192,40958,1,0,0:0:0:0:
256,192,41041,1,8,0:0:0:0:
256,192,41208,1,0,0:0:0:0:
256,192,41375,1,8,0:0:0:0:
256,192,41458,1,8,0:0:0:0:
256,192,41541,1,0,0:0:0:0:
256,192,41708,1,8,0:0:0:0:
256,192,41791,1,0,0:0:0:0:
256,192,41875,1,8,0:0:0:0:
256,192,41958,1,8,0:0:0:0:
256,192,42041,1,0,0:0:0:0:
256,192,42208,1,0,0:0:0:0:
256,192,42375,1,8,0:0:0:0:
256,192,42708,1,12,0:0:0:0:
256,192,42875,1,0,0:0:0:0:
256,192,43041,1,8,0:0:0:0:
256,192,43125,1,8,0:0:0:0:
256,192,43208,1,0,0:0:0:0:
256,192,43375,1,8,0:0:0:0:
256,192,43541,1,0,0:0:0:0:
256,192,43625,1,0,0:0:0:0:
256,192,43708,1,8,0:0:0:0:
256,192,43875,1,8,0:0:0:0:
256,192,44041,1,0,0:0:0:0:
256,192,44208,1,8,0:0:0:0:
256,192,44291,1,0,0:0:0:0:
256,192,44375,1,8,0:0:0:0:
256,192,44541,1,0,0:0:0:0:
256,192,44708,1,8,0:0:0:0:
256,192,44791,1,8,0:0:0:0:
256,192,44875,1,0,0:0:0:0:
256,192,44958,1,0,0:0:0:0:
256,192,45041,1,8,0:0:0:0:
256,192,45208,1,8,0:0:0:0:
256,192,45291,1,8,0:0:0:0:
256,192,45375,1,0,0:0:0:0:
256,192,45541,1,0,0:0:0:0:
256,192,45708,1,8,0:0:0:0:
256,192,45791,1,8,0:0:0:0:
256,192,45875,1,0,0:0:0:0:
256,192,46041,1,8,0:0:0:0:
256,192,46208,1,0,0:0:0:0:
256,192,46291,1,0,0:0:0:0:
256,192,46375,1,8,0:0:0:0:
256,192,46541,1,8,0:0:0:0:
256,192,46708,1,0,0:0:0:0:
256,192,46875,1,8,0:0:0:0:
256,192,46958,1,8,0:0:0:0:
256,192,47041,1,8,0:0:0:0:
256,192,47208,1,0,0:0:0:0:
256,192,47375,1,8,0:0:0:0:
256,192,47458,1,8,0:0:0:0:
256,192,47541,1,0,0:0:0:0:
256,192,47625,1,0,0:0:0:0:
256,192,47708,1,8,0:0:0:0:
256,192,48041,1,8,0:0:0:0:
256,192,48125,1,8,0:0:0:0:
256,192,48208,1,0,0:0:0:0:
256,192,48375,1,0,0:0:0:0:
256,192,48458,1,8,0:0:0:0:
256,192,48541,1,0,0:0:0:0:
256,192,48708,1,8,0:0:0:0:
256,192,48791,1,8,0:0:0:0:
256,192,48875,1,0,0:0:0:0:
256,192,48958,1,0,0:0:0:0:
256,192,49041,1,8,0:0:0:0:
256,192,49208,1,0,0:0:0:0:
256,192,49375,1,8,0:0:0:0:
256,192,49458,1,8,0:0:0:0:
256,192,49541,1,0,0:0:0:0:
256,192,49708,1,8,0:0:0:0:
256,192,49791,1,0,0:0:0:0:
256,192,49875,1,0,0:0:0:0:
256,192,50041,1,8,0:0:0:0:
256,192,50097,1,8,0:0:0:0:
256,192,50153,1,8,0:0:0:0:
256,192,50208,1,8,0:0:0:0:
256,192,50375,1,0,0:0:0:0:
256,192,50541,1,8,0:0:0:0:
256,192,50708,1,4,0:0:0:0:
256,192,51041,1,0,0:0:0:0:
256,192,51208,1,8,0:0:0:0:
256,192,51375,1,0,0:0:0:0:
256,192,51541,1,0,0:0:0:0:
256,192,51708,1,8,0:0:0:0:
256,192,51875,1,0,0:0:0:0:
256,192,51958,1,8,0:0:0:0:
256,192,52041,1,0,0:0:0:0:
256,192,52125,1,8,0:0:0:0:
256,192,52208,1,0,0:0:0:0:
256,192,52375,1,0,0:0:0:0:
256,192,52541,1,8,0:0:0:0:
256,192,52875,1,0,0:0:0:0:
256,192,53041,1,8,0:0:0:0:
256,192,53208,1,0,0:0:0:0:
