osu file format v14

[General]
AudioFilename: audio.mp3
AudioLeadIn: 0
PreviewTime: 10587
Countdown: 0
SampleSet: Soft
StackLeniency: 0.7
Mode: 3
LetterboxInBreaks: 0
SpecialStyle: 0
WidescreenStoryboard: 1

[Editor]
DistanceSpacing: 0.6
BeatDivisor: 4
GridSize: 4
TimelineZoom: 1.7

[Metadata]
Title:Unwelcome School x Sua Deng O Dok Zua (Extended)
TitleUnicode:Unwelcome School x 山頂黑毒蛇 (Extended)
Artist:takehirotei
ArtistUnicode:takehirotei
Creator:icouldentthink
Version:Insane
Source:ブルーアーカイブ -Blue Archive-
Tags:blue archive ブルアカ buruaka shan ding hei du she k lou k佬 ah beng jsaw low-definition low definition 低清 dissy dissy.official official 低清 mitsukiyo ミツキヨ novelty meme mashup electronic chinese hokkien mandarin malaysia hardbass hard bass steady bom bibi 嗶嗶 ost 7 jumpstream js dense
BeatmapID:4209780
BeatmapSetID:2021360

[Difficulty]
HPDrainRate:8.5
CircleSize:4
OverallDifficulty:8.3
ApproachRate:5
SliderMultiplier:1.4
SliderTickRate:1

[Events]
//Background and Video events
0,0,"344394.jpg",0,0
//Break Periods
//Storyboard Layer 0 (Background)
//Storyboard Layer 1 (Fail)
//Storyboard Layer 2 (Pass)
//Storyboard Layer 3 (Foreground)
//Storyboard Layer 4 (Overlay)
//Storyboard Sound Samples

[TimingPoints]
4,333.333333333333,4,2,1,60,1,0
53337,-100,4,2,1,60,0,1
74337,-100,4,2,1,60,0,0

[HitObjects]
192,192,4,5,0,0:0:0:60:kick1.wav
320,192,4,1,0,0:0:0:0:
64,192,337,1,0,0:0:0:60:kick1.wav
192,192,337,1,0,0:0:0:0:
320,192,670,1,0,0:0:0:60:kick1.wav
448,192,670,1,0,0:0:0:0:
448,192,920,1,0,0:0:0:0:
64,192,1003,1,0,0:0:0:60:kick1.wav
192,192,1003,1,0,0:0:0:0:
192,192,1170,1,0,0:0:0:0:
320,192,1337,1,0,0:0:0:60:kick1.wav
448,192,1337,1,0,0:0:0:0:
448,192,1503,1,0,0:0:0:0:
64,192,1670,1,0,0:0:0:60:kick1.wav
192,192,1670,1,0,0:0:0:0:
64,192,1837,1,0,0:0:0:0:
320,192,2003,1,0,0:0:0:60:kick1.wav
448,192,2003,1,0,0:0:0:0:
448,192,2170,1,0,0:0:0:0:
320,192,2253,1,0,0:0:0:0:
64,192,2337,1,0,0:0:0:60:kick1.wav
192,192,2337,1,0,0:0:0:0:
64,192,2670,1,0,0:0:0:60:kick1.wav
448,192,2670,1,0,0:0:0:0:
448,192,2837,1,0,0:0:0:0:
192,192,3003,1,0,0:0:0:60:kick1.wav
320,192,3003,1,0,0:0:0:0:
320,192,3170,1,0,0:0:0:0:
64,192,3337,1,0,0:0:0:60:kick1.wav
192,192,3337,1,0,0:0:0:0:
192,192,3503,1,0,0:0:0:0:
64,192,3670,1,0,0:0:0:60:kick1.wav
320,192,3670,1,0,0:0:0:0:
64,192,3837,1,0,0:0:0:0:
192,192,4003,1,0,0:0:0:60:kick1.wav
320,192,4003,1,0,0:0:0:0:
192,192,4170,1,0,0:0:0:0:
320,192,4337,1,0,0:0:0:60:kick1.wav
448,192,4337,1,0,0:0:0:0:
320,192,4503,1,0,0:0:0:0:
192,192,4670,1,0,0:0:0:60:kick1.wav
448,192,4670,1,0,0:0:0:0:
64,192,5003,1,0,0:0:0:60:kick1.wav
320,192,5003,1,0,0:0:0:0:
320,192,5337,1,2,0:0:0:0:
448,192,5337,1,0,0:0:0:0:
448,192,5503,1,0,0:0:0:0:
64,192,5670,1,2,0:0:0:0:
192,192,5670,1,0,0:0:0:0:
64,192,5837,1,0,0:0:0:0:
320,192,6003,1,2,0:0:0:0:
448,192,6003,1,0,0:0:0:0:
320,192,6170,1,0,0:0:0:0:
448,192,6253,1,0,0:0:0:0:
64,192,6337,1,2,0:0:0:0:
192,192,6337,1,0,0:0:0:0:
320,192,6503,1,0,0:0:0:0:
192,192,6670,1,2,0:0:0:0:
448,192,6670,1,0,0:0:0:0:
448,192,6837,1,0,0:0:0:0:
64,192,7003,1,2,0:0:0:0:
320,192,7003,1,0,0:0:0:0:
64,192,7170,1,0,0:0:0:0:
192,192,7337,1,2,0:0:0:0:
448,192,7337,1,0,0:0:0:0:
448,192,7503,1,0,0:0:0:0:
320,192,7587,1,0,0:0:0:0:
64,192,7670,1,2,0:0:0:0:
192,192,7670,1,0,0:0:0:0:
320,192,7837,1,0,0:0:0:0:
64,192,8003,1,2,0:0:0:0:
192,192,8003,1,0,0:0:0:75:clap1.wav
448,192,8003,1,0,0:0:0:0:
64,192,8170,1,2,0:0:0:0:
320,192,8170,1,0,0:0:0:0:
192,192,8337,1,2,0:0:0:0:
320,192,8337,1,0,0:0:0:0:
64,192,8503,1,2,0:0:0:0:
320,192,8503,1,0,0:0:0:75:clap1.wav
448,192,8503,1,0,0:0:0:0:
64,192,8670,1,2,0:0:0:0:
192,192,8670,1,0,0:0:0:0:
320,192,8837,1,2,0:0:0:0:
448,192,8837,1,0,0:0:0:0:
64,192,9003,1,2,0:0:0:0:
192,192,9003,1,0,0:0:0:75:clap1.wav
448,192,9003,1,0,0:0:0:0:
64,192,9170,1,2,0:0:0:0:
320,192,9170,1,0,0:0:0:0:
192,192,9337,1,2,0:0:0:0:
448,192,9337,1,0,0:0:0:0:
320,192,9420,1,2,0:0:0:0:
64,192,9503,1,2,0:0:0:0:
448,192,9503,1,0,0:0:0:75:clap1.wav
192,192,9587,1,2,0:0:0:0:
64,192,9670,1,2,0:0:0:0:
320,192,9670,1,0,0:0:0:0:
448,192,9753,1,2,0:0:0:0:
64,192,9837,1,2,0:0:0:0:
192,192,9837,1,0,0:0:0:0:
320,192,9920,1,2,0:0:0:0:
64,192,10003,1,2,0:0:0:0:
448,192,10003,1,0,0:0:0:75:clap1.wav
192,192,10170,1,2,0:0:0:0:
320,192,10170,1,0,0:0:0:0:
64,192,10253,1,2,0:0:0:0:
448,192,10253,1,0,0:0:0:75:clap1.wav
320,192,10503,1,2,0:0:0:0:
448,192,10503,1,0,0:0:0:0:
64,192,10670,1,4,0:0:0:0:
192,192,10670,1,2,0:0:0:0:
448,192,10670,1,0,0:0:0:0:
320,192,10753,1,0,0:0:0:0:
448,192,10837,1,0,0:0:0:0:
64,192,10920,1,0,0:0:0:0:
192,192,11003,1,2,0:0:0:0:
320,192,11003,1,0,0:0:0:0:
448,192,11087,1,0,0:0:0:0:
64,192,11170,1,0,0:0:0:0:
320,192,11253,1,0,0:0:0:0:
64,192,11337,1,2,0:0:0:0:
192,192,11337,1,0,0:0:0:0:
448,192,11420,1,0,0:0:0:0:
320,192,11503,1,0,0:0:0:0:
192,192,11587,1,0,0:0:0:0:
64,192,11670,1,2,0:0:0:0:
448,192,11670,1,0,0:0:0:0:
320,192,11753,1,0,0:0:0:0:
192,192,11837,1,0,0:0:0:0:
320,192,11920,1,0,0:0:0:0:
64,192,12003,1,2,0:0:0:0:
448,192,12003,1,0,0:0:0:0:
192,192,12087,1,0,0:0:0:0:
320,192,12170,1,0,0:0:0:0:
448,192,12253,1,0,0:0:0:0:
64,192,12337,1,2,0:0:0:0:
192,192,12337,1,0,0:0:0:0:
320,192,12420,1,0,0:0:0:0:
448,192,12503,1,0,0:0:0:0:
320,192,12587,1,0,0:0:0:0:
64,192,12670,128,2,13003:0:0:0:0:
192,192,12670,128,0,12837:0:0:0:0:
448,192,12837,128,0,12920:0:0:0:0:
320,192,12920,128,0,13003:0:0:0:0:
192,192,13003,1,2,0:0:0:0:
448,192,13003,1,0,0:0:0:0:
192,192,13170,1,0,0:0:0:0:
320,192,13337,1,2,0:0:0:0:
448,192,13337,1,0,0:0:0:0:
64,192,13420,1,0,0:0:0:0:
192,192,13503,1,0,0:0:0:0:
320,192,13587,1,0,0:0:0:0:
64,192,13670,1,2,0:0:0:0:
448,192,13670,1,0,0:0:0:0:
192,192,13753,1,0,0:0:0:0:
320,192,13837,1,0,0:0:0:0:
192,192,13920,1,0,0:0:0:0:
64,192,14003,1,2,0:0:0:0:
448,192,14003,1,0,0:0:0:0:
320,192,14087,1,0,0:0:0:0:
192,192,14170,1,0,0:0:0:0:
448,192,14253,1,0,0:0:0:0:
64,192,14337,1,2,0:0:0:0:
320,192,14337,1,0,0:0:0:0:
192,192,14420,1,0,0:0:0:0:
448,192,14503,1,0,0:0:0:0:
320,192,14587,1,0,0:0:0:0:
64,192,14670,1,2,0:0:0:0:
192,192,14670,1,0,0:0:0:0:
448,192,14753,1,0,0:0:0:0:
320,192,14837,1,0,0:0:0:0:
448,192,14920,1,0,0:0:0:0:
64,192,15003,1,2,0:0:0:0:
192,192,15003,1,0,0:0:0:0:
320,192,15087,1,0,0:0:0:0:
192,192,15170,1,0,0:0:0:0:
320,192,15253,1,0,0:0:0:0:
64,192,15337,128,2,15670:0:0:0:0:
448,192,15337,128,0,15670:0:0:0:0:
192,192,15503,1,0,0:0:0:0:
192,192,15670,128,2,16003:0:0:0:0:
320,192,15670,128,0,16003:0:0:0:0:
448,192,15837,1,0,0:0:0:0:
64,192,16003,1,2,0:0:0:0:
448,192,16003,1,0,0:0:0:0:
192,192,16087,1,0,0:0:0:0:
320,192,16170,1,0,0:0:0:0:
192,192,16253,1,0,0:0:0:0:
64,192,16337,1,2,0:0:0:0:
448,192,16337,1,0,0:0:0:0:
320,192,16420,1,0,0:0:0:0:
64,192,16503,1,0,0:0:0:0:
192,192,16587,1,0,0:0:0:0:
320,192,16670,128,2,16753:0:0:0:0:
448,192,16670,128,0,16753:0:0:0:0:
320,192,16837,128,0,17003:0:0:0:0:
448,192,16837,128,0,17003:0:0:0:0:
64,192,17003,1,2,0:0:0:0:
192,192,17003,1,0,0:0:0:0:
320,192,17170,1,0,0:0:0:0:
192,192,17253,1,0,0:0:0:0:
64,192,17337,1,2,0:0:0:0:
448,192,17337,1,0,0:0:0:0:
320,192,17420,1,0,0:0:0:0:
192,192,17503,1,0,0:0:0:0:
448,192,17587,1,0,0:0:0:0:
64,192,17670,1,2,0:0:0:0:
320,192,17670,1,0,0:0:0:0:
192,192,17753,1,0,0:0:0:0:
320,192,17837,1,0,0:0:0:0:
448,192,17920,1,0,0:0:0:0:
64,192,18003,1,2,0:0:0:0:
192,192,18003,1,0,0:0:0:0:
320,192,18087,1,0,0:0:0:0:
64,192,18170,1,0,0:0:0:0:
192,192,18253,1,0,0:0:0:0:
64,192,18337,1,2,0:0:0:0:
448,192,18337,1,0,0:0:0:0:
320,192,18420,1,0,0:0:0:0:
192,192,18503,1,0,0:0:0:0:
64,192,18587,1,0,0:0:0:0:
320,192,18670,1,2,0:0:0:0:
448,192,18670,1,0,0:0:0:0:
192,192,18753,1,0,0:0:0:0:
320,192,18837,1,0,0:0:0:0:
192,192,18920,1,0,0:0:0:0:
64,192,19003,1,2,0:0:0:0:
448,192,19003,1,0,0:0:0:0:
320,192,19087,1,0,0:0:0:0:
192,192,19170,1,0,0:0:0:0:
320,192,19253,1,0,0:0:0:0:
64,192,19337,1,2,0:0:0:0:
448,192,19337,1,0,0:0:0:0:
192,192,19420,1,0,0:0:0:0:
448,192,19503,1,0,0:0:0:0:
320,192,19587,1,0,0:0:0:0:
64,192,19670,1,2,0:0:0:0:
192,192,19670,1,0,0:0:0:0:
320,192,19753,1,0,0:0:0:0:
64,192,19837,1,2,0:0:0:0:
192,192,19837,1,0,0:0:0:0:
320,192,19920,1,0,0:0:0:0:
64,192,20003,1,2,0:0:0:0:
448,192,20003,1,0,0:0:0:0:
192,192,20087,1,0,0:0:0:0:
320,192,20170,1,2,0:0:0:0:
448,192,20170,1,0,0:0:0:0:
192,192,20253,1,0,0:0:0:0:
64,192,20337,1,2,0:0:0:0:
448,192,20337,1,0,0:0:0:0:
192,192,20420,1,2,0:0:0:0:
320,192,20420,1,0,0:0:0:0:
64,192,20503,1,2,0:0:0:0:
448,192,20503,1,0,0:0:0:0:
192,192,20587,1,2,0:0:0:0:
320,192,20587,1,0,0:0:0:0:
64,192,20670,1,0,0:0:0:60:kick2.wav
448,192,20670,1,0,0:0:0:0:
192,192,20837,1,0,0:0:0:60:kick2.wav
320,192,20837,1,0,0:0:0:0:
320,192,21003,1,0,0:0:0:100:clap2.wav
448,192,21003,1,0,0:0:0:0:
64,192,21170,1,2,0:0:0:0:
192,192,21253,1,2,0:0:0:0:
64,192,21337,1,2,0:0:0:0:
320,192,21337,1,4,0:0:0:0:
448,192,21337,1,0,0:0:0:0:
192,192,21420,1,0,0:0:0:0:
320,192,21503,1,0,0:0:0:0:
448,192,21587,1,0,0:0:0:0:
64,192,21670,1,8,0:0:0:0:
192,192,21670,1,0,0:0:0:0:
320,192,21753,1,0,0:0:0:0:
192,192,21837,1,0,0:0:0:0:
320,192,21920,1,0,0:0:0:0:
64,192,22003,1,2,0:0:0:0:
448,192,22003,1,0,0:0:0:0:
192,192,22087,1,0,0:0:0:0:
448,192,22170,1,0,0:0:0:0:
320,192,22253,1,0,0:0:0:0:
64,192,22337,1,8,0:0:0:0:
192,192,22337,1,0,0:0:0:0:
448,192,22420,1,0,0:0:0:0:
192,192,22503,1,0,0:0:0:0:
64,192,22587,1,0,0:0:0:0:
320,192,22670,1,2,0:0:0:0:
448,192,22670,1,0,0:0:0:0:
192,192,22753,1,0,0:0:0:0:
448,192,22837,1,0,0:0:0:0:
320,192,22920,1,0,0:0:0:0:
64,192,23003,1,8,0:0:0:0:
192,192,23003,1,0,0:0:0:0:
320,192,23087,1,0,0:0:0:0:
448,192,23170,1,0,0:0:0:0:
64,192,23253,1,0,0:0:0:0:
192,192,23337,1,2,0:0:0:0:
320,192,23337,1,0,0:0:0:0:
64,192,23420,1,0,0:0:0:0:
448,192,23503,128,0,23587:0:0:0:0:
320,192,23587,128,0,23670:0:0:0:0:
64,192,23670,128,8,23837:0:0:0:0:
192,192,23670,128,0,23837:0:0:0:0:
320,192,23837,128,0,23920:0:0:0:0:
448,192,23920,128,0,24003:0:0:0:0:
64,192,24003,1,2,0:0:0:0:
192,192,24003,1,0,0:0:0:0:
320,192,24087,1,0,0:0:0:0:
448,192,24170,1,0,0:0:0:0:
64,192,24253,1,0,0:0:0:0:
192,192,24337,1,8,0:0:0:0:
320,192,24337,1,0,0:0:0:0:
448,192,24420,1,0,0:0:0:0:
64,192,24503,1,0,0:0:0:0:
192,192,24587,1,0,0:0:0:0:
320,192,24670,1,2,0:0:0:0:
448,192,24670,1,0,0:0:0:0:
192,192,24753,1,0,0:0:0:0:
64,192,24837,1,0,0:0:0:0:
448,192,24920,1,0,0:0:0:0:
64,192,25003,1,8,0:0:0:0:
192,192,25003,1,0,0:0:0:0:
320,192,25087,1,0,0:0:0:0:
448,192,25170,1,0,0:0:0:0:
64,192,25253,1,0,0:0:0:0:
192,192,25337,1,2,0:0:0:0:
320,192,25337,1,0,0:0:0:0:
448,192,25420,1,0,0:0:0:0:
192,192,25503,1,0,0:0:0:0:
320,192,25587,1,0,0:0:0:0:
64,192,25670,1,8,0:0:0:0:
192,192,25670,1,0,0:0:0:0:
448,192,25753,1,0,0:0:0:0:
320,192,25837,1,0,0:0:0:0:
192,192,25920,1,0,0:0:0:0:
64,192,26003,128,2,26087:0:0:0:0:
448,192,26003,128,0,26087:0:0:0:0:
64,192,26170,128,2,26337:0:0:0:0:
448,192,26170,128,0,26337:0:0:0:0:
192,192,26337,1,8,0:0:0:0:
320,192,26337,1,2,0:0:0:0:
320,192,26503,1,2,0:0:0:0:
448,192,26503,1,0,0:0:0:0:
64,192,26587,1,2,0:0:0:0:
192,192,26587,1,0,0:0:0:0:
320,192,26670,1,2,0:0:0:0:
448,192,26670,1,0,0:0:0:0:
192,192,26753,1,0,0:0:0:0:
64,192,26837,1,0,0:0:0:0:
448,192,26920,1,0,0:0:0:0:
64,192,27003,1,8,0:0:0:0:
192,192,27003,1,0,0:0:0:0:
320,192,27087,1,0,0:0:0:0:
192,192,27170,1,0,0:0:0:0:
64,192,27253,1,0,0:0:0:0:
320,192,27337,128,2,27503:0:0:0:0:
448,192,27337,1,0,0:0:0:0:
448,192,27503,128,0,27587:0:0:0:0:
64,192,27587,128,0,27670:0:0:0:0:
192,192,27670,1,8,0:0:0:0:
320,192,27670,1,0,0:0:0:0:
192,192,27837,1,0,0:0:0:0:
64,192,27920,1,0,0:0:0:0:
320,192,28003,1,2,0:0:0:0:
448,192,28003,1,0,0:0:0:0:
192,192,28087,1,0,0:0:0:0:
64,192,28170,1,0,0:0:0:0:
192,192,28253,1,0,0:0:0:0:
320,192,28337,1,8,0:0:0:0:
448,192,28337,1,0,0:0:0:0:
64,192,28420,1,0,0:0:0:0:
192,192,28503,1,0,0:0:0:0:
320,192,28587,1,0,0:0:0:0:
64,192,28670,1,2,0:0:0:0:
448,192,28670,1,0,0:0:0:0:
192,192,28753,1,0,0:0:0:0:
448,192,28837,1,0,0:0:0:0:
320,192,28920,1,0,0:0:0:0:
64,192,29003,1,8,0:0:0:0:
192,192,29003,1,2,0:0:0:0:
192,192,29170,1,2,0:0:0:0:
320,192,29170,1,0,0:0:0:0:
64,192,29337,1,2,0:0:0:0:
320,192,29337,1,8,0:0:0:0:
448,192,29337,1,0,0:0:0:0:
64,192,29503,1,2,0:0:0:0:
192,192,29503,1,0,0:0:0:0:
192,192,29670,1,8,0:0:0:0:
320,192,29670,1,2,0:0:0:0:
448,192,29670,1,0,0:0:0:0:
320,192,29837,1,2,0:0:0:0:
448,192,29837,1,0,0:0:0:0:
64,192,30003,1,2,0:0:0:0:
192,192,30003,1,8,0:0:0:0:
448,192,30003,1,0,0:0:0:0:
64,192,30170,1,2,0:0:0:0:
320,192,30170,1,0,0:0:0:0:
192,192,30337,1,2,0:0:0:0:
320,192,30337,1,8,0:0:0:0:
448,192,30337,1,0,0:0:0:0:
64,192,30503,1,2,0:0:0:0:
192,192,30503,1,0,0:0:0:0:
320,192,30670,1,2,0:0:0:0:
448,192,30670,1,8,0:0:0:0:
64,192,30753,1,2,0:0:0:0:
192,192,30837,1,2,0:0:0:0:
320,192,30837,1,0,0:0:0:0:
448,192,30920,1,2,0:0:0:0:
64,192,31003,1,2,0:0:0:0:
192,192,31003,1,8,0:0:0:0:
320,192,31087,1,2,0:0:0:0:
64,192,31170,1,2,0:0:0:0:
448,192,31170,1,0,0:0:0:0:
192,192,31253,1,2,0:0:0:0:
448,192,31337,1,10,0:0:0:0:
320,192,31378,1,2,0:0:0:0:
192,192,31420,1,2,0:0:0:0:
64,192,31462,1,2,0:0:0:0:
448,192,31503,1,2,0:0:0:0:
320,192,31587,1,2,0:0:0:0:
64,192,31670,1,8,0:0:0:0:
192,192,31670,1,2,0:0:0:0:
320,192,31837,1,2,0:0:0:0:
448,192,31837,1,0,0:0:0:75:clap3.wav
64,192,32003,1,4,0:0:0:0:
192,192,32003,1,2,0:0:0:0:
448,192,32003,1,8,0:0:0:0:
192,192,32170,1,0,0:0:0:0:
64,192,32337,1,2,0:0:0:0:
320,192,32337,1,8,0:0:0:0:
448,192,32337,1,0,0:0:0:0:
64,192,32503,1,0,0:0:0:0:
192,192,32670,1,2,0:0:0:0:
320,192,32670,1,8,0:0:0:0:
448,192,32670,1,0,0:0:0:0:
448,192,32837,1,0,0:0:0:0:
64,192,33003,1,8,0:0:0:0:
192,192,33003,1,2,0:0:0:0:
320,192,33003,1,0,0:0:0:0:
192,192,33170,1,0,0:0:0:0:
64,192,33337,1,2,0:0:0:0:
320,192,33337,1,8,0:0:0:0:
448,192,33337,1,0,0:0:0:0:
320,192,33503,1,0,0:0:0:0:
64,192,33670,1,8,0:0:0:0:
192,192,33670,1,2,0:0:0:0:
448,192,33670,1,0,0:0:0:0:
448,192,33837,1,0,0:0:0:0:
64,192,34003,1,2,0:0:0:0:
192,192,34003,1,8,0:0:0:0:
320,192,34003,1,0,0:0:0:0:
320,192,34170,1,0,0:0:0:0:
64,192,34337,1,8,0:0:0:0:
192,192,34337,1,2,0:0:0:0:
448,192,34337,1,0,0:0:0:0:
192,192,34503,1,0,0:0:0:0:
64,192,34670,1,2,0:0:0:0:
320,192,34670,1,8,0:0:0:0:
448,192,34670,1,0,0:0:0:0:
448,192,34837,1,0,0:0:0:0:
64,192,35003,1,8,0:0:0:0:
192,192,35003,1,2,0:0:0:0:
320,192,35003,1,0,0:0:0:0:
192,192,35170,1,0,0:0:0:0:
64,192,35337,1,2,0:0:0:0:
320,192,35337,1,8,0:0:0:0:
448,192,35337,1,0,0:0:0:0:
320,192,35503,1,0,0:0:0:0:
64,192,35670,1,8,0:0:0:0:
192,192,35670,1,2,0:0:0:0:
448,192,35670,1,0,0:0:0:0:
64,192,35837,1,0,0:0:0:0:
192,192,36003,1,2,0:0:0:0:
320,192,36003,1,8,0:0:0:0:
448,192,36003,1,0,0:0:0:0:
448,192,36170,1,0,0:0:0:0:
64,192,36337,1,8,0:0:0:0:
192,192,36337,1,2,0:0:0:0:
320,192,36337,1,0,0:0:0:0:
64,192,36503,1,0,0:0:0:0:
192,192,36670,1,2,0:0:0:0:
320,192,36670,1,8,0:0:0:0:
448,192,36670,1,0,0:0:0:0:
448,192,36837,1,0,0:0:0:0:
64,192,37003,1,8,0:0:0:0:
192,192,37003,1,2,0:0:0:0:
320,192,37003,1,0,0:0:0:0:
192,192,37170,1,0,0:0:0:0:
64,192,37337,1,2,0:0:0:0:
320,192,37337,1,8,0:0:0:0:
448,192,37337,1,0,0:0:0:0:
64,192,37503,1,0,0:0:0:0:
192,192,37670,1,2,0:0:0:0:
320,192,37670,1,8,0:0:0:0:
448,192,37670,1,0,0:0:0:0:
192,192,37837,1,0,0:0:0:0:
64,192,38003,1,8,0:0:0:0:
320,192,38003,1,2,0:0:0:0:
448,192,38003,1,0,0:0:0:0:
320,192,38170,1,0,0:0:0:0:
64,192,38337,1,2,0:0:0:0:
192,192,38337,1,8,0:0:0:0:
448,192,38337,1,0,0:0:0:0:
192,192,38503,1,0,0:0:0:0:
64,192,38670,1,8,0:0:0:0:
320,192,38670,1,2,0:0:0:0:
448,192,38670,1,0,0:0:0:0:
64,192,38837,1,0,0:0:0:0:
192,192,39003,1,2,0:0:0:0:
320,192,39003,1,8,0:0:0:0:
448,192,39003,1,0,0:0:0:0:
448,192,39170,1,0,0:0:0:0:
64,192,39337,1,8,0:0:0:0:
192,192,39337,1,2,0:0:0:0:
320,192,39337,1,0,0:0:0:0:
320,192,39503,1,0,0:0:0:0:
64,192,39670,1,8,0:0:0:0:
192,192,39670,1,2,0:0:0:0:
448,192,39670,1,0,0:0:0:0:
192,192,39837,1,0,0:0:0:0:
64,192,40003,1,2,0:0:0:0:
320,192,40003,1,8,0:0:0:0:
448,192,40003,1,0,0:0:0:0:
192,192,40170,1,2,0:0:0:0:
448,192,40170,1,0,0:0:0:0:
64,192,40337,1,2,0:0:0:0:
192,192,40337,1,8,0:0:0:0:
320,192,40337,1,0,0:0:0:0:
64,192,40503,1,2,0:0:0:0:
320,192,40503,1,0,0:0:0:0:
192,192,40670,1,2,0:0:0:0:
320,192,40670,1,8,0:0:0:0:
448,192,40670,1,0,0:0:0:0:
320,192,40837,1,2,0:0:0:0:
448,192,40837,1,0,0:0:0:0:
64,192,41003,1,2,0:0:0:0:
192,192,41003,1,8,0:0:0:0:
448,192,41003,1,0,0:0:0:0:
64,192,41170,1,2,0:0:0:0:
192,192,41170,1,0,0:0:0:0:
320,192,41337,1,2,0:0:0:0:
448,192,41337,1,8,0:0:0:0:
64,192,41420,1,2,0:0:0:0:
192,192,41503,1,2,0:0:0:0:
320,192,41503,1,0,0:0:0:0:
448,192,41587,1,2,0:0:0:0:
64,192,41670,1,8,0:0:0:0:
192,192,41670,1,2,0:0:0:0:
320,192,41753,1,2,0:0:0:0:
64,192,41837,1,2,0:0:0:0:
448,192,41837,1,0,0:0:0:0:
192,192,41920,1,2,0:0:0:0:
64,192,42003,1,8,0:0:0:0:
320,192,42003,1,2,0:0:0:0:
192,192,42170,1,2,0:0:0:0:
320,192,42170,1,0,0:0:0:0:
64,192,42337,1,8,0:0:0:0:
320,192,42337,1,2,0:0:0:0:
448,192,42337,1,0,0:0:0:0:
64,192,42503,1,2,0:0:0:0:
192,192,42503,1,0,0:0:0:0:
320,192,42587,1,2,0:0:0:0:
64,192,42670,1,8,0:0:0:0:
192,192,42670,1,4,0:0:0:0:
448,192,42670,1,2,0:0:0:0:
64,192,42837,1,2,0:0:0:0:
320,192,42837,1,0,0:0:0:0:
192,192,43003,1,2,0:0:0:0:
320,192,43003,1,8,0:0:0:0:
448,192,43003,1,0,0:0:0:0:
192,192,43170,1,2,0:0:0:0:
448,192,43170,1,0,0:0:0:0:
64,192,43337,1,2,0:0:0:0:
192,192,43337,1,8,0:0:0:0:
320,192,43337,1,0,0:0:0:0:
64,192,43503,1,2,0:0:0:0:
448,192,43503,1,0,0:0:0:0:
192,192,43670,1,2,0:0:0:0:
320,192,43670,1,8,0:0:0:0:
448,192,43670,1,0,0:0:0:0:
192,192,43837,1,2,0:0:0:0:
320,192,43837,1,0,0:0:0:0:
64,192,44003,1,2,0:0:0:0:
320,192,44003,1,8,0:0:0:0:
448,192,44003,1,0,0:0:0:0:
64,192,44170,1,2,0:0:0:0:
192,192,44170,1,0,0:0:0:0:
192,192,44337,1,2,0:0:0:0:
320,192,44337,1,8,0:0:0:0:
448,192,44337,1,0,0:0:0:0:
320,192,44503,1,2,0:0:0:0:
448,192,44503,1,0,0:0:0:0:
64,192,44670,1,2,0:0:0:0:
192,192,44670,1,8,0:0:0:0:
448,192,44670,1,0,0:0:0:0:
64,192,44837,1,2,0:0:0:0:
320,192,44837,1,0,0:0:0:0:
192,192,45003,1,2,0:0:0:0:
448,192,45003,1,8,0:0:0:0:
320,192,45087,1,2,0:0:0:0:
64,192,45170,1,2,0:0:0:0:
448,192,45170,1,0,0:0:0:0:
192,192,45253,1,2,0:0:0:0:
320,192,45337,1,2,0:0:0:0:
448,192,45337,1,8,0:0:0:0:
64,192,45503,1,2,0:0:0:0:
192,192,45503,1,0,0:0:0:0:
64,192,45670,1,2,0:0:0:0:
320,192,45670,1,8,0:0:0:0:
448,192,45670,1,0,0:0:0:0:
192,192,45837,1,2,0:0:0:0:
320,192,45837,1,0,0:0:0:0:
64,192,46003,1,2,0:0:0:0:
320,192,46003,1,8,0:0:0:0:
448,192,46003,1,0,0:0:0:0:
320,192,46170,1,2,0:0:0:0:
448,192,46170,1,0,0:0:0:0:
64,192,46337,1,2,0:0:0:0:
192,192,46337,1,8,0:0:0:0:
448,192,46337,1,0,0:0:0:0:
64,192,46503,1,2,0:0:0:0:
192,192,46503,1,0,0:0:0:0:
192,192,46670,1,2,0:0:0:0:
320,192,46670,1,8,0:0:0:0:
448,192,46670,1,0,0:0:0:0:
320,192,46837,1,2,0:0:0:0:
448,192,46837,1,0,0:0:0:0:
64,192,46920,1,2,0:0:0:0:
192,192,46920,1,0,0:0:0:0:
320,192,47003,1,2,0:0:0:0:
448,192,47003,1,8,0:0:0:0:
64,192,47170,1,2,0:0:0:0:
192,192,47170,1,0,0:0:0:0:
320,192,47253,1,2,0:0:0:0:
448,192,47253,1,0,0:0:0:0:
64,192,47337,1,10,0:0:0:0:
192,192,47378,1,2,0:0:0:0:
320,192,47420,1,2,0:0:0:0:
448,192,47462,1,2,0:0:0:0:
64,192,47503,1,2,0:0:0:0:
192,192,47587,1,2,0:0:0:0:
320,192,47670,1,8,0:0:0:0:
448,192,47670,1,2,0:0:0:0:
64,192,47837,1,2,0:0:0:0:
192,192,47837,1,0,0:0:0:0:
320,192,47920,1,2,0:0:0:0:
64,192,48003,1,8,0:0:0:0:
448,192,48003,1,2,0:0:0:0:
192,192,48087,1,2,0:0:0:0:
64,192,48170,1,2,0:0:0:0:
320,192,48170,1,0,0:0:0:0:
448,192,48253,1,2,0:0:0:0:
64,192,48337,1,2,0:0:0:0:
192,192,48337,1,8,0:0:0:0:
320,192,48420,1,2,0:0:0:0:
192,192,48503,1,2,0:0:0:0:
448,192,48503,1,0,0:0:0:0:
320,192,48587,1,2,0:0:0:0:
64,192,48670,1,8,0:0:0:0:
448,192,48670,1,2,0:0:0:0:
192,192,48753,1,2,0:0:0:0:
64,192,48837,1,2,0:0:0:0:
320,192,48837,1,0,0:0:0:0:
448,192,48920,1,2,0:0:0:0:
64,192,49003,1,8,0:0:0:0:
192,192,49003,1,2,0:0:0:0:
320,192,49170,1,2,0:0:0:0:
448,192,49170,1,0,0:0:0:0:
64,192,49253,1,2,0:0:0:0:
448,192,49337,1,10,0:0:0:0:
320,192,49378,1,2,0:0:0:0:
192,192,49420,1,2,0:0:0:0:
64,192,49462,1,2,0:0:0:0:
448,192,49503,1,2,0:0:0:0:
320,192,49587,1,2,0:0:0:0:
64,192,49670,1,10,0:0:0:0:
192,192,49712,1,2,0:0:0:0:
320,192,49753,1,2,0:0:0:0:
448,192,49795,1,2,0:0:0:0:
64,192,49837,1,2,0:0:0:0:
192,192,49920,1,2,0:0:0:0:
448,192,50003,1,10,0:0:0:0:
320,192,50045,1,2,0:0:0:0:
192,192,50087,1,2,0:0:0:0:
64,192,50128,1,2,0:0:0:0:
448,192,50170,1,2,0:0:0:0:
320,192,50253,1,2,0:0:0:0:
64,192,50337,1,2,0:0:0:0:
192,192,50337,1,8,0:0:0:0:
320,192,50503,1,2,0:0:0:0:
448,192,50503,1,0,0:0:0:0:
64,192,50670,1,4,0:0:0:0:
192,192,50670,1,2,0:0:0:0:
448,192,50670,1,0,0:0:0:0:
448,192,51003,1,0,0:0:0:0:
64,192,51170,1,0,0:0:0:75:clap2.wav
192,192,51170,1,0,0:0:0:0:
448,192,51337,1,0,0:0:0:0:
64,192,51503,1,0,0:0:0:60:kick1.wav
320,192,51670,1,0,0:0:0:75:clap2.wav
448,192,51670,1,0,0:0:0:0:
192,192,51837,1,0,0:0:0:0:
320,192,51920,1,0,0:0:0:75:clap2.wav
448,192,51920,1,0,0:0:0:0:
192,192,52003,1,0,0:0:0:0:
64,192,52087,1,0,0:0:0:75:clap2.wav
448,192,52087,1,0,0:0:0:0:
320,192,52170,1,0,0:0:0:60:kick1.wav
448,192,52337,1,0,0:0:0:60:kick1.wav
64,192,52503,1,0,0:0:0:75:clap2.wav
192,192,52503,1,0,0:0:0:0:
320,192,52670,1,2,0:0:0:0:
448,192,52670,1,0,0:0:0:0:
448,192,52837,1,0,0:0:0:60:kick1.wav
64,192,53003,1,2,0:0:0:0:
192,192,53003,1,0,0:0:0:0:
320,192,53170,1,2,0:0:0:0:
448,192,53170,1,0,0:0:0:0:
64,192,53337,1,2,0:0:0:0:
192,192,53337,1,4,0:0:0:0:
448,192,53337,1,0,0:0:0:0:
320,192,53420,1,0,0:0:0:0:
448,192,53503,1,0,0:0:0:0:
192,192,53587,1,0,0:0:0:0:
64,192,53670,1,8,0:0:0:0:
320,192,53670,1,0,0:0:0:0:
448,192,53670,1,0,0:0:0:0:
192,192,53753,1,0,0:0:0:0:
320,192,53837,1,0,0:0:0:75:clap3.wav
448,192,53920,1,0,0:0:0:0:
64,192,54003,1,2,0:0:0:0:
192,192,54003,1,0,0:0:0:0:
320,192,54087,1,0,0:0:0:75:clap3.wav
64,192,54170,1,0,0:0:0:75:clap3.wav
192,192,54253,1,0,0:0:0:0:
64,192,54337,1,8,0:0:0:0:
320,192,54337,1,0,0:0:0:0:
448,192,54337,1,0,0:0:0:0:
192,192,54420,1,0,0:0:0:0:
320,192,54503,1,0,0:0:0:75:clap3.wav
448,192,54587,1,0,0:0:0:0:
64,192,54670,1,2,0:0:0:0:
192,192,54670,1,0,0:0:0:0:
320,192,54753,1,0,0:0:0:0:
192,192,54837,1,0,0:0:0:75:clap3.wav
320,192,54920,1,0,0:0:0:75:clap3.wav
64,192,55003,1,8,0:0:0:0:
192,192,55003,1,0,0:0:0:0:
448,192,55003,1,0,0:0:0:0:
320,192,55087,1,0,0:0:0:0:
64,192,55170,1,0,0:0:0:75:clap3.wav
192,192,55253,1,0,0:0:0:0:
320,192,55337,1,2,0:0:0:0:
448,192,55337,1,0,0:0:0:0:
64,192,55420,1,0,0:0:0:75:clap3.wav
192,192,55503,1,0,0:0:0:75:clap3.wav
320,192,55587,1,0,0:0:0:0:
64,192,55670,1,8,0:0:0:0:
192,192,55670,1,0,0:0:0:0:
448,192,55670,1,0,0:0:0:0:
320,192,55753,1,0,0:0:0:0:
448,192,55837,1,0,0:0:0:75:clap3.wav
320,192,55920,1,0,0:0:0:0:
64,192,56003,1,2,0:0:0:0:
192,192,56003,1,0,0:0:0:0:
448,192,56170,1,0,0:0:0:75:clap3.wav
320,192,56253,1,0,0:0:0:75:clap3.wav
64,192,56337,1,8,0:0:0:0:
192,192,56337,1,0,0:0:0:0:
448,192,56337,1,0,0:0:0:0:
320,192,56420,1,0,0:0:0:0:
192,192,56503,1,0,0:0:0:75:clap3.wav
64,192,56587,1,0,0:0:0:0:
320,192,56670,1,2,0:0:0:0:
448,192,56670,1,0,0:0:0:0:
192,192,56753,1,0,0:0:0:75:clap3.wav
320,192,56837,1,0,0:0:0:75:clap3.wav
192,192,56920,1,0,0:0:0:0:
64,192,57003,1,8,0:0:0:0:
320,192,57003,1,0,0:0:0:0:
448,192,57003,1,0,0:0:0:0:
192,192,57087,1,0,0:0:0:0:
64,192,57170,1,0,0:0:0:75:clap3.wav
192,192,57253,1,0,0:0:0:0:
64,192,57337,1,2,0:0:0:0:
448,192,57337,1,0,0:0:0:0:
448,192,57503,1,0,0:0:0:75:clap3.wav
320,192,57587,1,0,0:0:0:75:clap3.wav
64,192,57670,1,8,0:0:0:0:
192,192,57670,1,0,0:0:0:0:
448,192,57670,1,0,0:0:0:0:
192,192,57837,1,0,0:0:0:75:clap3.wav
320,192,58003,1,2,0:0:0:0:
448,192,58003,1,0,0:0:0:0:
64,192,58087,1,0,0:0:0:75:clap3.wav
192,192,58170,1,0,0:0:0:75:clap3.wav
64,192,58337,1,8,0:0:0:0:
320,192,58337,1,0,0:0:0:0:
448,192,58337,1,0,0:0:0:0:
192,192,58503,1,0,0:0:0:75:clap3.wav
320,192,58587,1,0,0:0:0:0:
64,192,58670,1,2,0:0:0:0:
448,192,58670,1,0,0:0:0:0:
320,192,58753,1,0,0:0:0:0:
192,192,58837,1,0,0:0:0:75:clap3.wav
320,192,58920,1,0,0:0:0:75:clap3.wav
64,192,59003,1,8,0:0:0:0:
192,192,59003,1,0,0:0:0:0:
448,192,59003,1,0,0:0:0:0:
320,192,59087,1,0,0:0:0:0:
448,192,59170,1,0,0:0:0:75:clap3.wav
192,192,59253,1,0,0:0:0:0:
64,192,59337,1,2,0:0:0:0:
448,192,59337,1,0,0:0:0:0:
192,192,59420,1,0,0:0:0:75:clap3.wav
320,192,59503,1,0,0:0:0:75:clap3.wav
192,192,59587,1,0,0:0:0:0:
64,192,59670,1,8,0:0:0:0:
320,192,59670,1,0,0:0:0:0:
448,192,59670,1,0,0:0:0:0:
192,192,59753,1,0,0:0:0:0:
448,192,59837,1,0,0:0:0:75:clap3.wav
320,192,59920,1,0,0:0:0:0:
64,192,60003,1,2,0:0:0:0:
192,192,60003,1,0,0:0:0:0:
448,192,60087,1,0,0:0:0:0:
192,192,60170,1,0,0:0:0:75:clap3.wav
320,192,60253,1,0,0:0:0:75:clap3.wav
64,192,60337,1,8,0:0:0:0:
192,192,60337,1,0,0:0:0:0:
448,192,60337,1,0,0:0:0:0:
320,192,60420,1,0,0:0:0:0:
192,192,60503,1,0,0:0:0:75:clap3.wav
320,192,60587,1,0,0:0:0:0:
64,192,60670,1,2,0:0:0:0:
448,192,60670,1,0,0:0:0:0:
192,192,60753,1,0,0:0:0:75:clap3.wav
320,192,60837,1,0,0:0:0:75:clap3.wav
192,192,60920,1,0,0:0:0:0:
64,192,61003,1,8,0:0:0:0:
320,192,61003,1,0,0:0:0:0:
448,192,61003,1,0,0:0:0:0:
192,192,61087,1,0,0:0:0:0:
320,192,61170,1,0,0:0:0:75:clap3.wav
192,192,61253,1,0,0:0:0:0:
64,192,61337,1,2,0:0:0:0:
448,192,61337,1,0,0:0:0:0:
320,192,61503,1,0,0:0:0:75:clap3.wav
192,192,61587,1,0,0:0:0:75:clap3.wav
64,192,61670,1,8,0:0:0:0:
320,192,61670,1,0,0:0:0:0:
448,192,61670,1,0,0:0:0:0:
64,192,61837,1,0,0:0:0:75:clap3.wav
320,192,62003,1,2,0:0:0:0:
448,192,62003,1,0,0:0:0:0:
64,192,62087,1,0,0:0:0:75:clap3.wav
192,192,62087,1,0,0:0:0:0:
320,192,62170,1,0,0:0:0:75:clap3.wav
448,192,62170,1,0,0:0:0:0:
64,192,62337,1,8,0:0:0:0:
192,192,62337,1,0,0:0:0:0:
448,192,62337,1,0,0:0:0:0:
192,192,62503,1,0,0:0:0:75:clap3.wav
320,192,62670,1,2,0:0:0:0:
448,192,62670,1,0,0:0:0:0:
320,192,62837,1,0,0:0:0:75:clap3.wav
448,192,62837,1,0,0:0:0:0:
64,192,63003,1,8,0:0:0:0:
192,192,63003,1,0,0:0:0:0:
64,192,63170,1,0,0:0:0:75:clap3.wav
192,192,63170,1,0,0:0:0:0:
320,192,63337,1,2,0:0:0:0:
448,192,63337,1,0,0:0:0:0:
64,192,63503,1,0,0:0:0:75:clap3.wav
192,192,63503,1,0,0:0:0:0:
64,192,63670,1,8,0:0:0:0:
448,192,63670,1,0,0:0:0:0:
320,192,63753,1,0,0:0:0:0:
448,192,63837,1,0,0:0:0:75:clap3.wav
320,192,63920,1,0,0:0:0:0:
64,192,64003,1,4,0:0:0:0:
192,192,64003,1,2,0:0:0:0:
448,192,64003,1,0,0:0:0:0:
320,192,64087,1,0,0:0:0:0:
64,192,64170,1,0,0:0:0:75:clap3.wav
192,192,64253,1,0,0:0:0:75:clap3.wav
64,192,64337,1,8,0:0:0:0:
320,192,64337,1,0,0:0:0:0:
448,192,64337,1,0,0:0:0:0:
192,192,64420,1,0,0:0:0:0:
320,192,64503,1,0,0:0:0:75:clap3.wav
192,192,64670,1,2,0:0:0:0:
448,192,64670,1,0,0:0:0:0:
320,192,64753,1,0,0:0:0:75:clap3.wav
448,192,64837,1,0,0:0:0:75:clap3.wav
64,192,65003,1,8,0:0:0:0:
192,192,65003,1,0,0:0:0:0:
448,192,65003,1,0,0:0:0:0:
192,192,65170,1,0,0:0:0:75:clap3.wav
320,192,65337,1,2,0:0:0:0:
448,192,65337,1,0,0:0:0:0:
64,192,65503,1,0,0:0:0:75:clap3.wav
192,192,65587,1,0,0:0:0:75:clap3.wav
64,192,65670,1,8,0:0:0:0:
320,192,65670,1,0,0:0:0:0:
448,192,65670,1,0,0:0:0:0:
192,192,65753,1,0,0:0:0:0:
320,192,65837,1,0,0:0:0:75:clap3.wav
64,192,65920,1,0,0:0:0:0:
192,192,66003,1,2,0:0:0:0:
448,192,66003,1,0,0:0:0:0:
320,192,66087,1,0,0:0:0:75:clap3.wav
64,192,66170,1,0,0:0:0:75:clap3.wav
192,192,66253,1,0,0:0:0:0:
64,192,66337,1,8,0:0:0:0:
320,192,66337,1,0,0:0:0:0:
448,192,66337,1,0,0:0:0:0:
192,192,66420,1,0,0:0:0:0:
320,192,66503,1,0,0:0:0:75:clap3.wav
448,192,66587,1,0,0:0:0:0:
64,192,66670,1,2,0:0:0:0:
192,192,66670,1,0,0:0:0:0:
320,192,66753,1,0,0:0:0:0:
192,192,66837,1,0,0:0:0:75:clap3.wav
320,192,66920,1,0,0:0:0:75:clap3.wav
64,192,67003,1,8,0:0:0:0:
192,192,67003,1,0,0:0:0:0:
448,192,67003,1,0,0:0:0:0:
320,192,67087,1,0,0:0:0:0:
448,192,67170,1,0,0:0:0:75:clap3.wav
320,192,67253,1,0,0:0:0:0:
64,192,67337,1,0,0:0:0:0:
448,192,67337,1,0,0:0:0:0:
192,192,67420,1,0,0:0:0:75:clap3.wav
320,192,67503,1,0,0:0:0:75:clap3.wav
192,192,67587,1,0,0:0:0:0:
64,192,67670,1,8,0:0:0:0:
320,192,67670,1,0,0:0:0:0:
448,192,67670,1,0,0:0:0:0:
192,192,67753,1,0,0:0:0:0:
320,192,67837,1,0,0:0:0:75:clap3.wav
192,192,67920,1,0,0:0:0:0:
64,192,68003,1,2,0:0:0:0:
448,192,68003,1,0,0:0:0:0:
320,192,68087,1,0,0:0:0:0:
448,192,68170,1,0,0:0:0:75:clap3.wav
320,192,68253,1,0,0:0:0:75:clap3.wav
64,192,68337,1,0,0:0:0:0:
192,192,68337,1,0,0:0:0:0:
448,192,68337,1,0,0:0:0:0:
320,192,68420,1,0,0:0:0:0:
192,192,68503,1,0,0:0:0:75:clap3.wav
64,192,68587,1,0,0:0:0:0:
320,192,68670,1,0,0:0:0:0:
448,192,68670,1,0,0:0:0:0:
192,192,68753,1,0,0:0:0:75:clap3.wav
320,192,68837,1,0,0:0:0:75:clap3.wav
192,192,68920,1,0,0:0:0:0:
64,192,69003,1,8,0:0:0:0:
320,192,69003,1,0,0:0:0:0:
448,192,69003,1,0,0:0:0:0:
192,192,69087,1,0,0:0:0:0:
64,192,69170,1,2,0:0:0:0:
448,192,69170,1,0,0:0:0:0:
320,192,69253,1,0,0:0:0:0:
64,192,69337,1,2,0:0:0:0:
192,192,69337,1,8,0:0:0:0:
448,192,69337,1,0,0:0:0:0:
192,192,69503,1,2,0:0:0:0:
320,192,69503,1,0,0:0:0:75:clap3.wav
64,192,69670,1,8,0:0:0:0:
320,192,69670,1,2,0:0:0:0:
448,192,69670,1,0,0:0:0:0:
64,192,69837,1,2,0:0:0:0:
192,192,69837,1,0,0:0:0:75:clap3.wav
192,192,70003,1,2,0:0:0:0:
320,192,70003,1,8,0:0:0:0:
448,192,70003,1,0,0:0:0:0:
64,192,70170,1,2,0:0:0:0:
320,192,70170,1,0,0:0:0:75:clap3.wav
64,192,70337,1,8,0:0:0:0:
192,192,70337,1,2,0:0:0:0:
448,192,70337,1,0,0:0:0:0:
192,192,70503,1,2,0:0:0:0:
320,192,70503,1,0,0:0:0:75:clap3.wav
64,192,70670,1,2,0:0:0:0:
320,192,70670,1,8,0:0:0:0:
448,192,70670,1,0,0:0:0:0:
320,192,70837,1,2,0:0:0:0:
448,192,70837,1,0,0:0:0:75:clap3.wav
64,192,71003,1,8,0:0:0:0:
192,192,71003,1,2,0:0:0:0:
448,192,71003,1,0,0:0:0:0:
64,192,71170,1,2,0:0:0:0:
192,192,71170,1,0,0:0:0:75:clap3.wav
64,192,71337,1,2,0:0:0:0:
320,192,71337,1,8,0:0:0:0:
448,192,71337,1,0,0:0:0:0:
192,192,71503,1,2,0:0:0:0:
320,192,71503,1,0,0:0:0:75:clap3.wav
64,192,71670,1,2,0:0:0:0:
320,192,71670,1,8,0:0:0:0:
448,192,71670,1,0,0:0:0:0:
64,192,71837,1,2,0:0:0:0:
192,192,71837,1,0,0:0:0:75:clap3.wav
192,192,72003,1,2,0:0:0:0:
320,192,72003,1,8,0:0:0:0:
448,192,72003,1,0,0:0:0:0:
64,192,72170,1,2,0:0:0:0:
320,192,72170,1,0,0:0:0:75:clap3.wav
64,192,72337,1,2,0:0:0:0:
192,192,72337,1,8,0:0:0:0:
448,192,72337,1,0,0:0:0:0:
320,192,72503,1,2,0:0:0:0:
448,192,72503,1,0,0:0:0:75:clap3.wav
64,192,72670,1,8,0:0:0:0:
192,192,72670,1,2,0:0:0:0:
448,192,72670,1,0,0:0:0:0:
64,192,72837,1,2,0:0:0:0:
320,192,72837,1,0,0:0:0:75:clap3.wav
192,192,73003,1,8,0:0:0:0:
320,192,73003,1,2,0:0:0:0:
448,192,73003,1,0,0:0:0:0:
64,192,73170,1,2,0:0:0:0:
320,192,73170,1,0,0:0:0:75:clap3.wav
64,192,73337,1,2,0:0:0:0:
192,192,73337,1,8,0:0:0:0:
448,192,73337,1,0,0:0:0:0:
320,192,73420,1,2,0:0:0:0:
64,192,73503,1,2,0:0:0:0:
448,192,73503,1,0,0:0:0:0:
192,192,73587,1,2,0:0:0:0:
320,192,73670,1,8,0:0:0:0:
448,192,73670,1,2,0:0:0:0:
192,192,73753,1,2,0:0:0:0:
64,192,73837,1,2,0:0:0:0:
448,192,73837,1,0,0:0:0:0:
320,192,73920,1,2,0:0:0:0:
64,192,74003,1,8,0:0:0:0:
192,192,74003,1,2,0:0:0:0:
320,192,74087,1,2,0:0:0:0:
64,192,74170,1,2,0:0:0:0:
448,192,74170,1,0,0:0:0:0:
192,192,74253,1,2,0:0:0:0:
64,192,74337,1,10,0:0:0:0:
320,192,74337,1,0,0:0:0:75:clap3.wav
192,192,74503,1,2,0:0:0:0:
320,192,74503,1,0,0:0:0:75:clap3.wav
320,192,74670,1,4,0:0:0:0:
448,192,74670,1,2,0:0:0:0:
64,192,74753,1,2,0:0:0:0:
192,192,74753,1,0,0:0:0:0:
320,192,74837,1,2,0:0:0:0:
448,192,74837,1,0,0:0:0:0:
64,192,74920,1,2,0:0:0:0:
192,192,74920,1,0,0:0:0:0:
320,192,75003,1,2,0:0:0:0:
448,192,75003,1,8,0:0:0:0:
64,192,75087,1,2,0:0:0:0:
192,192,75087,1,0,0:0:0:0:
320,192,75170,1,2,0:0:0:0:
448,192,75170,1,0,0:0:0:0:
64,192,75253,1,2,0:0:0:0:
192,192,75253,1,0,0:0:0:0:
320,192,75337,1,2,0:0:0:0:
448,192,75337,1,8,0:0:0:0:
192,192,75420,1,2,0:0:0:0:
64,192,75503,1,2,0:0:0:0:
448,192,75503,1,0,0:0:0:0:
320,192,75587,1,2,0:0:0:0:
64,192,75670,1,2,0:0:0:0:
192,192,75670,1,8,0:0:0:0:
320,192,75837,1,0,0:0:0:0:
64,192,76003,1,2,0:0:0:0:
192,192,76003,1,8,0:0:0:0:
320,192,76087,1,2,0:0:0:0:
448,192,76087,1,0,0:0:0:0:
64,192,76170,1,2,0:0:0:0:
192,192,76170,1,0,0:0:0:0:
320,192,76253,1,2,0:0:0:0:
448,192,76253,1,0,0:0:0:0:
64,192,76337,1,2,0:0:0:0:
192,192,76337,1,8,0:0:0:0:
320,192,76420,1,2,0:0:0:0:
448,192,76420,1,0,0:0:0:0:
64,192,76503,1,2,0:0:0:0:
192,192,76503,1,0,0:0:0:0:
320,192,76587,1,2,0:0:0:0:
448,192,76587,1,0,0:0:0:0:
64,192,76670,1,2,0:0:0:0:
192,192,76670,1,8,0:0:0:0:
320,192,76753,1,2,0:0:0:0:
64,192,76837,1,2,0:0:0:0:
448,192,76837,1,0,0:0:0:0:
192,192,76920,1,2,0:0:0:0:
320,192,77003,1,2,0:0:0:0:
448,192,77003,1,8,0:0:0:0:
192,192,77170,1,2,0:0:0:0:
320,192,77170,1,0,0:0:0:0:
64,192,77337,1,8,0:0:0:0:
192,192,77337,1,2,0:0:0:0:
448,192,77337,1,0,0:0:0:0:
448,192,77503,1,0,0:0:0:0:
64,192,77670,1,2,0:0:0:0:
192,192,77670,1,8,0:0:0:0:
320,192,77670,1,0,0:0:0:0:
64,192,77837,1,0,0:0:0:0:
192,192,78003,1,2,0:0:0:0:
320,192,78003,1,8,0:0:0:0:
448,192,78003,1,0,0:0:0:0:
320,192,78170,1,0,0:0:0:0:
64,192,78337,1,2,0:0:0:0:
192,192,78337,1,8,0:0:0:0:
448,192,78337,1,0,0:0:0:0:
192,192,78503,1,2,0:0:0:0:
320,192,78503,1,0,0:0:0:0:
64,192,78670,1,2,0:0:0:0:
320,192,78670,1,8,0:0:0:0:
448,192,78670,1,0,0:0:0:0:
64,192,78837,1,2,0:0:0:0:
192,192,78837,1,0,0:0:0:0:
192,192,79003,1,2,0:0:0:0:
320,192,79003,1,8,0:0:0:0:
448,192,79003,1,0,0:0:0:0:
320,192,79170,1,2,0:0:0:0:
448,192,79170,1,0,0:0:0:0:
64,192,79337,1,2,0:0:0:0:
192,192,79337,1,8,0:0:0:0:
448,192,79337,1,0,0:0:0:0:
64,192,79503,1,2,0:0:0:0:
320,192,79503,1,0,0:0:0:0:
192,192,79670,1,2,0:0:0:0:
448,192,79670,1,8,0:0:0:0:
320,192,79753,1,2,0:0:0:0:
64,192,79837,1,2,0:0:0:0:
448,192,79837,1,0,0:0:0:0:
192,192,79920,1,2,0:0:0:0:
64,192,80003,1,2,0:0:0:0:
320,192,80003,1,4,0:0:0:0:
448,192,80003,1,0,0:0:0:0:
192,192,80170,1,0,0:0:0:0:
320,192,80170,1,0,0:0:0:0:
64,192,80337,1,8,0:0:0:0:
320,192,80337,1,0,0:0:0:0:
448,192,80337,1,0,0:0:0:0:
192,192,80503,1,0,0:0:0:0:
320,192,80587,1,0,0:0:0:0:
64,192,80670,1,2,0:0:0:0:
448,192,80670,1,0,0:0:0:0:
192,192,80753,1,0,0:0:0:0:
320,192,80837,1,0,0:0:0:0:
192,192,80920,1,0,0:0:0:0:
64,192,81003,1,8,0:0:0:0:
320,192,81003,1,0,0:0:0:0:
448,192,81003,1,0,0:0:0:0:
192,192,81087,1,0,0:0:0:0:
320,192,81170,1,0,0:0:0:0:
448,192,81253,1,0,0:0:0:0:
64,192,81337,1,2,0:0:0:0:
192,192,81337,1,0,0:0:0:0:
320,192,81420,1,0,0:0:0:0:
64,192,81503,1,0,0:0:0:0:
192,192,81670,1,8,0:0:0:0:
320,192,81670,1,0,0:0:0:0:
448,192,81670,1,0,0:0:0:0:
320,192,81837,1,0,0:0:0:0:
192,192,81920,1,0,0:0:0:0:
64,192,82003,1,2,0:0:0:0:
448,192,82003,1,0,0:0:0:0:
320,192,82087,1,0,0:0:0:0:
64,192,82170,1,0,0:0:0:0:
192,192,82253,1,0,0:0:0:0:
64,192,82337,1,8,0:0:0:0:
320,192,82337,1,0,0:0:0:0:
448,192,82337,1,0,0:0:0:0:
192,192,82420,1,0,0:0:0:0:
320,192,82503,1,0,0:0:0:0:
192,192,82587,1,0,0:0:0:0:
64,192,82670,1,2,0:0:0:0:
448,192,82670,1,0,0:0:0:0:
320,192,82753,1,0,0:0:0:0:
448,192,82837,1,0,0:0:0:0:
320,192,82920,1,0,0:0:0:0:
64,192,83003,1,8,0:0:0:0:
192,192,83003,1,0,0:0:0:0:
448,192,83003,1,0,0:0:0:0:
320,192,83087,1,0,0:0:0:0:
192,192,83170,1,0,0:0:0:0:
64,192,83253,1,0,0:0:0:0:
320,192,83337,1,2,0:0:0:0:
448,192,83337,1,0,0:0:0:0:
192,192,83420,1,0,0:0:0:0:
320,192,83503,1,0,0:0:0:0:
192,192,83587,1,0,0:0:0:0:
64,192,83670,1,8,0:0:0:0:
320,192,83670,1,0,0:0:0:0:
448,192,83670,1,0,0:0:0:0:
192,192,83753,1,0,0:0:0:0:
320,192,83837,1,0,0:0:0:0:
448,192,83920,1,0,0:0:0:0:
64,192,84003,1,2,0:0:0:0:
192,192,84003,1,0,0:0:0:0:
192,192,84170,1,0,0:0:0:0:
64,192,84337,1,8,0:0:0:0:
320,192,84337,1,0,0:0:0:0:
448,192,84337,1,0,0:0:0:0:
320,192,84503,1,0,0:0:0:0:
192,192,84670,1,2,0:0:0:0:
448,192,84670,1,0,0:0:0:0:
320,192,84837,1,2,0:0:0:0:
448,192,84837,1,0,0:0:0:0:
64,192,85003,1,2,0:0:0:0:
192,192,85003,1,8,0:0:0:0:
320,192,85087,1,2,0:0:0:0:
64,192,85170,1,2,0:0:0:0:
192,192,85170,1,0,0:0:0:0:
320,192,85253,1,2,0:0:0:0:
64,192,85337,1,2,0:0:0:0:
192,192,85337,1,8,0:0:0:0:
448,192,85337,1,0,0:0:0:0:
448,192,85503,1,0,0:0:0:0:
64,192,85670,1,2,0:0:0:0:
192,192,85670,1,8,0:0:0:0:
320,192,85670,1,0,0:0:0:0:
64,192,85837,1,0,0:0:0:0:
192,192,85920,1,0,0:0:0:0:
64,192,86003,1,2,0:0:0:0:
320,192,86003,1,8,0:0:0:0:
448,192,86003,1,0,0:0:0:0:
192,192,86087,1,0,0:0:0:0:
320,192,86170,1,0,0:0:0:0:
192,192,86253,1,0,0:0:0:0:
64,192,86337,1,8,0:0:0:0:
320,192,86337,1,2,0:0:0:0:
448,192,86337,1,0,0:0:0:0:
192,192,86420,1,0,0:0:0:0:
320,192,86503,1,0,0:0:0:0:
64,192,86670,1,2,0:0:0:0:
320,192,86670,1,8,0:0:0:0:
448,192,86670,1,0,0:0:0:0:
64,192,86837,1,0,0:0:0:0:
192,192,87003,1,8,0:0:0:0:
320,192,87003,1,2,0:0:0:0:
448,192,87003,1,0,0:0:0:0:
448,192,87170,1,0,0:0:0:0:
320,192,87253,1,0,0:0:0:0:
64,192,87337,1,2,0:0:0:0:
192,192,87337,1,8,0:0:0:0:
448,192,87337,1,0,0:0:0:0:
320,192,87420,1,0,0:0:0:0:
192,192,87503,1,0,0:0:0:0:
64,192,87587,1,0,0:0:0:0:
192,192,87670,1,8,0:0:0:0:
320,192,87670,1,2,0:0:0:0:
448,192,87670,1,0,0:0:0:0:
64,192,87753,1,0,0:0:0:0:
192,192,87837,1,0,0:0:0:0:
64,192,88003,1,2,0:0:0:0:
320,192,88003,1,8,0:0:0:0:
448,192,88003,1,0,0:0:0:0:
448,192,88170,1,0,0:0:0:0:
64,192,88337,1,8,0:0:0:0:
192,192,88337,1,2,0:0:0:0:
320,192,88337,1,0,0:0:0:0:
320,192,88503,1,0,0:0:0:0:
192,192,88587,1,0,0:0:0:0:
64,192,88670,1,2,0:0:0:0:
320,192,88670,1,8,0:0:0:0:
448,192,88670,1,0,0:0:0:0:
192,192,88753,1,0,0:0:0:0:
448,192,88837,1,0,0:0:0:0:
320,192,88920,1,0,0:0:0:0:
64,192,89003,1,8,0:0:0:0:
192,192,89003,1,2,0:0:0:0:
448,192,89003,1,0,0:0:0:0:
320,192,89087,1,0,0:0:0:0:
192,192,89170,1,0,0:0:0:0:
64,192,89253,1,0,0:0:0:0:
192,192,89337,1,2,0:0:0:0:
320,192,89337,1,8,0:0:0:0:
448,192,89337,1,0,0:0:0:0:
448,192,89503,1,0,0:0:0:0:
64,192,89670,1,8,0:0:0:0:
192,192,89670,1,2,0:0:0:0:
320,192,89670,1,0,0:0:0:0:
64,192,89837,1,0,0:0:0:0:
192,192,89920,1,0,0:0:0:0:
64,192,90003,1,2,0:0:0:0:
320,192,90003,1,8,0:0:0:0:
448,192,90003,1,0,0:0:0:0:
192,192,90087,1,0,0:0:0:0:
448,192,90170,1,0,0:0:0:0:
320,192,90253,1,0,0:0:0:0:
64,192,90337,1,8,0:0:0:0:
192,192,90337,1,2,0:0:0:0:
448,192,90337,1,0,0:0:0:0:
192,192,90503,1,0,0:0:0:0:
64,192,90670,1,2,0:0:0:0:
320,192,90670,1,8,0:0:0:0:
448,192,90670,1,0,0:0:0:0:
64,192,90837,1,2,0:0:0:0:
192,192,90837,1,0,0:0:0:0:
192,192,91003,1,8,0:0:0:0:
320,192,91003,1,2,0:0:0:0:
448,192,91003,1,0,0:0:0:0:
320,192,91170,1,2,0:0:0:0:
448,192,91170,1,0,0:0:0:0:
64,192,91337,1,2,0:0:0:0:
192,192,91337,1,8,0:0:0:0:
448,192,91337,1,0,0:0:0:0:
64,192,91503,1,2,0:0:0:0:
320,192,91503,1,0,0:0:0:0:
192,192,91670,1,8,0:0:0:0:
320,192,91670,1,2,0:0:0:0:
448,192,91670,1,0,0:0:0:0:
64,192,91837,1,2,0:0:0:0:
448,192,91837,1,0,0:0:0:0:
64,192,92003,1,8,0:0:0:0:
192,192,92003,1,2,0:0:0:0:
320,192,92087,1,2,0:0:0:0:
64,192,92170,1,2,0:0:0:0:
448,192,92170,1,0,0:0:0:0:
192,192,92253,1,2,0:0:0:0:
64,192,92337,1,2,0:0:0:0:
320,192,92337,1,8,0:0:0:0:
448,192,92420,1,2,0:0:0:0:
192,192,92503,1,2,0:0:0:0:
320,192,92503,1,0,0:0:0:0:
64,192,92587,1,2,0:0:0:0:
448,192,92670,1,10,0:0:0:0:
320,192,92712,1,2,0:0:0:0:
192,192,92753,1,2,0:0:0:0:
64,192,92795,1,2,0:0:0:0:
448,192,92837,1,2,0:0:0:0:
320,192,92920,1,2,0:0:0:0:
64,192,93003,1,8,0:0:0:0:
192,192,93003,1,2,0:0:0:0:
192,192,93170,1,2,0:0:0:0:
320,192,93170,1,0,0:0:0:0:
64,192,93337,1,4,0:0:0:0:
320,192,93337,1,2,0:0:0:0:
448,192,93337,1,0,0:0:0:0:
320,192,93670,1,0,0:0:0:0:
64,192,93837,1,0,0:0:0:75:clap2.wav
192,192,93837,1,0,0:0:0:0:
448,192,94003,1,0,0:0:0:0:
64,192,94170,1,0,0:0:0:60:kick1.wav
320,192,94170,1,0,0:0:0:0:
192,192,94337,1,0,0:0:0:75:clap2.wav
448,192,94337,1,0,0:0:0:0:
64,192,94503,1,0,0:0:0:0:
192,192,94587,1,0,0:0:0:75:clap2.wav
448,192,94587,1,0,0:0:0:0:
320,192,94670,1,0,0:0:0:0:
64,192,94753,1,0,0:0:0:75:clap2.wav
192,192,94753,1,0,0:0:0:0:
320,192,94837,1,0,0:0:0:60:kick1.wav
448,192,94837,1,0,0:0:0:0:
320,192,95003,1,0,0:0:0:60:kick1.wav
448,192,95003,1,0,0:0:0:0:
64,192,95170,1,0,0:0:0:75:clap2.wav
192,192,95170,1,0,0:0:0:0:
320,192,95337,1,0,0:0:0:0:
192,192,95503,1,0,0:0:0:60:kick1.wav
64,192,95670,1,0,0:0:0:75:finish1.wav
320,192,95670,1,0,0:0:0:75:clap2.wav
448,192,95670,1,0,0:0:0:0:
64,192,96003,1,4,0:0:0:0:
192,192,96003,1,0,0:0:0:60:kick1.wav
320,192,96003,1,0,0:0:0:0:
448,192,96337,1,0,0:0:0:0:
192,192,96503,1,0,0:0:0:0:
448,192,96670,1,0,0:0:0:0:
64,192,96837,1,0,0:0:0:0:
192,192,97003,1,0,0:0:0:0:
64,192,97170,1,0,0:0:0:0:
448,192,97337,1,0,0:0:0:0:
192,192,97503,1,0,0:0:0:0:
448,192,97670,1,0,0:0:0:0:
64,192,97837,1,0,0:0:0:0:
64,192,98337,128,0,101170:0:0:0:100:finish2.wav
192,192,98337,128,0,101170:0:0:0:0:
320,192,98337,128,0,101170:0:0:0:0:
448,192,98337,128,0,101170:0:0:0:0:
