osu file format v14

[General]
AudioFilename: audio.mp3
AudioLeadIn: 0
PreviewTime: 84673
Countdown: 0
SampleSet: Normal
StackLeniency: 0.7
Mode: 1
LetterboxInBreaks: 0
WidescreenStoryboard: 1

[Editor]
Bookmarks: 9075,25209,39327,57478,61007,65544,85208
DistanceSpacing: 1
BeatDivisor: 1
GridSize: 32
TimelineZoom: 1.000001

[Metadata]
Title:Tainted Reminiscence
TitleUnicode:Tainted Reminiscence
Artist:takehirotei
ArtistUnicode:takehirotei
Creator:BlackBN
Version:Muzukashii
Source:
Tags:BlackBq Electronic Instrumental Classical Hardcore Orchestral Imaginary Reality takehirotei
BeatmapID:4560333
BeatmapSetID:2158145

[Difficulty]
HPDrainRate:5.5
CircleSize:2
OverallDifficulty:5
ApproachRate:10
SliderMultiplier:1.4
SliderTickRate:1

[Events]
//Background and Video events
0,0,"96660627_p0.jpg",0,0
//Break Periods
//Storyboard Layer 0 (Background)
//Storyboard Layer 1 (Fail)
//Storyboard Layer 2 (Pass)
//Storyboard Layer 3 (Foreground)
//Storyboard Layer 4 (Overlay)
//Storyboard Sound Samples

[TimingPoints]
506,252.100840336134,4,1,0,40,1,8
506,-100,4,1,0,40,0,0
1011,252.100840336134,4,1,0,55,1,0
1011,-100,4,1,0,55,0,0
4256,-100,4,1,0,70,0,0
5013,-100,4,1,0,80,0,0
8101,-100,4,1,0,70,0,0
9046,-100,4,1,0,85,0,0
12071,-100,4,1,0,70,0,0
13080,-100,4,1,0,85,0,0
16105,-100,4,1,0,70,0,0
17113,-100,4,1,0,85,0,0
20139,-100,4,1,0,70,0,0
21147,-100,4,1,0,85,0,0
25181,-100,4,1,0,90,0,0
38857,-100,4,1,0,50,0,0
39298,-100,4,1,0,70,0,0
41283,-100,4,1,0,75,0,0
49382,-100,4,1,0,80,0,0
57481,252.100840336134,7,1,0,85,1,0
57481,-100,7,1,0,85,0,0
58363,252.100840336134,7,1,0,85,1,0
58363,-100,7,1,0,85,0,0
59245,252.100840336134,7,1,0,85,1,0
59245,-100,7,1,0,85,0,0
60127,252.100840336134,7,1,0,85,1,0
60127,-100,7,1,0,85,0,0
61010,378.151260503407,3,1,0,85,1,0
61010,-66.6666666666667,7,1,0,85,0,0
65547,252.100840336134,4,1,0,85,1,1
65547,-100,7,1,0,85,0,1
66303,-100,7,1,0,85,0,0
66492,252.100840336134,4,1,0,85,1,1
66492,-100,4,1,0,85,0,1
67437,252.100840336134,4,1,0,85,1,0
67437,-100,4,1,0,85,0,0
68382,252.100840336134,4,1,0,85,1,0
68382,-100,4,1,0,85,0,0
69327,252.100840336134,7,1,0,85,1,0
69327,-100,4,1,0,85,0,0
70209,252.100840336134,7,1,0,85,1,0
70209,-100,4,1,0,85,0,0
71091,252.100840336134,7,1,0,85,1,0
71091,-100,4,1,0,85,0,0
71973,252.100840336134,7,1,0,85,1,0
71973,-100,4,1,0,85,0,0
73076,-100,7,1,0,80,0,0
73108,252.100840336134,3,1,0,80,1,0
73108,-100,3,1,0,80,0,0
73139,-100,3,1,0,75,0,0
79126,-100,3,1,0,85,0,0
82152,-100,3,1,0,70,0,0
84421,-100,3,1,0,80,0,0
85177,-100,3,1,0,90,0,0
85208,-100,3,1,0,90,0,1
97309,252.100840336134,4,1,0,90,1,0
97309,-100,4,1,0,90,0,0
97340,-100,4,1,0,80,0,0
98317,-100,4,1,0,90,0,1
98695,-100,4,1,0,90,0,0
98727,-100,4,1,0,80,0,0
99294,-100,4,1,0,90,0,0
99325,-100,4,1,0,90,0,1
110922,-100,4,1,0,90,0,0
110953,-100,4,1,0,50,0,0
111395,-100,4,1,0,70,0,0
119966,-100,4,1,0,75,0,0
120470,-100,4,1,0,85,0,0
128537,-100,4,1,0,75,0,0
130711,-100,4,1,0,73,0,0
130837,-100,4,1,0,71,0,0
130963,-100,4,1,0,69,0,0
131089,-100,4,1,0,68,0,0
131215,-100,4,1,0,66,0,0
131341,-100,4,1,0,64,0,0
131467,-100,4,1,0,62,0,0
131593,-100,4,1,0,60,0,0
131719,-100,4,1,0,58,0,0
131845,-100,4,1,0,56,0,0
131971,-100,4,1,0,54,0,0
132097,-100,4,1,0,53,0,0
132223,-100,4,1,0,51,0,0
132350,-100,4,1,0,49,0,0
132476,-100,4,1,0,47,0,0
132602,-100,4,1,0,45,0,0
132728,-100,4,1,0,43,0,0
132854,-100,4,1,0,41,0,0
132980,-100,4,1,0,39,0,0
133106,-100,4,1,0,37,0,0
133232,-100,4,1,0,36,0,0
133358,-100,4,1,0,34,0,0
133484,-100,4,1,0,32,0,0
133610,-100,4,1,0,30,0,0
133736,-100,4,1,0,28,0,0
133862,-100,4,1,0,26,0,0
133988,-100,4,1,0,24,0,0
134114,-100,4,1,0,22,0,0
134240,-100,4,1,0,21,0,0
134366,-100,4,1,0,19,0,0
134492,-100,4,1,0,17,0,0
134618,-100,4,1,0,15,0,0
134871,-100,4,1,0,14,0,0
135123,-100,4,1,0,13,0,0
135375,-100,4,1,0,12,0,0
135627,-100,4,1,0,12,0,0
135879,-100,4,1,0,11,0,0
136131,-100,4,1,0,10,0,0
136383,-100,4,1,0,9,0,0
136635,-100,4,1,0,8,0,0
136887,-100,4,1,0,7,0,0
137139,-100,4,1,0,7,0,0
137392,-100,4,1,0,6,0,0
137644,-100,4,1,0,5,0,0

[HitObjects]
256,192,506,5,0,0:0:0:0:
256,192,632,1,8,0:0:0:0:
256,192,758,1,0,0:0:0:0:
256,192,1011,1,8,0:0:0:0:
256,192,1263,1,8,0:0:0:0:
256,192,1389,1,8,0:0:0:0:
256,192,1641,1,0,0:0:0:0:
256,192,1893,1,0,0:0:0:0:
256,192,2019,1,8,0:0:0:0:
256,192,2271,1,0,0:0:0:0:
256,192,2397,1,8,0:0:0:0:
256,192,2523,1,0,0:0:0:0:
256,192,2775,1,0,0:0:0:0:
256,192,3027,1,8,0:0:0:0:
256,192,3405,1,0,0:0:0:0:
256,192,3532,1,8,0:0:0:0:
256,192,3784,1,8,0:0:0:0:
256,192,3910,1,8,0:0:0:0:
256,192,4036,1,0,0:0:0:0:
256,192,4288,1,0,0:0:0:0:
256,192,4351,1,0,0:0:0:0:
256,192,4414,1,0,0:0:0:0:
256,192,4540,1,8,0:0:0:0:
256,192,4792,1,0,0:0:0:0:
384,96,5044,1,12,0:0:0:0:
256,192,5296,1,8,0:0:0:0:
256,192,5422,1,0,0:0:0:0:
256,192,5674,1,0,0:0:0:0:
256,192,5800,1,8,0:0:0:0:
384,96,5926,1,4,0:0:0:0:
256,192,6179,1,8,0:0:0:0:
256,192,6305,1,0,0:0:0:0:
384,96,6557,1,4,0:0:0:0:
256,192,6809,1,8,0:0:0:0:
256,192,6935,1,8,0:0:0:0:
384,96,7061,1,4,0:0:0:0:
384,96,7565,1,4,0:0:0:0:
384,96,8069,1,12,0:0:0:0:
256,192,8195,8,0,8952,0:0:0:0:
384,96,9078,5,4,0:0:0:0:
256,192,9330,1,0,0:0:0:0:
256,192,9456,1,8,0:0:0:0:
256,192,9582,1,0,0:0:0:0:
256,192,9708,1,8,0:0:0:0:
256,192,9834,1,0,0:0:0:0:
256,192,10086,1,8,0:0:0:0:
256,192,10212,1,0,0:0:0:0:
256,192,10275,1,0,0:0:0:0:
256,192,10338,1,0,0:0:0:0:
256,192,10464,1,8,0:0:0:0:
256,192,10590,1,0,0:0:0:0:
256,192,10716,1,0,0:0:0:0:
256,192,10842,1,8,0:0:0:0:
256,192,11095,1,0,0:0:0:0:
256,192,11221,1,8,0:0:0:0:
256,192,11347,1,8,0:0:0:0:
256,192,11473,1,8,0:0:0:0:
256,192,11599,1,0,0:0:0:0:
256,192,11725,1,0,0:0:0:0:
256,192,11851,1,8,0:0:0:0:
384,96,12103,1,12,0:0:0:0:
384,96,13111,1,4,0:0:0:0:
256,192,13363,1,0,0:0:0:0:
256,192,13489,1,8,0:0:0:0:
256,192,13616,1,0,0:0:0:0:
256,192,13742,1,8,0:0:0:0:
256,192,13868,1,0,0:0:0:0:
256,192,14120,1,8,0:0:0:0:
256,192,14246,1,0,0:0:0:0:
256,192,14309,1,0,0:0:0:0:
256,192,14372,1,0,0:0:0:0:
256,192,14498,1,8,0:0:0:0:
256,192,14624,1,0,0:0:0:0:
256,192,14750,1,0,0:0:0:0:
256,192,14876,1,8,0:0:0:0:
256,192,15128,1,0,0:0:0:0:
256,192,15254,1,8,0:0:0:0:
256,192,15380,1,0,0:0:0:0:
256,192,15506,1,8,0:0:0:0:
256,192,15632,1,0,0:0:0:0:
256,192,15758,1,0,0:0:0:0:
256,192,15884,1,8,0:0:0:0:
384,96,16137,1,4,0:0:0:0:
384,96,17145,1,4,0:0:0:0:
256,192,17397,1,8,0:0:0:0:
256,192,17523,1,0,0:0:0:0:
256,192,17649,1,8,0:0:0:0:
256,192,17775,1,8,0:0:0:0:
256,192,17901,1,0,0:0:0:0:
256,192,18153,1,0,0:0:0:0:
256,192,18279,1,8,0:0:0:0:
256,192,18342,1,8,0:0:0:0:
256,192,18405,1,8,0:0:0:0:
256,192,18532,1,0,0:0:0:0:
256,192,18658,1,8,0:0:0:0:
256,192,18784,1,8,0:0:0:0:
256,192,18910,1,0,0:0:0:0:
256,192,19162,1,0,0:0:0:0:
256,192,19288,1,8,0:0:0:0:
256,192,19414,1,8,0:0:0:0:
256,192,19540,1,8,0:0:0:0:
256,192,19666,1,0,0:0:0:0:
256,192,19792,1,8,0:0:0:0:
256,192,19918,1,0,0:0:0:0:
256,192,19981,1,0,0:0:0:0:
256,192,20044,1,0,0:0:0:0:
384,96,20170,1,12,0:0:0:0:
384,96,21179,1,4,0:0:0:0:
256,192,21431,1,8,0:0:0:0:
256,192,21557,1,0,0:0:0:0:
256,192,21683,1,8,0:0:0:0:
256,192,21809,1,8,0:0:0:0:
256,192,21935,1,0,0:0:0:0:
256,192,22187,1,0,0:0:0:0:
256,192,22313,1,0,0:0:0:0:
256,192,22439,1,8,0:0:0:0:
256,192,22502,1,8,0:0:0:0:
256,192,22565,1,8,0:0:0:0:
256,192,22691,1,8,0:0:0:0:
256,192,22817,1,0,0:0:0:0:
256,192,22943,1,8,0:0:0:0:
256,192,23069,1,8,0:0:0:0:
256,192,23195,1,0,0:0:0:0:
256,192,23321,1,0,0:0:0:0:
256,192,23574,1,0,0:0:0:0:
256,192,23700,1,8,0:0:0:0:
256,192,23952,1,8,0:0:0:0:
256,192,24078,1,8,0:0:0:0:
256,192,24330,1,8,0:0:0:0:
256,192,24456,1,0,0:0:0:0:
256,192,24582,1,8,0:0:0:0:
256,192,24708,1,0,0:0:0:0:
256,192,24960,1,0,0:0:0:0:
256,192,25086,1,0,0:0:0:0:
384,96,25212,1,12,0:0:0:0:
256,192,25464,1,0,0:0:0:0:
256,192,25716,1,8,0:0:0:0:
256,192,25968,1,8,0:0:0:0:
256,192,26095,1,0,0:0:0:0:
256,192,26221,1,8,0:0:0:0:
256,192,26347,1,8,0:0:0:0:
256,192,26473,1,0,0:0:0:0:
256,192,26599,1,8,0:0:0:0:
256,192,26725,1,0,0:0:0:0:
256,192,26977,1,8,0:0:0:0:
256,192,27103,1,0,0:0:0:0:
256,192,27229,1,8,0:0:0:0:
256,192,27481,1,0,0:0:0:0:
256,192,27607,1,0,0:0:0:0:
256,192,27733,1,8,0:0:0:0:
256,192,27985,1,8,0:0:0:0:
256,192,28111,1,8,0:0:0:0:
256,192,28237,1,0,0:0:0:0:
256,192,28363,1,0,0:0:0:0:
256,192,28489,1,8,0:0:0:0:
256,192,28616,1,0,0:0:0:0:
256,192,28868,1,0,0:0:0:0:
256,192,28994,1,8,0:0:0:0:
256,192,29057,1,8,0:0:0:0:
256,192,29120,1,8,0:0:0:0:
256,192,29246,1,0,0:0:0:0:
256,192,29498,1,8,0:0:0:0:
256,192,29750,1,0,0:0:0:0:
256,192,30002,1,8,0:0:0:0:
256,192,30128,1,8,0:0:0:0:
256,192,30254,1,0,0:0:0:0:
256,192,30380,1,8,0:0:0:0:
256,192,30506,1,8,0:0:0:0:
256,192,30632,1,8,0:0:0:0:
256,192,30758,1,0,0:0:0:0:
256,192,30884,1,0,0:0:0:0:
256,192,31010,1,8,0:0:0:0:
256,192,31263,1,0,0:0:0:0:
256,192,31389,1,0,0:0:0:0:
256,192,31515,1,8,0:0:0:0:
256,192,31641,1,0,0:0:0:0:
256,192,31893,1,0,0:0:0:0:
256,192,31956,1,0,0:0:0:0:
256,192,32019,1,0,0:0:0:0:
256,192,32145,1,8,0:0:0:0:
384,96,32271,1,4,0:0:0:0:
256,192,32523,1,0,0:0:0:0:
256,192,32649,1,8,0:0:0:0:
256,192,32712,1,8,0:0:0:0:
256,192,32775,1,8,0:0:0:0:
256,192,32901,1,8,0:0:0:0:
256,192,33027,1,0,0:0:0:0:
256,192,33153,1,0,0:0:0:0:
384,96,33279,1,12,0:0:0:0:
256,192,33532,1,0,0:0:0:0:
256,192,33784,1,8,0:0:0:0:
256,192,34036,1,8,0:0:0:0:
256,192,34162,1,0,0:0:0:0:
256,192,34288,1,8,0:0:0:0:
256,192,34414,1,8,0:0:0:0:
256,192,34540,1,0,0:0:0:0:
256,192,34666,1,8,0:0:0:0:
256,192,34918,1,8,0:0:0:0:
256,192,35044,1,0,0:0:0:0:
256,192,35170,1,8,0:0:0:0:
256,192,35233,1,8,0:0:0:0:
256,192,35296,1,8,0:0:0:0:
256,192,35548,1,8,0:0:0:0:
256,192,35674,1,8,0:0:0:0:
256,192,35926,1,0,0:0:0:0:
256,192,36053,1,8,0:0:0:0:
256,192,36179,1,0,0:0:0:0:
256,192,36305,1,8,0:0:0:0:
256,192,36557,1,8,0:0:0:0:
256,192,36683,1,0,0:0:0:0:
256,192,36809,1,0,0:0:0:0:
256,192,37061,1,8,0:0:0:0:
384,96,37313,1,12,0:0:0:0:
256,192,37565,1,8,0:0:0:0:
256,192,37691,1,0,0:0:0:0:
256,192,37943,1,0,0:0:0:0:
256,192,38006,1,0,0:0:0:0:
256,192,38069,1,0,0:0:0:0:
256,192,38195,1,0,0:0:0:0:
256,192,38321,1,8,0:0:0:0:
256,192,38384,1,8,0:0:0:0:
256,192,38447,1,8,0:0:0:0:
256,192,38574,1,8,0:0:0:0:
256,192,38700,1,0,0:0:0:0:
256,192,38826,1,8,0:0:0:0:
256,192,39330,1,0,0:0:0:0:
256,192,39582,1,0,0:0:0:0:
256,192,39834,1,0,0:0:0:0:
256,192,39960,1,8,0:0:0:0:
256,192,40086,1,0,0:0:0:0:
256,192,40212,1,0,0:0:0:0:
256,192,40338,1,8,0:0:0:0:
256,192,40590,1,0,0:0:0:0:
256,192,40716,1,8,0:0:0:0:
256,192,40842,1,0,0:0:0:0:
256,192,41095,1,8,0:0:0:0:
256,192,41347,1,0,0:0:0:0:
256,192,41599,1,0,0:0:0:0:
256,192,41725,1,0,0:0:0:0:
256,192,41851,1,8,0:0:0:0:
256,192,42103,1,0,0:0:0:0:
256,192,42355,1,8,0:0:0:0:
256,192,42607,1,8,0:0:0:0:
256,192,42733,1,8,0:0:0:0:
256,192,42859,1,0,0:0:0:0:
256,192,43111,1,0,0:0:0:0:
256,192,43363,1,8,0:0:0:0:
256,192,43489,1,8,0:0:0:0:
256,192,43616,1,0,0:0:0:0:
256,192,43742,1,0,0:0:0:0:
256,192,43868,1,8,0:0:0:0:
256,192,44120,1,0,0:0:0:0:
256,192,44246,1,0,0:0:0:0:
256,192,44372,1,8,0:0:0:0:
256,192,44624,1,8,0:0:0:0:
256,192,44750,1,8,0:0:0:0:
256,192,44876,1,0,0:0:0:0:
256,192,45128,1,0,0:0:0:0:
256,192,45380,1,8,0:0:0:0:
256,192,45632,1,8,0:0:0:0:
256,192,45758,1,0,0:0:0:0:
256,192,45884,1,8,0:0:0:0:
256,192,46137,1,0,0:0:0:0:
256,192,46389,1,0,0:0:0:0:
256,192,46515,1,0,0:0:0:0:
256,192,46641,1,8,0:0:0:0:
256,192,46767,1,8,0:0:0:0:
256,192,46893,1,0,0:0:0:0:
256,192,47145,1,0,0:0:0:0:
256,192,47397,1,8,0:0:0:0:
256,192,47523,1,8,0:0:0:0:
256,192,47649,1,0,0:0:0:0:
256,192,47901,1,0,0:0:0:0:
256,192,48027,1,0,0:0:0:0:
256,192,48153,1,8,0:0:0:0:
256,192,48279,1,8,0:0:0:0:
256,192,48405,1,0,0:0:0:0:
256,192,48658,1,0,0:0:0:0:
256,192,48784,1,8,0:0:0:0:
256,192,48910,1,0,0:0:0:0:
256,192,49162,1,0,0:0:0:0:
256,192,49288,1,0,0:0:0:0:
384,96,49414,1,12,0:0:0:0:
256,192,49666,1,8,0:0:0:0:
256,192,49792,1,8,0:0:0:0:
256,192,49918,1,0,0:0:0:0:
256,192,50170,1,0,0:0:0:0:
256,192,50422,1,8,0:0:0:0:
256,192,50674,1,0,0:0:0:0:
256,192,50800,1,8,0:0:0:0:
256,192,50926,1,0,0:0:0:0:
256,192,51179,1,0,0:0:0:0:
256,192,51305,1,0,0:0:0:0:
384,96,51431,1,12,0:0:0:0:
256,192,51809,1,0,0:0:0:0:
256,192,51935,1,8,0:0:0:0:
256,192,52061,1,8,0:0:0:0:
256,192,52187,1,0,0:0:0:0:
384,96,52439,1,4,0:0:0:0:
256,192,52691,1,8,0:0:0:0:
256,192,52817,1,0,0:0:0:0:
256,192,52943,1,8,0:0:0:0:
256,192,53195,1,0,0:0:0:0:
256,192,53321,1,0,0:0:0:0:
384,96,53447,1,12,0:0:0:0:
256,192,53700,1,8,0:0:0:0:
256,192,53826,1,8,0:0:0:0:
256,192,53952,1,0,0:0:0:0:
256,192,54204,1,8,0:0:0:0:
384,96,54456,1,4,0:0:0:0:
256,192,54708,1,8,0:0:0:0:
256,192,54834,1,0,0:0:0:0:
256,192,54960,1,8,0:0:0:0:
256,192,55212,1,8,0:0:0:0:
256,192,55338,1,8,0:0:0:0:
384,96,55464,1,4,0:0:0:0:
256,192,55716,1,0,0:0:0:0:
256,192,55842,1,0,0:0:0:0:
256,192,55968,1,8,0:0:0:0:
256,192,56221,1,8,0:0:0:0:
256,192,56347,1,8,0:0:0:0:
256,192,56473,1,0,0:0:0:0:
256,192,56599,1,0,0:0:0:0:
256,192,56977,5,8,0:0:0:0:
256,192,57103,1,0,0:0:0:0:
256,192,57166,1,0,0:0:0:0:
256,192,57229,1,0,0:0:0:0:
256,192,57355,1,0,0:0:0:0:
384,96,57481,1,12,0:0:0:0:
256,192,57859,1,0,0:0:0:0:
256,192,58111,1,0,0:0:0:0:
256,192,58237,1,8,0:0:0:0:
256,192,58363,1,0,0:0:0:0:
256,192,58426,1,0,0:0:0:0:
256,192,58489,1,0,0:0:0:0:
256,192,58615,1,8,0:0:0:0:
256,192,58741,1,0,0:0:0:0:
256,192,58993,1,0,0:0:0:0:
256,192,59119,1,0,0:0:0:0:
256,192,59245,1,8,0:0:0:0:
256,192,59497,1,8,0:0:0:0:
256,192,59623,1,0,0:0:0:0:
256,192,59875,1,8,0:0:0:0:
256,192,60001,1,0,0:0:0:0:
256,192,60127,1,8,0:0:0:0:
256,192,60190,1,8,0:0:0:0:
256,192,60253,1,8,0:0:0:0:
256,192,60379,1,8,0:0:0:0:
256,192,60505,1,0,0:0:0:0:
256,192,60757,1,0,0:0:0:0:
256,192,60883,1,0,0:0:0:0:
256,192,61010,1,8,0:0:0:0:
256,192,61388,1,0,0:0:0:0:
256,192,61514,1,8,0:0:0:0:
256,192,61640,1,0,0:0:0:0:
256,192,61703,1,0,0:0:0:0:
256,192,61766,1,0,0:0:0:0:
256,192,61892,1,0,0:0:0:0:
256,192,62018,1,8,0:0:0:0:
256,192,62144,1,0,0:0:0:0:
256,192,62396,1,8,0:0:0:0:
256,192,62522,1,0,0:0:0:0:
256,192,62648,1,8,0:0:0:0:
256,192,62711,1,8,0:0:0:0:
256,192,62774,1,8,0:0:0:0:
256,192,62900,1,0,0:0:0:0:
256,192,63278,1,8,0:0:0:0:
256,192,63404,1,0,0:0:0:0:
256,192,63467,1,0,0:0:0:0:
256,192,63531,1,0,0:0:0:0:
256,192,63657,1,8,0:0:0:0:
256,192,63783,1,0,0:0:0:0:
256,192,63909,1,8,0:0:0:0:
256,192,63972,1,8,0:0:0:0:
256,192,64035,1,8,0:0:0:0:
256,192,64161,1,0,0:0:0:0:
256,192,64287,1,0,0:0:0:0:
256,192,64413,1,8,0:0:0:0:
256,192,64665,1,8,0:0:0:0:
256,192,64791,1,0,0:0:0:0:
256,192,64854,1,0,0:0:0:0:
256,192,64917,1,0,0:0:0:0:
256,192,65043,1,0,0:0:0:0:
256,192,65169,1,8,0:0:0:0:
256,192,65295,1,8,0:0:0:0:
256,192,65421,1,0,0:0:0:0:
384,96,65547,1,12,0:0:0:0:
256,192,65799,1,8,0:0:0:0:
256,192,65925,1,0,0:0:0:0:
256,192,66051,1,8,0:0:0:0:
256,192,66114,1,8,0:0:0:0:
256,192,66177,1,8,0:0:0:0:
256,192,66303,1,0,0:0:0:0:
256,192,66492,1,8,0:0:0:0:
256,192,66870,1,0,0:0:0:0:
256,192,66996,1,8,0:0:0:0:
256,192,67059,1,8,0:0:0:0:
256,192,67122,1,8,0:0:0:0:
256,192,67248,1,8,0:0:0:0:
256,192,67437,1,0,0:0:0:0:
256,192,67689,1,8,0:0:0:0:
256,192,67815,1,8,0:0:0:0:
256,192,67941,1,0,0:0:0:0:
256,192,68067,1,8,0:0:0:0:
256,192,68382,1,8,0:0:0:0:
256,192,68508,1,0,0:0:0:0:
256,192,68634,1,8,0:0:0:0:
256,192,68760,1,8,0:0:0:0:
256,192,68886,1,0,0:0:0:0:
256,192,69012,1,8,0:0:0:0:
256,192,69201,1,0,0:0:0:0:
256,192,69264,1,0,0:0:0:0:
256,192,69327,1,0,0:0:0:0:
256,192,69579,1,0,0:0:0:0:
256,192,69705,1,0,0:0:0:0:
256,192,69831,1,8,0:0:0:0:
256,192,69957,1,0,0:0:0:0:
256,192,70209,1,8,0:0:0:0:
256,192,70461,1,8,0:0:0:0:
256,192,70587,1,0,0:0:0:0:
256,192,70839,1,8,0:0:0:0:
256,192,70902,1,8,0:0:0:0:
256,192,70965,1,8,0:0:0:0:
256,192,71091,1,0,0:0:0:0:
256,192,71469,1,0,0:0:0:0:
256,192,71847,1,8,0:0:0:0:
256,192,71973,1,0,0:0:0:0:
256,192,72225,1,0,0:0:0:0:
256,192,72351,1,0,0:0:0:0:
256,192,72603,1,0,0:0:0:0:
384,96,73107,1,12,0:0:0:0:
256,192,73360,1,0,0:0:0:0:
256,192,73486,1,0,0:0:0:0:
256,192,73612,1,8,0:0:0:0:
256,192,73864,1,8,0:0:0:0:
256,192,74116,1,0,0:0:0:0:
256,192,74368,1,0,0:0:0:0:
256,192,74494,1,0,0:0:0:0:
256,192,74620,1,8,0:0:0:0:
256,192,74872,1,8,0:0:0:0:
256,192,74998,1,8,0:0:0:0:
256,192,75124,1,0,0:0:0:0:
256,192,75250,1,8,0:0:0:0:
256,192,75376,1,0,0:0:0:0:
256,192,75629,1,8,0:0:0:0:
256,192,75881,1,0,0:0:0:0:
256,192,76133,1,8,0:0:0:0:
256,192,76385,1,0,0:0:0:0:
256,192,76511,1,0,0:0:0:0:
256,192,76637,1,8,0:0:0:0:
256,192,76889,1,0,0:0:0:0:
256,192,77015,1,8,0:0:0:0:
256,192,77141,1,8,0:0:0:0:
256,192,77393,1,0,0:0:0:0:
256,192,77519,1,8,0:0:0:0:
256,192,77645,1,0,0:0:0:0:
256,192,77897,1,8,0:0:0:0:
256,192,78023,1,0,0:0:0:0:
256,192,78150,1,8,0:0:0:0:
256,192,78276,1,8,0:0:0:0:
256,192,78402,1,0,0:0:0:0:
256,192,78654,1,0,0:0:0:0:
256,192,78780,1,0,0:0:0:0:
256,192,78843,1,0,0:0:0:0:
256,192,78906,1,0,0:0:0:0:
256,192,79032,1,8,0:0:0:0:
256,192,79158,1,0,0:0:0:0:
256,192,79284,1,0,0:0:0:0:
256,192,79410,1,0,0:0:0:0:
256,192,79536,1,0,0:0:0:0:
256,192,79914,1,0,0:0:0:0:
256,192,80040,1,8,0:0:0:0:
256,192,80166,1,8,0:0:0:0:
256,192,80292,1,0,0:0:0:0:
256,192,80671,1,8,0:0:0:0:
256,192,80797,1,8,0:0:0:0:
256,192,80923,1,8,0:0:0:0:
256,192,81049,1,0,0:0:0:0:
256,192,81427,1,8,0:0:0:0:
256,192,81553,1,8,0:0:0:0:
256,192,81679,1,8,0:0:0:0:
256,192,81805,1,8,0:0:0:0:
256,192,82183,1,0,0:0:0:0:
256,192,84452,1,8,0:0:0:0:
256,192,84515,1,8,0:0:0:0:
256,192,84578,1,8,0:0:0:0:
256,192,84704,1,0,0:0:0:0:
256,192,84830,1,8,0:0:0:0:
256,192,84956,1,0,0:0:0:0:
256,192,85019,1,0,0:0:0:0:
256,192,85082,1,0,0:0:0:0:
384,96,85208,1,12,0:0:0:0:
256,192,85460,1,8,0:0:0:0:
256,192,85586,1,8,0:0:0:0:
256,192,85713,1,0,0:0:0:0:
256,192,85965,1,0,0:0:0:0:
256,192,86217,1,8,0:0:0:0:
256,192,86469,1,0,0:0:0:0:
256,192,86595,1,0,0:0:0:0:
256,192,86721,1,8,0:0:0:0:
256,192,86847,1,0,0:0:0:0:
256,192,86973,1,0,0:0:0:0:
256,192,87099,1,0,0:0:0:0:
256,192,87225,1,8,0:0:0:0:
256,192,87351,1,8,0:0:0:0:
256,192,87477,1,0,0:0:0:0:
256,192,87729,1,8,0:0:0:0:
256,192,87981,1,8,0:0:0:0:
256,192,88044,1,8,0:0:0:0:
256,192,88107,1,8,0:0:0:0:
256,192,88234,1,0,0:0:0:0:
256,192,88486,1,8,0:0:0:0:
256,192,88738,1,8,0:0:0:0:
256,192,88864,1,0,0:0:0:0:
256,192,88990,1,8,0:0:0:0:
256,192,89242,1,0,0:0:0:0:
256,192,89368,1,8,0:0:0:0:
256,192,89494,1,0,0:0:0:0:
256,192,89620,1,0,0:0:0:0:
256,192,89746,1,8,0:0:0:0:
256,192,89998,1,0,0:0:0:0:
256,192,90124,1,0,0:0:0:0:
256,192,90250,1,8,0:0:0:0:
256,192,90313,1,8,0:0:0:0:
256,192,90376,1,8,0:0:0:0:
256,192,90502,1,0,0:0:0:0:
256,192,90629,1,8,0:0:0:0:
256,192,90755,1,0,0:0:0:0:
256,192,90818,1,0,0:0:0:0:
256,192,90881,1,0,0:0:0:0:
256,192,91007,1,8,0:0:0:0:
256,192,91133,1,8,0:0:0:0:
384,96,91259,1,4,0:0:0:0:
256,192,91511,1,8,0:0:0:0:
256,192,91637,1,8,0:0:0:0:
256,192,91763,1,0,0:0:0:0:
256,192,92015,1,8,0:0:0:0:
256,192,92267,1,0,0:0:0:0:
256,192,92519,1,8,0:0:0:0:
256,192,92645,1,8,0:0:0:0:
256,192,92708,1,8,0:0:0:0:
256,192,92771,1,8,0:0:0:0:
256,192,92897,1,0,0:0:0:0:
256,192,93023,1,8,0:0:0:0:
256,192,93150,1,8,0:0:0:0:
256,192,93276,1,0,0:0:0:0:
256,192,93402,1,8,0:0:0:0:
256,192,93528,1,0,0:0:0:0:
256,192,93780,1,0,0:0:0:0:
256,192,93843,1,0,0:0:0:0:
256,192,93906,1,0,0:0:0:0:
256,192,94032,1,8,0:0:0:0:
256,192,94158,1,0,0:0:0:0:
256,192,94284,1,8,0:0:0:0:
256,192,94536,1,8,0:0:0:0:
256,192,94662,1,8,0:0:0:0:
256,192,94788,1,0,0:0:0:0:
256,192,94914,1,0,0:0:0:0:
256,192,95040,1,8,0:0:0:0:
256,192,95103,1,8,0:0:0:0:
256,192,95166,1,8,0:0:0:0:
256,192,95292,1,0,0:0:0:0:
256,192,95418,1,8,0:0:0:0:
256,192,95544,1,0,0:0:0:0:
256,192,95797,1,0,0:0:0:0:
256,192,95860,1,0,0:0:0:0:
256,192,95923,1,0,0:0:0:0:
256,192,96049,1,8,0:0:0:0:
256,192,96175,1,0,0:0:0:0:
256,192,96301,1,0,0:0:0:0:
256,192,96364,1,0,0:0:0:0:
256,192,96427,1,0,0:0:0:0:
256,192,96553,1,8,0:0:0:0:
256,192,96679,1,8,0:0:0:0:
256,192,96805,1,0,0:0:0:0:
256,192,97057,1,0,0:0:0:0:
256,192,97183,1,8,0:0:0:0:
256,192,97246,1,8,0:0:0:0:
256,192,97309,1,8,0:0:0:0:
256,192,98317,5,0,0:0:0:0:
256,192,98443,1,0,0:0:0:0:
256,192,98569,1,0,0:0:0:0:
256,192,98695,1,8,0:0:0:0:
256,192,99073,1,8,0:0:0:0:
256,192,99199,1,8,0:0:0:0:
384,96,99325,1,4,0:0:0:0:
256,192,99577,1,0,0:0:0:0:
256,192,99703,1,0,0:0:0:0:
256,192,99830,1,8,0:0:0:0:
256,192,100082,1,8,0:0:0:0:
256,192,100208,1,0,0:0:0:0:
256,192,100334,1,8,0:0:0:0:
256,192,100460,1,0,0:0:0:0:
256,192,100586,1,0,0:0:0:0:
256,192,100712,1,8,0:0:0:0:
256,192,101090,1,8,0:0:0:0:
256,192,101153,1,8,0:0:0:0:
256,192,101216,1,8,0:0:0:0:
256,192,101342,1,0,0:0:0:0:
256,192,101594,1,0,0:0:0:0:
256,192,101720,1,0,0:0:0:0:
256,192,101846,1,8,0:0:0:0:
256,192,102098,1,0,0:0:0:0:
256,192,102224,1,0,0:0:0:0:
256,192,102351,1,8,0:0:0:0:
256,192,102477,1,8,0:0:0:0:
256,192,102603,1,0,0:0:0:0:
256,192,102729,1,8,0:0:0:0:
256,192,102855,1,0,0:0:0:0:
256,192,103107,1,8,0:0:0:0:
256,192,103170,1,8,0:0:0:0:
256,192,103233,1,8,0:0:0:0:
256,192,103359,1,0,0:0:0:0:
256,192,103485,1,0,0:0:0:0:
256,192,103611,1,0,0:0:0:0:
256,192,103737,1,8,0:0:0:0:
256,192,104115,1,0,0:0:0:0:
256,192,104178,1,0,0:0:0:0:
256,192,104241,1,0,0:0:0:0:
256,192,104367,1,8,0:0:0:0:
256,192,104493,1,0,0:0:0:0:
256,192,104619,1,8,0:0:0:0:
256,192,104682,1,8,0:0:0:0:
256,192,104745,1,8,0:0:0:0:
256,192,104872,1,0,0:0:0:0:
256,192,105124,1,0,0:0:0:0:
256,192,105187,1,0,0:0:0:0:
256,192,105250,1,0,0:0:0:0:
256,192,105376,1,8,0:0:0:0:
256,192,105628,1,0,0:0:0:0:
256,192,105754,1,8,0:0:0:0:
256,192,105880,1,0,0:0:0:0:
256,192,106132,1,0,0:0:0:0:
256,192,106258,1,8,0:0:0:0:
256,192,106321,1,8,0:0:0:0:
256,192,106384,1,8,0:0:0:0:
256,192,106510,1,0,0:0:0:0:
256,192,106636,1,8,0:0:0:0:
256,192,106762,1,0,0:0:0:0:
256,192,107014,1,8,0:0:0:0:
256,192,107140,1,0,0:0:0:0:
256,192,107203,1,0,0:0:0:0:
256,192,107266,1,0,0:0:0:0:
256,192,107393,1,8,0:0:0:0:
256,192,107771,1,8,0:0:0:0:
256,192,108023,1,0,0:0:0:0:
256,192,108149,1,8,0:0:0:0:
256,192,108212,1,8,0:0:0:0:
256,192,108275,1,8,0:0:0:0:
256,192,108401,1,8,0:0:0:0:
256,192,108653,1,8,0:0:0:0:
256,192,108716,1,8,0:0:0:0:
256,192,108779,1,8,0:0:0:0:
256,192,108905,1,0,0:0:0:0:
256,192,109031,1,0,0:0:0:0:
256,192,109157,1,8,0:0:0:0:
256,192,109409,1,0,0:0:0:0:
256,192,109472,1,0,0:0:0:0:
256,192,109535,1,0,0:0:0:0:
256,192,109661,1,8,0:0:0:0:
256,192,109787,1,8,0:0:0:0:
256,192,109914,1,0,0:0:0:0:
256,192,110040,1,0,0:0:0:0:
256,192,110166,1,8,0:0:0:0:
256,192,110292,1,0,0:0:0:0:
256,192,110418,1,8,0:0:0:0:
256,192,110481,1,8,0:0:0:0:
256,192,110544,1,8,0:0:0:0:
256,192,110670,1,8,0:0:0:0:
256,192,110796,1,0,0:0:0:0:
256,192,110922,1,8,0:0:0:0:
256,192,111426,1,0,0:0:0:0:
256,192,111678,1,8,0:0:0:0:
256,192,111930,1,0,0:0:0:0:
256,192,112056,1,8,0:0:0:0:
256,192,112182,1,0,0:0:0:0:
256,192,112308,1,0,0:0:0:0:
256,192,112435,1,8,0:0:0:0:
256,192,112687,1,0,0:0:0:0:
256,192,112813,1,0,0:0:0:0:
256,192,112939,1,0,0:0:0:0:
256,192,113191,1,8,0:0:0:0:
256,192,113443,1,8,0:0:0:0:
256,192,113695,1,8,0:0:0:0:
256,192,113947,1,0,0:0:0:0:
256,192,114073,1,8,0:0:0:0:
256,192,114199,1,0,0:0:0:0:
256,192,114325,1,0,0:0:0:0:
256,192,114451,1,8,0:0:0:0:
256,192,114703,1,0,0:0:0:0:
256,192,114830,1,8,0:0:0:0:
256,192,114956,1,0,0:0:0:0:
256,192,115208,1,8,0:0:0:0:
256,192,115460,1,0,0:0:0:0:
256,192,115712,1,8,0:0:0:0:
256,192,115964,1,0,0:0:0:0:
256,192,116090,1,8,0:0:0:0:
256,192,116216,1,8,0:0:0:0:
256,192,116342,1,0,0:0:0:0:
256,192,116468,1,8,0:0:0:0:
256,192,116720,1,0,0:0:0:0:
256,192,116846,1,8,0:0:0:0:
256,192,116972,1,8,0:0:0:0:
256,192,117224,1,8,0:0:0:0:
256,192,117477,1,0,0:0:0:0:
256,192,117729,1,8,0:0:0:0:
256,192,117981,1,8,0:0:0:0:
256,192,118107,1,0,0:0:0:0:
256,192,118233,1,8,0:0:0:0:
256,192,118359,1,8,0:0:0:0:
256,192,118485,1,0,0:0:0:0:
256,192,119493,1,8,0:0:0:0:
256,192,119998,1,0,0:0:0:0:
256,192,120502,5,0,0:0:0:0:
256,192,120628,1,0,0:0:0:0:
256,192,120880,1,0,0:0:0:0:
256,192,121006,1,0,0:0:0:0:
256,192,121258,1,8,0:0:0:0:
256,192,121384,1,8,0:0:0:0:
256,192,121636,1,8,0:0:0:0:
256,192,121762,1,8,0:0:0:0:
256,192,122014,1,8,0:0:0:0:
256,192,122140,1,0,0:0:0:0:
256,192,122266,1,0,0:0:0:0:
256,192,122393,1,0,0:0:0:0:
256,192,122519,1,8,0:0:0:0:
256,192,122645,1,8,0:0:0:0:
256,192,122897,1,8,0:0:0:0:
256,192,123023,1,8,0:0:0:0:
256,192,123275,1,0,0:0:0:0:
256,192,123401,1,0,0:0:0:0:
256,192,123653,1,8,0:0:0:0:
256,192,123779,1,8,0:0:0:0:
256,192,124031,1,8,0:0:0:0:
256,192,124157,1,0,0:0:0:0:
256,192,124283,1,8,0:0:0:0:
256,192,124409,1,8,0:0:0:0:
384,96,124535,1,4,0:0:0:0:
256,192,124787,1,8,0:0:0:0:
256,192,124914,1,0,0:0:0:0:
256,192,125040,1,8,0:0:0:0:
256,192,125103,1,8,0:0:0:0:
256,192,125166,1,8,0:0:0:0:
256,192,125292,1,0,0:0:0:0:
256,192,125418,1,8,0:0:0:0:
384,96,125544,1,4,0:0:0:0:
384,96,126048,1,4,0:0:0:0:
256,192,126552,1,8,0:0:0:0:
256,192,126678,1,8,0:0:0:0:
256,192,126930,1,8,0:0:0:0:
256,192,127056,1,8,0:0:0:0:
256,192,127308,1,8,0:0:0:0:
256,192,127435,1,8,0:0:0:0:
256,192,127687,1,8,0:0:0:0:
256,192,127813,1,8,0:0:0:0:
256,192,128065,1,8,0:0:0:0:
256,192,128191,1,0,0:0:0:0:
256,192,128317,1,0,0:0:0:0:
256,192,128443,1,8,0:0:0:0:
256,192,128569,2,0,L|256:128,30,35
256,192,130586,12,0,137645,0:0:0:0:
