osu file format v14

[General]
AudioFilename: audio.mp3
AudioLeadIn: 0
PreviewTime: 84673
Countdown: 0
SampleSet: Normal
StackLeniency: 0.7
Mode: 1
LetterboxInBreaks: 0
WidescreenStoryboard: 1

[Editor]
Bookmarks: 9075,25209,39327,57478,61007,65544,85208
DistanceSpacing: 1
BeatDivisor: 4
GridSize: 32
TimelineZoom: 1.600001

[Metadata]
Title:Tainted Reminiscence
TitleUnicode:Tainted Reminiscence
Artist:takehirotei
ArtistUnicode:takehirotei
Creator:BlackBN
Version:Kantan
Source:
Tags:BlackBq Electronic Instrumental Classical Hardcore Orchestral Imaginary Reality takehirotei
BeatmapID:4561191
BeatmapSetID:2158145

[Difficulty]
HPDrainRate:7.5
CircleSize:2
OverallDifficulty:3
ApproachRate:10
SliderMultiplier:1.4
SliderTickRate:1

[Events]
//Background and Video events
0,0,"96660627_p0.jpg",0,0
//Break Periods
2,73308,78708
2,111626,119548
//Storyboard Layer 0 (Background)
//Storyboard Layer 1 (Fail)
//Storyboard Layer 2 (Pass)
//Storyboard Layer 3 (Foreground)
//Storyboard Layer 4 (Overlay)
//Storyboard Sound Samples

[TimingPoints]
506,252.100840336134,4,1,0,40,1,8
506,-111.111111111111,4,1,0,40,0,0
1011,252.100840336134,4,1,0,55,1,0
1011,-111.111111111111,4,1,0,55,0,0
4256,-111.111111111111,4,1,0,70,0,0
5013,-111.111111111111,4,1,0,80,0,0
8101,-111.111111111111,4,1,0,70,0,0
9046,-111.111111111111,4,1,0,85,0,0
12071,-111.111111111111,4,1,0,70,0,0
13080,-111.111111111111,4,1,0,85,0,0
16105,-111.111111111111,4,1,0,70,0,0
17113,-111.111111111111,4,1,0,85,0,0
20139,-111.111111111111,4,1,0,70,0,0
21147,-111.111111111111,4,1,0,85,0,0
25181,-111.111111111111,4,1,0,90,0,0
38857,-111.111111111111,4,1,0,50,0,0
39298,-111.111111111111,4,1,0,70,0,0
41283,-111.111111111111,4,1,0,75,0,0
49382,-111.111111111111,4,1,0,80,0,0
57481,252.100840336134,7,1,0,85,1,0
57481,-111.111111111111,7,1,0,85,0,0
58363,252.100840336134,7,1,0,85,1,0
58363,-111.111111111111,7,1,0,85,0,0
59245,252.100840336134,7,1,0,85,1,0
59245,-111.111111111111,7,1,0,85,0,0
60127,252.100840336134,7,1,0,85,1,0
60127,-111.111111111111,7,1,0,85,0,0
61010,378.151260503407,3,1,0,85,1,0
61010,-74.0740740740741,7,1,0,85,0,0
65547,252.100840336134,4,1,0,85,1,1
65547,-111.111111111111,7,1,0,85,0,1
66303,-111.111111111111,7,1,0,85,0,0
66492,252.100840336134,4,1,0,85,1,1
66492,-111.111111111111,4,1,0,85,0,1
67437,252.100840336134,4,1,0,85,1,0
67437,-111.111111111111,4,1,0,85,0,0
68382,252.100840336134,4,1,0,85,1,0
68382,-111.111111111111,4,1,0,85,0,0
69327,252.100840336134,7,1,0,85,1,0
69327,-111.111111111111,4,1,0,85,0,0
70209,252.100840336134,7,1,0,85,1,0
70209,-111.111111111111,4,1,0,85,0,0
71091,252.100840336134,7,1,0,85,1,0
71091,-111.111111111111,4,1,0,85,0,0
71973,252.100840336134,7,1,0,85,1,0
71973,-111.111111111111,4,1,0,85,0,0
73076,-111.111111111111,7,1,0,80,0,0
73108,252.100840336134,3,1,0,80,1,0
73108,-111.111111111111,3,1,0,80,0,0
73139,-111.111111111111,3,1,0,75,0,0
79126,-111.111111111111,3,1,0,85,0,0
82152,-111.111111111111,3,1,0,70,0,0
84421,-111.111111111111,3,1,0,80,0,0
85177,-111.111111111111,3,1,0,90,0,0
85208,-111.111111111111,3,1,0,90,0,1
97309,252.100840336134,4,1,0,90,1,0
97309,-111.111111111111,4,1,0,90,0,0
97340,-111.111111111111,4,1,0,80,0,0
98317,-111.111111111111,4,1,0,90,0,1
98695,-111.111111111111,4,1,0,90,0,0
98727,-111.111111111111,4,1,0,80,0,0
99294,-111.111111111111,4,1,0,90,0,0
99325,-111.111111111111,4,1,0,90,0,1
110922,-111.111111111111,4,1,0,90,0,0
110953,-111.111111111111,4,1,0,50,0,0
111395,-111.111111111111,4,1,0,70,0,0
119966,-111.111111111111,4,1,0,75,0,0
120470,-111.111111111111,4,1,0,85,0,0
128537,-111.111111111111,4,1,0,75,0,0
130711,-111.111111111111,4,1,0,73,0,0
130837,-111.111111111111,4,1,0,71,0,0
130963,-111.111111111111,4,1,0,69,0,0
131089,-111.111111111111,4,1,0,68,0,0
131215,-111.111111111111,4,1,0,66,0,0
131341,-111.111111111111,4,1,0,64,0,0
131467,-111.111111111111,4,1,0,62,0,0
131593,-111.111111111111,4,1,0,60,0,0
131719,-111.111111111111,4,1,0,58,0,0
131845,-111.111111111111,4,1,0,56,0,0
131971,-111.111111111111,4,1,0,54,0,0
132097,-111.111111111111,4,1,0,53,0,0
132223,-111.111111111111,4,1,0,51,0,0
132350,-111.111111111111,4,1,0,49,0,0
132476,-111.111111111111,4,1,0,47,0,0
132602,-111.111111111111,4,1,0,45,0,0
132728,-111.111111111111,4,1,0,43,0,0
132854,-111.111111111111,4,1,0,41,0,0
132980,-111.111111111111,4,1,0,39,0,0
133106,-111.111111111111,4,1,0,37,0,0
133232,-111.111111111111,4,1,0,36,0,0
133358,-111.111111111111,4,1,0,34,0,0
133484,-111.111111111111,4,1,0,32,0,0
133610,-111.111111111111,4,1,0,30,0,0
133736,-111.111111111111,4,1,0,28,0,0
133862,-111.111111111111,4,1,0,26,0,0
133988,-111.111111111111,4,1,0,24,0,0
134114,-111.111111111111,4,1,0,22,0,0
134240,-111.111111111111,4,1,0,21,0,0
134366,-111.111111111111,4,1,0,19,0,0
134492,-111.111111111111,4,1,0,17,0,0
134618,-111.111111111111,4,1,0,15,0,0
134871,-111.111111111111,4,1,0,14,0,0
135123,-111.111111111111,4,1,0,13,0,0
135375,-111.111111111111,4,1,0,12,0,0
135627,-111.111111111111,4,1,0,12,0,0
135879,-111.111111111111,4,1,0,11,0,0
136131,-111.111111111111,4,1,0,10,0,0
136383,-111.111111111111,4,1,0,9,0,0
136635,-111.111111111111,4,1,0,8,0,0
136887,-111.111111111111,4,1,0,7,0,0
137139,-111.111111111111,4,1,0,7,0,0
137392,-111.111111111111,4,1,0,6,0,0
137644,-111.111111111111,4,1,0,5,0,0

[HitObjects]
256,192,1011,5,8,0:0:0:0:
256,192,2019,1,0,0:0:0:0:
256,192,3027,1,8,0:0:0:0:
256,192,3532,1,8,0:0:0:0:
256,192,4036,1,0,0:0:0:0:
384,96,5044,1,12,0:0:0:0:
384,96,5926,1,4,0:0:0:0:
256,192,6557,1,8,0:0:0:0:
384,96,7061,1,4,0:0:0:0:
384,96,7565,1,4,0:0:0:0:
384,96,8069,1,12,0:0:0:0:
384,96,9078,1,4,0:0:0:0:
256,192,9582,1,0,0:0:0:0:
256,192,9834,1,0,0:0:0:0:
256,192,10086,1,8,0:0:0:0:
256,192,10590,1,0,0:0:0:0:
256,192,11095,1,0,0:0:0:0:
256,192,11347,1,8,0:0:0:0:
256,192,11599,1,0,0:0:0:0:
256,192,11851,1,0,0:0:0:0:
384,96,12103,1,12,0:0:0:0:
384,96,13111,1,4,0:0:0:0:
256,192,13616,1,0,0:0:0:0:
256,192,13868,1,0,0:0:0:0:
256,192,14120,1,8,0:0:0:0:
256,192,14624,1,0,0:0:0:0:
256,192,15128,1,8,0:0:0:0:
256,192,15380,1,0,0:0:0:0:
256,192,15632,1,8,0:0:0:0:
256,192,15884,1,8,0:0:0:0:
384,96,16137,1,4,0:0:0:0:
384,96,17145,1,4,0:0:0:0:
256,192,17649,1,0,0:0:0:0:
256,192,17901,1,8,0:0:0:0:
256,192,18153,1,0,0:0:0:0:
256,192,18658,1,0,0:0:0:0:
256,192,19162,1,0,0:0:0:0:
256,192,19414,1,8,0:0:0:0:
256,192,19666,1,8,0:0:0:0:
256,192,19918,1,0,0:0:0:0:
384,96,20170,1,12,0:0:0:0:
384,96,21179,1,4,0:0:0:0:
256,192,21683,1,0,0:0:0:0:
256,192,21935,1,8,0:0:0:0:
256,192,22187,1,0,0:0:0:0:
256,192,22691,1,8,0:0:0:0:
256,192,22943,1,8,0:0:0:0:
256,192,23195,1,0,0:0:0:0:
256,192,23574,1,0,0:0:0:0:
256,192,23952,1,8,0:0:0:0:
256,192,24330,1,8,0:0:0:0:
384,96,25212,1,12,0:0:0:0:
256,192,25716,1,0,0:0:0:0:
256,192,26221,1,8,0:0:0:0:
256,192,26473,1,8,0:0:0:0:
256,192,26725,1,0,0:0:0:0:
256,192,27229,1,8,0:0:0:0:
256,192,27733,1,8,0:0:0:0:
256,192,28237,1,0,0:0:0:0:
256,192,28489,1,8,0:0:0:0:
256,192,28994,1,8,0:0:0:0:
256,192,29246,1,0,0:0:0:0:
256,192,29750,1,0,0:0:0:0:
256,192,30254,1,8,0:0:0:0:
256,192,30506,1,0,0:0:0:0:
256,192,30758,1,8,0:0:0:0:
256,192,31010,1,8,0:0:0:0:
256,192,31263,1,0,0:0:0:0:
256,192,32019,1,8,0:0:0:0:
384,96,32271,1,4,0:0:0:0:
384,96,33279,1,12,0:0:0:0:
256,192,33784,1,8,0:0:0:0:
256,192,34288,1,0,0:0:0:0:
256,192,34540,1,0,0:0:0:0:
256,192,35044,1,8,0:0:0:0:
256,192,35296,1,0,0:0:0:0:
256,192,35548,1,8,0:0:0:0:
256,192,36053,1,8,0:0:0:0:
256,192,36305,1,8,0:0:0:0:
256,192,36557,1,0,0:0:0:0:
256,192,37061,1,0,0:0:0:0:
384,96,37313,1,12,0:0:0:0:
256,192,37817,1,8,0:0:0:0:
256,192,38069,1,0,0:0:0:0:
256,192,38321,1,0,0:0:0:0:
256,192,38574,1,0,0:0:0:0:
256,192,38826,1,8,0:0:0:0:
256,192,39330,1,0,0:0:0:0:
256,192,41347,1,0,0:0:0:0:
256,192,42355,1,8,0:0:0:0:
256,192,43363,1,0,0:0:0:0:
256,192,43868,1,8,0:0:0:0:
256,192,44372,1,0,0:0:0:0:
256,192,44624,1,8,0:0:0:0:
256,192,44876,1,8,0:0:0:0:
256,192,45380,1,0,0:0:0:0:
256,192,46389,1,8,0:0:0:0:
256,192,47397,1,0,0:0:0:0:
256,192,47901,1,0,0:0:0:0:
256,192,48153,1,0,0:0:0:0:
256,192,48405,1,8,0:0:0:0:
384,96,49414,1,12,0:0:0:0:
256,192,49918,1,0,0:0:0:0:
256,192,50170,1,0,0:0:0:0:
256,192,50422,1,8,0:0:0:0:
256,192,50926,1,0,0:0:0:0:
384,96,51431,1,12,0:0:0:0:
256,192,51935,1,8,0:0:0:0:
384,96,52439,1,4,0:0:0:0:
384,96,53447,1,12,0:0:0:0:
256,192,53952,1,0,0:0:0:0:
256,192,54204,1,8,0:0:0:0:
384,96,54456,1,4,0:0:0:0:
256,192,54960,1,8,0:0:0:0:
384,96,55464,1,4,0:0:0:0:
256,192,55968,1,8,0:0:0:0:
256,192,56473,1,8,0:0:0:0:
384,96,57481,1,12,0:0:0:0:
256,192,57859,1,0,0:0:0:0:
256,192,58363,1,0,0:0:0:0:
256,192,58741,1,0,0:0:0:0:
256,192,58993,1,0,0:0:0:0:
256,192,59245,1,8,0:0:0:0:
256,192,59623,1,0,0:0:0:0:
256,192,60127,1,8,0:0:0:0:
256,192,60505,1,8,0:0:0:0:
256,192,60757,1,8,0:0:0:0:
256,192,61010,1,0,0:0:0:0:
256,192,61766,1,0,0:0:0:0:
256,192,62144,1,8,0:0:0:0:
256,192,62522,1,0,0:0:0:0:
256,192,62900,1,8,0:0:0:0:
256,192,63278,1,8,0:0:0:0:
256,192,63657,1,0,0:0:0:0:
256,192,64035,1,0,0:0:0:0:
256,192,64413,1,8,0:0:0:0:
256,192,65169,1,0,0:0:0:0:
384,96,65547,1,12,0:0:0:0:
256,192,66051,1,0,0:0:0:0:
256,192,66492,1,8,0:0:0:0:
256,192,66996,1,8,0:0:0:0:
256,192,67437,1,0,0:0:0:0:
256,192,67689,1,8,0:0:0:0:
256,192,67941,1,0,0:0:0:0:
256,192,68382,1,8,0:0:0:0:
256,192,68634,1,0,0:0:0:0:
256,192,69327,1,8,0:0:0:0:
256,192,69705,1,0,0:0:0:0:
256,192,69957,1,0,0:0:0:0:
256,192,70209,1,8,0:0:0:0:
256,192,70587,1,0,0:0:0:0:
256,192,70839,1,8,0:0:0:0:
256,192,71091,1,0,0:0:0:0:
256,192,71469,1,0,0:0:0:0:
256,192,71973,1,8,0:0:0:0:
384,96,73108,1,12,0:0:0:0:
256,192,79158,5,0,0:0:0:0:
256,192,79410,1,0,0:0:0:0:
256,192,79914,1,0,0:0:0:0:
256,192,80166,1,8,0:0:0:0:
256,192,80671,1,8,0:0:0:0:
256,192,80923,1,0,0:0:0:0:
256,192,81427,1,8,0:0:0:0:
256,192,81679,1,8,0:0:0:0:
256,192,82183,1,0,0:0:0:0:
384,96,85208,1,12,0:0:0:0:
256,192,85713,1,0,0:0:0:0:
256,192,85965,1,0,0:0:0:0:
256,192,86469,1,8,0:0:0:0:
256,192,86721,1,0,0:0:0:0:
256,192,87225,1,8,0:0:0:0:
256,192,87477,1,0,0:0:0:0:
256,192,87729,1,0,0:0:0:0:
256,192,87981,1,8,0:0:0:0:
256,192,88234,1,0,0:0:0:0:
256,192,88738,1,0,0:0:0:0:
256,192,88990,1,8,0:0:0:0:
256,192,89494,1,0,0:0:0:0:
256,192,89746,1,8,0:0:0:0:
256,192,89998,1,0,0:0:0:0:
256,192,90250,1,0,0:0:0:0:
256,192,90502,1,8,0:0:0:0:
384,96,91259,1,4,0:0:0:0:
256,192,91763,1,0,0:0:0:0:
256,192,92015,1,8,0:0:0:0:
256,192,92519,1,8,0:0:0:0:
256,192,92771,1,8,0:0:0:0:
256,192,93276,1,0,0:0:0:0:
256,192,93528,1,0,0:0:0:0:
256,192,93780,1,8,0:0:0:0:
256,192,94032,1,8,0:0:0:0:
256,192,94284,1,0,0:0:0:0:
256,192,94788,1,0,0:0:0:0:
256,192,95040,1,8,0:0:0:0:
256,192,95292,1,8,0:0:0:0:
256,192,95797,1,8,0:0:0:0:
256,192,96049,1,8,0:0:0:0:
256,192,96301,1,0,0:0:0:0:
256,192,96553,1,8,0:0:0:0:
256,192,96805,1,0,0:0:0:0:
256,192,98317,1,8,0:0:0:0:
384,96,99325,1,4,0:0:0:0:
256,192,99830,1,0,0:0:0:0:
256,192,100334,1,8,0:0:0:0:
256,192,100586,1,8,0:0:0:0:
256,192,101090,1,0,0:0:0:0:
256,192,101342,1,8,0:0:0:0:
256,192,101846,1,0,0:0:0:0:
256,192,102351,1,8,0:0:0:0:
256,192,102603,1,0,0:0:0:0:
256,192,102855,1,0,0:0:0:0:
256,192,103107,1,8,0:0:0:0:
256,192,103359,1,0,0:0:0:0:
256,192,103611,1,8,0:0:0:0:
256,192,104115,1,0,0:0:0:0:
256,192,104367,1,0,0:0:0:0:
256,192,104619,1,8,0:0:0:0:
256,192,105376,1,8,0:0:0:0:
256,192,105880,1,0,0:0:0:0:
256,192,106132,1,8,0:0:0:0:
256,192,106384,1,8,0:0:0:0:
256,192,106636,1,0,0:0:0:0:
256,192,107140,1,0,0:0:0:0:
256,192,107393,1,8,0:0:0:0:
256,192,107771,1,0,0:0:0:0:
256,192,108401,1,8,0:0:0:0:
256,192,108779,1,8,0:0:0:0:
256,192,109157,1,8,0:0:0:0:
256,192,109409,1,0,0:0:0:0:
256,192,109914,1,0,0:0:0:0:
256,192,110166,1,8,0:0:0:0:
256,192,110418,1,8,0:0:0:0:
256,192,110670,1,0,0:0:0:0:
256,192,110922,1,8,0:0:0:0:
256,192,111426,1,0,0:0:0:0:
256,192,119998,5,0,0:0:0:0:
384,96,120502,1,12,0:0:0:0:
256,192,120880,1,0,0:0:0:0:
256,192,121258,1,8,0:0:0:0:
256,192,121636,1,8,0:0:0:0:
256,192,122014,1,8,0:0:0:0:
256,192,122266,1,0,0:0:0:0:
256,192,122519,1,8,0:0:0:0:
256,192,122897,1,8,0:0:0:0:
256,192,123275,1,0,0:0:0:0:
256,192,123653,1,8,0:0:0:0:
256,192,124031,1,8,0:0:0:0:
384,96,124535,1,4,0:0:0:0:
256,192,125040,1,8,0:0:0:0:
256,192,125292,1,8,0:0:0:0:
384,96,125544,1,4,0:0:0:0:
384,96,126048,1,4,0:0:0:0:
256,192,126552,1,8,0:0:0:0:
256,192,126930,1,8,0:0:0:0:
256,192,127308,1,8,0:0:0:0:
256,192,127687,1,8,0:0:0:0:
256,192,128065,1,0,0:0:0:0:
256,192,128317,1,8,0:0:0:0:
256,192,128569,1,0,0:0:0:0:
256,192,130586,8,0,137645,0:0:0:0:
