osu file format v14

[General]
AudioFilename: audio.mp3
AudioLeadIn: 0
PreviewTime: 84673
Countdown: 0
SampleSet: Normal
StackLeniency: 0.7
Mode: 1
LetterboxInBreaks: 0
WidescreenStoryboard: 1

[Editor]
Bookmarks: 9075,25209,39327,57478,61007,65544,85208
DistanceSpacing: 1
BeatDivisor: 4
GridSize: 32
TimelineZoom: 2.200001

[Metadata]
Title:Tainted Reminiscence
TitleUnicode:Tainted Reminiscence
Artist:takehirotei
ArtistUnicode:takehirotei
Creator:BlackBN
Version:Inner Oni
Source:
Tags:BlackBq Electronic Instrumental Classical Hardcore Orchestral Imaginary Reality takehirotei
BeatmapID:4552179
BeatmapSetID:2158145

[Difficulty]
HPDrainRate:5.5
CircleSize:2
OverallDifficulty:6.5
ApproachRate:10
SliderMultiplier:1.4
SliderTickRate:1

[Events]
//Background and Video events
0,0,"96660627_p0.jpg",0,0
//Break Periods
//Storyboard Layer 0 (Background)
//Storyboard Layer 1 (Fail)
//Storyboard Layer 2 (Pass)
//Storyboard Layer 3 (Foreground)
//Storyboard Layer 4 (Overlay)
//Storyboard Sound Samples

[TimingPoints]
506,252.100840336134,4,1,0,40,1,8
506,-100,4,1,0,40,0,0
631,-102.558895207149,4,1,0,40,0,0
757,-105.252188411838,4,1,0,40,0,0
883,-108.090753424658,4,1,0,40,0,0
1011,252.100840336134,4,1,0,55,1,0
1011,-111.111111111111,4,1,0,55,0,0
4035,-111.111111111111,4,1,0,55,0,0
4256,-108.111003964427,4,1,0,70,0,0
4350,-107.386121753938,4,1,0,70,0,0
4413,-106.670895443493,4,1,0,70,0,0
4539,-105.268648930621,4,1,0,70,0,0
4791,-102.571922334045,4,1,0,70,0,0
4917,-101.274716450868,4,1,0,70,0,0
5013,-100.009911785112,4,1,0,80,0,0
5044,-86.9565217391304,4,1,0,80,0,0
5234,-100,4,1,0,80,0,0
5926,-86.9565217391304,4,1,0,80,0,0
6053,-100,4,1,0,80,0,0
6557,-86.9565217391304,4,1,0,80,0,0
6683,-100,4,1,0,80,0,0
7061,-86.9565217391304,4,1,0,80,0,0
7564,-81.6326530612245,4,1,0,80,0,0
8069,-76.9230769230769,4,1,0,80,0,0
8101,-66.6666666666667,4,1,0,70,0,0
9046,-100,4,1,0,85,0,0
12071,-100,4,1,0,70,0,0
12166,-111.111111111111,4,1,0,70,0,0
13080,-100,4,1,0,85,0,0
16105,-100,4,1,0,70,0,0
16200,-111.111111111111,4,1,0,70,0,0
17113,-100,4,1,0,85,0,0
20139,-100,4,1,0,70,0,0
20234,-111.111111111111,4,1,0,70,0,0
21147,-100,4,1,0,85,0,0
23194,-86.95651,4,1,0,85,0,0
23320,-85.71428,4,1,0,85,0,0
23573,-83.32414,4,1,0,85,0,0
23699,-82.182846,4,1,0,85,0,0
23951,-79.99153,4,1,0,85,0,0
24077,-78.93913,4,1,0,85,0,0
24329,-76.91525,4,1,0,85,0,0
24455,-75.94174,4,1,0,85,0,0
24581,-74.99256,4,1,0,85,0,0
24707,-74.06682,4,1,0,85,0,0
24959,-111.160123511248,4,1,0,85,0,0
25085,-105.307145842039,4,1,0,85,0,0
25181,-99.9703058497476,4,1,0,90,0,0
25212,-100.039698292973,4,1,0,90,0,0
32270,-99.980156,4,1,0,90,0,0
32396,-97.54209,4,1,0,90,0,0
32459,-96.36712,4,1,0,90,0,0
32522,-95.2201,4,1,0,90,0,0
32585,-94.10007,4,1,0,90,0,0
32648,-93.00609,4,1,0,90,0,0
32711,-91.93725,4,1,0,90,0,0
32774,-90.8927,4,1,0,90,0,0
32837,-89.87161,4,1,0,90,0,0
32900,-88.87321,4,1,0,90,0,0
32963,-87.89676,4,1,0,90,0,0
33026,-86.94152,4,1,0,90,0,0
33152,-85.09201,4,1,0,90,0,0
33278,-83.31956,4,1,0,90,0,0
33406,-100,4,1,0,90,0,0
37312,-99.98679,4,1,0,90,0,0
37438,-98.35,4,1,0,90,0,0
37501,-97.55154,4,1,0,90,0,0
37564,-96.765945,4,1,0,90,0,0
37690,-95.2321,4,1,0,90,0,0
37816,-93.74613,4,1,0,90,0,0
37879,-93.02039,4,1,0,90,0,0
37942,-92.30582,4,1,0,90,0,0
38005,-91.60213,4,1,0,90,0,0
38068,-90.909096,4,1,0,90,0,0
38194,-89.54341,4,1,0,90,0,0
38257,-88.881065,4,1,0,90,0,0
38320,-88.22844,4,1,0,90,0,0
38383,-87.59547,4,1,0,90,0,0
38446,-86.96151,4,1,0,90,0,0
38509,-86.33668,4,1,0,90,0,0
38573,-85.71105,4,1,0,90,0,0
38636,-85.10399,4,1,0,90,0,0
38699,-84.50547,4,1,0,90,0,0
38762,-83.915306,4,1,0,90,0,0
38825,-83.33333,4,1,0,90,0,0
38857,-100,4,1,0,50,0,0
39077,-85.49739,4,1,0,50,0,0
39298,-111.111111111111,4,1,0,70,0,0
39329,-87.77683,4,1,0,70,0,0
39455,-88.96276,4,1,0,70,0,0
39581,-90.18117,4,1,0,70,0,0
39707,-91.433395,4,1,0,70,0,0
39833,-92.72091,4,1,0,70,0,0
39959,-94.04519,4,1,0,70,0,0
40085,-95.407845,4,1,0,70,0,0
40211,-96.810585,4,1,0,70,0,0
40337,-98.25517,4,1,0,70,0,0
40589,-101.27767,4,1,0,70,0,0
40715,-102.85974,4,1,0,70,0,0
40841,-104.49202,4,1,0,70,0,0
41094,-107.93115,4,1,0,70,0,0
41220,-109.72976,4,1,0,70,0,0
41283,-110.65173,4,1,0,70,0,0
41315,-111.111111111111,4,1,0,75,0,0
48909,-111.085014,4,1,0,75,0,0
49161,-104.878044,4,1,0,75,0,0
49287,-102.02761,4,1,0,75,0,0
49382,-86.9565217391304,4,1,0,80,0,0
49666,-100,4,1,0,80,0,0
51431,-86.9565217391304,4,1,0,80,0,0
51809,-100,4,1,0,80,0,0
52439,-86.9565217391304,4,1,0,80,0,0
52691,-100,4,1,0,80,0,0
53447,-86.9565217391304,4,1,0,80,0,0
53700,-100,4,1,0,80,0,0
54456,-86.9565217391304,4,1,0,80,0,0
54708,-100,4,1,0,80,0,0
55464,-86.9565217391304,4,1,0,80,0,0
55716,-100,4,1,0,80,0,0
56473,-86.9565217391304,4,1,0,80,0,0
56662,-74.0740740740741,4,1,0,80,0,0
56945,-100,4,1,0,80,0,0
57039,-98.7654320987654,4,1,0,80,0,0
57102,-97.5609756097561,4,1,0,80,0,0
57165,-96.3855421686747,4,1,0,80,0,0
57228,-95.2380952380952,4,1,0,80,0,0
57291,-94.1176470588235,4,1,0,80,0,0
57354,-93.0232558139535,4,1,0,80,0,0
57417,-91.9540229885057,4,1,0,80,0,0
57481,252.100840336134,7,1,0,85,1,0
57481,-90.9090909090909,7,1,0,85,0,0
58363,252.100840336134,7,1,0,85,1,0
58363,-90.9090909090909,7,1,0,85,0,0
59245,252.100840336134,7,1,0,85,1,0
59245,-90.9090909090909,7,1,0,85,0,0
60127,252.100840336134,7,1,0,85,1,0
60127,-90.9090909090909,7,1,0,85,0,0
61010,378.151260503407,3,1,0,85,1,0
61010,-60.6060606060606,7,1,0,85,0,0
65547,252.100840336134,4,1,0,85,1,1
65547,-76.9230769230769,7,1,0,85,0,1
65609,-77.720207253886,7,1,0,85,0,1
65672,-78.5340314136126,7,1,0,85,0,1
65735,-79.3650793650794,7,1,0,85,0,1
65798,-80.2139037433155,7,1,0,85,0,1
65861,-81.0810810810811,7,1,0,85,0,1
65924,-81.9672131147541,7,1,0,85,0,1
65987,-82.8729281767956,7,1,0,85,0,1
66050,-83.7988826815643,7,1,0,85,0,1
66113,-84.7457627118644,7,1,0,85,0,1
66176,-85.7142857142857,7,1,0,85,0,1
66239,-86.7052023121387,7,1,0,85,0,1
66303,-87.719298245614,7,1,0,85,0,0
66365,-88.7573964497041,7,1,0,85,0,0
66428,-89.8203592814371,7,1,0,85,0,0
66492,252.100840336134,4,1,0,85,1,1
66492,-76.9230769230769,4,1,0,85,0,1
66554,-77.720207253886,4,1,0,85,0,1
66617,-78.5340314136126,4,1,0,85,0,1
66680,-79.3650793650794,4,1,0,85,0,1
66743,-80.2139037433155,4,1,0,85,0,1
66806,-81.0810810810811,4,1,0,85,0,1
66869,-81.9672131147541,4,1,0,85,0,1
66932,-82.8729281767956,4,1,0,85,0,1
66995,-83.7988826815643,4,1,0,85,0,1
67058,-84.7457627118644,4,1,0,85,0,1
67121,-85.7142857142857,4,1,0,85,0,1
67184,-86.7052023121387,4,1,0,85,0,1
67248,-87.719298245614,4,1,0,85,0,1
67310,-88.7573964497041,4,1,0,85,0,1
67373,-89.8203592814371,4,1,0,85,0,1
67437,252.100840336134,4,1,0,85,1,0
67437,-90.9090909090909,4,1,0,85,0,0
68382,252.100840336134,4,1,0,85,1,0
68382,-90.9090909090909,4,1,0,85,0,0
69327,252.100840336134,7,1,0,85,1,0
69327,-90.9090909090909,4,1,0,85,0,0
70209,252.100840336134,7,1,0,85,1,0
70209,-90.9090909090909,4,1,0,85,0,0
71091,252.100840336134,7,1,0,85,1,0
71091,-90.9090909090909,4,1,0,85,0,0
71973,252.100840336134,7,1,0,85,1,0
71973,-80,4,1,0,85,0,0
72854,-100,4,1,0,85,0,0
72980,-105.263157894737,4,1,0,85,0,0
73076,-111.111111111111,7,1,0,80,0,0
73108,252.100840336134,3,1,0,80,1,0
73108,-111.111111111111,3,1,0,80,0,0
73139,-111.111111111111,3,1,0,75,0,0
79126,-90.9090909090909,3,1,0,85,0,0
79157,-95.22954,3,1,0,85,0,0
79283,-94.16243,3,1,0,85,0,0
79409,-93.11897,3,1,0,85,0,0
79535,-92.098404,3,1,0,85,0,0
79913,-89.16662,3,1,0,85,0,0
80039,-88.23039,3,1,0,85,0,0
80165,-87.31364,3,1,0,85,0,0
80291,-86.415726,3,1,0,85,0,0
80670,-83.82286,3,1,0,85,0,0
80796,-82.99497,3,1,0,85,0,0
80922,-82.18328,3,1,0,85,0,0
81048,-81.38731,3,1,0,85,0,0
81426,-79.089294,3,1,0,85,0,0
81552,-78.35186,3,1,0,85,0,0
81678,-77.62805,3,1,0,85,0,0
81804,-76.91749,3,1,0,85,0,0
82152,-100,3,1,0,70,0,0
84421,-100.01322926313,3,1,0,80,0,0
84452,-100,3,1,0,80,0,0
84514,-99.1865652059827,3,1,0,80,0,0
84577,-98.3734547820429,3,1,0,80,0,0
84640,-97.5735673722251,3,1,0,80,0,0
84703,-96.7865830239406,3,1,0,80,0,0
84766,-96.012192024384,3,1,0,80,0,0
84829,-95.2500944941414,3,1,0,80,0,0
84892,-94.5,3,1,0,80,0,0
84955,-93.7616271859109,3,1,0,80,0,0
85018,-93.0347034211174,3,1,0,80,0,0
85081,-92.3189644645256,3,1,0,80,0,0
85144,-91.6141541444498,3,1,0,80,0,0
85177,-100,3,1,0,90,0,0
85208,-90.9200240529164,3,1,0,90,0,1
96552,-90.9090909090909,3,1,0,90,0,1
96678,-92.3076923076923,3,1,0,90,0,1
96804,-93.75,3,1,0,90,0,1
96867,-94.488188976378,3,1,0,90,0,1
96930,-95.2380952380952,3,1,0,90,0,1
97056,-96.7741935483871,3,1,0,90,0,1
97119,-97.5609756097561,3,1,0,90,0,1
97182,-98.3606557377049,3,1,0,90,0,1
97245,-99.1735537190083,3,1,0,90,0,1
97309,252.100840336134,4,1,0,90,1,0
97309,-100,4,1,0,90,0,0
97340,-83.3333333333333,4,1,0,80,0,0
98317,-80,4,1,0,90,0,1
98442,-82.19178,4,1,0,90,0,1
98568,-84.50705,4,1,0,90,0,1
98695,-86.95651,4,1,0,90,0,0
98727,-100.039698292973,4,1,0,80,0,0
99198,-95.2741020793951,4,1,0,80,0,0
99294,-100,4,1,0,90,0,0
99325,-90.9418982316853,4,1,0,90,0,1
104618,-90.941895,4,1,0,90,0,1
104681,-90.59634,4,1,0,90,0,1
104744,-90.253395,4,1,0,90,0,1
104807,-89.91303,4,1,0,90,0,1
104871,-89.5699,4,1,0,90,0,1
104934,-89.234665,4,1,0,90,0,1
104997,-88.901924,4,1,0,90,0,1
105060,-88.57168,4,1,0,90,0,1
105123,-88.24386,4,1,0,90,0,1
105186,-87.91847,4,1,0,90,0,1
105249,-87.59546,4,1,0,90,0,1
105312,-87.27482,4,1,0,90,0,1
105375,-86.95651,4,1,0,90,0,1
109408,-86.95152,4,1,0,90,0,1
109471,-86.638054,4,1,0,90,0,1
109534,-86.326836,4,1,0,90,0,1
109597,-86.01784,4,1,0,90,0,1
109660,-85.71105,4,1,0,90,0,1
109723,-85.40644,4,1,0,90,0,1
109786,-85.10399,4,1,0,90,0,1
109850,-84.79892,4,1,0,90,0,1
109913,-84.500755,4,1,0,90,0,1
109976,-84.204666,4,1,0,90,0,1
110039,-83.91066,4,1,0,90,0,1
110102,-83.61869,4,1,0,90,0,1
110165,-83.32874,4,1,0,90,0,1
110228,-83.04081,4,1,0,90,0,1
110291,-82.75485,4,1,0,90,0,1
110354,-82.470856,4,1,0,90,0,1
110417,-82.188805,4,1,0,90,0,1
110459,-82.00184,4,1,0,90,0,1
110501,-81.81573,4,1,0,90,0,1
110543,-81.63045,4,1,0,90,0,1
110606,-81.35411,4,1,0,90,0,1
110669,-81.07963,4,1,0,90,0,1
110711,-80.897675,4,1,0,90,0,1
110753,-80.71654,4,1,0,90,0,1
110795,-80.5362,4,1,0,90,0,1
110858,-80.267204,4,1,0,90,0,1
110922,-80,4,1,0,90,0,0
110953,-100,4,1,0,50,0,0
111173,-82.30359,4,1,0,88,0,0
111395,-111.111111111111,4,1,0,70,0,0
111425,-84.74377,4,1,0,70,0,0
111551,-86.018936,4,1,0,70,0,0
111677,-87.33308,4,1,0,70,0,0
111803,-88.68797,4,1,0,70,0,0
111929,-90.08559,4,1,0,70,0,0
112055,-91.52794,4,1,0,70,0,0
112181,-93.01725,4,1,0,70,0,0
112307,-94.555824,4,1,0,70,0,0
112434,-96.15899,4,1,0,70,0,0
112686,-99.50661,4,1,0,70,0,0
112812,-101.26939,4,1,0,70,0,0
112938,-103.09573,4,1,0,70,0,0
113190,-106.95347,4,1,0,70,0,0
113442,-111.111115,4,1,0,70,0,0
119966,-100,4,1,0,75,0,0
120470,-86.9565217391304,4,1,0,85,0,0
122013,-86.95651,4,1,0,85,0,0
122139,-86.02333,4,1,0,85,0,0
122265,-85.10997,4,1,0,85,0,0
122392,-84.20877,4,1,0,85,0,0
122518,-83.33333,4,1,0,85,0,0
124030,-83.33333,4,1,0,85,0,0
124156,-84.212296,4,1,0,85,0,0
124282,-85.10998,4,1,0,85,0,0
124408,-86.02702,4,1,0,85,0,0
124534,-86.964035,4,1,0,85,0,0
124660,-85.5723927161594,4,1,0,85,0,0
124723,-84.8913592723598,4,1,0,85,0,0
124786,-84.2210803358817,4,1,0,85,0,0
124850,-83.5509138381201,4,1,0,85,0,0
124913,-82.9015544041451,4,1,0,85,0,0
125039,-81.6326530612245,4,1,0,85,0,0
125102,-81.0126582278481,4,1,0,85,0,0
125165,-80.4020100502513,4,1,0,85,0,0
125228,-79.8004987531172,4,1,0,85,0,0
125291,-79.2079207920792,4,1,0,85,0,0
125333,-78.8177339901478,4,1,0,85,0,0
125375,-78.4313725490196,4,1,0,85,0,0
125417,-78.0487804878049,4,1,0,85,0,0
125480,-77.4818401937046,4,1,0,85,0,0
125543,-68.9655172413793,4,1,0,85,0,0
126047,-76.914281358387,4,1,0,85,0,0
126551,-86.92508,4,1,0,85,0,0
126677,-85.8102,4,1,0,85,0,0
126929,-83.664116,4,1,0,85,0,0
127055,-82.63083,4,1,0,85,0,0
127307,-80.63897,4,1,0,85,0,0
127434,-79.67109,4,1,0,85,0,0
127686,-77.81778,4,1,0,85,0,0
127812,-76.935326,4,1,0,85,0,0
128064,-80.15035,4,1,0,85,0,0
128190,-81.86078,4,1,0,85,0,0
128316,-83.6458,4,1,0,85,0,0
128442,-85.5104,4,1,0,85,0,0
128537,-86.9565217391304,4,1,0,75,0,0
130585,-74.078354,4,1,0,75,0,0
130711,-100,4,1,0,73,0,0
130837,-100,4,1,0,71,0,0
130963,-100,4,1,0,69,0,0
131089,-100,4,1,0,68,0,0
131215,-100,4,1,0,66,0,0
131341,-100,4,1,0,64,0,0
131467,-100,4,1,0,62,0,0
131593,-78.65444,4,1,0,60,0,0
131719,-100,4,1,0,58,0,0
131845,-100,4,1,0,56,0,0
131971,-100,4,1,0,54,0,0
132097,-100,4,1,0,53,0,0
132223,-100,4,1,0,51,0,0
132350,-100,4,1,0,49,0,0
132476,-100,4,1,0,47,0,0
132602,-83.8386,4,1,0,45,0,0
132728,-100,4,1,0,43,0,0
132854,-100,4,1,0,41,0,0
132980,-100,4,1,0,39,0,0
133106,-100,4,1,0,37,0,0
133232,-100,4,1,0,36,0,0
133358,-100,4,1,0,34,0,0
133484,-100,4,1,0,32,0,0
133610,-89.74808,4,1,0,30,0,0
133736,-100,4,1,0,28,0,0
133862,-100,4,1,0,26,0,0
133988,-100,4,1,0,24,0,0
134114,-100,4,1,0,22,0,0
134240,-100,4,1,0,21,0,0
134366,-100,4,1,0,19,0,0
134492,-100,4,1,0,17,0,0
134618,-96.5538,4,1,0,15,0,0
134871,-100,4,1,0,14,0,0
135123,-100,4,1,0,13,0,0
135375,-100,4,1,0,12,0,0
135627,-104.4849,4,1,0,12,0,0
135879,-100,4,1,0,11,0,0
136131,-100,4,1,0,10,0,0
136383,-100,4,1,0,9,0,0
136635,-113.82547,4,1,0,8,0,0
136887,-100,4,1,0,8,0,0
137139,-100,4,1,0,7,0,0
137392,-100,4,1,0,6,0,0
137644,-125.012184,4,1,0,5,0,0

[HitObjects]
256,192,506,5,0,0:0:0:0:
256,192,632,1,8,0:0:0:0:
256,192,758,1,0,0:0:0:0:
256,192,884,1,0,0:0:0:0:
256,192,1011,1,8,0:0:0:0:
256,192,1137,1,0,0:0:0:0:
256,192,1263,1,8,0:0:0:0:
256,192,1389,1,8,0:0:0:0:
256,192,1641,1,0,0:0:0:0:
256,192,1893,1,0,0:0:0:0:
256,192,2019,1,8,0:0:0:0:
256,192,2145,1,0,0:0:0:0:
256,192,2271,1,0,0:0:0:0:
256,192,2397,1,8,0:0:0:0:
256,192,2523,1,0,0:0:0:0:
256,192,2775,1,0,0:0:0:0:
256,192,3027,1,8,0:0:0:0:
256,192,3153,1,0,0:0:0:0:
256,192,3279,1,0,0:0:0:0:
256,192,3405,1,0,0:0:0:0:
256,192,3532,1,8,0:0:0:0:
256,192,3784,1,8,0:0:0:0:
256,192,3910,1,8,0:0:0:0:
256,192,4036,1,0,0:0:0:0:
256,192,4288,1,0,0:0:0:0:
256,192,4351,1,0,0:0:0:0:
256,192,4414,1,0,0:0:0:0:
256,192,4540,1,8,0:0:0:0:
256,192,4792,1,0,0:0:0:0:
256,192,4918,1,0,0:0:0:0:
384,96,5044,1,12,0:0:0:0:
256,192,5296,1,8,0:0:0:0:
256,192,5422,1,0,0:0:0:0:
256,192,5674,1,0,0:0:0:0:
256,192,5800,1,8,0:0:0:0:
384,96,5926,1,4,0:0:0:0:
256,192,6179,1,8,0:0:0:0:
256,192,6305,1,0,0:0:0:0:
384,96,6557,1,4,0:0:0:0:
256,192,6683,1,8,0:0:0:0:
256,192,6809,1,8,0:0:0:0:
256,192,6872,1,8,0:0:0:0:
256,192,6935,1,8,0:0:0:0:
384,96,7061,1,4,0:0:0:0:
384,96,7565,1,4,0:0:0:0:
384,96,8069,1,12,0:0:0:0:
256,192,8132,8,0,8952,0:0:0:0:
384,96,9078,5,4,0:0:0:0:
256,192,9330,1,0,0:0:0:0:
256,192,9456,1,8,0:0:0:0:
256,192,9519,1,8,0:0:0:0:
256,192,9582,1,0,0:0:0:0:
256,192,9708,1,8,0:0:0:0:
256,192,9834,1,0,0:0:0:0:
256,192,9960,1,0,0:0:0:0:
256,192,10086,1,8,0:0:0:0:
256,192,10212,1,0,0:0:0:0:
256,192,10275,1,0,0:0:0:0:
256,192,10338,1,8,0:0:0:0:
256,192,10464,1,0,0:0:0:0:
256,192,10590,1,8,0:0:0:0:
256,192,10653,1,0,0:0:0:0:
256,192,10716,1,8,0:0:0:0:
256,192,10779,1,8,0:0:0:0:
256,192,10842,1,0,0:0:0:0:
256,192,10968,1,8,0:0:0:0:
256,192,11095,1,0,0:0:0:0:
256,192,11221,1,8,0:0:0:0:
256,192,11284,1,0,0:0:0:0:
256,192,11347,1,8,0:0:0:0:
256,192,11473,1,8,0:0:0:0:
256,192,11599,1,0,0:0:0:0:
256,192,11725,1,0,0:0:0:0:
256,192,11788,1,8,0:0:0:0:
256,192,11851,1,8,0:0:0:0:
256,192,11914,1,8,0:0:0:0:
256,192,11977,1,0,0:0:0:0:
384,96,12103,1,12,0:0:0:0:
256,192,12229,1,0,0:0:0:0:
256,192,12355,1,8,0:0:0:0:
256,192,12481,1,8,0:0:0:0:
256,192,12607,1,8,0:0:0:0:
256,192,12733,1,0,0:0:0:0:
256,192,12859,1,0,0:0:0:0:
256,192,12985,1,8,0:0:0:0:
384,96,13111,1,4,0:0:0:0:
256,192,13363,1,0,0:0:0:0:
256,192,13489,1,8,0:0:0:0:
256,192,13553,1,8,0:0:0:0:
256,192,13616,1,0,0:0:0:0:
256,192,13742,1,8,0:0:0:0:
256,192,13868,1,0,0:0:0:0:
256,192,13994,1,0,0:0:0:0:
256,192,14120,1,8,0:0:0:0:
256,192,14246,1,0,0:0:0:0:
256,192,14309,1,0,0:0:0:0:
256,192,14372,1,8,0:0:0:0:
256,192,14498,1,8,0:0:0:0:
256,192,14624,1,0,0:0:0:0:
256,192,14750,1,0,0:0:0:0:
256,192,14813,1,0,0:0:0:0:
256,192,14876,1,8,0:0:0:0:
256,192,14939,1,8,0:0:0:0:
256,192,15002,1,8,0:0:0:0:
256,192,15065,1,8,0:0:0:0:
256,192,15128,1,0,0:0:0:0:
256,192,15254,1,8,0:0:0:0:
256,192,15380,1,0,0:0:0:0:
256,192,15506,1,8,0:0:0:0:
256,192,15569,1,8,0:0:0:0:
256,192,15632,1,0,0:0:0:0:
256,192,15758,1,0,0:0:0:0:
256,192,15821,1,0,0:0:0:0:
256,192,15884,1,8,0:0:0:0:
256,192,16010,1,8,0:0:0:0:
384,96,16137,1,4,0:0:0:0:
256,192,16263,1,8,0:0:0:0:
256,192,16389,1,8,0:0:0:0:
256,192,16515,1,0,0:0:0:0:
256,192,16641,1,8,0:0:0:0:
256,192,16767,1,0,0:0:0:0:
256,192,16893,1,8,0:0:0:0:
384,96,17145,1,4,0:0:0:0:
256,192,17397,1,8,0:0:0:0:
256,192,17523,1,0,0:0:0:0:
256,192,17586,1,0,0:0:0:0:
256,192,17649,1,8,0:0:0:0:
256,192,17775,1,8,0:0:0:0:
256,192,17901,1,0,0:0:0:0:
256,192,18027,1,8,0:0:0:0:
256,192,18153,1,0,0:0:0:0:
256,192,18279,1,0,0:0:0:0:
256,192,18342,1,8,0:0:0:0:
256,192,18405,1,8,0:0:0:0:
256,192,18532,1,0,0:0:0:0:
256,192,18658,1,8,0:0:0:0:
256,192,18784,1,0,0:0:0:0:
256,192,18847,1,0,0:0:0:0:
256,192,18910,1,8,0:0:0:0:
256,192,18973,1,8,0:0:0:0:
256,192,19036,1,0,0:0:0:0:
256,192,19162,1,0,0:0:0:0:
256,192,19288,1,8,0:0:0:0:
256,192,19351,1,8,0:0:0:0:
256,192,19414,1,0,0:0:0:0:
256,192,19540,1,8,0:0:0:0:
256,192,19666,1,0,0:0:0:0:
256,192,19792,1,8,0:0:0:0:
256,192,19918,1,0,0:0:0:0:
256,192,19981,1,0,0:0:0:0:
256,192,20044,1,0,0:0:0:0:
384,96,20170,1,12,0:0:0:0:
256,192,20296,1,0,0:0:0:0:
256,192,20422,1,8,0:0:0:0:
256,192,20548,1,8,0:0:0:0:
256,192,20674,1,8,0:0:0:0:
256,192,20800,1,0,0:0:0:0:
256,192,20926,1,8,0:0:0:0:
256,192,21053,1,8,0:0:0:0:
384,96,21179,1,4,0:0:0:0:
256,192,21431,1,8,0:0:0:0:
256,192,21557,1,0,0:0:0:0:
256,192,21620,1,0,0:0:0:0:
256,192,21683,1,8,0:0:0:0:
256,192,21809,1,8,0:0:0:0:
256,192,21935,1,0,0:0:0:0:
256,192,22061,1,8,0:0:0:0:
256,192,22187,1,0,0:0:0:0:
256,192,22313,1,0,0:0:0:0:
256,192,22376,1,0,0:0:0:0:
256,192,22439,1,8,0:0:0:0:
256,192,22502,1,8,0:0:0:0:
256,192,22565,1,8,0:0:0:0:
256,192,22628,1,8,0:0:0:0:
256,192,22691,1,0,0:0:0:0:
256,192,22817,1,8,0:0:0:0:
256,192,22880,1,8,0:0:0:0:
256,192,22943,1,8,0:0:0:0:
256,192,23069,1,8,0:0:0:0:
384,96,23195,1,4,0:0:0:0:
384,96,23321,1,4,0:0:0:0:
384,96,23574,1,4,0:0:0:0:
384,96,23700,1,12,0:0:0:0:
384,96,23952,1,12,0:0:0:0:
384,96,24078,1,12,0:0:0:0:
384,96,24330,1,12,0:0:0:0:
384,96,24456,1,4,0:0:0:0:
384,96,24582,1,12,0:0:0:0:
384,96,24708,1,4,0:0:0:0:
256,192,24960,1,0,0:0:0:0:
256,192,25086,1,0,0:0:0:0:
384,96,25212,1,12,0:0:0:0:
256,192,25464,1,8,0:0:0:0:
256,192,25590,1,0,0:0:0:0:
256,192,25653,1,0,0:0:0:0:
256,192,25716,1,8,0:0:0:0:
256,192,25842,1,0,0:0:0:0:
256,192,25968,1,8,0:0:0:0:
256,192,26095,1,8,0:0:0:0:
256,192,26221,1,0,0:0:0:0:
256,192,26284,1,8,0:0:0:0:
256,192,26347,1,0,0:0:0:0:
256,192,26410,1,0,0:0:0:0:
256,192,26473,1,8,0:0:0:0:
256,192,26599,1,8,0:0:0:0:
256,192,26725,1,0,0:0:0:0:
256,192,26977,1,8,0:0:0:0:
256,192,27103,1,0,0:0:0:0:
256,192,27166,1,0,0:0:0:0:
256,192,27229,1,8,0:0:0:0:
256,192,27355,1,8,0:0:0:0:
256,192,27481,1,0,0:0:0:0:
256,192,27607,1,8,0:0:0:0:
256,192,27670,1,8,0:0:0:0:
256,192,27733,1,0,0:0:0:0:
256,192,27859,1,0,0:0:0:0:
256,192,27985,1,8,0:0:0:0:
256,192,28111,1,8,0:0:0:0:
256,192,28237,1,0,0:0:0:0:
256,192,28300,1,0,0:0:0:0:
256,192,28363,1,8,0:0:0:0:
256,192,28426,1,8,0:0:0:0:
256,192,28489,1,0,0:0:0:0:
256,192,28616,1,8,0:0:0:0:
256,192,28742,1,0,0:0:0:0:
256,192,28868,1,0,0:0:0:0:
256,192,28994,1,8,0:0:0:0:
256,192,29057,1,8,0:0:0:0:
256,192,29120,1,0,0:0:0:0:
256,192,29246,1,8,0:0:0:0:
256,192,29498,1,0,0:0:0:0:
256,192,29624,1,0,0:0:0:0:
256,192,29687,1,0,0:0:0:0:
256,192,29750,1,8,0:0:0:0:
256,192,29876,1,0,0:0:0:0:
256,192,30002,1,8,0:0:0:0:
256,192,30128,1,8,0:0:0:0:
256,192,30254,1,0,0:0:0:0:
256,192,30380,1,8,0:0:0:0:
256,192,30443,1,8,0:0:0:0:
256,192,30506,1,0,0:0:0:0:
256,192,30632,1,0,0:0:0:0:
256,192,30758,1,8,0:0:0:0:
256,192,30884,1,8,0:0:0:0:
256,192,30947,1,0,0:0:0:0:
256,192,31010,1,8,0:0:0:0:
256,192,31137,1,8,0:0:0:0:
256,192,31263,1,0,0:0:0:0:
256,192,31326,1,8,0:0:0:0:
256,192,31389,1,8,0:0:0:0:
256,192,31452,1,8,0:0:0:0:
256,192,31515,1,0,0:0:0:0:
256,192,31641,1,8,0:0:0:0:
256,192,31767,1,0,0:0:0:0:
256,192,31893,1,8,0:0:0:0:
256,192,31956,1,8,0:0:0:0:
256,192,32019,1,0,0:0:0:0:
256,192,32145,1,8,0:0:0:0:
384,96,32271,1,4,0:0:0:0:
256,192,32397,1,8,0:0:0:0:
256,192,32460,1,0,0:0:0:0:
256,192,32523,1,8,0:0:0:0:
256,192,32586,1,8,0:0:0:0:
256,192,32649,1,0,0:0:0:0:
256,192,32712,1,0,0:0:0:0:
256,192,32775,1,8,0:0:0:0:
256,192,32901,1,0,0:0:0:0:
256,192,32964,1,0,0:0:0:0:
256,192,33027,1,8,0:0:0:0:
256,192,33153,1,0,0:0:0:0:
384,96,33279,1,12,0:0:0:0:
256,192,33532,1,8,0:0:0:0:
256,192,33658,1,0,0:0:0:0:
256,192,33784,1,8,0:0:0:0:
256,192,33847,1,8,0:0:0:0:
256,192,33910,1,0,0:0:0:0:
256,192,33973,1,8,0:0:0:0:
256,192,34036,1,8,0:0:0:0:
256,192,34099,1,8,0:0:0:0:
256,192,34162,1,0,0:0:0:0:
256,192,34288,1,8,0:0:0:0:
256,192,34414,1,0,0:0:0:0:
256,192,34477,1,8,0:0:0:0:
256,192,34540,1,0,0:0:0:0:
256,192,34666,1,8,0:0:0:0:
256,192,34792,1,0,0:0:0:0:
256,192,34918,1,8,0:0:0:0:
256,192,34981,1,0,0:0:0:0:
256,192,35044,1,8,0:0:0:0:
256,192,35107,1,8,0:0:0:0:
256,192,35170,1,0,0:0:0:0:
256,192,35296,1,8,0:0:0:0:
256,192,35548,1,0,0:0:0:0:
256,192,35674,1,8,0:0:0:0:
256,192,35737,1,8,0:0:0:0:
256,192,35800,1,0,0:0:0:0:
256,192,35926,1,0,0:0:0:0:
256,192,36053,1,8,0:0:0:0:
256,192,36116,1,8,0:0:0:0:
256,192,36179,1,0,0:0:0:0:
256,192,36242,1,0,0:0:0:0:
256,192,36305,1,8,0:0:0:0:
256,192,36431,1,0,0:0:0:0:
256,192,36557,1,8,0:0:0:0:
256,192,36683,1,0,0:0:0:0:
256,192,36746,1,8,0:0:0:0:
256,192,36809,1,0,0:0:0:0:
256,192,36935,1,0,0:0:0:0:
256,192,37061,1,8,0:0:0:0:
256,192,37124,1,8,0:0:0:0:
256,192,37187,1,8,0:0:0:0:
384,96,37313,1,12,0:0:0:0:
256,192,37439,1,0,0:0:0:0:
256,192,37502,1,0,0:0:0:0:
256,192,37565,1,8,0:0:0:0:
256,192,37691,1,0,0:0:0:0:
256,192,37817,1,8,0:0:0:0:
256,192,37943,1,8,0:0:0:0:
256,192,38006,1,8,0:0:0:0:
256,192,38069,1,0,0:0:0:0:
256,192,38195,1,0,0:0:0:0:
256,192,38321,1,8,0:0:0:0:
256,192,38384,1,8,0:0:0:0:
256,192,38447,1,0,0:0:0:0:
256,192,38510,1,0,0:0:0:0:
256,192,38574,1,8,0:0:0:0:
256,192,38637,1,0,0:0:0:0:
256,192,38700,1,0,0:0:0:0:
256,192,38763,1,0,0:0:0:0:
256,192,38826,1,8,0:0:0:0:
256,192,39078,1,8,0:0:0:0:
256,192,39330,1,0,0:0:0:0:
256,192,39456,1,0,0:0:0:0:
256,192,39582,1,0,0:0:0:0:
256,192,39708,1,8,0:0:0:0:
256,192,39834,1,0,0:0:0:0:
256,192,39960,1,8,0:0:0:0:
256,192,40086,1,0,0:0:0:0:
256,192,40212,1,0,0:0:0:0:
256,192,40338,1,8,0:0:0:0:
256,192,40590,1,0,0:0:0:0:
256,192,40716,1,8,0:0:0:0:
256,192,40842,1,0,0:0:0:0:
256,192,41095,1,8,0:0:0:0:
256,192,41221,1,8,0:0:0:0:
256,192,41284,1,8,0:0:0:0:
256,192,41347,1,0,0:0:0:0:
256,192,41599,1,0,0:0:0:0:
256,192,41662,1,0,0:0:0:0:
256,192,41725,1,0,0:0:0:0:
256,192,41788,1,0,0:0:0:0:
256,192,41851,1,8,0:0:0:0:
256,192,42103,1,0,0:0:0:0:
256,192,42355,1,8,0:0:0:0:
256,192,42607,1,8,0:0:0:0:
256,192,42733,1,8,0:0:0:0:
256,192,42859,1,0,0:0:0:0:
256,192,43111,1,0,0:0:0:0:
256,192,43174,1,0,0:0:0:0:
256,192,43237,1,0,0:0:0:0:
256,192,43300,1,0,0:0:0:0:
256,192,43363,1,8,0:0:0:0:
256,192,43489,1,8,0:0:0:0:
256,192,43616,1,0,0:0:0:0:
256,192,43742,1,0,0:0:0:0:
256,192,43868,1,8,0:0:0:0:
256,192,44120,1,0,0:0:0:0:
256,192,44246,1,0,0:0:0:0:
256,192,44372,1,8,0:0:0:0:
256,192,44624,1,8,0:0:0:0:
256,192,44687,1,8,0:0:0:0:
256,192,44750,1,8,0:0:0:0:
256,192,44813,1,8,0:0:0:0:
256,192,44876,1,0,0:0:0:0:
256,192,45128,1,8,0:0:0:0:
256,192,45254,1,0,0:0:0:0:
256,192,45317,1,0,0:0:0:0:
256,192,45380,1,8,0:0:0:0:
256,192,45632,1,8,0:0:0:0:
256,192,45758,1,0,0:0:0:0:
256,192,45884,1,8,0:0:0:0:
256,192,46137,1,0,0:0:0:0:
256,192,46389,1,0,0:0:0:0:
256,192,46515,1,0,0:0:0:0:
256,192,46641,1,8,0:0:0:0:
256,192,46767,1,8,0:0:0:0:
256,192,46893,1,0,0:0:0:0:
256,192,47145,1,0,0:0:0:0:
256,192,47208,1,0,0:0:0:0:
256,192,47271,1,0,0:0:0:0:
256,192,47334,1,0,0:0:0:0:
256,192,47397,1,8,0:0:0:0:
256,192,47523,1,8,0:0:0:0:
256,192,47649,1,0,0:0:0:0:
256,192,47775,1,8,0:0:0:0:
256,192,47901,1,0,0:0:0:0:
256,192,48027,1,0,0:0:0:0:
256,192,48153,1,8,0:0:0:0:
256,192,48279,1,8,0:0:0:0:
256,192,48405,1,0,0:0:0:0:
256,192,48658,1,0,0:0:0:0:
256,192,48784,1,8,0:0:0:0:
256,192,48847,1,8,0:0:0:0:
256,192,48910,1,0,0:0:0:0:
256,192,49162,1,0,0:0:0:0:
256,192,49288,1,0,0:0:0:0:
384,96,49414,1,12,0:0:0:0:
256,192,49666,1,8,0:0:0:0:
256,192,49792,1,8,0:0:0:0:
256,192,49918,1,0,0:0:0:0:
256,192,50170,1,0,0:0:0:0:
256,192,50422,1,8,0:0:0:0:
256,192,50674,1,0,0:0:0:0:
256,192,50800,1,8,0:0:0:0:
256,192,50926,1,0,0:0:0:0:
256,192,51179,1,0,0:0:0:0:
256,192,51305,1,0,0:0:0:0:
384,96,51431,1,12,0:0:0:0:
256,192,51809,1,0,0:0:0:0:
256,192,51935,1,8,0:0:0:0:
256,192,52061,1,8,0:0:0:0:
256,192,52187,1,0,0:0:0:0:
384,96,52439,1,4,0:0:0:0:
256,192,52691,1,8,0:0:0:0:
256,192,52754,1,8,0:0:0:0:
256,192,52817,1,0,0:0:0:0:
256,192,52943,1,8,0:0:0:0:
256,192,53195,1,0,0:0:0:0:
256,192,53321,1,0,0:0:0:0:
384,96,53447,1,12,0:0:0:0:
256,192,53700,1,8,0:0:0:0:
256,192,53826,1,8,0:0:0:0:
256,192,53952,1,0,0:0:0:0:
256,192,54204,1,8,0:0:0:0:
384,96,54456,1,4,0:0:0:0:
256,192,54708,1,8,0:0:0:0:
256,192,54834,1,0,0:0:0:0:
256,192,54960,1,8,0:0:0:0:
256,192,55212,1,8,0:0:0:0:
256,192,55338,1,8,0:0:0:0:
384,96,55464,1,4,0:0:0:0:
256,192,55716,1,0,0:0:0:0:
256,192,55842,1,0,0:0:0:0:
256,192,55968,1,8,0:0:0:0:
256,192,56221,1,8,0:0:0:0:
256,192,56347,1,8,0:0:0:0:
384,96,56473,1,4,0:0:0:0:
384,96,56599,1,4,0:0:0:0:
256,192,56977,5,0,0:0:0:0:
256,192,57040,1,0,0:0:0:0:
256,192,57103,1,8,0:0:0:0:
256,192,57166,1,0,0:0:0:0:
256,192,57229,1,8,0:0:0:0:
256,192,57292,1,8,0:0:0:0:
256,192,57355,1,8,0:0:0:0:
384,96,57481,1,12,0:0:0:0:
256,192,57607,1,0,0:0:0:0:
256,192,57670,1,0,0:0:0:0:
256,192,57733,1,8,0:0:0:0:
256,192,57859,1,0,0:0:0:0:
256,192,57922,1,0,0:0:0:0:
256,192,57985,1,8,0:0:0:0:
256,192,58048,1,8,0:0:0:0:
256,192,58111,1,0,0:0:0:0:
256,192,58237,1,0,0:0:0:0:
256,192,58363,1,8,0:0:0:0:
256,192,58426,1,8,0:0:0:0:
256,192,58489,1,0,0:0:0:0:
256,192,58552,1,8,0:0:0:0:
256,192,58615,1,0,0:0:0:0:
256,192,58741,1,8,0:0:0:0:
256,192,58804,1,0,0:0:0:0:
256,192,58867,1,0,0:0:0:0:
256,192,58930,1,0,0:0:0:0:
256,192,58993,1,8,0:0:0:0:
256,192,59119,1,0,0:0:0:0:
256,192,59245,1,8,0:0:0:0:
256,192,59308,1,8,0:0:0:0:
256,192,59371,1,0,0:0:0:0:
256,192,59434,1,0,0:0:0:0:
256,192,59497,1,8,0:0:0:0:
256,192,59623,1,0,0:0:0:0:
256,192,59686,1,0,0:0:0:0:
256,192,59749,1,8,0:0:0:0:
256,192,59812,1,8,0:0:0:0:
256,192,59875,1,8,0:0:0:0:
256,192,60001,1,0,0:0:0:0:
256,192,60127,1,8,0:0:0:0:
256,192,60190,1,8,0:0:0:0:
256,192,60253,1,0,0:0:0:0:
256,192,60379,1,8,0:0:0:0:
256,192,60442,1,0,0:0:0:0:
256,192,60505,1,0,0:0:0:0:
256,192,60568,1,0,0:0:0:0:
256,192,60631,1,8,0:0:0:0:
256,192,60694,1,8,0:0:0:0:
256,192,60757,1,0,0:0:0:0:
256,192,60883,1,0,0:0:0:0:
256,192,61010,1,8,0:0:0:0:
256,192,61073,1,8,0:0:0:0:
256,192,61136,1,0,0:0:0:0:
256,192,61199,1,0,0:0:0:0:
256,192,61262,1,8,0:0:0:0:
256,192,61388,1,0,0:0:0:0:
256,192,61514,1,8,0:0:0:0:
256,192,61577,1,0,0:0:0:0:
256,192,61640,1,8,0:0:0:0:
256,192,61703,1,0,0:0:0:0:
256,192,61766,1,8,0:0:0:0:
256,192,61829,1,8,0:0:0:0:
256,192,61892,1,0,0:0:0:0:
256,192,62018,1,0,0:0:0:0:
256,192,62144,1,8,0:0:0:0:
256,192,62207,1,0,0:0:0:0:
256,192,62270,1,0,0:0:0:0:
256,192,62333,1,0,0:0:0:0:
256,192,62396,1,8,0:0:0:0:
256,192,62522,1,0,0:0:0:0:
256,192,62648,1,0,0:0:0:0:
256,192,62711,1,8,0:0:0:0:
256,192,62774,1,0,0:0:0:0:
256,192,62837,1,0,0:0:0:0:
256,192,62900,1,8,0:0:0:0:
256,192,62963,1,8,0:0:0:0:
256,192,63026,1,0,0:0:0:0:
256,192,63152,1,0,0:0:0:0:
256,192,63278,1,8,0:0:0:0:
256,192,63341,1,8,0:0:0:0:
256,192,63404,1,0,0:0:0:0:
256,192,63467,1,0,0:0:0:0:
256,192,63531,1,8,0:0:0:0:
256,192,63594,1,8,0:0:0:0:
256,192,63657,1,0,0:0:0:0:
256,192,63783,1,0,0:0:0:0:
256,192,63846,1,8,0:0:0:0:
256,192,63909,1,8,0:0:0:0:
256,192,63972,1,8,0:0:0:0:
256,192,64035,1,0,0:0:0:0:
256,192,64098,1,0,0:0:0:0:
256,192,64161,1,8,0:0:0:0:
256,192,64287,1,0,0:0:0:0:
256,192,64413,1,8,0:0:0:0:
256,192,64476,1,8,0:0:0:0:
256,192,64539,1,0,0:0:0:0:
256,192,64602,1,0,0:0:0:0:
256,192,64665,1,8,0:0:0:0:
256,192,64791,1,0,0:0:0:0:
256,192,64917,1,8,0:0:0:0:
256,192,64980,1,8,0:0:0:0:
256,192,65043,1,0,0:0:0:0:
256,192,65106,1,0,0:0:0:0:
256,192,65169,1,8,0:0:0:0:
256,192,65232,1,0,0:0:0:0:
256,192,65295,1,8,0:0:0:0:
256,192,65421,1,0,0:0:0:0:
256,192,65547,1,8,0:0:0:0:
256,192,65610,1,8,0:0:0:0:
256,192,65673,1,8,0:0:0:0:
256,192,65736,1,8,0:0:0:0:
256,192,65799,1,0,0:0:0:0:
256,192,65925,1,8,0:0:0:0:
256,192,65988,1,0,0:0:0:0:
256,192,66051,1,8,0:0:0:0:
256,192,66114,1,0,0:0:0:0:
256,192,66177,1,0,0:0:0:0:
256,192,66240,1,0,0:0:0:0:
256,192,66303,1,8,0:0:0:0:
256,192,66492,1,8,0:0:0:0:
256,192,66555,1,8,0:0:0:0:
256,192,66618,1,8,0:0:0:0:
256,192,66681,1,8,0:0:0:0:
256,192,66744,1,0,0:0:0:0:
256,192,66870,1,8,0:0:0:0:
256,192,66933,1,0,0:0:0:0:
256,192,66996,1,8,0:0:0:0:
256,192,67059,1,0,0:0:0:0:
256,192,67122,1,8,0:0:0:0:
256,192,67185,1,8,0:0:0:0:
256,192,67248,1,0,0:0:0:0:
256,192,67437,1,0,0:0:0:0:
256,192,67563,1,0,0:0:0:0:
256,192,67626,1,8,0:0:0:0:
256,192,67689,1,0,0:0:0:0:
256,192,67815,1,8,0:0:0:0:
256,192,67878,1,8,0:0:0:0:
256,192,67941,1,0,0:0:0:0:
256,192,68067,1,8,0:0:0:0:
256,192,68193,1,0,0:0:0:0:
256,192,68256,1,8,0:0:0:0:
256,192,68319,1,8,0:0:0:0:
256,192,68382,1,0,0:0:0:0:
256,192,68508,1,0,0:0:0:0:
256,192,68571,1,0,0:0:0:0:
256,192,68634,1,8,0:0:0:0:
256,192,68760,1,8,0:0:0:0:
256,192,68886,1,0,0:0:0:0:
256,192,68949,1,0,0:0:0:0:
256,192,69012,1,8,0:0:0:0:
256,192,69138,1,8,0:0:0:0:
256,192,69201,1,0,0:0:0:0:
256,192,69264,1,0,0:0:0:0:
256,192,69327,1,8,0:0:0:0:
256,192,69453,1,8,0:0:0:0:
256,192,69579,1,0,0:0:0:0:
256,192,69705,1,0,0:0:0:0:
256,192,69831,1,8,0:0:0:0:
256,192,69957,1,0,0:0:0:0:
256,192,70020,1,8,0:0:0:0:
256,192,70083,1,0,0:0:0:0:
256,192,70146,1,0,0:0:0:0:
256,192,70209,1,8,0:0:0:0:
256,192,70335,1,0,0:0:0:0:
256,192,70461,1,8,0:0:0:0:
256,192,70587,1,8,0:0:0:0:
256,192,70713,1,0,0:0:0:0:
256,192,70839,1,8,0:0:0:0:
256,192,70902,1,8,0:0:0:0:
256,192,70965,1,0,0:0:0:0:
256,192,71091,1,8,0:0:0:0:
256,192,71217,1,0,0:0:0:0:
256,192,71343,1,8,0:0:0:0:
256,192,71469,1,0,0:0:0:0:
256,192,71532,1,8,0:0:0:0:
256,192,71595,1,0,0:0:0:0:
256,192,71721,1,0,0:0:0:0:
256,192,71847,1,8,0:0:0:0:
384,96,71973,1,4,0:0:0:0:
384,96,72225,1,4,0:0:0:0:
384,96,72351,1,4,0:0:0:0:
384,96,72603,1,4,0:0:0:0:
256,192,72855,1,0,0:0:0:0:
256,192,72981,1,0,0:0:0:0:
384,96,73108,1,12,0:0:0:0:
256,192,73360,1,0,0:0:0:0:
256,192,73423,1,0,0:0:0:0:
256,192,73486,1,0,0:0:0:0:
256,192,73549,1,0,0:0:0:0:
256,192,73612,1,8,0:0:0:0:
256,192,73864,1,8,0:0:0:0:
256,192,74116,1,0,0:0:0:0:
256,192,74368,1,0,0:0:0:0:
256,192,74494,1,0,0:0:0:0:
256,192,74620,1,8,0:0:0:0:
256,192,74872,1,8,0:0:0:0:
256,192,74935,1,8,0:0:0:0:
256,192,74998,1,8,0:0:0:0:
256,192,75061,1,8,0:0:0:0:
256,192,75124,1,0,0:0:0:0:
256,192,75250,1,8,0:0:0:0:
256,192,75376,1,0,0:0:0:0:
256,192,75629,1,8,0:0:0:0:
256,192,75881,1,0,0:0:0:0:
256,192,76007,1,0,0:0:0:0:
256,192,76133,1,8,0:0:0:0:
256,192,76385,1,0,0:0:0:0:
256,192,76448,1,0,0:0:0:0:
256,192,76511,1,0,0:0:0:0:
256,192,76574,1,0,0:0:0:0:
256,192,76637,1,8,0:0:0:0:
256,192,76889,1,0,0:0:0:0:
256,192,77015,1,8,0:0:0:0:
256,192,77078,1,8,0:0:0:0:
256,192,77141,1,0,0:0:0:0:
256,192,77393,1,0,0:0:0:0:
256,192,77519,1,8,0:0:0:0:
256,192,77645,1,0,0:0:0:0:
256,192,77897,1,8,0:0:0:0:
256,192,78023,1,0,0:0:0:0:
256,192,78150,1,8,0:0:0:0:
256,192,78276,1,8,0:0:0:0:
256,192,78402,1,0,0:0:0:0:
256,192,78654,1,0,0:0:0:0:
256,192,78717,1,0,0:0:0:0:
256,192,78780,1,0,0:0:0:0:
256,192,78843,1,0,0:0:0:0:
256,192,78906,1,8,0:0:0:0:
256,192,78969,1,8,0:0:0:0:
256,192,79032,1,8,0:0:0:0:
384,96,79158,1,4,0:0:0:0:
384,96,79284,1,4,0:0:0:0:
384,96,79410,1,4,0:0:0:0:
384,96,79536,1,4,0:0:0:0:
384,96,79914,1,4,0:0:0:0:
384,96,80040,1,12,0:0:0:0:
384,96,80166,1,12,0:0:0:0:
384,96,80292,1,4,0:0:0:0:
384,96,80671,1,12,0:0:0:0:
384,96,80797,1,12,0:0:0:0:
384,96,80923,1,12,0:0:0:0:
384,96,81049,1,4,0:0:0:0:
384,96,81427,1,12,0:0:0:0:
384,96,81553,1,12,0:0:0:0:
384,96,81679,1,12,0:0:0:0:
384,96,81805,1,12,0:0:0:0:
256,192,82183,1,0,0:0:0:0:
256,192,84452,1,0,0:0:0:0:
256,192,84515,1,0,0:0:0:0:
256,192,84578,1,0,0:0:0:0:
256,192,84704,1,8,0:0:0:0:
256,192,84767,1,0,0:0:0:0:
256,192,84830,1,8,0:0:0:0:
256,192,84893,1,8,0:0:0:0:
256,192,84956,1,0,0:0:0:0:
256,192,85019,1,0,0:0:0:0:
256,192,85082,1,8,0:0:0:0:
384,96,85208,1,12,0:0:0:0:
256,192,85460,1,8,0:0:0:0:
256,192,85586,1,8,0:0:0:0:
256,192,85650,1,8,0:0:0:0:
256,192,85713,1,0,0:0:0:0:
256,192,85839,1,0,0:0:0:0:
256,192,85965,1,8,0:0:0:0:
256,192,86091,1,0,0:0:0:0:
256,192,86154,1,0,0:0:0:0:
256,192,86217,1,8,0:0:0:0:
256,192,86343,1,0,0:0:0:0:
256,192,86469,1,0,0:0:0:0:
256,192,86532,1,8,0:0:0:0:
256,192,86595,1,0,0:0:0:0:
256,192,86721,1,8,0:0:0:0:
256,192,86784,1,8,0:0:0:0:
256,192,86847,1,0,0:0:0:0:
256,192,86910,1,0,0:0:0:0:
256,192,86973,1,8,0:0:0:0:
256,192,87099,1,0,0:0:0:0:
256,192,87225,1,8,0:0:0:0:
256,192,87351,1,0,0:0:0:0:
256,192,87414,1,0,0:0:0:0:
256,192,87477,1,8,0:0:0:0:
256,192,87603,1,0,0:0:0:0:
256,192,87729,1,8,0:0:0:0:
256,192,87792,1,8,0:0:0:0:
256,192,87855,1,0,0:0:0:0:
256,192,87981,1,0,0:0:0:0:
256,192,88044,1,0,0:0:0:0:
256,192,88107,1,0,0:0:0:0:
256,192,88171,1,0,0:0:0:0:
256,192,88234,1,8,0:0:0:0:
256,192,88486,1,8,0:0:0:0:
256,192,88612,1,0,0:0:0:0:
256,192,88738,1,8,0:0:0:0:
256,192,88801,1,0,0:0:0:0:
256,192,88864,1,8,0:0:0:0:
256,192,88927,1,8,0:0:0:0:
256,192,88990,1,0,0:0:0:0:
256,192,89116,1,0,0:0:0:0:
256,192,89242,1,8,0:0:0:0:
256,192,89368,1,0,0:0:0:0:
256,192,89431,1,0,0:0:0:0:
256,192,89494,1,8,0:0:0:0:
256,192,89557,1,8,0:0:0:0:
256,192,89620,1,0,0:0:0:0:
256,192,89746,1,8,0:0:0:0:
256,192,89872,1,0,0:0:0:0:
256,192,89935,1,8,0:0:0:0:
256,192,89998,1,0,0:0:0:0:
256,192,90124,1,0,0:0:0:0:
256,192,90250,1,8,0:0:0:0:
256,192,90313,1,8,0:0:0:0:
256,192,90376,1,8,0:0:0:0:
256,192,90439,1,8,0:0:0:0:
256,192,90502,1,0,0:0:0:0:
256,192,90629,1,8,0:0:0:0:
256,192,90692,1,0,0:0:0:0:
256,192,90755,1,8,0:0:0:0:
256,192,90818,1,8,0:0:0:0:
256,192,90881,1,0,0:0:0:0:
256,192,90944,1,0,0:0:0:0:
256,192,91007,1,8,0:0:0:0:
256,192,91133,1,8,0:0:0:0:
384,96,91259,1,4,0:0:0:0:
256,192,91511,1,8,0:0:0:0:
256,192,91637,1,8,0:0:0:0:
256,192,91700,1,8,0:0:0:0:
256,192,91763,1,0,0:0:0:0:
256,192,91889,1,0,0:0:0:0:
256,192,92015,1,8,0:0:0:0:
256,192,92141,1,0,0:0:0:0:
256,192,92204,1,0,0:0:0:0:
256,192,92267,1,8,0:0:0:0:
256,192,92393,1,0,0:0:0:0:
256,192,92519,1,8,0:0:0:0:
256,192,92582,1,8,0:0:0:0:
256,192,92645,1,0,0:0:0:0:
256,192,92708,1,0,0:0:0:0:
256,192,92771,1,8,0:0:0:0:
256,192,92897,1,0,0:0:0:0:
256,192,93023,1,8,0:0:0:0:
256,192,93086,1,8,0:0:0:0:
256,192,93150,1,0,0:0:0:0:
256,192,93276,1,0,0:0:0:0:
256,192,93402,1,0,0:0:0:0:
256,192,93465,1,0,0:0:0:0:
256,192,93528,1,8,0:0:0:0:
256,192,93654,1,0,0:0:0:0:
256,192,93780,1,0,0:0:0:0:
256,192,93843,1,0,0:0:0:0:
256,192,93906,1,0,0:0:0:0:
256,192,93969,1,0,0:0:0:0:
256,192,94032,1,8,0:0:0:0:
256,192,94158,1,8,0:0:0:0:
256,192,94221,1,0,0:0:0:0:
256,192,94284,1,8,0:0:0:0:
256,192,94536,1,8,0:0:0:0:
256,192,94662,1,8,0:0:0:0:
256,192,94725,1,8,0:0:0:0:
256,192,94788,1,0,0:0:0:0:
256,192,94914,1,8,0:0:0:0:
256,192,95040,1,0,0:0:0:0:
256,192,95103,1,0,0:0:0:0:
256,192,95166,1,8,0:0:0:0:
256,192,95292,1,0,0:0:0:0:
256,192,95418,1,8,0:0:0:0:
256,192,95544,1,0,0:0:0:0:
256,192,95607,1,8,0:0:0:0:
256,192,95671,1,0,0:0:0:0:
256,192,95797,1,0,0:0:0:0:
256,192,95860,1,0,0:0:0:0:
256,192,95923,1,0,0:0:0:0:
256,192,95986,1,0,0:0:0:0:
256,192,96049,1,8,0:0:0:0:
256,192,96112,1,8,0:0:0:0:
256,192,96175,1,8,0:0:0:0:
256,192,96238,1,8,0:0:0:0:
256,192,96301,1,0,0:0:0:0:
256,192,96364,1,8,0:0:0:0:
256,192,96427,1,0,0:0:0:0:
256,192,96490,1,0,0:0:0:0:
256,192,96553,1,8,0:0:0:0:
256,192,96679,1,0,0:0:0:0:
256,192,96805,1,8,0:0:0:0:
256,192,97057,1,0,0:0:0:0:
256,192,97120,1,0,0:0:0:0:
256,192,97183,1,8,0:0:0:0:
256,192,97246,1,8,0:0:0:0:
256,192,97309,1,0,0:0:0:0:
256,192,97372,8,0,98191,0:0:0:0:
384,96,98317,5,4,0:0:0:0:
384,96,98443,1,4,0:0:0:0:
384,96,98569,1,4,0:0:0:0:
384,96,98695,1,12,0:0:0:0:
256,192,99073,1,8,0:0:0:0:
256,192,99199,1,8,0:0:0:0:
384,96,99325,1,4,0:0:0:0:
256,192,99577,1,0,0:0:0:0:
256,192,99703,1,0,0:0:0:0:
256,192,99766,1,0,0:0:0:0:
256,192,99830,1,8,0:0:0:0:
256,192,99956,1,0,0:0:0:0:
256,192,100082,1,8,0:0:0:0:
256,192,100145,1,0,0:0:0:0:
256,192,100208,1,8,0:0:0:0:
256,192,100334,1,0,0:0:0:0:
256,192,100397,1,8,0:0:0:0:
256,192,100460,1,0,0:0:0:0:
256,192,100523,1,0,0:0:0:0:
256,192,100586,1,8,0:0:0:0:
256,192,100712,1,8,0:0:0:0:
256,192,100838,1,0,0:0:0:0:
256,192,100964,1,8,0:0:0:0:
256,192,101090,1,0,0:0:0:0:
256,192,101153,1,0,0:0:0:0:
256,192,101216,1,0,0:0:0:0:
256,192,101279,1,0,0:0:0:0:
256,192,101342,1,8,0:0:0:0:
256,192,101594,1,0,0:0:0:0:
256,192,101720,1,0,0:0:0:0:
256,192,101783,1,0,0:0:0:0:
256,192,101846,1,8,0:0:0:0:
256,192,101972,1,0,0:0:0:0:
256,192,102098,1,8,0:0:0:0:
256,192,102161,1,0,0:0:0:0:
256,192,102224,1,8,0:0:0:0:
256,192,102351,1,8,0:0:0:0:
256,192,102414,1,0,0:0:0:0:
256,192,102477,1,8,0:0:0:0:
256,192,102540,1,8,0:0:0:0:
256,192,102603,1,0,0:0:0:0:
256,192,102729,1,0,0:0:0:0:
256,192,102855,1,8,0:0:0:0:
256,192,102981,1,8,0:0:0:0:
256,192,103107,1,0,0:0:0:0:
256,192,103170,1,0,0:0:0:0:
256,192,103233,1,8,0:0:0:0:
256,192,103296,1,8,0:0:0:0:
256,192,103359,1,0,0:0:0:0:
256,192,103485,1,0,0:0:0:0:
256,192,103548,1,8,0:0:0:0:
256,192,103611,1,0,0:0:0:0:
256,192,103737,1,8,0:0:0:0:
256,192,103863,1,0,0:0:0:0:
256,192,103989,1,8,0:0:0:0:
256,192,104115,1,8,0:0:0:0:
256,192,104178,1,8,0:0:0:0:
256,192,104241,1,0,0:0:0:0:
256,192,104304,1,0,0:0:0:0:
256,192,104367,1,8,0:0:0:0:
256,192,104493,1,0,0:0:0:0:
256,192,104619,1,8,0:0:0:0:
256,192,104682,1,8,0:0:0:0:
256,192,104745,1,8,0:0:0:0:
256,192,104808,1,8,0:0:0:0:
256,192,104872,1,0,0:0:0:0:
256,192,104998,1,8,0:0:0:0:
256,192,105061,1,8,0:0:0:0:
256,192,105124,1,0,0:0:0:0:
256,192,105187,1,0,0:0:0:0:
256,192,105250,1,0,0:0:0:0:
256,192,105313,1,0,0:0:0:0:
256,192,105376,1,8,0:0:0:0:
256,192,105502,1,0,0:0:0:0:
256,192,105565,1,8,0:0:0:0:
256,192,105628,1,0,0:0:0:0:
256,192,105754,1,8,0:0:0:0:
256,192,105880,1,0,0:0:0:0:
256,192,106006,1,0,0:0:0:0:
256,192,106069,1,0,0:0:0:0:
256,192,106132,1,8,0:0:0:0:
256,192,106258,1,0,0:0:0:0:
256,192,106384,1,8,0:0:0:0:
256,192,106447,1,8,0:0:0:0:
256,192,106510,1,0,0:0:0:0:
256,192,106573,1,0,0:0:0:0:
256,192,106636,1,8,0:0:0:0:
256,192,106762,1,8,0:0:0:0:
256,192,106888,1,0,0:0:0:0:
256,192,107014,1,8,0:0:0:0:
256,192,107140,1,8,0:0:0:0:
256,192,107203,1,0,0:0:0:0:
256,192,107266,1,8,0:0:0:0:
256,192,107330,1,8,0:0:0:0:
256,192,107393,1,0,0:0:0:0:
256,192,107519,1,0,0:0:0:0:
256,192,107645,1,8,0:0:0:0:
256,192,107708,1,0,0:0:0:0:
256,192,107771,1,8,0:0:0:0:
256,192,107897,1,0,0:0:0:0:
256,192,108023,1,8,0:0:0:0:
256,192,108149,1,8,0:0:0:0:
256,192,108212,1,8,0:0:0:0:
256,192,108275,1,0,0:0:0:0:
256,192,108338,1,0,0:0:0:0:
256,192,108401,1,8,0:0:0:0:
256,192,108527,1,0,0:0:0:0:
256,192,108653,1,8,0:0:0:0:
256,192,108779,1,8,0:0:0:0:
256,192,108842,1,8,0:0:0:0:
256,192,108905,1,0,0:0:0:0:
256,192,109031,1,0,0:0:0:0:
256,192,109094,1,0,0:0:0:0:
256,192,109157,1,8,0:0:0:0:
256,192,109283,1,0,0:0:0:0:
256,192,109409,1,8,0:0:0:0:
256,192,109472,1,8,0:0:0:0:
256,192,109535,1,0,0:0:0:0:
256,192,109598,1,0,0:0:0:0:
256,192,109661,1,8,0:0:0:0:
256,192,109724,1,0,0:0:0:0:
256,192,109787,1,8,0:0:0:0:
256,192,109914,1,0,0:0:0:0:
256,192,109977,1,8,0:0:0:0:
256,192,110040,1,0,0:0:0:0:
256,192,110103,1,0,0:0:0:0:
256,192,110166,1,8,0:0:0:0:
256,192,110292,1,0,0:0:0:0:
256,192,110418,1,8,0:0:0:0:
256,192,110481,1,8,0:0:0:0:
256,192,110544,1,8,0:0:0:0:
256,192,110607,1,8,0:0:0:0:
256,192,110670,1,0,0:0:0:0:
256,192,110733,1,0,0:0:0:0:
256,192,110796,1,0,0:0:0:0:
256,192,110859,1,0,0:0:0:0:
256,192,110922,1,8,0:0:0:0:
256,192,111174,1,0,0:0:0:0:
256,192,111426,1,0,0:0:0:0:
256,192,111552,1,0,0:0:0:0:
256,192,111678,1,8,0:0:0:0:
256,192,111804,1,8,0:0:0:0:
256,192,111930,1,0,0:0:0:0:
256,192,112056,1,8,0:0:0:0:
256,192,112182,1,0,0:0:0:0:
256,192,112308,1,0,0:0:0:0:
256,192,112435,1,8,0:0:0:0:
256,192,112687,1,0,0:0:0:0:
256,192,112813,1,0,0:0:0:0:
256,192,112939,1,0,0:0:0:0:
256,192,113191,1,8,0:0:0:0:
256,192,113443,1,8,0:0:0:0:
256,192,113569,1,0,0:0:0:0:
256,192,113695,1,8,0:0:0:0:
256,192,113821,1,8,0:0:0:0:
256,192,113947,1,0,0:0:0:0:
256,192,114073,1,8,0:0:0:0:
256,192,114199,1,0,0:0:0:0:
256,192,114325,1,0,0:0:0:0:
256,192,114451,1,8,0:0:0:0:
256,192,114577,1,0,0:0:0:0:
256,192,114703,1,0,0:0:0:0:
256,192,114830,1,8,0:0:0:0:
256,192,114956,1,0,0:0:0:0:
256,192,115208,1,8,0:0:0:0:
256,192,115460,1,0,0:0:0:0:
256,192,115586,1,0,0:0:0:0:
256,192,115712,1,8,0:0:0:0:
256,192,115838,1,8,0:0:0:0:
256,192,115964,1,0,0:0:0:0:
256,192,116090,1,8,0:0:0:0:
256,192,116216,1,8,0:0:0:0:
256,192,116342,1,0,0:0:0:0:
256,192,116468,1,8,0:0:0:0:
256,192,116594,1,0,0:0:0:0:
256,192,116720,1,0,0:0:0:0:
256,192,116846,1,8,0:0:0:0:
256,192,116972,1,8,0:0:0:0:
256,192,117224,1,0,0:0:0:0:
256,192,117477,1,0,0:0:0:0:
256,192,117603,1,0,0:0:0:0:
256,192,117729,1,8,0:0:0:0:
256,192,117855,1,0,0:0:0:0:
256,192,117981,1,8,0:0:0:0:
256,192,118107,1,0,0:0:0:0:
256,192,118233,1,8,0:0:0:0:
256,192,118359,1,8,0:0:0:0:
256,192,118485,1,0,0:0:0:0:
256,192,119493,1,8,0:0:0:0:
256,192,119998,8,0,120376,0:0:0:0:
384,96,120502,5,4,0:0:0:0:
384,96,120628,1,4,0:0:0:0:
384,96,120880,1,4,0:0:0:0:
384,96,121006,1,4,0:0:0:0:
384,96,121258,1,12,0:0:0:0:
384,96,121384,1,12,0:0:0:0:
384,96,121636,1,12,0:0:0:0:
384,96,121762,1,12,0:0:0:0:
384,96,122014,1,12,0:0:0:0:
384,96,122140,1,4,0:0:0:0:
384,96,122266,1,4,0:0:0:0:
384,96,122393,1,4,0:0:0:0:
384,96,122519,1,12,0:0:0:0:
384,96,122645,1,12,0:0:0:0:
384,96,122897,1,12,0:0:0:0:
384,96,123023,1,12,0:0:0:0:
384,96,123275,1,4,0:0:0:0:
384,96,123401,1,4,0:0:0:0:
384,96,123653,1,12,0:0:0:0:
384,96,123779,1,12,0:0:0:0:
384,96,124031,1,12,0:0:0:0:
384,96,124157,1,4,0:0:0:0:
384,96,124283,1,12,0:0:0:0:
384,96,124409,1,12,0:0:0:0:
384,96,124535,1,4,0:0:0:0:
256,192,124661,1,0,0:0:0:0:
256,192,124724,1,0,0:0:0:0:
256,192,124787,1,8,0:0:0:0:
256,192,124914,1,0,0:0:0:0:
256,192,125040,1,8,0:0:0:0:
256,192,125103,1,0,0:0:0:0:
256,192,125166,1,0,0:0:0:0:
256,192,125229,1,0,0:0:0:0:
256,192,125292,1,8,0:0:0:0:
256,192,125355,1,8,0:0:0:0:
256,192,125418,1,8,0:0:0:0:
384,96,125544,1,4,0:0:0:0:
384,96,126048,1,4,0:0:0:0:
384,96,126552,1,12,0:0:0:0:
384,96,126678,1,12,0:0:0:0:
384,96,126930,1,12,0:0:0:0:
384,96,127056,1,12,0:0:0:0:
384,96,127308,1,12,0:0:0:0:
384,96,127435,1,12,0:0:0:0:
384,96,127687,1,12,0:0:0:0:
384,96,127813,1,12,0:0:0:0:
384,96,128065,1,12,0:0:0:0:
384,96,128191,1,4,0:0:0:0:
384,96,128317,1,4,0:0:0:0:
384,96,128443,1,12,0:0:0:0:
256,192,128569,2,0,L|256:128,30,40.25
256,192,130586,12,0,137645,0:0:0:0:
