osu file format v14

[General]
AudioFilename: audio.mp3
AudioLeadIn: 0
PreviewTime: 375
Countdown: 0
SampleSet: Normal
StackLeniency: 0.7
Mode: 1
LetterboxInBreaks: 0
WidescreenStoryboard: 0

[Editor]
DistanceSpacing: 0.5
BeatDivisor: 4
GridSize: 32
TimelineZoom: 2

[Metadata]
Title:Peaceful morning alarm
TitleUnicode:Peaceful morning alarm
Artist:takehirotei
ArtistUnicode:takehirotei
Creator:maxie
Version:futsuu
Source:
Tags:instrumental electronic speedcore whulf extratone
BeatmapID:4027029
BeatmapSetID:1946459

[Difficulty]
HPDrainRate:10
CircleSize:5
OverallDifficulty:4
ApproachRate:5
SliderMultiplier:1.3
SliderTickRate:1

[Events]
//Background and Video events
0,0,"dogchillin.jpeg",0,55
//Break Periods
//Storyboard Layer 0 (Background)
//Storyboard Layer 1 (Fail)
//Storyboard Layer 2 (Pass)
//Storyboard Layer 3 (Foreground)
//Storyboard Layer 4 (Overlay)
//Storyboard Sound Samples

[TimingPoints]
458,659.340659340659,4,1,0,60,1,0
458,-50,4,1,0,60,0,0
9683,-100,4,1,0,100,0,0
9688,329.67032967033,4,1,0,100,1,1
9688,-100,4,1,0,100,0,1
28149,-100,4,1,0,100,0,0
28808,-100,4,1,0,90,0,0
29138,-100,4,1,0,80,0,0
29468,-100,4,1,0,70,0,0
29797,-100,4,1,0,60,0,0
29880,-100,4,1,0,50,0,0
29962,-100,4,1,0,40,0,0
30045,-100,4,1,0,30,0,0
30127,-100,4,1,0,20,0,0
30209,-100,4,1,0,10,0,0

[HitObjects]
157,157,458,5,8,1:0:0:0:
216,182,787,1,8,1:0:0:0:
216,182,1117,1,0,1:0:0:0:
199,90,1611,1,0,1:0:0:0:
199,90,1776,1,8,1:0:0:0:
150,176,2106,1,0,1:0:0:0:
150,176,2436,1,0,1:0:0:0:
165,75,3095,1,8,1:0:0:0:
150,176,3425,1,0,1:0:0:0:
150,176,3754,1,0,1:0:0:0:
189,77,4249,1,0,1:0:0:0:
189,77,4414,1,8,1:0:0:0:
150,176,4743,1,0,1:0:0:0:
150,176,5073,1,0,1:0:0:0:
150,176,5403,1,8,1:0:0:0:
150,176,5732,1,8,1:0:0:0:
182,84,6062,1,0,1:0:0:0:
181,119,6392,1,8,1:0:0:0:
150,176,6886,1,0,1:0:0:0:
150,176,7051,1,0,1:0:0:0:
135,46,7381,1,8,1:0:0:0:
150,176,7710,1,8,1:0:0:0:
150,176,8040,1,0,1:0:0:0:
178,163,8205,1,0,1:0:0:0:
150,176,8370,1,8,1:0:0:0:
209,152,8699,1,0,1:0:0:0:
236,142,8864,1,0,1:0:0:0:
169,62,9688,1,0,1:0:0:0:
201,84,10677,1,8,1:0:0:0:
190,86,10842,1,8,1:0:0:0:
194,85,11007,1,0,1:0:0:0:
197,74,11666,1,0,1:0:0:0:
185,75,12326,1,8,1:0:0:0:
196,92,12655,1,8,1:0:0:0:
139,133,13644,1,8,1:0:0:0:
128,128,13809,1,8,1:0:0:0:
123,128,13974,1,8,1:0:0:0:
126,138,14304,1,8,1:0:0:0:
121,134,14468,1,0,1:0:0:0:
117,135,14633,1,8,1:0:0:0:
96,84,14963,1,0,1:0:0:0:
133,203,15622,1,0,1:0:0:0:
198,178,16282,1,8,1:0:0:0:
164,159,16447,1,8,1:0:0:0:
172,159,16611,1,0,1:0:0:0:
177,118,16941,1,8,1:0:0:0:
177,118,17106,1,0,1:0:0:0:
183,118,17271,1,8,1:0:0:0:
183,118,17600,1,8,1:0:0:0:
91,120,18260,1,8,1:0:0:0:
132,182,18589,1,8,1:0:0:0:
91,216,18919,1,0,1:0:0:0:
81,208,19249,1,0,1:0:0:0:
192,90,19578,1,8,1:0:0:0:
178,84,19743,1,0,1:0:0:0:
174,83,19908,1,8,1:0:0:0:
158,85,20238,1,8,1:0:0:0:
107,127,20897,1,0,1:0:0:0:
98,87,21556,1,8,1:0:0:0:
117,118,21721,1,8,1:0:0:0:
114,158,21886,1,0,1:0:0:0:
173,186,22216,1,8,1:0:0:0:
170,173,22545,1,8,1:0:0:0:
171,173,22710,1,8,1:0:0:0:
172,173,22875,1,0,1:0:0:0:
164,160,23205,1,0,1:0:0:0:
157,170,23534,1,0,1:0:0:0:
130,117,23864,1,0,1:0:0:0:
139,121,24194,1,8,1:0:0:0:
139,121,24523,1,8,1:0:0:0:
62,174,24853,1,8,1:0:0:0:
78,146,25183,1,0,1:0:0:0:
73,149,25512,1,12,1:0:0:0:
162,133,25677,1,0,0:0:0:0:
162,133,25841,1,8,0:0:0:0:
181,125,26172,1,8,0:0:0:0:
162,133,26336,1,0,0:0:0:0:
157,130,26501,1,8,0:0:0:0:
144,135,26831,1,0,1:0:0:0:
152,139,26995,1,0,0:0:0:0:
149,141,27160,1,0,0:0:0:0:
121,168,27490,1,8,1:0:0:0:
152,139,27655,1,8,0:0:0:0:
152,136,27819,1,8,0:0:0:0:
121,173,28150,1,12,1:0:0:0:
256,192,28479,12,0,30786,1:0:0:0:
