osu file format v14

[General]
AudioFilename: audio.mp3
AudioLeadIn: 0
PreviewTime: 47357
Countdown: 0
SampleSet: Soft
StackLeniency: 0.3
Mode: 0
LetterboxInBreaks: 0
WidescreenStoryboard: 1

[Editor]
DistanceSpacing: 0.8
BeatDivisor: 4
GridSize: 16
TimelineZoom: 2.6

[Metadata]
Title:Chronoexplorers (feat. Finite Limit)
TitleUnicode:Chronoexplorers (feat. Finite Limit)
Artist:takehirotei
ArtistUnicode:takehirotei
Creator:Garden
Version:dahkjdas' Insane
Source:
Tags:ibell bellicose dahkjdas Instrumental Electronic Finale Destination NotThatRecords Imaginary Reality ft. 音​​​ゲ​​​ー​​​ROULETTE Vol 2. otoge
BeatmapID:4574992
BeatmapSetID:2168355

[Difficulty]
HPDrainRate:5
CircleSize:4
OverallDifficulty:8
ApproachRate:9
SliderMultiplier:1.80000000596046
SliderTickRate:1

[Events]
//Background and Video events
0,0,"photo-1577436705536-4f2b677b1639_edit.jpg",0,0
//Break Periods
2,23593,27712
2,70984,75127
//Storyboard Layer 0 (Background)
//Storyboard Layer 1 (Fail)
//Storyboard Layer 2 (Pass)
//Storyboard Layer 3 (Foreground)
//Storyboard Layer 4 (Overlay)
//Storyboard Sound Samples

[TimingPoints]
-675,224.719101123595,6,2,1,40,1,0
448,-200,6,2,1,40,0,0
672,224.719101123595,6,2,1,40,1,0
672,-200,6,2,1,40,0,0
5391,-400,6,2,1,40,0,0
5615,-400,6,2,1,60,0,0
6065,-125,6,2,1,70,0,0
11458,-200,6,2,1,70,0,0
12525,-200,6,2,1,5,0,0
12582,-200,6,2,1,70,0,0
12807,224.719101123595,6,2,1,80,1,0
12807,-111.111111111111,6,2,1,80,0,0
23368,-111.111111111111,6,2,1,50,0,0
23593,-200,6,2,1,50,0,0
28762,-200,6,2,1,60,0,0
28986,-125,6,2,1,70,0,0
34380,-125,6,2,1,70,0,0
42470,224.719101123595,6,2,1,75,1,0
42470,-111.111111111111,6,2,1,75,0,0
47863,-111.111111111111,6,2,1,90,0,0
58425,-111.111111111111,6,2,1,75,0,0
58649,-125,6,2,1,75,0,0
59998,-111.111111111111,6,2,1,90,0,0
69492,-111.111111111111,6,2,1,60,0,0
70784,224.719101123595,6,2,1,60,1,0
75727,-166.666666666667,6,2,1,60,0,0
76177,-166.666666666667,6,2,1,70,0,0
80222,-166.666666666667,6,2,1,75,0,0
81570,-111.111111111111,6,2,1,90,0,0
102469,-166.666666666667,6,2,1,90,0,0
103143,-200,6,2,1,75,0,0
103255,-200,6,2,1,60,0,0
107862,-250,6,2,1,70,0,0
108536,-125,6,2,1,80,0,0
113930,-111.111111111111,6,2,1,85,0,0
118649,-166.666666666667,6,2,1,85,0,0
119323,-111.111111111111,6,2,1,90,0,0
124716,-400,6,2,1,90,0,0
126064,-125,6,2,1,70,0,0
127413,-111.111111111111,6,2,1,80,0,0
130109,-111.111111111111,6,2,1,90,0,0
132806,-125,6,2,1,90,0,0
133255,-142.857142857143,6,2,1,90,0,0
133705,-166.666666666667,6,2,1,90,0,0
134154,-200,6,2,1,90,0,0
135503,240,6,2,1,60,1,0
136943,255.31914893617,6,2,1,60,1,0
137708,263.157894736843,6,2,1,60,1,0
138497,301.507537688442,6,2,1,50,1,0
139401,363.636363636364,6,2,1,50,1,0
139764,454.545454545455,6,2,1,50,1,0
140218,606.060606060606,6,2,1,50,1,0
140824,606.060606060606,6,2,1,40,1,0
142036,-100,6,2,1,30,0,0
143248,-100,6,2,1,20,0,0
144460,-100,6,2,1,10,0,0
145672,-100,6,2,1,5,0,0

[Colours]
Combo1 : 197,139,139
Combo2 : 255,139,83

[HitObjects]
300,217,448,6,0,P|323:212|345:210,1,45.0000001490115
429,240,672,1,2,0:0:0:0:
490,128,896,1,2,0:0:0:0:
400,38,1121,1,2,0:0:0:0:
281,89,1346,1,2,0:0:0:0:
210,276,1795,6,0,P|184:271|149:268,1,45.0000001490115
82,299,2019,1,2,0:0:0:0:
21,187,2245,1,2,0:0:0:0:
111,97,2469,1,2,0:0:0:0:
230,148,2693,1,2,0:0:0:0:
406,261,3143,6,0,L|399:319,1,45.0000001490115
327,342,3368,1,2,0:0:0:0:
341,204,3593,1,2,0:0:0:0:
480,223,3818,1,2,0:0:0:0:
465,361,4043,1,2,0:0:0:0:
236,288,4492,5,2,0:0:0:0:
236,288,4716,2,0,P|158:272|70:340,1,180.000000596046,2|0,0:0|0:0,0:0:0:0:
78,324,5391,6,0,P|96:299|90:239,1,90.000000298023,4|4,0:3|0:3,0:0:0:0:
10,195,5952,1,0,0:0:0:0:
7,208,6065,6,0,P|59:220|138:151,1,144.000000476837,4|0,1:2|1:0,0:0:0:0:
150,78,6402,1,0,1:0:0:0:
136,86,6514,2,0,P|99:104|45:110,1,72.0000002384184,2|0,1:2|0:0,0:0:0:0:
199,229,6739,2,0,P|201:187|223:138,1,72.0000002384184,2|0,1:2|0:0,0:0:0:0:
45,201,6964,2,0,P|74:224|104:274,1,72.0000002384184,0|0,1:0|0:0,0:0:0:0:
183,358,7188,1,2,1:2:0:0:
210,334,7301,1,2,0:0:0:0:
245,338,7413,6,0,P|321:351|404:371,1,144.000000476837,4|0,1:2|1:0,0:0:0:0:
444,260,7750,1,2,0:0:0:0:
411,245,7863,2,0,P|376:249|333:287,1,72.0000002384184,2|2,1:2|0:0,0:0:0:0:
319,150,8087,1,2,1:2:0:0:
352,172,8200,1,2,0:0:0:0:
391,164,8312,2,0,P|398:126|381:72,1,72.0000002384184,2|0,1:2|0:0,0:0:0:0:
276,233,8537,2,0,P|269:271|286:323,1,72.0000002384184,2|0,1:2|0:0,0:0:0:0:
236,151,8761,5,4,1:2:0:0:
236,151,8985,2,0,P|179:161|82:171,1,144.000000476837,2|0,1:2|1:0,0:0:0:0:
276,233,9436,1,2,1:2:0:0:
276,233,9660,2,0,P|333:223|430:213,1,144.000000476837,0|2,0:0|1:2,0:0:0:0:
317,148,10110,5,4,3:2:0:0:
319,132,10222,1,4,3:2:0:0:
195,236,10447,1,4,3:2:0:0:
193,252,10559,1,4,3:2:0:0:
262,78,10784,5,4,3:2:0:0:
255,63,10896,1,4,3:2:0:0:
250,306,11121,1,4,3:2:0:0:
257,321,11233,1,4,3:2:0:0:
317,198,11458,6,0,B|335:166|365:145|365:145|230:146|122:201|122:201|146:161|173:137,1,405.000001341103,6|0,3:2|0:0,0:0:0:0:
22,44,12582,1,2,0:0:0:0:
39,38,12694,1,2,0:0:0:0:
55,45,12807,6,0,P|79:80|73:147,1,80.9999977962969,4|0,3:2|0:0,0:0:0:0:
159,135,13031,2,0,P|140:173|79:201,1,80.9999977962969,2|0,3:2|0:0,0:0:0:0:
136,270,13256,2,0,P|93:273|38:234,1,80.9999977962969,2|0,3:2|0:0,0:0:0:0:
186,362,13481,6,0,P|204:323|265:295,1,80.9999977962969,4|0,3:2|0:0,0:0:0:0:
208,228,13705,2,0,P|250:224|305:263,1,80.9999977962969,2|0,3:2|0:0,0:0:0:0:
336,181,13930,2,0,P|360:216|354:283,1,80.9999977962969,2|0,3:2|0:0,0:0:0:0:
483,319,14155,6,0,B|401:285|407:357|328:326,1,161.999995592594,2|2,3:2|3:2,0:0:0:0:
182,303,14492,1,2,0:0:0:0:
264,280,14604,2,0,P|252:339|248:375,1,80.9999977962969,2|0,3:2|0:0,0:0:0:0:
88,367,14829,2,0,P|93:326|102:287,1,80.9999977962969,2|0,3:2|0:0,0:0:0:0:
7,100,15054,5,2,3:2:0:0:
15,165,15166,1,2,3:2:0:0:
65,209,15278,1,2,3:2:0:0:
131,209,15391,1,2,3:2:0:0:
181,166,15503,6,0,B|168:99|209:33|209:33|241:69,1,161.999995592594,4|2,3:2|3:2,0:0:0:0:
344,167,15840,1,2,0:0:0:0:
266,195,15953,2,0,P|263:159|286:104,1,80.9999977962969,2|0,3:2|0:0,0:0:0:0:
447,327,16177,2,0,P|415:266|309:270,1,161.999995592594,4|2,3:2|3:2,0:0:0:0:
329,256,16514,1,2,0:0:0:0:
367,337,16627,1,2,3:2:0:0:
367,337,16851,6,0,P|305:344|261:350,1,80.9999977962969,2|0,3:2|0:0,0:0:0:0:
144,276,17076,2,0,P|206:283|247:289,1,80.9999977962969,2|0,3:2|0:0,0:0:0:0:
355,144,17301,1,2,3:2:0:0:
355,144,17413,1,0,3:0:0:0:
407,215,17526,2,0,P|343:232|265:155,1,161.999995592594,12|2,3:2|3:2,0:0:0:0:
117,144,17863,2,0,B|169:144|221:114|221:114|200:135|186:171,1,161.999995592594,12|0,3:2|3:0,0:0:0:0:
63,206,18200,6,0,P|37:174|39:115,1,80.9999977962969,4|0,3:2|3:0,0:0:0:0:
198,162,18424,2,0,P|182:198|130:227,1,80.9999977962969,10|0,3:2|3:0,0:0:0:0:
89,67,18649,2,0,P|128:60|178:91,1,80.9999977962969,2|0,3:2|3:0,0:0:0:0:
256,226,18874,2,0,B|252:259|252:259|256:275|256:275|249:319,1,80.9999977962969,2|0,3:2|3:0,0:0:0:0:
246,316,19042,1,0,3:0:0:0:
240,323,19099,2,0,P|187:330|132:340,1,80.9999977962969,10|0,3:2|3:0,0:0:0:0:
334,251,19323,2,0,L|383:259,3,40.4999988981485,0|0|2|0,3:0|3:0|3:2|3:0,0:0:0:0:
382,265,19548,6,0,P|429:231|411:118,1,161.999995592594,2|10,3:2|3:2,0:0:0:0:
252,21,19885,1,0,3:0:0:0:
252,29,19941,1,0,3:0:0:0:
252,38,19998,2,0,L|258:129,1,80.9999977962969,2|0,3:2|3:0,0:0:0:0:
336,171,20222,2,0,P|345:118|318:70,1,80.9999977962969,4|0,3:2|3:0,0:0:0:0:
195,174,20447,2,0,L|188:226,2,40.4999988981485,10|2|2,3:2|3:2|3:2,0:0:0:0:
76,59,20672,2,0,L|71:4,2,40.4999988981485,2|0|2,3:2|3:0|3:2,0:0:0:0:
14,123,20896,6,0,P|76:144|158:62,1,161.999995592594,4|8,3:2|3:2,0:0:0:0:
272,28,21233,1,2,3:2:0:0:
272,28,21290,1,0,3:0:0:0:
272,28,21346,2,0,L|264:125,1,80.9999977962969,2|0,3:2|3:0,0:0:0:0:
259,314,21571,6,0,L|255:261,3,40.4999988981485,2|0|2|0,3:2|3:0|3:2|3:0,0:0:0:0:
252,263,21795,2,0,L|356:277,1,80.9999977962969,10|0,3:2|3:0,0:0:0:0:
379,207,21964,1,0,3:0:0:0:
370,205,22020,2,0,L|289:193,1,80.9999977962969,2|0,3:2|3:0,0:0:0:0:
177,296,22245,1,4,3:2:0:0:
177,296,22469,5,10,3:2:0:0:
104,317,22582,1,2,3:2:0:0:
60,255,22694,1,2,3:2:0:0:
106,194,22806,1,2,3:2:0:0:
178,218,22919,1,2,3:2:0:0:
385,37,28312,6,0,B|378:82|378:82|389:114|389:114|383:170,1,135.000000447034,4|0,1:3|0:0,0:0:0:0:
446,226,28762,1,4,1:3:0:0:
437,232,28874,1,0,0:0:0:0:
428,240,28986,6,0,P|368:247|276:262,2,144.000000476837,4|0|2,1:3|0:0|1:2,0:0:0:0:
201,214,29660,2,0,P|234:234|230:335,1,144.000000476837,2|2,1:2|1:2,0:0:0:0:
29,331,30110,1,0,1:0:0:0:
16,297,30222,1,2,0:0:0:0:
33,265,30335,6,0,P|82:254|179:306,1,144.000000476837,4|2,1:2|1:2,0:0:0:0:
269,317,30672,1,2,1:2:0:0:
235,329,30784,2,0,L|246:252,1,72.0000002384184,2|2,1:2|1:2,0:0:0:0:
264,97,31009,1,2,1:2:0:0:
264,97,31233,5,0,1:0:0:0:
309,69,31346,1,0,1:0:0:0:
362,75,31458,1,0,1:0:0:0:
400,111,31571,1,0,1:0:0:0:
409,164,31683,6,0,P|348:168|255:184,2,144.000000476837,4|2|2,1:2|0:0|1:2,0:0:0:0:
182,279,32357,2,0,P|202:252|192:204,1,72.0000002384184,4|0,1:2|0:0,0:0:0:0:
190,129,32582,2,0,L|155:125,2,36.0000001192092,2|2|2,1:2|0:0|0:0,0:0:0:0:
201,137,32806,2,0,L|213:42,1,72.0000002384184,2|0,1:2|0:0,0:0:0:0:
76,125,33031,6,0,L|84:203,1,72.0000002384184,2|0,1:2|0:0,0:0:0:0:
18,253,33256,2,0,L|89:285,1,72.0000002384184,2|0,1:2|0:0,0:0:0:0:
99,367,33481,2,0,L|162:321,1,72.0000002384184,2|0,1:2|0:0,0:0:0:0:
261,275,33705,2,0,B|231:268|204:234|204:234|249:307|241:389,1,216.000000715255,2|0,1:2|0:0,0:0:0:0:
325,332,34155,1,2,0:0:0:0:
337,324,34267,1,2,0:0:0:0:
349,316,34380,6,0,L|430:328,1,72.0000002384184,4|0,3:2|0:0,0:0:0:0:
472,235,34604,2,0,L|391:247,1,72.0000002384184,2|0,3:2|0:0,0:0:0:0:
273,281,34829,2,0,L|280:209,1,72.0000002384184,2|0,1:2|0:0,0:0:0:0:
396,53,35054,6,0,P|394:84|365:126,1,72.0000002384184,2|0,3:2|0:0,0:0:0:0:
231,149,35278,2,0,P|259:134|309:138,1,72.0000002384184,2|0,3:2|0:0,0:0:0:0:
400,245,35503,2,0,P|373:227|351:181,1,72.0000002384184,2|0,1:2|0:0,0:0:0:0:
199,74,35728,6,0,P|159:111|176:211,1,144.000000476837,2|2,3:2|3:2,0:0:0:0:
215,255,36065,1,2,0:0:0:0:
231,310,36177,1,2,3:2:0:0:
199,358,36290,1,2,0:0:0:0:
142,365,36402,2,0,L|54:355,1,72.0000002384184,2|2,1:2|3:2,0:0:0:0:
25,193,36627,1,0,0:0:0:0:
30,206,36739,1,0,3:0:0:0:
11,260,36851,5,2,3:2:0:0:
66,277,36964,1,2,3:2:0:0:
112,243,37076,6,0,P|118:193|125:155,1,72.0000002384184,4|0,3:2|0:0,0:0:0:0:
253,62,37301,2,0,P|247:97|243:133,1,72.0000002384184,2|0,3:2|0:0,0:0:0:0:
190,270,37526,2,0,P|196:220|203:182,1,72.0000002384184,2|0,1:2|0:0,0:0:0:0:
323,109,37750,6,0,P|359:116|396:155,1,72.0000002384184,2|0,3:2|0:0,0:0:0:0:
310,254,37975,2,0,P|298:219|313:167,1,72.0000002384184,2|0,3:2|0:0,0:0:0:0:
443,194,38200,2,0,P|418:221|366:234,1,72.0000002384184,2|0,1:2|0:0,0:0:0:0:
243,111,38424,6,0,P|250:75|289:37,2,72.0000002384184,2|2|0,3:2|3:2|0:0,0:0:0:0:
229,189,38762,1,2,3:2:0:0:
179,159,38874,1,2,3:2:0:0:
122,166,38986,1,2,3:2:0:0:
81,207,39099,2,0,L|9:213,1,72.0000002384184,2|0,1:2|0:0,0:0:0:0:
159,240,39323,1,0,0:0:0:0:
160,254,39436,1,0,3:0:0:0:
123,298,39548,5,2,3:2:0:0:
146,350,39660,1,0,0:0:0:0:
203,349,39773,6,0,P|245:351|361:365,1,144.000000476837,4|2,3:2|3:2,0:0:0:0:
399,302,40110,1,2,3:2:0:0:
425,353,40222,1,2,1:2:0:0:
482,358,40335,1,2,3:2:0:0:
510,308,40447,2,0,B|496:274|496:274|505:220,1,72.0000002384184,2|2,1:2|0:0,0:0:0:0:
416,142,40672,1,2,3:2:0:0:
417,155,40784,2,0,L|426:233,1,72.0000002384184,2|0,0:0|3:0,0:0:0:0:
399,302,41009,1,2,0:0:0:0:
387,294,41121,6,0,P|338:283|251:342,2,144.000000476837,2|2|2,3:2|3:2|3:2,0:0:0:0:
118,198,41795,2,0,P|167:187|254:246,1,144.000000476837,2|0,1:2|0:0,0:0:0:0:
391,116,42245,1,2,3:2:0:0:
420,165,42357,1,0,0:0:0:0:
395,216,42470,5,4,3:2:0:0:
321,187,42582,1,2,3:2:0:0:
292,113,42694,1,2,3:2:0:0:
326,42,42807,1,2,3:2:0:0:
402,19,42919,1,2,3:2:0:0:
209,97,43144,5,2,1:2:0:0:
209,97,43256,2,0,L|209:139,2,40.4999988981485,2|0|0,1:2|1:0|1:0,0:0:0:0:
134,281,43481,1,0,1:0:0:0:
127,266,43593,2,0,P|127:231|154:173,1,80.9999977962969,2|2,1:2|1:2,0:0:0:0:
31,133,43818,5,4,3:2:0:0:
109,113,43930,1,2,3:2:0:0:
188,124,44042,1,2,3:2:0:0:
257,166,44155,1,2,3:2:0:0:
305,230,44267,1,2,3:2:0:0:
500,301,44492,6,0,L|460:306,4,40.4999988981485,2|2|2|2|2,1:2|0:0|1:2|0:0|0:0,0:0:0:0:
374,376,44829,2,0,L|379:336,4,40.4999988981485,2|2|2|2|2,1:2|1:2|1:2|1:2|1:2,0:0:0:0:
390,258,45166,5,4,3:2:0:0:
429,193,45278,1,2,3:2:0:0:
380,135,45390,1,2,3:2:0:0:
310,164,45503,1,2,3:2:0:0:
316,240,45615,1,2,3:2:0:0:
375,60,45840,1,4,3:2:0:0:
137,60,46065,1,4,3:2:0:0:
195,240,46290,1,4,3:2:0:0:
256,32,46514,6,0,L|256:84,12,40.4999988981485,4|2|2|2|2|2|2|2|2|2|2|2|4,3:2|3:2|3:2|3:2|3:2|3:2|3:2|3:2|3:2|3:2|3:2|3:2|3:2,0:0:0:0:
309,140,47413,2,0,P|273:149|235:202,1,80.9999977962969,4|0,3:2|3:0,0:0:0:0:
235,175,47582,1,0,3:0:0:0:
227,173,47638,2,0,P|263:182|301:235,1,80.9999977962969,4|0,3:2|3:0,0:0:0:0:
386,244,47863,6,0,P|338:235|245:310,1,161.999995592594,4|10,3:2|3:2,0:0:0:0:
93,221,48200,1,2,0:0:0:0:
108,217,48312,2,0,P|149:221|183:261,1,80.9999977962969,2|0,3:2|0:0,0:0:0:0:
293,212,48537,2,0,P|283:144|318:89,1,121.499996694445,2|0,3:2|0:0,0:0:0:0:
306,99,48762,2,0,L|299:46,2,40.4999988981485,10|2|2,3:2|0:0|0:0,0:0:0:0:
364,164,48986,2,0,L|446:173,1,80.9999977962969,2|0,3:2|0:0,0:0:0:0:
226,80,49211,6,0,L|144:89,1,80.9999977962969,2|0,3:2|0:0,0:0:0:0:
25,187,49436,1,10,3:2:0:0:
31,201,49548,1,2,0:0:0:0:
37,216,49661,2,0,L|119:206,1,80.9999977962969,2|2,3:2|0:0,0:0:0:0:
276,227,49885,5,2,3:2:0:0:
272,242,49998,1,0,0:0:0:0:
196,231,50110,5,10,3:2:0:0:
199,263,50222,1,2,3:2:0:0:
126,280,50335,5,2,3:2:0:0:
148,322,50447,1,2,3:2:0:0:
78,373,50559,6,0,P|149:352|265:362,1,161.999995592594,2|10,3:2|3:2,0:0:0:0:
361,322,50896,1,2,0:0:0:0:
345,327,51009,2,0,L|354:240,1,80.9999977962969,0|2,3:0|0:0,0:0:0:0:
283,142,51234,2,0,L|268:284,1,121.499996694445,2|0,3:2|0:0,0:0:0:0:
270,262,51458,2,0,L|217:272,2,40.4999988981485,10|2|2,3:2|3:2|3:2,0:0:0:0:
364,165,51683,2,0,L|414:174,2,40.4999988981485,2|2|2,3:2|3:2|3:2,0:0:0:0:
201,196,51908,6,0,P|166:156|207:41,1,161.999995592594,12|0,3:2|0:0,0:0:0:0:
326,56,52245,2,0,P|353:129|311:196,1,161.999995592594,10|0,3:2|0:0,0:0:0:0:
227,272,52582,2,0,B|135:291|161:221|76:243,1,161.999995592594,12|0,3:2|0:0,0:0:0:0:
256,94,52919,2,0,L|256:145,2,40.4999988981485,0|0|2,3:0|3:0|3:2,0:0:0:0:
311,195,53144,1,2,3:2:0:0:
324,203,53256,6,0,P|386:214|448:128,1,161.999995592594,4|10,3:2|3:2,0:0:0:0:
370,44,53593,1,2,0:0:0:0:
361,57,53705,2,0,P|355:97|385:160,1,80.9999977962969,2|2,3:2|0:0,0:0:0:0:
476,271,53930,1,2,3:2:0:0:
429,257,54043,1,2,0:0:0:0:
392,288,54155,2,0,L|388:341,2,40.4999988981485,10|2|2,3:2|0:0|0:0,0:0:0:0:
279,204,54380,2,0,L|367:215,1,80.9999977962969,2|0,3:2|0:0,0:0:0:0:
324,372,54604,5,2,3:2:0:0:
296,373,54679,5,2,0:0:0:0:
272,359,54754,5,2,0:0:0:0:
256,336,54829,6,0,L|265:274,2,53.9999985308646,10|2|2,3:2|0:0|0:0,0:0:0:0:
185,266,55054,5,2,3:2:0:0:
142,258,55129,5,2,0:0:0:0:
102,275,55204,5,2,0:0:0:0:
81,312,55278,6,0,P|29:284|38:203,1,121.499996694445,2|0,3:2|0:0,0:0:0:0:
27,209,55503,2,0,P|67:192|113:199,1,80.9999977962969,10|0,3:2|0:0,0:0:0:0:
277,241,55728,2,0,L|272:287,2,40.4999988981485,2|0|2,3:2|3:0|3:2,0:0:0:0:
252,359,55953,6,0,P|212:331|194:277,1,80.9999977962969,4|0,3:2|0:0,0:0:0:0:
218,182,56177,2,0,P|262:161|318:172,1,80.9999977962969,10|0,3:2|0:0,0:0:0:0:
396,255,56402,1,2,3:2:0:0:
392,270,56514,1,0,3:0:0:0:
388,285,56627,6,0,L|284:269,1,80.9999977962969,2|0,3:2|3:0,0:0:0:0:
427,182,56852,2,0,L|485:176,3,40.4999988981485,10|0|2|0,3:2|3:0|3:2|3:0,0:0:0:0:
474,182,57076,2,0,L|480:88,1,80.9999977962969,2|2,3:2|3:2,0:0:0:0:
393,22,57301,6,0,P|356:49|346:104,1,80.9999977962969,2|0,3:2|0:0,0:0:0:0:
118,21,57526,2,0,P|152:44|167:80,1,80.9999977962969,10|0,3:2|0:0,0:0:0:0:
255,157,57750,1,2,3:2:0:0:
255,140,57863,1,0,3:0:0:0:
255,123,57975,2,0,L|255:22,1,80.9999977962969,2|0,3:2|3:0,0:0:0:0:
175,163,58200,1,10,3:2:0:0:
175,163,58312,2,0,L|127:175,2,40.4999988981485,0|0|4,3:0|3:0|3:2,0:0:0:0:
341,164,58537,1,2,3:0:0:0:
341,164,58649,6,0,P|393:174|484:197,1,144.000000476837,2|2,3:0|0:3,0:0:0:0:
421,137,58986,1,2,0:3:0:0:
421,137,59099,2,0,L|432:53,1,72.0000002384184,2|2,0:3|0:3,0:0:0:0:
391,253,59323,2,0,P|357:286|282:284,1,108.000000357628,2|0,0:3|0:0,0:0:0:0:
298,291,59548,2,0,L|293:234,2,36.0000001192092,2|2|2,0:3|0:3|0:3,0:0:0:0:
223,282,59773,2,0,L|214:373,1,72.0000002384184,2|2,0:3|0:3,0:0:0:0:
141,313,59998,5,6,3:2:0:0:
74,353,60110,1,2,3:2:0:0:
7,315,60222,1,2,3:2:0:0:
5,238,60334,1,2,3:2:0:0:
71,198,60447,2,0,L|161:208,1,80.9999977962969,2|2,3:2|3:2,0:0:0:0:
217,165,60672,5,2,3:2:0:0:
223,179,60784,1,2,3:2:0:0:
299,166,60896,5,2,0:0:0:0:
299,198,61009,1,2,0:0:0:0:
374,211,61121,5,2,0:0:0:0:
353,255,61234,1,2,0:0:0:0:
425,291,61346,6,0,P|379:289|278:354,1,161.999995592594,4|8,3:2|0:0,0:0:0:0:
143,253,61683,1,2,0:0:0:0:
159,254,61795,2,0,L|244:263,1,80.9999977962969,2|2,3:2|0:0,0:0:0:0:
379,180,62020,2,0,L|390:86,1,80.9999977962969,2|2,3:2|0:0,0:0:0:0:
312,222,62245,1,10,3:2:0:0:
313,238,62357,2,0,L|317:287,2,40.4999988981485,2|2|2,0:0|0:0|3:2,0:0:0:0:
300,124,62582,1,2,3:2:0:0:
290,136,62694,6,0,L|193:152,1,80.9999977962969,2|0,3:2|3:2,0:0:0:0:
169,235,62919,2,0,L|106:158,1,80.9999977962969,10|0,3:2|0:0,0:0:0:0:
22,179,63144,2,0,L|56:86,1,80.9999977962969,2|0,3:2|3:0,0:0:0:0:
245,59,63368,1,2,3:2:0:0:
245,59,63593,5,10,3:2:0:0:
315,96,63705,1,2,3:2:0:0:
357,164,63818,1,2,3:2:0:0:
356,244,63930,1,2,3:2:0:0:
314,312,64043,6,0,P|245:308|128:304,1,161.999995592594,4|10,3:2|3:2,0:0:0:0:
144,304,64323,1,2,3:2:0:0:
135,304,64380,1,2,3:2:0:0:
80,244,64492,2,0,L|71:198,2,40.4999988981485,2|2|2,3:2|3:2|3:2,0:0:0:0:
150,206,64717,2,0,L|157:116,1,80.9999977962969,2|0,3:2|0:0,0:0:0:0:
279,61,64941,2,0,B|280:78|280:78|278:81|278:81|280:116,4,40.4999988981485,10|2|2|2|2,3:2|3:2|3:2|3:2|3:2,0:0:0:0:
239,171,65391,5,4,3:2:0:0:
284,184,65465,5,2,3:2:0:0:
328,166,65540,5,2,3:2:0:0:
353,127,65616,5,2,3:2:0:0:
377,87,65691,5,2,3:2:0:0:
422,70,65766,5,2,3:2:0:0:
467,83,65840,5,2,3:2:0:0:
465,93,65915,5,2,3:2:0:0:
463,103,65990,5,2,3:2:0:0:
461,113,66065,6,0,P|452:167|441:304,1,161.999995592594,4|10,3:2|3:2,0:0:0:0:
509,320,66402,1,0,3:0:0:0:
434,353,66514,2,0,P|391:355|349:389,1,80.9999977962969,2|2,3:2|0:0,0:0:0:0:
279,368,66739,6,0,L|164:356,1,80.9999977962969,4|0,3:2|0:0,0:0:0:0:
25,308,66964,2,0,L|105:299,1,80.9999977962969,10|2,3:2|3:2,0:0:0:0:
181,283,67189,2,0,L|191:190,1,80.9999977962969,2|2,3:2|3:2,0:0:0:0:
45,141,67413,2,0,B|83:177|126:158|126:158|153:120|212:131,2,161.999995592594,2|10|2,3:2|3:2|3:2,0:0:0:0:
211,39,68087,5,4,3:2:0:0:
363,153,68312,1,10,3:2:0:0:
350,163,68425,1,0,3:0:0:0:
337,173,68537,2,0,L|235:162,1,80.9999977962969,2|0,3:2|0:0,0:0:0:0:
179,330,68762,6,0,P|177:309|151:263,2,40.4999988981485,4|2|2,3:2|3:2|3:2,0:0:0:0:
341,290,68986,2,0,P|334:309|333:330,2,40.4999988981485,10|2|2,3:2|3:2|3:2,0:0:0:0:
256,374,69211,2,0,L|256:281,1,80.9999977962969,2|2,3:2|3:2,0:0:0:0:
256,164,69436,1,4,3:2:0:0:
256,192,69492,12,4,70784,0:0:0:0:
382,127,75727,5,0,1:0:0:0:
379,143,75840,1,0,1:0:0:0:
401,179,75952,5,0,1:0:0:0:
388,220,76064,1,0,1:0:0:0:
345,227,76177,6,0,P|310:232|274:239,1,53.9999985308646,2|2,1:2|1:2,0:0:0:0:
224,181,76401,2,0,P|189:186|153:193,1,53.9999985308646,0|2,0:0|1:2,0:0:0:0:
132,266,76626,2,0,P|97:271|61:278,1,53.9999985308646
207,316,76851,6,0,P|212:274|218:244,1,53.9999985308646,2|2,0:0|0:3,0:0:0:0:
91,194,77076,2,0,P|96:152|102:122,1,53.9999985308646,0|2,0:0|1:2,0:0:0:0:
246,101,77300,2,0,P|251:59|257:29,1,53.9999985308646,2|0,1:2|0:0,0:0:0:0:
168,64,77525,5,2,1:2:0:0:
168,64,77637,2,0,P|119:64|58:43,1,107.999997061729,0|2,0:0|1:2,0:0:0:0:
229,182,77975,2,0,P|260:177|296:174,1,53.9999985308646
386,114,78199,1,2,1:2:0:0:
386,114,78312,2,0,L|390:76,2,26.9999992654323,2|2|2,0:3|0:3|0:3,0:0:0:0:
360,193,78536,1,2,1:2:0:0:
361,203,78649,2,0,L|368:256,1,53.9999985308646,2|0,0:3|1:0,0:0:0:0:
306,102,78873,6,0,L|318:37,1,53.9999985308646,2|0,1:2|0:0,0:0:0:0:
438,179,79098,2,0,L|500:156,1,53.9999985308646,0|2,0:0|1:2,0:0:0:0:
437,331,79323,2,0,L|487:373,1,53.9999985308646
499,258,79548,6,0,L|426:258,1,53.9999985308646,2|0,0:0|0:0,0:0:0:0:
358,333,79772,2,0,L|353:361,4,26.9999992654323,2|2|2|2|2,0:3|0:3|0:3|0:3|0:0,0:0:0:0:
215,265,80222,6,0,L|268:270,1,53.9999985308646,2|0,3:2|0:0,0:0:0:0:
392,194,80446,2,0,L|339:189,1,53.9999985308646,2|0,3:2|3:0,0:0:0:0:
207,109,80671,2,0,L|260:114,1,53.9999985308646,2|0,3:2|0:0,0:0:0:0:
342,110,80896,6,0,L|349:38,1,53.9999985308646,2|0,3:2|0:0,0:0:0:0:
260,193,81121,2,0,L|224:189,4,26.9999992654323,2|0|0|0|2,3:2|3:0|3:0|3:0|3:2,0:0:0:0:
162,175,81458,1,2,3:2:0:0:
111,231,81570,6,0,P|55:240|0:160,2,161.999995592594,4|10|2,3:2|3:2|0:0,0:0:0:0:
142,83,82132,1,0,3:0:0:0:
152,95,82244,2,0,P|163:141|158:185,1,80.9999977962969,2|0,3:2|0:0,0:0:0:0:
183,327,82469,2,0,P|180:280|196:239,1,80.9999977962969,8|2,3:2|3:2,0:0:0:0:
305,117,82694,1,2,0:0:0:0:
333,156,82806,1,10,3:2:0:0:
319,202,82918,6,0,P|273:197|235:187,1,80.9999977962969,2|2,3:2|3:2,0:0:0:0:
415,164,83143,2,0,P|442:126|469:98,1,80.9999977962969,10|2,3:2|3:2,0:0:0:0:
404,267,83368,2,0,P|422:309|433:347,1,80.9999977962969,2|2,3:2|3:2,0:0:0:0:
342,129,83592,2,0,P|323:86|312:48,2,80.9999977962969,2|0|10,3:2|0:0|3:2,0:0:0:0:
327,281,83930,1,2,0:0:0:0:
321,295,84042,2,0,P|293:332|266:360,1,80.9999977962969,2|2,3:2|3:2,0:0:0:0:
261,360,84210,1,0,3:0:0:0:
253,364,84267,6,0,P|201:356|163:342,1,80.9999977962969,2|0,3:2|0:0,0:0:0:0:
48,372,84491,2,0,P|80:330|112:305,1,80.9999977962969,10|2,3:2|3:2,0:0:0:0:
142,192,84716,2,0,P|161:241|167:280,1,80.9999977962969,0|10,0:0|3:2,0:0:0:0:
1,224,84941,6,0,P|39:231|94:245,1,80.9999977962969,10|0,3:2|3:0,0:0:0:0:
227,194,85166,5,10,3:2:0:0:
232,209,85278,1,8,3:2:0:0:
288,240,85390,5,2,3:2:0:0:
340,201,85503,1,8,3:2:0:0:
317,140,85615,6,0,P|384:148|486:170,1,161.999995592594,12|10,3:2|3:2,0:0:0:0:
356,64,85952,1,0,3:0:0:0:
340,59,86064,2,0,P|288:64|240:75,1,80.9999977962969,2|0,3:2|0:0,0:0:0:0:
125,71,86289,1,2,3:2:0:0:
156,108,86401,1,2,3:2:0:0:
142,154,86514,2,0,P|87:149|55:145,1,80.9999977962969,10|0,3:2|0:0,0:0:0:0:
230,147,86739,2,0,L|223:197,2,40.4999988981485,2|0|2,3:2|0:0|3:2,0:0:0:0:
310,217,86963,6,0,P|231:206|168:253,1,161.999995592594,4|10,3:2|3:2,0:0:0:0:
74,222,87300,1,2,3:2:0:0:
95,265,87413,1,0,0:0:0:0:
83,311,87525,1,2,3:2:0:0:
41,336,87637,2,0,P|15:322|14:259,1,80.9999977962969,2|0,3:2|0:0,0:0:0:0:
163,332,87862,1,10,3:2:0:0:
173,344,87975,2,0,P|176:296|258:205,1,161.999995592594,2|8,3:2|3:2,0:0:0:0:
260,135,88312,6,0,P|298:152|319:204,1,80.9999977962969,2|0,3:2|3:0,0:0:0:0:
307,262,88536,2,0,P|290:300|238:321,1,80.9999977962969,10|0,3:2|3:0,0:0:0:0:
181,119,88761,2,0,P|198:81|250:60,1,80.9999977962969,2|0,3:2|3:0,0:0:0:0:
245,210,88986,2,0,P|186:219|74:242,2,161.999995592594,2|10|2,3:2|3:2|3:2,0:0:0:0:
381,233,89548,1,2,3:2:0:0:
388,231,89604,1,2,3:2:0:0:
395,229,89660,6,0,P|403:182|412:135,1,80.9999977962969,4|0,3:2|0:0,0:0:0:0:
184,150,89885,2,0,P|192:103|201:56,1,80.9999977962969,10|4,3:2|3:2,0:0:0:0:
292,351,90109,2,0,P|300:304|309:257,1,80.9999977962969,0|10,0:0|3:2,0:0:0:0:
117,229,90334,6,0,P|109:182|100:135,1,80.9999977962969,2|2,3:2|3:2,0:0:0:0:
328,150,90559,2,0,P|320:103|311:56,1,80.9999977962969,10|2,3:2|3:2,0:0:0:0:
220,351,90783,2,0,P|212:304|203:257,1,80.9999977962969,10|10,3:2|3:2,0:0:0:0:
156,87,91008,6,0,P|95:69|21:148,1,161.999995592594,4|10,3:2|3:2,0:0:0:0:
182,164,91345,1,2,3:2:0:0:
235,101,91458,2,0,P|234:60|195:15,1,80.9999977962969,2|10,3:2|3:2,0:0:0:0:
102,149,91682,2,0,P|103:190|142:235,1,80.9999977962969,2|2,3:2|3:2,0:0:0:0:
237,317,91907,2,0,L|283:314,4,40.4999988981485,10|0|0|0|2,3:2|3:0|3:0|3:0|3:2,0:0:0:0:
325,256,92244,1,10,3:2:0:0:
248,239,92357,5,4,3:2:0:0:
253,223,92469,1,0,3:0:0:0:
201,166,92581,5,2,3:2:0:0:
229,151,92694,1,0,3:0:0:0:
231,77,92806,5,2,3:2:0:0:
277,91,92918,1,0,3:0:0:0:
342,141,93031,6,0,B|389:147|374:125|420:130,1,80.9999977962969,10|0,3:2|3:0,0:0:0:0:
428,132,93199,1,0,3:0:0:0:
434,136,93255,2,0,P|437:99|452:44,1,80.9999977962969,2|10,3:2|3:2,0:0:0:0:
410,212,93480,1,2,3:2:0:0:
392,257,93592,1,2,3:2:0:0:
420,296,93705,6,0,P|380:300|341:308,1,80.9999977962969,10|2,3:2|3:2,0:0:0:0:
279,244,93930,2,0,P|259:290|247:329,1,80.9999977962969,2|10,3:2|3:2,0:0:0:0:
168,311,94154,2,0,L|174:352,2,40.4999988981485,2|0|2,3:2|3:0|3:2,0:0:0:0:
96,369,94379,5,10,3:2:0:0:
27,344,94491,1,2,3:2:0:0:
11,272,94604,1,10,3:2:0:0:
62,220,94716,2,0,L|115:227,2,40.4999988981485,2|0|2,3:2|0:0|3:2,0:0:0:0:
16,153,94941,1,2,3:2:0:0:
29,144,95053,6,0,P|59:139|124:165,1,80.9999977962969,4|0,3:2|0:0,0:0:0:0:
166,6,95278,2,0,P|185:29|195:98,1,80.9999977962969,10|2,3:2|3:2,0:0:0:0:
352,63,95503,2,0,P|341:91|286:134,1,80.9999977962969,0|2,0:0|3:2,0:0:0:0:
207,237,95727,6,0,P|268:218|361:299,1,161.999995592594,4|10,3:2|3:2,0:0:0:0:
431,311,96064,1,0,3:0:0:0:
421,324,96177,2,0,L|434:238,1,80.9999977962969,2|8,3:2|3:2,0:0:0:0:
238,314,96401,6,0,B|144:334|171:269|85:290,1,161.999995592594,4|10,3:2|3:2,0:0:0:0:
21,174,96739,1,2,3:2:0:0:
60,202,96851,2,0,P|87:205|143:175,1,80.9999977962969,2|2,3:2|3:2,0:0:0:0:
299,54,97076,5,2,3:2:0:0:
281,45,97188,1,2,3:2:0:0:
226,99,97300,5,10,3:2:0:0:
187,105,97413,1,2,3:2:0:0:
136,45,97525,5,2,3:2:0:0:
82,26,97637,1,10,3:2:0:0:
43,66,97750,6,0,P|70:123|58:241,1,161.999995592594,4|10,3:2|3:2,0:0:0:0:
116,352,98087,1,2,3:2:0:0:
99,352,98199,2,0,P|106:320|143:251,1,80.9999977962969,2|10,3:2|3:2,0:0:0:0:
251,184,98424,6,0,P|219:193|141:196,1,80.9999977962969,2|0,3:2|3:0,0:0:0:0:
164,196,98592,1,0,3:0:0:0:
156,193,98649,2,0,P|128:170|97:121,2,80.9999977962969,10|0|2,3:2|0:0|3:2,0:0:0:0:
201,268,98986,1,2,3:2:0:0:
275,286,99098,5,12,3:2:0:0:
290,276,99173,5,0,3:0:0:0:
305,266,99248,5,0,3:0:0:0:
317,259,99323,6,0,P|336:302|334:355,1,80.9999977962969,12|0,3:2|3:0,0:0:0:0:
442,369,99548,2,0,P|423:326|425:273,1,80.9999977962969,12|0,3:2|3:0,0:0:0:0:
480,161,99772,5,12,3:2:0:0:
478,183,99847,5,2,3:2:0:0:
476,203,99922,5,0,3:2:0:0:
474,221,99997,6,0,L|419:210,2,53.9999985308646,10|2|2,3:2|3:2|3:2,0:0:0:0:
349,233,100222,2,0,P|341:278|334:331,1,80.9999977962969,10|2,3:2|0:0,0:0:0:0:
369,154,100446,6,0,L|261:166,1,80.9999977962969,4|2,3:2|3:2,0:0:0:0:
143,230,100671,2,0,L|251:218,1,80.9999977962969,10|2,3:2|3:2,0:0:0:0:
303,87,100896,2,0,P|260:90|210:133,1,80.9999977962969,2|10,3:2|3:2,0:0:0:0:
349,233,101121,5,4,3:2:0:0:
349,233,101233,2,0,L|397:239,2,40.4999988981485,2|2|10,3:2|3:2|3:2,0:0:0:0:
163,151,101458,2,0,L|115:145,2,40.4999988981485,2|2|2,3:2|3:2|3:2,0:0:0:0:
253,378,101682,1,2,3:2:0:0:
265,368,101795,5,12,3:2:0:0:
295,306,101907,1,2,3:2:0:0:
269,241,102020,1,10,3:2:0:0:
205,217,102132,1,2,3:2:0:0:
142,244,102244,2,0,L|102:248,2,40.4999988981485,10|2|2,3:2|3:2|3:2,0:0:0:0:
265,165,102469,6,0,P|271:134|271:106,1,53.9999985308646,12|2,3:2|3:2,0:0:0:0:
173,77,102694,2,0,P|185:100|194:126,1,53.9999985308646,2|2,3:2|3:2,0:0:0:0:
311,234,102918,6,0,P|331:210|345:185,1,53.9999985308646,2|2,3:2|3:2,0:0:0:0:
351,110,103143,1,4,3:2:0:0:
416,165,103368,1,2,0:0:0:0:
271,111,103592,1,0,0:0:0:0:
409,52,103817,1,2,0:0:0:0:
195,293,104267,6,0,P|174:269|163:245,1,45.0000001490115,2|0,0:0|0:0,0:0:0:0:
159,182,104492,1,4,0:3:0:0:
94,237,104716,1,2,0:0:0:0:
239,183,104941,1,0,0:0:0:0:
101,124,105166,1,2,0:0:0:0:
355,272,105615,6,0,L|345:335,1,45.0000001490115,2|0,0:0|0:0,0:0:0:0:
429,305,105840,1,4,0:3:0:0:
311,208,106064,1,2,0:0:0:0:
285,358,106289,1,0,0:0:0:0:
420,228,106514,1,2,0:0:0:0:
261,150,106963,5,2,0:0:0:0:
261,150,107188,2,0,B|189:159|189:159|175:171|175:171|125:176|100:133,1,180.000000596046,4|0,0:3|0:0,0:0:0:0:
100,133,107862,6,0,P|78:169|77:208,1,72.0000002384184,2|0,3:2|0:0,0:0:0:0:
6,238,108199,2,0,P|25:275|58:295,1,72.0000002384184,2|0,3:2|3:0,0:0:0:0:
59,296,108480,1,0,3:0:0:0:
68,300,108536,6,0,P|115:291|207:356,1,144.000000476837,4|2,3:2|3:2,0:0:0:0:
365,320,108873,1,0,0:0:0:0:
344,349,108986,2,0,P|321:364|265:357,1,72.0000002384184,2|0,3:2|0:0,0:0:0:0:
147,264,109210,2,0,P|146:204|224:138,1,144.000000476837,2|2,3:2|3:2,0:0:0:0:
319,62,109548,1,2,0:0:0:0:
300,92,109660,1,2,3:2:0:0:
306,127,109772,1,2,0:0:0:0:
332,152,109885,6,0,L|412:143,1,72.0000002384184,2|2,3:2|0:0,0:0:0:0:
420,220,110053,1,2,0:0:0:0:
412,221,110109,2,0,L|340:229,1,72.0000002384184,2|2,3:2|3:2,0:0:0:0:
355,306,110334,2,0,L|439:297,1,72.0000002384184,2|2,0:0|3:2,0:0:0:0:
266,211,110559,1,2,3:2:0:0:
230,203,110671,1,2,0:0:0:0:
195,212,110783,2,0,L|119:225,1,72.0000002384184,2|2,3:2|0:0,0:0:0:0:
267,135,111008,2,0,L|278:60,1,72.0000002384184,2|2,3:2|0:0,0:0:0:0:
232,282,111233,5,2,3:2:0:0:
229,296,111345,1,0,3:0:0:0:
226,310,111458,2,0,P|179:305|130:285,1,72.0000002384184,2|2,3:2|3:2,0:0:0:0:
43,244,111682,2,0,P|48:197|68:148,1,72.0000002384184,2|2,3:2|3:2,0:0:0:0:
194,100,111907,2,0,L|195:152,4,36.0000001192092,2|0|0|0|2,3:2|3:0|3:0|3:0|3:2,0:0:0:0:
122,135,112244,1,0,3:0:0:0:
74,76,112357,2,0,L|84:3,1,72.0000002384184,2|0,3:2|3:0,0:0:0:0:
271,144,112581,6,0,L|258:194,8,36.0000001192092,2|2|2|2|2|0|0|0|2,3:2|3:2|3:2|3:2|1:2|1:0|1:0|0:0|3:2,0:0:0:0:
339,202,113143,1,2,3:2:0:0:
339,202,113255,2,0,P|283:208|174:236,1,144.000000476837,2|2,3:2|3:2,0:0:0:0:
348,120,113592,1,2,3:2:0:0:
362,121,113705,1,2,3:2:0:0:
376,122,113817,1,2,3:2:0:0:
391,125,113930,6,0,P|422:168|389:280,1,161.999995592594,4|0,3:2|0:0,0:0:0:0:
419,348,114267,2,0,B|358:352|331:312|331:312|309:344|271:351,1,161.999995592594,4|0,3:2|0:0,0:0:0:0:
169,269,114604,2,0,B|213:225|277:232|277:232|256:291,1,161.999995592594,4|0,3:2|0:0,0:0:0:0:
201,160,114941,2,0,P|210:115|229:59,1,80.9999977962969,2|0,3:2|0:0,0:0:0:0:
303,48,115166,1,2,3:2:0:0:
365,114,115278,6,0,P|321:128|263:140,1,80.9999977962969,12|0,3:2|0:0,0:0:0:0:
139,104,115503,1,2,3:2:0:0:
139,104,115615,2,0,P|104:73|65:29,1,80.9999977962969,12|0,3:2|0:0,0:0:0:0:
22,232,115840,1,2,3:2:0:0:
22,232,115952,2,0,P|65:217|123:205,1,80.9999977962969,12|0,3:2|0:0,0:0:0:0:
289,256,116177,1,2,3:2:0:0:
289,256,116289,2,0,P|323:286|362:330,1,80.9999977962969,12|0,3:2|0:0,0:0:0:0:
160,359,116514,1,2,3:2:0:0:
162,343,116626,6,0,P|178:261|222:168,1,161.999995592594,12|2,3:2|3:2,0:0:0:0:
215,184,116907,1,0,3:0:0:0:
221,179,116963,1,12,3:2:0:0:
385,117,117188,1,2,3:2:0:0:
385,117,117300,2,0,B|332:148|291:138|291:138|267:104|222:97,1,161.999995592594,12|2,3:2|3:2,0:0:0:0:
39,106,117637,2,0,B|74:134|85:172|85:172|109:141|152:122,1,161.999995592594,12|2,3:2|3:2,0:0:0:0:
156,122,117918,1,0,3:0:0:0:
164,120,117975,6,0,P|167:73|177:36,1,80.9999977962969,12|0,3:2|0:0,0:0:0:0:
221,179,118199,2,0,P|260:205|287:232,1,80.9999977962969,0|0,3:0|0:0,0:0:0:0:
143,199,118424,2,0,P|100:219|63:229,1,80.9999977962969,0|0,3:0|0:0,0:0:0:0:
244,100,118649,6,0,P|285:79|346:79,1,107.999997061729,4|0,3:1|0:0,0:0:0:0:
461,249,119098,5,2,3:2:0:0:
434,283,119210,1,2,3:2:0:0:
447,325,119323,6,0,P|395:336|358:345,1,80.9999977962969,4|0,3:2|3:0,0:0:0:0:
360,339,119491,1,0,3:0:0:0:
352,336,119548,2,0,P|322:301|292:270,1,80.9999977962969,10|2,3:2|3:2,0:0:0:0:
117,243,119772,6,0,P|169:254|206:263,1,80.9999977962969,10|0,3:2|3:0,0:0:0:0:
204,257,119940,1,0,3:0:0:0:
212,254,119997,2,0,P|242:219|272:188,1,80.9999977962969,4|0,3:2|3:0,0:0:0:0:
267,185,120166,1,0,3:0:0:0:
268,177,120222,2,0,P|245:137|228:102,1,80.9999977962969,10|2,3:2|3:2,0:0:0:0:
113,40,120446,2,0,L|117:95,2,40.4999988981485,10|0|2,3:2|3:0|3:2,0:0:0:0:
35,125,120671,6,0,P|69:141|104:183,1,80.9999977962969,12|2,3:2|3:2,0:0:0:0:
100,180,120840,1,2,3:2:0:0:
102,187,120896,2,0,P|83:229|56:253,1,80.9999977962969,10|2,3:2|3:2,0:0:0:0:
157,349,121121,2,0,L|204:346,3,40.4999988981485,12|0|2|0,3:2|0:0|3:2|3:0,0:0:0:0:
202,340,121345,6,0,L|285:354,1,80.9999977962969,10|2,3:2|3:2,0:0:0:0:
384,278,121570,2,0,L|338:271,3,40.4999988981485,10|0|2|0,3:2|3:0|3:2|3:0,0:0:0:0:
338,265,121795,2,0,L|258:273,1,80.9999977962969,10|0,3:2|3:0,0:0:0:0:
180,186,122019,6,0,P|164:158|175:97,1,80.9999977962969,12|0,3:2|0:0,0:0:0:0:
344,110,122244,2,0,P|349:150|332:186,1,80.9999977962969,10|2,3:2|3:2,0:0:0:0:
256,135,122469,2,0,L|256:85,2,40.4999988981485,10|2|2,3:2|3:2|3:2,0:0:0:0:
184,34,122694,5,12,3:2:0:0:
184,34,122806,2,0,L|141:28,2,40.4999988981485,0|0|12,3:0|3:0|3:2,0:0:0:0:
344,110,123031,2,0,L|387:104,2,40.4999988981485,0|0|12,3:0|3:0|3:2,0:0:0:0:
165,203,123255,2,0,L|122:197,2,40.4999988981485,0|0|12,3:0|3:0|3:2,0:0:0:0:
357,270,123480,5,0,3:0:0:0:
357,270,123592,2,0,L|400:264,3,40.4999988981485,10|2|2|2,3:2|3:2|3:2|3:2,0:0:0:0:
469,282,123817,6,0,L|471:248,4,20.2499994490742,10|0|0|0|10,3:2|0:0|0:0|0:0|3:2,0:0:0:0:
436,117,124042,6,0,P|422:156|432:212,1,80.9999977962969,4|2,3:2|3:2,0:0:0:0:
291,368,124267,2,0,P|293:327|280:290,1,80.9999977962969,2|2,3:2|3:2,0:0:0:0:
130,203,124491,1,4,3:2:0:0:
300,213,124716,6,0,B|237:196|186:240|213:252|163:299|96:277,1,225.000000745057,4|0,3:2|0:0,0:0:0:0:
117,57,126064,6,0,L|125:143,1,72.0000002384184,2|0,3:2|0:0,0:0:0:0:
54,164,126289,2,0,B|38:129|38:129|44:83,1,72.0000002384184,2|0,3:2|0:0,0:0:0:0:
194,72,126514,2,0,B|210:107|210:107|204:153,1,72.0000002384184,2|2,3:2|0:0,0:0:0:0:
263,278,126739,2,0,P|325:270|416:262,1,144.000000476837,2|2,3:2|3:2,0:0:0:0:
481,268,127076,1,0,3:0:0:0:
472,225,127188,1,2,3:2:0:0:
501,193,127300,1,2,3:2:0:0:
484,147,127413,6,0,P|426:141|362:53,1,161.999995592594,4|2,3:2|3:2,0:0:0:0:
275,22,127750,1,2,0:0:0:0:
287,17,127862,2,0,L|279:122,1,80.9999977962969,2|2,3:2|0:0,0:0:0:0:
188,124,128087,2,0,L|256:203,1,80.9999977962969,2|0,3:2|0:0,0:0:0:0:
346,256,128312,1,2,3:2:0:0:
299,241,128424,1,0,3:0:0:0:
260,270,128536,2,0,L|175:258,1,80.9999977962969,2|0,3:2|0:0,0:0:0:0:
0,172,128761,6,0,P|28:133|108:135,1,121.499996694445,2|0,3:2|0:0,0:0:0:0:
102,134,128986,2,0,P|118:182|106:224,1,80.9999977962969,10|0,3:2|0:0,0:0:0:0:
31,362,129210,1,2,3:2:0:0:
11,317,129323,1,2,3:2:0:0:
41,279,129435,6,0,P|94:288|224:316,1,161.999995592594,10|10,3:2|3:2,0:0:0:0:
345,257,129772,1,10,3:2:0:0:
345,257,129885,2,0,L|292:264,3,40.4999988981485,10|2|2|2,3:2|3:2|3:2|3:2,0:0:0:0:
299,268,130109,6,0,P|280:233|281:174,1,80.9999977962969,4|2,3:2|0:0,0:0:0:0:
372,166,130334,2,0,P|411:167|462:197,1,80.9999977962969,2|2,3:2|0:0,0:0:0:0:
424,279,130559,2,0,P|403:312|351:341,1,80.9999977962969,2|2,3:2|0:0,0:0:0:0:
202,250,130783,6,0,P|157:255|97:267,1,80.9999977962969,2|2,3:2|3:2,0:0:0:0:
80,114,131008,2,0,P|106:150|147:196,1,80.9999977962969,2|2,3:2|3:2,0:0:0:0:
22,288,131233,2,0,P|40:246|59:188,1,80.9999977962969,2|2,3:2|3:2,0:0:0:0:
239,126,131458,6,0,L|288:126,6,40.4999988981485,2|0|2|0|2|0|2,3:2|3:0|3:2|3:0|3:2|3:0|3:2,0:0:0:0:
356,126,131907,1,2,3:2:0:0:
364,126,131963,1,0,3:0:0:0:
372,126,132019,1,2,3:2:0:0:
420,196,132132,2,0,P|373:208|325:196,1,80.9999977962969,2|0,3:2|3:0,0:0:0:0:
255,49,132357,2,0,L|255:1,2,40.4999988981485,2|2|2,3:2|3:2|3:2,0:0:0:0:
74,159,132581,1,2,3:2:0:0:
122,219,132694,1,0,3:0:0:0:
191,192,132806,6,0,P|189:136|161:32,1,144.000000476837,4|2,3:2|3:2,0:0:0:0:
99,293,133255,6,0,P|51:322|-7:385,1,125.999996572017,4|0,3:2|0:0,0:0:0:0:
233,324,133705,6,0,P|273:345|340:361,1,107.999997061729,4|0,3:2|0:0,0:0:0:0:
175,272,134154,5,4,3:2:0:0:
256,192,134210,12,4,135503,0:0:0:0:
