osu file format v14

[General]
AudioFilename: audio.mp3
AudioLeadIn: 0
PreviewTime: 47357
Countdown: 0
SampleSet: Soft
StackLeniency: 0.7
Mode: 0
LetterboxInBreaks: 0
WidescreenStoryboard: 0

[Editor]
DistanceSpacing: 0.6
BeatDivisor: 4
GridSize: 32
TimelineZoom: 1.9

[Metadata]
Title:Chronoexplorers (feat. Finite Limit)
TitleUnicode:Chronoexplorers (feat. Finite Limit)
Artist:takehirotei
ArtistUnicode:takehirotei
Creator:Garden
Version:Light Insane
Source:
Tags:ibell bellicose dahkjdas Instrumental Electronic Finale Destination NotThatRecords Imaginary Reality ft. 音​​​ゲ​​​ー​​​ROULETTE Vol 2. otoge
BeatmapID:4574995
BeatmapSetID:2168355

[Difficulty]
HPDrainRate:4
CircleSize:3.9
OverallDifficulty:7
ApproachRate:8.5
SliderMultiplier:1.00000000596046
SliderTickRate:1

[Events]
//Background and Video events
0,0,"photo-1577436705536-4f2b677b1639_edit.jpg",0,0
//Break Periods
2,23793,27637
2,70984,75052
2,103343,106513
//Storyboard Layer 0 (Background)
//Storyboard Layer 1 (Fail)
//Storyboard Layer 2 (Pass)
//Storyboard Layer 3 (Foreground)
//Storyboard Layer 4 (Overlay)
//Storyboard Sound Samples

[TimingPoints]
-675,224.719101123595,6,2,1,40,1,0
672,224.719101123595,6,2,1,40,1,0
672,-125,6,2,1,40,0,0
4716,-142.857142857143,6,2,1,40,0,0
5615,-142.857142857143,6,2,1,60,0,0
6065,-111.111111111111,6,2,1,70,0,0
11458,-142.857142857143,6,2,1,70,0,0
12525,-142.857142857143,6,2,1,5,0,0
12582,-142.857142857143,6,2,1,70,0,0
12807,224.719101123595,6,2,1,80,1,0
17526,-83.3333333333333,6,2,1,80,0,0
20896,-90.9090909090909,6,2,1,80,0,0
23368,-90.9090909090909,6,2,1,50,0,0
28312,-111.111111111111,6,2,1,50,0,0
28762,-111.111111111111,6,2,1,60,0,0
28986,-111.111111111111,6,2,1,70,0,0
34380,-105.263157894737,6,2,1,70,0,0
42470,224.719101123595,6,2,1,75,1,0
42470,-90.9090909090909,6,2,1,75,0,0
47863,-83.3333333333333,6,2,1,90,0,0
58425,-83.3333333333333,6,2,1,75,0,0
59998,-83.3333333333333,6,2,1,90,0,0
60896,-125,6,2,1,90,0,0
61346,-83.3333333333333,6,2,1,90,0,0
69492,-83.3333333333333,6,2,1,60,0,0
70784,224.719101123595,6,2,1,60,1,0
75727,-125,6,2,1,60,0,0
76177,-111.111111111111,6,2,1,70,0,0
80222,-100,6,2,1,75,0,0
81570,-83.3333333333333,6,2,1,90,0,0
92357,-76.9230769230769,6,2,1,90,0,0
103143,-76.9230769230769,6,2,1,75,0,0
103255,-76.9230769230769,6,2,1,60,0,0
107862,-76.9230769230769,6,2,1,70,0,0
108536,-90.9090909090909,6,2,1,80,0,0
113930,-90.9090909090909,6,2,1,85,0,0
119323,-76.9230769230769,6,2,1,90,0,0
124716,-111.111111111111,6,2,1,90,0,0
126064,-111.111111111111,6,2,1,70,0,0
127413,-83.3333333333333,6,2,1,80,0,0
129885,-76.9230769230769,6,2,1,80,0,0
130109,-76.9230769230769,6,2,1,90,0,0
135503,240,6,2,1,60,1,0
136943,255.31914893617,6,2,1,60,1,0
137708,263.157894736843,6,2,1,60,1,0
138497,301.507537688442,6,2,1,50,1,0
139401,363.636363636364,6,2,1,50,1,0
139764,454.545454545455,6,2,1,50,1,0
140218,606.060606060606,6,2,1,50,1,0
140824,606.060606060606,6,2,1,40,1,0
142036,-100,6,2,1,30,0,0
143248,-100,6,2,1,20,0,0
144460,-100,6,2,1,10,0,0
145672,-100,6,2,1,5,0,0

[Colours]
Combo1 : 197,139,139
Combo2 : 255,139,83

[HitObjects]
84,330,448,6,0,P|77:306|63:272,2,50.000000298023,0|0|2,0:0|0:0|0:0,0:0:0:0:
170,345,896,1,2,0:0:0:0:
232,283,1121,1,2,0:0:0:0:
209,197,1346,1,2,0:0:0:0:
209,197,1795,6,0,P|200:165|200:141,2,40.0000002384184,0|0|2,0:0|0:0|0:0,0:0:0:0:
232,283,2245,1,2,0:0:0:0:
312,318,2469,1,2,0:0:0:0:
387,272,2694,1,2,0:0:0:0:
387,272,3143,6,0,P|416:281|450:286,2,40.0000002384184,0|0|2,0:0|0:0|0:0,0:0:0:0:
363,186,3593,1,2,0:0:0:0:
399,105,3818,1,2,0:0:0:0:
485,87,4042,1,2,0:0:0:0:
485,87,4492,5,2,0:0:0:0:
399,105,4716,2,0,P|331:101|297:43,1,139.999996562004,2|0,0:0|0:0,0:0:0:0:
297,43,5391,1,4,0:3:0:0:
65,294,5840,5,4,0:3:0:0:
65,294,5952,1,0,0:0:0:0:
65,294,6065,2,0,P|114:289|158:261,1,89.9999977898594,4|0,1:2|1:0,0:0:0:0:
252,323,6514,1,2,1:2:0:0:
160,367,6739,2,0,P|174:290|213:178,1,179.999995579719,2|2,1:2|1:2,0:0:0:0:
206,193,7301,1,2,0:0:0:0:
206,193,7413,5,4,1:2:0:0:
322,114,7638,1,0,1:0:0:0:
322,114,7750,1,2,0:0:0:0:
322,114,7863,2,0,P|305:140|300:172,1,44.9999988949297,2|2,1:2|0:0,0:0:0:0:
308,250,8087,1,2,1:2:0:0:
308,250,8200,1,2,0:0:0:0:
308,250,8312,2,0,P|363:240|412:210,1,89.9999977898594,2|2,1:2|1:2,0:0:0:0:
429,36,8761,5,4,1:2:0:0:
495,107,8986,2,0,P|452:122|408:131,1,89.9999977898594,2|0,1:2|1:0,0:0:0:0:
210,38,9436,2,0,P|290:67|301:152,1,179.999995579719,2|2,1:2|1:2,0:0:0:0:
106,216,10110,5,4,3:2:0:0:
111,195,10222,1,4,3:2:0:0:
206,155,10447,1,4,3:2:0:0:
211,134,10559,1,4,3:2:0:0:
147,307,10784,1,4,3:2:0:0:
152,286,10896,1,4,3:2:0:0:
247,246,11121,1,4,3:2:0:0:
252,225,11233,1,4,3:2:0:0:
207,376,11458,6,0,B|290:389|340:338|276:302|367:238|438:280,1,279.999993124007,6|0,3:2|0:0,0:0:0:0:
405,173,12582,5,2,0:0:0:0:
405,173,12694,1,2,0:0:0:0:
405,173,12807,2,0,P|360:201|363:246,1,100.000000596046,4|2,3:2|3:2,0:0:0:0:
390,82,13256,1,2,3:2:0:0:
500,205,13481,2,0,L|480:98,1,100.000000596046,4|2,3:2|3:2,0:0:0:0:
295,41,13930,2,0,L|313:139,1,100.000000596046,2|2,3:2|3:2,0:0:0:0:
346,311,14380,5,2,3:2:0:0:
346,311,14492,1,2,0:0:0:0:
346,311,14604,1,2,3:2:0:0:
405,173,14829,1,2,3:2:0:0:
239,199,15054,1,2,3:2:0:0:
209,192,15166,1,2,3:2:0:0:
188,169,15278,1,2,3:2:0:0:
189,138,15391,1,2,3:2:0:0:
207,109,15503,6,0,P|264:101|335:86,1,100.000000596046,4|2,3:2|3:2,0:0:0:0:
331,65,15840,1,2,0:0:0:0:
331,65,15953,1,2,3:2:0:0:
149,37,16177,2,0,P|92:45|21:60,1,100.000000596046,4|2,3:2|3:2,0:0:0:0:
25,81,16514,1,2,0:0:0:0:
25,81,16627,1,2,3:2:0:0:
84,231,16851,6,0,P|96:182|113:135,1,100.000000596046,2|2,3:2|3:2,0:0:0:0:
167,294,17301,1,2,3:2:0:0:
316,173,17526,6,0,P|285:221|228:217,1,119.999997053146,12|2,3:2|3:2,0:0:0:0:
203,190,17863,2,0,B|217:140|230:103|230:103|208:68,1,119.999997053146,12|0,3:2|3:0,0:0:0:0:
191,3,18200,6,0,L|225:61,1,59.999998526573,4|0,3:2|3:0,0:0:0:0:
319,87,18424,1,10,3:2:0:0:
341,78,18537,1,0,3:0:0:0:
363,70,18649,1,2,3:2:0:0:
385,62,18762,1,0,3:0:0:0:
407,55,18874,2,0,L|391:134,1,59.999998526573,2|0,3:2|3:0,0:0:0:0:
490,277,19099,2,0,L|515:148,1,119.999997053146,10|0,3:2|3:0,0:0:0:0:
487,133,19436,1,2,3:2:0:0:
487,133,19548,6,0,L|472:207,1,59.999998526573,2|0,3:2|3:0,0:0:0:0:
362,278,19773,1,10,3:2:0:0:
345,260,19885,1,0,3:0:0:0:
343,235,19998,1,2,3:2:0:0:
357,215,20110,1,0,3:0:0:0:
380,210,20222,1,4,3:2:0:0:
430,344,20447,2,0,L|420:391,2,29.9999992632865,10|2|2,3:2|3:2|3:2,0:0:0:0:
490,277,20672,5,2,3:2:0:0:
490,277,20784,1,2,3:2:0:0:
490,277,20896,2,0,P|411:312|322:330,1,165.000006018876,4|2,3:2|3:2,0:0:0:0:
334,328,21346,1,2,3:2:0:0:
154,379,21571,2,0,L|176:305,1,55.0000020062922,2|2,3:2|3:2,0:0:0:0:
253,290,21795,2,0,L|269:238,1,55.0000020062922,10|0,3:2|3:0,0:0:0:0:
243,147,22020,2,0,L|265:73,1,55.0000020062922,2|0,3:2|3:0,0:0:0:0:
343,58,22245,5,4,3:2:0:0:
343,58,22469,1,10,3:2:0:0:
376,87,22582,1,2,3:2:0:0:
419,88,22694,1,2,3:2:0:0:
452,59,22806,1,2,3:2:0:0:
459,15,22919,1,2,3:2:0:0:
256,192,23593,1,2,0:0:0:0:
256,192,28312,5,4,1:3:0:0:
256,192,28762,6,0,P|260:221|273:240,1,44.9999988949297,4|0,1:3|0:0,0:0:0:0:
230,312,28986,2,0,P|204:346|144:346,1,89.9999977898594,4|0,1:3|0:0,0:0:0:0:
5,254,29436,1,2,1:2:0:0:
64,368,29660,1,2,1:2:0:0:
64,368,29885,2,0,L|106:215,1,134.999996684789,2|2,1:2|0:0,0:0:0:0:
99,237,30335,5,4,1:2:0:0:
49,128,30559,1,2,1:2:0:0:
49,128,30672,1,2,1:2:0:0:
49,128,30784,2,0,L|34:184,2,44.9999988949297,2|2|2,1:2|1:2|1:2,0:0:0:0:
188,218,31233,1,0,1:0:0:0:
213,209,31346,1,0,1:0:0:0:
228,187,31458,1,0,1:0:0:0:
229,159,31571,1,0,1:0:0:0:
214,136,31683,5,4,1:2:0:0:
107,14,31908,2,0,P|99:51|138:82,1,89.9999977898594,2|2,0:0|1:2,0:0:0:0:
307,114,32357,2,0,P|284:54|220:46,1,134.999996684789,4|2,1:2|0:0,0:0:0:0:
220,46,32806,1,2,1:2:0:0:
188,218,33031,5,2,1:2:0:0:
188,218,33256,1,2,1:2:0:0:
20,179,33481,1,2,1:2:0:0:
20,179,33705,1,2,1:2:0:0:
152,377,34155,6,0,P|155:351|163:333,1,44.9999988949297,2|2,0:0|0:0,0:0:0:0:
174,304,34380,2,0,P|215:317|279:319,1,94.9999980294701,4|2,3:2|3:2,0:0:0:0:
411,195,34829,1,2,1:2:0:0:
368,338,35054,2,0,P|343:257|322:233,1,94.9999980294701,2|2,3:2|3:2,0:0:0:0:
337,249,35391,1,0,0:0:0:0:
337,249,35503,1,2,1:2:0:0:
391,106,35728,5,2,3:2:0:0:
249,224,35953,1,2,3:2:0:0:
251,195,36065,1,2,0:0:0:0:
268,172,36177,1,2,3:2:0:0:
294,162,36290,1,2,0:0:0:0:
321,168,36402,1,2,1:2:0:0:
321,168,36851,6,0,P|306:126|304:106,1,47.499999014735,2|2,3:2|3:2,0:0:0:0:
418,15,37076,2,0,P|399:58|390:105,2,94.9999980294701,4|2|2,3:2|3:2|1:2,0:0:0:0:
221,106,37750,1,2,3:2:0:0:
408,194,37975,1,2,3:2:0:0:
218,284,38200,1,2,1:2:0:0:
218,284,38312,1,0,0:0:0:0:
218,284,38424,6,0,P|225:237|242:193,1,94.9999980294701,2|0,3:2|0:0,0:0:0:0:
271,186,38762,1,2,3:2:0:0:
297,195,38874,1,2,3:2:0:0:
314,216,38986,1,2,3:2:0:0:
311,244,39099,1,2,1:2:0:0:
7,168,39548,6,0,P|29:161|53:156,1,47.499999014735,2|0,3:2|0:0,0:0:0:0:
139,122,39773,2,0,P|149:77|120:41,1,94.9999980294701,4|2,3:2|3:2,0:0:0:0:
84,33,40110,1,2,3:2:0:0:
84,33,40222,2,0,P|73:71|66:104,1,47.499999014735,2|2,1:2|3:2,0:0:0:0:
121,200,40447,1,2,1:2:0:0:
114,227,40559,1,2,0:0:0:0:
108,255,40672,1,2,3:2:0:0:
102,282,40784,1,2,0:0:0:0:
173,373,41009,1,2,0:0:0:0:
173,373,41121,6,0,P|183:321|201:258,1,94.9999980294701,2|2,3:2|3:2,0:0:0:0:
78,374,41571,1,2,3:2:0:0:
287,256,41795,2,0,P|305:184|236:151,1,142.499997044205,2|0,1:2|0:0,0:0:0:0:
220,154,42245,2,0,P|192:164|143:171,1,47.499999014735,2|0,3:2|0:0,0:0:0:0:
193,28,42469,5,4,3:2:0:0:
233,62,42582,1,2,3:2:0:0:
286,53,42694,1,2,3:2:0:0:
326,87,42807,1,2,3:2:0:0:
379,78,42919,1,2,3:2:0:0:
512,147,43144,2,0,P|452:158|396:169,1,110.000004012584,2|0,1:2|1:0,0:0:0:0:
361,177,43481,1,0,1:0:0:0:
361,177,43593,2,0,P|355:205|345:229,1,55.0000020062922,2|2,1:2|1:2,0:0:0:0:
405,382,43818,5,4,3:2:0:0:
453,374,43930,1,2,3:2:0:0:
480,333,44043,1,2,3:2:0:0:
478,283,44155,1,2,3:2:0:0:
439,252,44267,1,2,3:2:0:0:
321,349,44492,2,0,B|300:363|294:377|294:377|197:362,1,110.000004012584,2|2,1:2|0:0,0:0:0:0:
193,339,44829,2,0,B|211:272|211:272|240:264|246:234,1,110.000004012584,2|2,1:2|1:2,0:0:0:0:
224,167,45166,5,4,3:2:0:0:
175,176,45278,1,2,3:2:0:0:
125,184,45391,1,2,3:2:0:0:
76,195,45503,1,2,3:2:0:0:
27,205,45616,1,2,3:2:0:0:
217,86,45840,1,4,3:2:0:0:
135,269,46065,1,4,3:2:0:0:
217,86,46290,1,4,3:2:0:0:
402,168,46514,6,0,L|391:213,12,27.5000010031461,4|2|2|2|2|2|2|2|2|2|2|2|4,3:2|3:2|3:2|3:2|3:2|3:2|3:2|3:2|3:2|3:2|3:2|3:2|3:2,0:0:0:0:
337,71,47413,1,4,3:2:0:0:
337,71,47526,1,0,3:0:0:0:
337,71,47638,2,0,P|329:106|319:141,1,55.0000020062922,4|0,3:2|3:0,0:0:0:0:
189,254,47863,6,0,P|213:206|278:204,1,119.999997053146,4|10,3:2|3:2,0:0:0:0:
305,217,48200,1,2,0:0:0:0:
298,252,48312,1,2,3:2:0:0:
289,287,48425,1,0,0:0:0:0:
280,321,48537,1,2,3:2:0:0:
466,297,48762,6,0,B|465:304|480:315|480:315|459:369|403:360,1,119.999997053146,10|2,3:2|3:2,0:0:0:0:
359,384,49099,1,0,0:0:0:0:
359,384,49211,2,0,L|380:304,1,59.999998526573,2|0,3:2|0:0,0:0:0:0:
394,241,49436,2,0,L|415:161,1,59.999998526573,10|2,3:2|0:0,0:0:0:0:
496,73,49661,1,2,3:2:0:0:
512,105,49773,1,2,0:0:0:0:
481,123,49885,1,2,3:2:0:0:
320,167,50110,5,10,3:2:0:0:
330,132,50222,1,2,3:2:0:0:
339,97,50335,1,2,3:2:0:0:
347,62,50447,1,2,3:2:0:0:
356,27,50559,2,0,P|297:72|254:57,1,119.999997053146,2|10,3:2|3:2,0:0:0:0:
218,76,50896,1,2,0:0:0:0:
218,76,51009,2,0,P|229:37|237:2,1,59.999998526573,0|2,3:0|0:0,0:0:0:0:
193,169,51234,1,2,3:2:0:0:
43,51,51458,6,0,B|42:68|35:71|35:71|75:120|138:92,1,119.999997053146,10|2,3:2|3:2,0:0:0:0:
122,97,51795,1,2,3:2:0:0:
122,97,51908,1,12,3:2:0:0:
54,364,52245,1,10,3:2:0:0:
326,277,52582,1,12,3:2:0:0:
244,231,52807,1,0,0:0:0:0:
244,231,52919,1,0,3:0:0:0:
244,231,53031,2,0,P|236:263|227:297,1,59.999998526573,2|2,3:2|3:2,0:0:0:0:
307,384,53256,6,0,P|318:322|337:254,1,119.999997053146,4|10,3:2|3:2,0:0:0:0:
368,258,53593,1,2,0:0:0:0:
390,229,53705,1,2,3:2:0:0:
384,193,53818,1,2,0:0:0:0:
355,170,53930,2,0,P|318:168|278:150,1,59.999998526573,2|2,3:2|0:0,0:0:0:0:
244,85,54155,2,0,P|229:83|197:75,2,29.9999992632865,10|2|2,3:2|0:0|0:0,0:0:0:0:
377,39,54380,2,0,P|348:30|319:31,1,59.999998526573,2|0,3:2|0:0,0:0:0:0:
439,132,54604,6,0,P|452:114|437:92,5,39.9999990177153,2|2|2|10|2|2,3:2|0:0|0:0|3:2|0:0|0:0,0:0:0:0:
355,170,55054,5,2,3:2:0:0:
336,184,55129,5,2,0:0:0:0:
331,207,55204,5,2,0:0:0:0:
344,226,55278,6,0,B|414:231|370:267|446:280,1,119.999997053146,2|10,3:2|3:2,0:0:0:0:
278,359,55728,5,2,3:2:0:0:
271,323,55840,1,2,3:2:0:0:
265,287,55953,1,4,3:2:0:0:
370,384,56177,1,10,3:2:0:0:
173,266,56402,2,0,P|177:238|214:214,2,59.999998526573,2|0|2,3:2|3:0|3:2,0:0:0:0:
332,121,56852,5,10,3:2:0:0:
365,136,56964,1,2,3:2:0:0:
380,169,57076,1,2,3:2:0:0:
373,205,57189,1,2,3:2:0:0:
344,226,57301,1,2,3:2:0:0:
240,93,57526,1,10,3:2:0:0:
240,93,57750,2,0,L|253:26,1,59.999998526573,2|0,3:2|3:0,0:0:0:0:
375,8,57975,6,0,P|352:42|327:39,1,59.999998526573,2|0,3:2|3:0,0:0:0:0:
155,110,58200,2,0,P|157:139|179:157,1,59.999998526573,10|0,3:2|3:0,0:0:0:0:
344,226,58425,1,4,3:2:0:0:
338,210,58537,1,2,3:0:0:0:
332,193,58649,1,2,3:0:0:0:
332,193,59998,5,6,3:2:0:0:
315,237,60110,1,2,3:2:0:0:
268,246,60222,1,2,3:2:0:0:
251,291,60335,1,2,3:2:0:0:
204,300,60447,1,2,3:2:0:0:
188,345,60559,1,2,3:2:0:0:
141,354,60672,2,0,B|96:348|125:332|76:332,1,59.999998526573,2|2,3:2|3:2,0:0:0:0:
38,264,60896,6,0,L|53:218,3,40.0000002384184,2|2|2|2,0:0|0:0|0:0|0:0,0:0:0:0:
130,194,61346,6,0,P|176:155|151:97,1,119.999997053146,4|8,3:2|0:0,0:0:0:0:
182,69,61683,1,2,0:0:0:0:
182,69,61795,2,0,L|115:83,1,59.999998526573,2|2,3:2|0:0,0:0:0:0:
259,122,62020,2,0,L|304:113,4,29.9999992632865,2|0|2|2|10,3:2|0:0|0:0|0:0|3:2,0:0:0:0:
375,0,62469,5,2,3:2:0:0:
375,0,62582,1,2,3:2:0:0:
375,0,62694,2,0,P|361:28|354:74,2,59.999998526573,2|0|10,3:2|3:2|3:2,0:0:0:0:
477,262,63144,2,0,P|483:232|492:204,1,59.999998526573,2|0,3:2|3:0,0:0:0:0:
432,104,63368,2,0,P|424:136|411:169,1,59.999998526573,2|0,3:2|3:0,0:0:0:0:
289,331,63593,5,10,3:2:0:0:
336,324,63705,1,2,3:2:0:0:
366,286,63818,1,2,3:2:0:0:
362,238,63930,1,2,3:2:0:0:
332,200,64043,2,0,P|270:192|245:142,1,119.999997053146,4|10,3:2|3:2,0:0:0:0:
275,106,64380,1,2,3:2:0:0:
269,58,64492,1,2,3:2:0:0:
229,30,64604,1,2,3:2:0:0:
180,32,64717,2,0,P|171:70|157:106,1,59.999998526573,2|0,3:2|0:0,0:0:0:0:
73,155,64941,2,0,P|73:141|88:120,4,29.9999992632865,10|2|2|2|2,3:2|3:2|3:2|3:2|3:2,0:0:0:0:
73,155,65391,6,0,P|50:155|32:145,5,39.9999990177153,4|2|2|2|2|2,3:2|3:2|3:2|3:2|3:2|3:2,0:0:0:0:
142,211,65840,5,2,3:2:0:0:
159,227,65915,5,2,3:2:0:0:
159,251,65990,5,2,3:2:0:0:
143,269,66065,6,0,B|66:266|106:313|18:305,1,119.999997053146,4|10,3:2|3:2,0:0:0:0:
176,361,66514,5,2,3:2:0:0:
211,356,66627,1,2,0:0:0:0:
234,328,66739,2,0,P|247:292|246:259,1,59.999998526573,4|0,3:2|0:0,0:0:0:0:
328,216,66964,5,10,3:2:0:0:
375,207,67076,1,2,3:2:0:0:
399,166,67189,1,2,3:2:0:0:
392,119,67301,1,2,3:2:0:0:
354,91,67413,2,0,L|317:84,2,29.9999992632865,2|2|2,3:2|3:2|3:2,0:0:0:0:
213,1,67638,2,0,P|235:10|271:15,1,59.999998526573,10|0,3:2|3:0,0:0:0:0:
242,122,67863,2,0,P|235:110|235:92,2,29.9999992632865,2|2|2,3:2|3:2|3:2,0:0:0:0:
148,76,68087,5,4,3:2:0:0:
110,76,68200,1,0,3:0:0:0:
84,101,68312,1,10,3:2:0:0:
80,137,68425,1,0,3:0:0:0:
97,167,68537,1,2,3:2:0:0:
194,259,68762,6,0,P|193:243|186:230,10,29.9999992632865,4|2|2|2|10|2|2|2|2|2|2,3:2|3:2|3:2|3:2|3:2|3:2|3:2|3:2|3:2|3:2|3:2,0:0:0:0:
256,192,69436,1,4,3:2:0:0:
256,192,69548,12,4,70784,0:0:0:0:
74,327,75727,6,0,P|104:316|135:311,3,40.0000002384184,0|0|0|0,1:0|1:0|1:0|1:0,0:0:0:0:
191,358,76177,1,2,1:2:0:0:
191,358,76289,2,0,P|203:313|207:301,1,44.9999988949297,2|0,1:2|0:0,0:0:0:0:
208,229,76514,2,0,P|216:280|304:285,1,134.999996684789,2|2,1:2|0:0,0:0:0:0:
288,296,76963,1,2,0:3:0:0:
346,148,77188,5,2,1:2:0:0:
346,148,77300,1,2,1:2:0:0:
397,249,77525,2,0,P|370:320|363:392,2,134.999996684789,2|2|2,1:2|1:2|1:2,0:0:0:0:
278,115,78424,1,2,0:3:0:0:
278,115,78536,2,0,P|311:153|362:135,1,89.9999977898594,2|0,1:2|1:0,0:0:0:0:
414,98,78873,6,0,P|395:35|390:-7,1,89.9999977898594,2|0,1:2|0:0,0:0:0:0:
310,8,79210,2,0,P|268:28|173:41,1,134.999996684789,2|2,1:2|0:0,0:0:0:0:
149,71,79660,1,0,0:0:0:0:
149,71,79772,2,0,P|138:34|129:9,1,44.9999988949297,2|2,0:3|0:3,0:0:0:0:
160,160,79997,1,2,0:0:0:0:
29,25,80222,6,0,P|55:83|58:142,1,100.000000596046,2|2,3:2|3:2,0:0:0:0:
59,118,80559,1,0,3:0:0:0:
59,118,80671,1,2,3:2:0:0:
225,28,80896,1,2,3:2:0:0:
165,184,81121,2,0,L|159:158,4,25.0000001490115,2|0|0|0|2,3:2|3:0|3:0|3:0|3:2,0:0:0:0:
77,221,81458,1,2,3:2:0:0:
77,221,81570,6,0,P|56:257|66:279,1,59.999998526573,4|0,3:2|0:0,0:0:0:0:
19,361,81795,1,10,3:2:0:0:
16,343,81907,2,0,P|82:321|155:323,1,119.999997053146,2|0,3:2|3:0,0:0:0:0:
255,226,82244,2,0,P|314:260|297:320,1,119.999997053146,2|8,3:2|3:2,0:0:0:0:
226,384,82581,1,2,3:2:0:0:
210,368,82694,2,0,P|218:334|229:302,1,59.999998526573,2|10,0:0|3:2,0:0:0:0:
167,185,82918,5,2,3:2:0:0:
179,151,83031,1,2,3:2:0:0:
208,130,83143,1,10,3:2:0:0:
243,130,83255,1,2,3:2:0:0:
276,115,83368,1,2,3:2:0:0:
286,80,83480,1,2,3:2:0:0:
269,48,83592,2,0,P|206:46|133:15,1,119.999997053146,2|10,3:2|3:2,0:0:0:0:
79,89,83930,1,2,0:0:0:0:
90,111,84042,2,0,P|122:117|162:132,1,59.999998526573,2|2,3:2|3:2,0:0:0:0:
253,220,84267,6,0,P|258:254|269:284,1,59.999998526573,2|0,3:2|0:0,0:0:0:0:
214,356,84491,1,10,3:2:0:0:
191,351,84604,2,0,P|180:310|164:280,1,59.999998526573,2|0,3:2|0:0,0:0:0:0:
358,298,84828,1,10,3:2:0:0:
348,319,84941,2,0,P|354:348|365:378,1,59.999998526573,10|0,3:2|3:0,0:0:0:0:
438,207,85166,1,10,3:2:0:0:
430,165,85278,1,8,3:2:0:0:
400,135,85390,1,2,3:2:0:0:
357,132,85503,1,8,3:2:0:0:
321,154,85615,6,0,P|330:91|354:29,1,119.999997053146,12|10,3:2|3:2,0:0:0:0:
436,0,85952,1,0,3:0:0:0:
451,19,86064,2,0,P|445:55|434:77,1,59.999998526573,2|0,3:2|0:0,0:0:0:0:
321,154,86289,6,0,B|272:154|233:122|271:102|236:59|163:81,1,179.999995579719,2|0,3:2|0:0,0:0:0:0:
82,87,86739,2,0,P|88:54|102:17,1,59.999998526573,2|2,3:2|3:2,0:0:0:0:
245,0,86963,5,4,3:2:0:0:
185,177,87188,1,10,3:2:0:0:
201,195,87300,2,0,P|175:257|167:310,1,119.999997053146,2|2,3:2|3:2,0:0:0:0:
235,371,87637,1,2,3:2:0:0:
40,377,87862,2,0,P|30:273|117:258,1,179.999995579719,10|8,3:2|3:2,0:0:0:0:
110,167,88312,6,0,P|80:159|54:145,1,59.999998526573,2|0,3:2|3:0,0:0:0:0:
132,25,88536,1,10,3:2:0:0:
140,60,88649,1,0,3:0:0:0:
166,84,88761,1,2,3:2:0:0:
192,107,88873,1,0,3:0:0:0:
200,142,88986,1,2,3:2:0:0:
354,11,89210,2,0,P|289:10|256:60,1,119.999997053146,10|2,3:2|3:2,0:0:0:0:
312,121,89548,1,2,3:2:0:0:
293,135,89660,6,0,P|277:171|278:198,1,59.999998526573,4|0,3:2|0:0,0:0:0:0:
339,257,89885,1,10,3:2:0:0:
354,275,89997,2,0,P|383:285|426:284,1,59.999998526573,4|0,3:2|0:0,0:0:0:0:
483,232,90222,1,10,3:2:0:0:
504,221,90334,2,0,P|515:193|512:162,1,59.999998526573,2|2,3:2|3:2,0:0:0:0:
390,1,90559,1,10,3:2:0:0:
430,11,90671,1,2,3:2:0:0:
454,45,90783,1,10,3:2:0:0:
454,87,90896,1,10,3:2:0:0:
428,119,91008,6,0,P|359:120|299:96,1,119.999997053146,4|10,3:2|3:2,0:0:0:0:
247,38,91345,1,2,3:2:0:0:
202,18,91458,1,2,3:2:0:0:
158,38,91570,1,10,3:2:0:0:
148,84,91682,2,0,P|158:110|163:148,1,59.999998526573,2|2,3:2|3:2,0:0:0:0:
240,236,91907,2,0,P|234:216|233:197,4,29.9999992632865,10|0|0|0|2,3:2|3:0|3:0|3:0|3:2,0:0:0:0:
193,313,92244,1,10,3:2:0:0:
169,319,92357,6,0,P|102:312|80:252,1,129.999994823932,4|2,3:2|3:2,0:0:0:0:
21,182,92694,1,0,3:0:0:0:
10,165,92806,2,0,P|54:171|96:178,1,64.9999974119661,2|0,3:2|3:0,0:0:0:0:
163,0,93031,2,0,B|109:-18|57:30|101:40|65:91|5:78,1,194.999992235898,10|10,3:2|3:2,0:0:0:0:
161,92,93480,2,0,P|193:95|225:102,1,64.9999974119661,2|2,3:2|3:2,0:0:0:0:
371,0,93705,5,10,3:2:0:0:
364,38,93817,1,2,3:2:0:0:
331,60,93930,1,2,3:2:0:0:
292,57,94042,1,10,3:2:0:0:
265,85,94154,1,2,3:2:0:0:
265,124,94267,1,2,3:2:0:0:
289,154,94379,2,0,P|360:160|421:180,1,129.999994823932,10|10,3:2|3:2,0:0:0:0:
471,104,94716,1,2,3:2:0:0:
495,109,94828,2,0,P|513:71|504:27,1,64.9999974119661,2|2,3:2|3:2,0:0:0:0:
415,177,95053,6,0,P|410:211|399:245,1,64.9999974119661,4|0,3:2|0:0,0:0:0:0:
454,313,95278,1,10,3:2:0:0:
477,308,95390,2,0,P|487:266|502:235,1,64.9999974119661,2|0,3:2|0:0,0:0:0:0:
310,255,95615,1,2,3:2:0:0:
320,276,95727,2,0,P|314:305|301:340,1,64.9999974119661,4|0,3:2|0:0,0:0:0:0:
142,246,95952,1,10,3:2:0:0:
117,240,96064,2,0,P|182:178|230:204,1,129.999994823932,0|8,3:0|3:2,0:0:0:0:
274,85,96401,6,0,P|261:147|216:294,1,194.999992235898,4|2,3:2|3:2,0:0:0:0:
127,384,96851,2,0,P|132:352|148:319,1,64.9999974119661,2|2,3:2|3:2,0:0:0:0:
17,211,97076,1,2,3:2:0:0:
28,167,97188,1,2,3:2:0:0:
66,143,97300,1,10,3:2:0:0:
111,143,97413,1,2,3:2:0:0:
139,178,97525,2,0,P|125:212|114:252,1,64.9999974119661,2|10,3:2|3:2,0:0:0:0:
227,371,97750,5,4,3:2:0:0:
378,247,97975,1,10,3:2:0:0:
339,253,98087,1,2,3:2:0:0:
300,259,98199,1,2,3:2:0:0:
261,264,98312,1,10,3:2:0:0:
223,273,98424,2,0,P|233:242|243:209,1,64.9999974119661,2|0,3:2|3:0,0:0:0:0:
190,77,98649,2,0,P|228:162|322:162,1,194.999992235898,10|2,3:2|3:2,0:0:0:0:
330,77,99098,6,0,P|305:74|268:64,2,43.3333316079774,12|0|0,3:2|3:0|3:0,0:0:0:0:
407,22,99323,1,12,3:2:0:0:
451,28,99435,1,0,3:0:0:0:
481,61,99548,1,12,3:2:0:0:
480,106,99660,1,0,3:0:0:0:
449,139,99772,2,0,P|422:137|391:131,5,43.3333316079774,12|2|2|10|2|2,3:2|3:2|3:2|3:2|3:2|3:2,0:0:0:0:
512,210,100222,2,0,P|510:237|504:267,2,43.3333316079774,10|2|2,3:2|3:2|3:2,0:0:0:0:
418,224,100446,5,4,3:2:0:0:
411,262,100559,1,2,3:2:0:0:
384,290,100671,1,10,3:2:0:0:
353,313,100783,1,2,3:2:0:0:
347,351,100896,2,0,L|382:348,2,32.4999987059831,2|2|10,3:2|3:2|3:2,0:0:0:0:
244,374,101121,5,4,3:2:0:0:
250,329,101233,1,2,3:2:0:0:
219,295,101345,1,10,3:2:0:0:
182,266,101458,1,2,3:2:0:0:
192,221,101570,2,0,P|201:189|211:137,1,64.9999974119661,2|2,3:2|3:2,0:0:0:0:
384,23,101795,5,12,3:2:0:0:
376,74,101907,1,2,3:2:0:0:
336,107,102019,1,10,3:2:0:0:
283,104,102132,1,2,3:2:0:0:
249,64,102244,2,0,L|259:22,2,32.4999987059831,10|2|2,3:2|3:2|3:2,0:0:0:0:
156,78,102469,5,12,3:2:0:0:
134,76,102581,1,2,3:2:0:0:
114,84,102694,1,2,3:2:0:0:
101,101,102806,1,2,3:2:0:0:
96,122,102918,1,2,3:2:0:0:
102,142,103031,1,2,3:2:0:0:
117,158,103143,1,4,3:2:0:0:
256,192,107188,12,0,108312,0:0:0:0:
184,294,108536,6,0,P|138:317|70:333,1,110.000004012584,4|2,3:2|3:2,0:0:0:0:
81,331,108873,1,0,0:0:0:0:
81,331,108986,1,2,3:2:0:0:
251,367,109210,2,0,P|335:306|317:252,1,165.000006018876,2|2,3:2|0:0,0:0:0:0:
297,219,109660,2,0,P|288:244|280:278,1,55.0000020062922,2|2,3:2|0:0,0:0:0:0:
228,155,109885,5,2,3:2:0:0:
389,187,110109,1,2,3:2:0:0:
389,187,110222,1,2,3:2:0:0:
435,41,110446,1,2,3:2:0:0:
435,41,110559,2,0,P|470:30|504:13,2,55.0000020062922,2|2|2,3:2|0:0|3:2,0:0:0:0:
389,187,111008,1,2,3:2:0:0:
228,155,111233,6,0,P|244:96|254:43,1,110.000004012584,2|2,3:2|3:2,0:0:0:0:
225,11,111570,1,2,3:2:0:0:
225,11,111682,2,0,P|216:46|207:80,1,55.0000020062922,2|2,3:2|3:2,0:0:0:0:
68,75,111907,2,0,L|77:41,4,27.5000010031461,2|0|0|0|2,3:2|3:0|3:0|3:0|3:2,0:0:0:0:
142,134,112244,1,0,3:0:0:0:
142,134,112357,2,0,P|133:169|124:203,1,55.0000020062922,2|0,3:2|3:0,0:0:0:0:
33,238,112581,6,0,L|42:204,6,27.5000010031461,2|2|2|2|2|0|0,3:2|3:2|3:2|3:2|1:2|1:0|1:0,0:0:0:0:
112,290,113031,1,2,3:2:0:0:
133,287,113143,1,2,3:2:0:0:
154,283,113255,1,2,3:2:0:0:
270,201,113480,6,0,B|239:214|241:193|217:207,1,55.0000020062922,2|2,3:2|3:2,0:0:0:0:
236,333,113705,2,0,B|267:320|265:341|288:326,1,55.0000020062922,2|2,3:2|3:2,0:0:0:0:
348,252,113930,5,4,3:2:0:0:
107,104,114267,1,4,3:2:0:0:
99,384,114604,1,4,3:2:0:0:
348,252,114941,2,0,P|295:244|243:210,1,110.000004012584,2|2,3:2|3:2,0:0:0:0:
247,214,115278,5,12,3:2:0:0:
415,196,115503,1,2,3:2:0:0:
415,196,115615,2,0,P|479:178|489:120,1,110.000004012584,12|2,3:2|3:2,0:0:0:0:
492,141,115952,1,12,3:2:0:0:
327,157,116177,1,2,3:2:0:0:
327,157,116289,2,0,P|318:108|283:35,1,110.000004012584,12|2,3:2|3:2,0:0:0:0:
294,52,116626,5,12,3:2:0:0:
147,0,116851,1,2,3:2:0:0:
147,0,116963,2,0,P|156:57|214:66,1,110.000004012584,12|2,3:2|3:2,0:0:0:0:
200,70,117300,1,12,3:2:0:0:
376,19,117525,1,2,3:2:0:0:
376,19,117637,1,12,3:2:0:0:
318,183,117862,6,0,L|330:146,2,27.5000010031461,2|0|12,3:2|3:0|3:2,0:0:0:0:
234,154,118199,1,0,3:0:0:0:
156,195,118424,1,0,3:0:0:0:
141,281,118649,1,4,3:1:0:0:
141,281,119098,2,0,P|156:308|165:344,1,55.0000020062922,2|2,3:2|3:2,0:0:0:0:
347,384,119323,6,0,P|321:332|233:335,1,129.999994823932,4|10,3:2|3:2,0:0:0:0:
350,247,119660,1,2,3:2:0:0:
383,272,119772,2,0,P|415:267|446:257,1,64.9999974119661,10|0,3:2|3:0,0:0:0:0:
432,48,119997,2,0,P|411:109|392:171,1,129.999994823932,4|10,3:2|3:2,0:0:0:0:
512,199,120334,1,2,3:2:0:0:
481,174,120446,2,0,P|489:141|500:108,1,64.9999974119661,10|2,3:2|3:2,0:0:0:0:
360,1,120671,5,12,3:2:0:0:
315,8,120783,1,2,3:2:0:0:
287,44,120896,1,10,3:2:0:0:
288,89,121008,1,2,3:2:0:0:
317,123,121121,2,0,P|350:136|382:143,1,64.9999974119661,12|2,3:2|3:2,0:0:0:0:
446,257,121345,2,0,P|413:244|381:237,1,64.9999974119661,10|2,3:2|3:2,0:0:0:0:
311,297,121570,2,0,P|316:313|317:329,4,32.4999987059831,10|0|2|0|10,3:2|3:0|3:2|3:0|3:2,0:0:0:0:
317,123,122019,6,0,P|288:68|227:73,1,129.999994823932,12|10,3:2|3:2,0:0:0:0:
148,33,122357,1,2,3:2:0:0:
105,48,122469,1,10,3:2:0:0:
90,90,122581,1,2,3:2:0:0:
107,132,122694,2,0,P|141:143|181:148,1,64.9999974119661,12|0,3:2|3:0,0:0:0:0:
292,265,122918,2,0,P|228:244|159:234,1,129.999994823932,12|12,3:2|3:2,0:0:0:0:
125,320,123255,1,0,3:0:0:0:
154,330,123368,6,0,P|228:309|235:186,1,194.999992235898,12|2,3:2|3:2,0:0:0:0:
187,84,123817,2,0,P|177:115|169:146,1,64.9999974119661,10|10,3:2|3:2,0:0:0:0:
347,203,124042,1,4,3:2:0:0:
364,154,124154,1,2,3:2:0:0:
381,104,124267,1,2,3:2:0:0:
396,54,124379,1,2,3:2:0:0:
412,4,124491,1,4,3:2:0:0:
512,252,124716,1,4,3:2:0:0:
512,252,126064,5,2,3:2:0:0:
431,220,126289,1,2,3:2:0:0:
371,281,126514,2,0,P|376:309|380:327,2,44.9999988949297,2|2|2,3:2|0:0|3:2,0:0:0:0:
228,147,126963,1,2,3:2:0:0:
228,147,127076,1,0,3:0:0:0:
228,147,127188,2,0,P|260:153|289:160,1,44.9999988949297,2|2,3:2|3:2,0:0:0:0:
349,193,127413,6,0,P|290:194|247:233,1,119.999997053146,4|2,3:2|3:2,0:0:0:0:
153,203,127750,1,2,0:0:0:0:
166,219,127862,2,0,P|155:248|149:285,1,59.999998526573,2|2,3:2|0:0,0:0:0:0:
44,146,128087,1,2,3:2:0:0:
73,332,128312,1,2,3:2:0:0:
60,321,128424,1,0,3:0:0:0:
45,310,128536,2,0,P|58:274|66:243,1,59.999998526573,2|0,3:2|0:0,0:0:0:0:
166,85,128761,6,0,P|128:162|43:163,1,179.999995579719,2|0,3:2|0:0,0:0:0:0:
24,64,129210,2,0,P|59:82|101:91,1,59.999998526573,2|2,3:2|3:2,0:0:0:0:
242,170,129435,2,0,P|258:112|278:55,1,119.999997053146,10|10,3:2|3:2,0:0:0:0:
366,32,129772,1,10,3:2:0:0:
384,30,129885,2,0,L|399:-14,2,32.4999987059831,10|2|2,3:2|3:2|3:2,0:0:0:0:
442,97,130109,6,0,P|420:163|401:232,1,129.999994823932,4|2,3:2|3:2,0:0:0:0:
446,308,130446,1,2,0:0:0:0:
479,295,130559,2,0,P|488:264|500:233,1,64.9999974119661,2|2,3:2|0:0,0:0:0:0:
372,350,130783,1,2,3:2:0:0:
334,338,130896,1,2,3:2:0:0:
306,310,131008,1,2,3:2:0:0:
308,270,131121,1,2,3:2:0:0:
279,244,131233,1,2,3:2:0:0:
240,243,131345,1,2,3:2:0:0:
207,265,131458,6,0,L|197:308,6,32.4999987059831,2|0|2|0|2|0|2,3:2|3:0|3:2|3:0|3:2|3:0|3:2,0:0:0:0:
110,321,131907,2,0,P|102:352|97:384,1,64.9999974119661,2|2,3:2|3:2,0:0:0:0:
31,268,132132,1,2,3:2:0:0:
38,229,132244,1,0,3:0:0:0:
45,190,132357,2,0,P|32:177|22:160,2,32.4999987059831,2|2|2,3:2|3:2|3:2,0:0:0:0:
133,157,132581,1,2,3:2:0:0:
141,118,132694,1,0,3:0:0:0:
149,79,132806,5,4,3:2:0:0:
256,192,133031,1,2,3:2:0:0:
363,79,133255,1,4,3:2:0:0:
256,352,133705,5,4,3:2:0:0:
256,192,134154,5,4,3:2:0:0:
256,192,134267,12,4,135503,0:0:0:0:
