osu file format v14

[General]
AudioFilename: audio.mp3
AudioLeadIn: 0
PreviewTime: 47357
Countdown: 0
SampleSet: Soft
StackLeniency: 0.7
Mode: 0
LetterboxInBreaks: 0
WidescreenStoryboard: 0

[Editor]
DistanceSpacing: 1.3
BeatDivisor: 2
GridSize: 32
TimelineZoom: 1.5

[Metadata]
Title:Chronoexplorers (feat. Finite Limit)
TitleUnicode:Chronoexplorers (feat. Finite Limit)
Artist:takehirotei
ArtistUnicode:takehirotei
Creator:Garden
Version:Hard
Source:
Tags:ibell bellicose dahkjdas Instrumental Electronic Finale Destination NotThatRecords Imaginary Reality ft. 音​​​ゲ​​​ー​​​ROULETTE Vol 2. otoge
BeatmapID:4574994
BeatmapSetID:2168355

[Difficulty]
HPDrainRate:3
CircleSize:3.5
OverallDifficulty:5.7
ApproachRate:7.5
SliderMultiplier:0.700000005960464
SliderTickRate:1

[Events]
//Background and Video events
0,0,"photo-1577436705536-4f2b677b1639_edit.jpg",0,0
//Break Periods
2,23793,27487
2,70984,75352
2,103343,107711
//Storyboard Layer 0 (Background)
//Storyboard Layer 1 (Fail)
//Storyboard Layer 2 (Pass)
//Storyboard Layer 3 (Foreground)
//Storyboard Layer 4 (Overlay)
//Storyboard Sound Samples

[TimingPoints]
-675,224.719101123595,6,2,1,40,1,0
672,224.719101123595,6,2,1,40,1,0
672,-125,6,2,1,40,0,0
5615,-125,6,2,1,60,0,0
6065,-100,6,2,1,70,0,0
11458,-111.111111111111,6,2,1,70,0,0
12525,-111.111111111111,6,2,1,5,0,0
12582,-111.111111111111,6,2,1,70,0,0
12807,224.719101123595,6,2,1,80,1,0
12807,-90.9090909090909,6,2,1,80,0,0
23368,-90.9090909090909,6,2,1,50,0,0
28762,-90.9090909090909,6,2,1,60,0,0
28986,-100,6,2,1,70,0,0
34380,-90.9090909090909,6,2,1,70,0,0
42470,224.719101123595,6,2,1,75,1,0
42470,-83.3333333333333,6,2,1,75,0,0
47863,-83.3333333333333,6,2,1,90,0,0
58425,-83.3333333333333,6,2,1,75,0,0
59998,-83.3333333333333,6,2,1,90,0,0
69492,-83.3333333333333,6,2,1,60,0,0
70784,224.719101123595,6,2,1,60,1,0
76177,-125,6,2,1,70,0,0
80222,-100,6,2,1,75,0,0
81570,-83.3333333333333,6,2,1,90,0,0
103143,-83.3333333333333,6,2,1,75,0,0
103255,-83.3333333333333,6,2,1,60,0,0
107862,-83.3333333333333,6,2,1,70,0,0
108536,-90.9090909090909,6,2,1,80,0,0
113930,-90.9090909090909,6,2,1,85,0,0
119323,-83.3333333333333,6,2,1,90,0,0
124716,-90.9090909090909,6,2,1,90,0,0
126064,-90.9090909090909,6,2,1,70,0,0
127413,-90.9090909090909,6,2,1,80,0,0
129885,-83.3333333333333,6,2,1,80,0,0
130109,-83.3333333333333,6,2,1,90,0,0
135503,240,6,2,1,60,1,0
136943,255.31914893617,6,2,1,60,1,0
137708,263.157894736843,6,2,1,60,1,0
138497,301.507537688442,6,2,1,50,1,0
139401,363.636363636364,6,2,1,50,1,0
139764,454.545454545455,6,2,1,50,1,0
140218,606.060606060606,6,2,1,50,1,0
140824,606.060606060606,6,2,1,40,1,0
142036,-100,6,2,1,30,0,0
143248,-100,6,2,1,20,0,0
144460,-100,6,2,1,10,0,0
145672,-100,6,2,1,5,0,0

[Colours]
Combo1 : 197,139,139
Combo2 : 255,139,83

[HitObjects]
260,348,448,5,0,0:0:0:0:
260,348,672,2,0,P|293:346|319:333,1,56.0000004768371,2|2,0:0|0:0,0:0:0:0:
365,271,1121,1,2,0:0:0:0:
365,271,1346,1,2,0:0:0:0:
211,216,1795,1,0,0:0:0:0:
211,216,2020,2,0,P|199:250|194:284,2,56.0000004768371,2|2|2,0:0|0:0|0:0,0:0:0:0:
284,176,2694,1,2,0:0:0:0:
225,24,3143,5,0,0:0:0:0:
225,24,3368,2,0,P|190:36|160:44,1,56.0000004768371,2|2,0:0|0:0,0:0:0:0:
118,107,3818,1,2,0:0:0:0:
118,107,4042,1,2,0:0:0:0:
280,167,4492,1,2,0:0:0:0:
280,167,4716,2,0,P|323:197|312:259,1,112.000000953674,2|0,0:0|0:0,0:0:0:0:
278,325,5391,1,4,0:3:0:0:
144,375,5840,1,4,0:3:0:0:
144,375,6065,6,0,P|140:330|125:302,1,70.0000005960464,4|0,1:2|1:0,0:0:0:0:
48,265,6514,1,2,1:2:0:0:
124,216,6739,2,0,P|174:153|154:100,1,140.000001192093,2|2,1:2|1:2,0:0:0:0:
156,102,7301,1,2,0:0:0:0:
156,102,7413,1,4,1:2:0:0:
89,40,7638,2,0,P|54:51|13:59,1,70.0000005960464,0|2,1:0|1:2,0:0:0:0:
8,156,8087,1,2,1:2:0:0:
8,156,8312,2,0,P|42:144|84:137,1,70.0000005960464,2|2,1:2|1:2,0:0:0:0:
161,107,8761,5,4,1:2:0:0:
148,197,8986,2,0,P|154:234|172:273,1,70.0000005960464,2|0,1:2|1:0,0:0:0:0:
250,299,9436,2,0,P|333:264|343:221,1,140.000001192093,2|2,1:2|1:2,0:0:0:0:
336,135,10110,5,4,3:2:0:0:
336,135,10222,2,0,P|300:125|265:109,1,70.0000005960464,4|4,3:2|3:2,0:0:0:0:
256,89,10559,1,4,3:2:0:0:
314,20,10784,1,4,3:2:0:0:
314,20,10896,2,0,P|350:30|385:46,1,70.0000005960464,4|4,3:2|3:2,0:0:0:0:
394,66,11233,1,4,3:2:0:0:
475,30,11458,6,0,P|517:182|409:286,1,314.999993069172,6|2,3:2|0:0,0:0:0:0:
317,299,12807,5,4,3:2:0:0:
246,228,13031,1,2,3:2:0:0:
274,132,13256,1,2,3:2:0:0:
372,111,13481,2,0,P|385:74|394:31,2,77.0000030055046,4|2|2,3:2|3:2|3:2,0:0:0:0:
274,132,14155,5,2,3:2:0:0:
348,215,14380,1,2,3:2:0:0:
348,215,14492,1,2,0:0:0:0:
348,215,14604,1,2,3:2:0:0:
246,228,14829,1,2,3:2:0:0:
321,310,15054,5,2,3:2:0:0:
321,310,15166,1,2,3:2:0:0:
321,310,15278,2,0,L|366:317,2,38.5000015027523,2|2|4,3:2|3:2|3:2,0:0:0:0:
221,326,15728,2,0,L|210:380,2,38.5000015027523,2|2|2,3:2|0:0|3:2,0:0:0:0:
246,228,16177,2,0,P|200:220|159:206,1,77.0000030055046,4|2,3:2|3:2,0:0:0:0:
142,203,16514,1,2,0:0:0:0:
142,203,16626,1,2,3:2:0:0:
199,120,16851,6,0,P|220:81|216:46,2,77.0000030055046,2|2|2,3:2|3:2|3:2,0:0:0:0:
142,203,17526,2,0,L|65:191,1,77.0000030055046,12|2,3:2|3:2,0:0:0:0:
65,191,17863,1,12,3:2:0:0:
0,129,18087,1,0,3:0:0:0:
0,129,18200,6,0,P|0:83|34:40,1,77.0000030055046,4|10,3:2|3:2,0:0:0:0:
105,14,18649,1,2,3:2:0:0:
192,65,18874,1,2,3:2:0:0:
172,163,19099,2,0,P|154:213|146:289,1,115.500004508257,10|2,3:2|3:2,0:0:0:0:
145,274,19548,5,2,3:2:0:0:
210,349,19773,1,10,3:2:0:0:
299,304,19998,1,2,3:2:0:0:
276,217,20222,2,0,P|289:144|317:65,1,154.000006011009,4|2,3:2|3:2,0:0:0:0:
331,41,20784,1,2,3:2:0:0:
331,41,20896,6,0,P|406:71|403:125,1,115.500004508257,4|2,3:2|3:2,0:0:0:0:
411,96,21346,1,2,3:2:0:0:
387,193,21571,1,2,3:2:0:0:
480,229,21795,1,10,3:2:0:0:
460,327,22020,2,0,P|419:344|381:344,1,77.0000030055046,2|4,3:2|3:2,0:0:0:0:
316,291,22469,5,10,3:2:0:0:
316,291,22582,1,2,3:2:0:0:
316,291,22694,2,0,L|304:239,2,38.5000015027523,2|2|2,3:2|3:2|3:2,0:0:0:0:
256,32,23593,1,2,0:0:0:0:
256,32,28312,5,4,1:3:0:0:
45,82,28762,1,4,1:3:0:0:
110,144,28986,2,0,P|100:180|98:222,2,70.0000005960464,4|0|2,1:3|0:0|1:2,0:0:0:0:
186,94,29660,1,2,1:2:0:0:
245,163,29885,2,0,P|229:221|221:299,1,105.00000089407,2|2,1:2|0:0,0:0:0:0:
223,265,30335,5,4,1:2:0:0:
300,323,30559,1,2,1:2:0:0:
350,247,30784,2,0,P|355:223|361:186,2,35.0000002980232,2|2|2,1:2|1:2|1:2,0:0:0:0:
426,315,31233,1,0,1:0:0:0:
426,315,31346,1,0,1:0:0:0:
426,315,31458,2,0,P|421:339|415:376,2,35.0000002980232,0|0|4,1:0|1:0|1:2,0:0:0:0:
481,242,31908,6,0,P|489:203|501:154,1,70.0000005960464,2|2,0:0|1:2,0:0:0:0:
471,85,32357,2,0,P|436:48|378:57,1,105.00000089407,4|2,1:2|0:0,0:0:0:0:
385,51,32806,1,2,1:2:0:0:
321,116,33031,2,0,L|245:126,1,70.0000005960464,2|2,1:2|1:2,0:0:0:0:
191,194,33481,2,0,L|115:204,1,70.0000005960464,2|2,1:2|1:2,0:0:0:0:
177,376,34155,1,2,0:0:0:0:
264,328,34380,6,0,P|274:288|277:252,1,77.0000030055046,4|2,3:2|3:2,0:0:0:0:
362,198,34829,1,2,1:2:0:0:
430,270,35054,2,0,P|469:279|524:279,2,77.0000030055046,2|2|2,3:2|3:2|1:2,0:0:0:0:
362,198,35728,2,0,P|367:156|382:106,1,77.0000030055046,2|2,3:2|3:2,0:0:0:0:
394,93,36065,1,2,0:0:0:0:
394,93,36177,2,0,P|425:98|449:100,2,38.5000015027523,2|2|2,3:2|0:0|1:2,0:0:0:0:
209,15,36851,1,2,3:2:0:0:
125,69,37076,6,0,P|86:68|48:60,2,77.0000030055046,4|2|2,3:2|3:2|1:2,0:0:0:0:
212,118,37750,1,2,3:2:0:0:
125,170,37975,2,0,P|114:206|118:244,1,77.0000030055046,2|2,3:2|1:2,0:0:0:0:
200,302,38424,2,0,P|284:286|297:246,1,115.500004508257,2|2,3:2|3:2,0:0:0:0:
301,227,38874,2,0,L|250:211,2,38.5000015027523,2|2|2,3:2|3:2|1:2,0:0:0:0:
455,355,39548,1,2,3:2:0:0:
383,285,39773,6,0,P|402:202|430:115,1,154.000006011009,4|2,3:2|1:2,0:0:0:0:
360,65,40447,1,2,1:2:0:0:
360,65,40559,1,2,0:0:0:0:
360,65,40672,2,0,P|370:35|377:15,2,38.5000015027523,2|2|0,3:2|0:0|3:0,0:0:0:0:
321,159,41121,5,2,3:2:0:0:
321,159,41346,1,2,3:2:0:0:
259,87,41571,1,2,3:2:0:0:
259,87,41795,1,2,1:2:0:0:
191,275,42245,1,2,3:2:0:0:
273,349,42469,5,4,3:2:0:0:
273,349,42582,1,2,3:2:0:0:
273,349,42694,2,0,P|304:345|329:334,2,41.9999990758896,2|2|2,3:2|3:2|3:2,0:0:0:0:
239,35,43818,5,4,3:2:0:0:
239,35,43930,1,2,3:2:0:0:
239,35,44043,2,0,P|208:39|183:50,2,41.9999990758896,2|2|2,3:2|3:2|3:2,0:0:0:0:
273,349,45166,5,4,3:2:0:0:
273,349,45278,1,2,3:2:0:0:
273,349,45391,2,0,P|304:345|329:334,2,41.9999990758896,2|2|2,3:2|3:2|3:2,0:0:0:0:
173,334,45840,5,4,3:2:0:0:
134,240,46065,1,4,3:2:0:0:
198,162,46290,1,4,3:2:0:0:
296,180,46514,2,0,B|337:199|337:199|366:175|366:175|414:171|414:171|428:135|428:135|459:116|459:116|450:63,1,251.999994455338,4|4,3:2|3:2,0:0:0:0:
348,34,47413,2,0,L|337:74,2,41.9999990758896,4|0|4,3:2|3:0|3:2,0:0:0:0:
226,92,47863,6,0,P|215:135|198:187,1,83.9999981517792,4|10,3:2|3:2,0:0:0:0:
231,216,48200,1,2,0:0:0:0:
231,216,48312,2,0,L|215:269,2,41.9999990758896,2|0|2,3:2|0:0|3:2,0:0:0:0:
330,169,48762,2,0,B|380:186|345:202|408:221,1,83.9999981517792,10|2,3:2|3:2,0:0:0:0:
484,281,49211,5,2,3:2:0:0:
392,333,49436,1,10,3:2:0:0:
392,333,49548,1,2,0:0:0:0:
392,333,49661,2,0,L|376:387,2,41.9999990758896,2|2|2,3:2|0:0|3:2,0:0:0:0:
484,281,50110,2,0,L|495:240,3,41.9999990758896,10|2|2|2,3:2|3:2|3:2|3:2,0:0:0:0:
468,204,50559,6,0,P|478:160|498:102,1,83.9999981517792,2|10,3:2|3:2,0:0:0:0:
473,87,50896,1,2,0:0:0:0:
473,87,51009,2,0,L|494:21,2,41.9999990758896,0|2|2,3:0|0:0|3:2,0:0:0:0:
379,144,51458,1,10,3:2:0:0:
368,35,51683,1,2,3:2:0:0:
281,101,51908,6,0,B|207:105|232:146|167:146,2,125.999997227669,12|10|12,3:2|3:2|3:2,0:0:0:0:
234,314,53031,1,2,3:2:0:0:
143,375,53256,6,0,P|138:337|124:294,1,83.9999981517792,4|10,3:2|3:2,0:0:0:0:
123,293,53593,1,2,0:0:0:0:
123,293,53705,1,2,3:2:0:0:
21,251,53930,1,2,3:2:0:0:
90,166,54155,2,0,P|76:126|70:84,1,83.9999981517792,10|2,3:2|3:2,0:0:0:0:
154,14,54604,5,2,3:2:0:0:
242,78,54829,1,10,3:2:0:0:
194,180,55054,1,2,3:2:0:0:
194,180,55166,1,0,0:0:0:0:
194,180,55278,1,2,3:2:0:0:
288,234,55503,1,10,3:2:0:0:
233,328,55728,6,0,P|243:351|245:371,2,41.9999990758896,2|2|4,3:2|3:2|3:2,0:0:0:0:
288,234,56177,2,0,P|337:223|366:204,1,83.9999981517792,10|2,3:2|3:2,0:0:0:0:
462,255,56627,1,2,3:2:0:0:
504,154,56852,1,10,3:2:0:0:
495,130,56964,1,2,3:2:0:0:
487,106,57076,1,2,3:2:0:0:
478,81,57189,1,2,3:2:0:0:
468,57,57301,6,0,P|432:79|367:86,1,83.9999981517792,2|10,3:2|3:2,0:0:0:0:
288,125,57750,1,2,3:2:0:0:
364,204,57975,2,0,P|350:244|345:308,1,83.9999981517792,2|10,3:2|3:2,0:0:0:0:
247,323,58425,5,4,3:2:0:0:
247,323,58537,1,2,3:0:0:0:
247,323,58649,1,2,3:0:0:0:
37,73,59998,2,0,L|58:10,2,41.9999990758896,6|2|2,3:2|3:2|3:2,0:0:0:0:
104,173,60447,1,2,3:2:0:0:
104,173,60559,1,2,3:2:0:0:
104,173,60672,1,2,3:2:0:0:
186,102,60896,2,0,L|207:39,3,41.9999990758896,2|2|2|2,0:0|0:0|0:0|0:0,0:0:0:0:
241,41,61346,5,4,3:2:0:0:
340,108,61571,1,8,0:0:0:0:
340,108,61683,1,2,0:0:0:0:
340,108,61795,2,0,L|386:99,2,41.9999990758896,2|2|2,3:2|0:0|3:2,0:0:0:0:
258,181,62245,1,10,3:2:0:0:
359,245,62469,1,2,3:2:0:0:
359,245,62582,1,2,3:2:0:0:
359,245,62694,6,0,P|344:289|339:335,2,83.9999981517792,2|10|2,3:2|3:2|3:2,0:0:0:0:
258,181,63368,1,2,3:2:0:0:
172,250,63593,1,10,3:2:0:0:
168,274,63705,1,2,3:2:0:0:
164,299,63818,1,2,3:2:0:0:
159,323,63930,1,2,3:2:0:0:
156,348,64043,6,0,B|103:342|131:319|65:310,1,83.9999981517792,4|10,3:2|3:2,0:0:0:0:
55,280,64380,1,2,3:2:0:0:
55,280,64492,2,0,P|27:275|1:267,2,41.9999990758896,2|2|2,3:2|3:2|3:2,0:0:0:0:
74,172,64941,2,0,L|37:121,2,41.9999990758896,10|2|2,3:2|3:2|3:2,0:0:0:0:
174,218,65391,6,0,B|201:183|201:183|179:144|179:144|160:135|160:135|139:96|139:96|156:70,1,167.999996303558,4|2,3:2|3:2,0:0:0:0:
220,4,66065,2,0,P|252:22|303:30,1,83.9999981517792,4|10,3:2|3:2,0:0:0:0:
369,126,66514,5,2,3:2:0:0:
369,126,66627,1,2,0:0:0:0:
369,126,66739,1,4,3:2:0:0:
452,56,66964,2,0,P|459:30|469:-2,2,41.9999990758896,10|2|2,3:2|3:2|3:2,0:0:0:0:
369,126,67413,1,2,3:2:0:0:
442,207,67638,2,0,P|427:248|416:299,1,83.9999981517792,10|2,3:2|3:2,0:0:0:0:
324,345,68087,6,0,P|207:341|184:247,1,209.999995379448,4|0,3:2|0:0,0:0:0:0:
181,228,68762,2,0,L|223:228,3,41.9999990758896,4|2|10|2,3:2|3:2|3:2|3:2,0:0:0:0:
256,192,69211,2,0,L|255:150,2,41.9999990758896,2|2|4,3:2|3:2|3:2,0:0:0:0:
256,192,69548,12,4,70784,0:0:0:0:
154,301,76177,6,0,P|98:301|46:280,1,112.000000953674,2|0,1:2|0:0,0:0:0:0:
52,248,76851,2,0,P|103:268|159:268,1,112.000000953674,2|2,0:0|1:2,0:0:0:0:
234,218,77525,6,0,P|254:166|254:110,1,112.000000953674,2|0,1:2|0:0,0:0:0:0:
287,119,78199,2,0,P|287:174|266:226,1,112.000000953674,2|2,1:2|0:3,0:0:0:0:
323,296,78873,6,0,P|378:295|430:316,1,112.000000953674,2|0,1:2|0:0,0:0:0:0:
425,349,79547,2,0,P|373:328|317:328,1,112.000000953674,2|2,0:0|0:0,0:0:0:0:
235,361,80222,5,2,3:2:0:0:
235,361,80446,1,2,3:2:0:0:
247,274,80671,1,2,3:2:0:0:
247,274,80896,1,2,3:2:0:0:
161,304,81121,2,0,P|122:307|79:290,1,70.0000005960464,2|2,3:2|3:2,0:0:0:0:
71,272,81458,1,2,3:2:0:0:
71,272,81570,5,4,3:2:0:0:
146,193,81795,1,10,3:2:0:0:
86,101,82019,1,2,0:0:0:0:
170,31,82244,2,0,P|257:59|266:93,1,125.999997227669,2|2,3:2|3:2,0:0:0:0:
265,83,82694,1,2,0:0:0:0:
258,191,82918,6,0,P|242:228|237:278,1,83.9999981517792,2|10,3:2|3:2,0:0:0:0:
211,311,83255,1,2,3:2:0:0:
211,311,83368,2,0,L|166:304,2,41.9999990758896,2|2|2,3:2|3:2|3:2,0:0:0:0:
306,364,83817,2,0,L|347:370,3,41.9999990758896,10|2|2|2,3:2|0:0|3:2|3:2,0:0:0:0:
384,354,84267,6,0,P|396:312|403:256,1,83.9999981517792,2|10,3:2|3:2,0:0:0:0:
370,244,84604,2,0,P|376:202|387:162,1,83.9999981517792,2|10,3:2|3:2,0:0:0:0:
425,134,84941,1,10,3:2:0:0:
495,217,85166,1,10,3:2:0:0:
474,323,85390,1,2,3:2:0:0:
377,373,85615,6,0,P|321:357|248:349,1,125.999997227669,12|0,3:2|3:0,0:0:0:0:
253,349,86064,1,2,3:2:0:0:
146,375,86289,2,0,P|87:315|117:243,1,167.999996303558,2|2,3:2|3:2,0:0:0:0:
154,224,86851,1,2,3:2:0:0:
154,224,86963,5,4,3:2:0:0:
71,152,87188,1,10,3:2:0:0:
187,123,87413,1,0,0:0:0:0:
187,123,87525,1,2,3:2:0:0:
187,123,87637,1,2,3:2:0:0:
263,201,87862,2,0,P|242:260|232:322,1,125.999997227669,10|8,3:2|3:2,0:0:0:0:
232,322,88312,5,2,3:2:0:0:
322,382,88536,1,10,3:2:0:0:
412,320,88761,1,2,3:2:0:0:
365,221,88986,2,0,P|380:148|411:38,1,167.999996303558,2|2,3:2|3:2,0:0:0:0:
383,24,89548,1,2,3:2:0:0:
383,24,89660,6,0,P|341:40|301:41,1,83.9999981517792,4|10,3:2|3:2,0:0:0:0:
302,41,89997,1,4,3:2:0:0:
271,148,90222,1,10,3:2:0:0:
271,148,90334,2,0,P|229:149|190:165,1,83.9999981517792,2|10,3:2|3:2,0:0:0:0:
160,191,90671,1,2,3:2:0:0:
160,191,90783,2,0,L|153:235,2,41.9999990758896,10|10|4,3:2|3:2|3:2,0:0:0:0:
64,136,91233,5,10,3:2:0:0:
48,244,91458,1,2,3:2:0:0:
64,136,91682,2,0,P|116:51|189:63,1,167.999996303558,2|2,3:2|3:2,0:0:0:0:
216,75,92244,1,10,3:2:0:0:
216,75,92357,5,4,3:2:0:0:
298,4,92581,1,2,3:2:0:0:
389,64,92806,1,2,3:2:0:0:
344,164,93031,2,0,P|361:216|371:290,1,125.999997227669,10|10,3:2|3:2,0:0:0:0:
346,321,93480,2,0,P|351:344|354:368,2,41.9999990758896,2|2|10,3:2|3:2|3:2,0:0:0:0:
254,260,93930,5,2,3:2:0:0:
230,268,94042,1,10,3:2:0:0:
205,274,94154,1,2,3:2:0:0:
180,280,94267,1,2,3:2:0:0:
155,286,94379,2,0,P|110:235|125:177,1,125.999997227669,10|2,3:2|3:2,0:0:0:0:
147,155,94828,2,0,L|131:101,2,41.9999990758896,2|2|4,3:2|3:2|3:2,0:0:0:0:
245,102,95278,5,10,3:2:0:0:
245,102,95390,2,0,P|257:55|266:-4,1,83.9999981517792,2|2,3:2|3:2,0:0:0:0:
263,20,95727,1,4,3:2:0:0:
370,0,95952,2,0,P|359:40|351:81,1,83.9999981517792,10|2,3:2|3:2,0:0:0:0:
328,188,96401,6,0,P|413:211|419:300,1,167.999996303558,4|2,3:2|3:2,0:0:0:0:
350,359,97076,2,0,P|310:346|268:339,1,83.9999981517792,2|10,3:2|3:2,0:0:0:0:
242,244,97525,5,2,3:2:0:0:
242,244,97637,1,10,3:2:0:0:
242,244,97750,2,0,P|230:190|215:147,1,83.9999981517792,4|10,3:2|3:2,0:0:0:0:
246,129,98087,1,2,3:2:0:0:
246,129,98199,2,0,L|303:113,2,41.9999990758896,2|10|2,3:2|3:2|3:2,0:0:0:0:
160,59,98649,2,0,P|101:44|53:95,1,125.999997227669,10|2,3:2|3:2,0:0:0:0:
56,84,99098,5,12,3:2:0:0:
29,191,99323,1,12,3:2:0:0:
134,162,99548,1,12,3:2:0:0:
106,267,99772,2,0,P|131:347|223:349,1,167.999996303558,12|10,3:2|3:2,0:0:0:0:
235,327,100334,1,0,0:0:0:0:
235,327,100446,6,0,L|227:268,2,41.9999990758896,4|2|10,3:2|3:2|3:2,0:0:0:0:
352,342,100896,1,2,3:2:0:0:
352,342,101008,1,10,3:2:0:0:
352,342,101121,2,0,L|357:383,2,41.9999990758896,4|2|10,3:2|3:2|3:2,0:0:0:0:
429,264,101570,1,2,3:2:0:0:
328,221,101795,5,12,3:2:0:0:
323,196,101907,1,2,3:2:0:0:
319,171,102019,1,10,3:2:0:0:
315,145,102132,1,2,3:2:0:0:
310,120,102244,1,10,3:2:0:0:
210,92,102469,1,12,3:2:0:0:
210,92,102581,1,2,3:2:0:0:
210,92,102694,2,0,L|218:150,3,41.9999990758896,2|2|2|2,3:2|3:2|3:2|3:2,0:0:0:0:
186,172,103143,1,4,3:2:0:0:
115,312,108536,6,0,P|74:307|29:284,2,77.0000030055046,4|2|2,3:2|3:2|3:2,0:0:0:0:
202,262,109210,2,0,P|218:220|139:141,1,154.000006011009,2|2,3:2|3:2,0:0:0:0:
114,133,109772,1,2,0:0:0:0:
114,133,109885,6,0,P|129:93|141:41,1,77.0000030055046,2|2,3:2|3:2,0:0:0:0:
137,59,110222,1,2,3:2:0:0:
240,73,110446,1,2,3:2:0:0:
240,73,110559,2,0,P|249:35|264:0,2,77.0000030055046,2|2|2,3:2|3:2|3:2,0:0:0:0:
294,157,111233,6,0,P|332:171|372:175,1,77.0000030055046,2|2,3:2|3:2,0:0:0:0:
409,154,111570,1,2,3:2:0:0:
409,154,111682,2,0,P|417:126|424:107,2,38.5000015027523,2|2|2,3:2|3:2|3:2,0:0:0:0:
478,227,112132,1,2,3:2:0:0:
451,323,112357,1,2,3:2:0:0:
352,348,112581,6,0,B|334:352|334:352|259:324|314:292|223:276,1,154.000006011009,2|2,3:2|3:2,0:0:0:0:
139,322,113255,1,2,3:2:0:0:
131,222,113480,2,0,P|136:180|161:134,1,77.0000030055046,2|2,3:2|3:2,0:0:0:0:
168,116,113817,1,2,3:2:0:0:
168,116,113930,6,0,P|114:79|126:32,2,115.500004508257,4|4|4,3:2|3:2|3:2,0:0:0:0:
278,14,114941,2,0,P|313:29|350:37,1,77.0000030055046,2|2,3:2|3:2,0:0:0:0:
350,37,115278,5,12,3:2:0:0:
409,125,115503,1,2,3:2:0:0:
409,125,115615,2,0,P|393:160|388:214,1,77.0000030055046,12|2,3:2|3:2,0:0:0:0:
351,224,115952,2,0,P|313:215|274:202,1,77.0000030055046,12|2,3:2|3:2,0:0:0:0:
255,166,116289,1,12,3:2:0:0:
170,216,116514,1,2,3:2:0:0:
170,216,116626,6,0,P|154:251|149:305,2,77.0000030055046,12|2|0,3:2|3:2|0:0,0:0:0:0:
121,128,117300,1,12,3:2:0:0:
39,184,117525,1,2,3:2:0:0:
39,184,117637,2,0,P|33:221|17:256,1,77.0000030055046,12|2,3:2|3:2,0:0:0:0:
16,256,117975,5,12,3:2:0:0:
68,348,118199,1,0,3:0:0:0:
148,288,118424,1,0,3:0:0:0:
200,373,118649,1,4,3:1:0:0:
387,292,119098,5,2,3:2:0:0:
387,292,119210,1,2,3:2:0:0:
387,292,119323,2,0,P|435:277|474:270,1,83.9999981517792,4|10,3:2|3:2,0:0:0:0:
492,241,119660,1,2,3:2:0:0:
492,241,119772,1,10,3:2:0:0:
408,170,119997,2,0,P|415:128|432:80,1,83.9999981517792,4|10,3:2|3:2,0:0:0:0:
452,57,120334,1,2,3:2:0:0:
452,57,120446,2,0,L|520:42,2,41.9999990758896,10|2|12,3:2|3:2|3:2,0:0:0:0:
351,13,120896,5,10,3:2:0:0:
318,117,121121,1,12,3:2:0:0:
294,124,121233,1,2,3:2:0:0:
269,130,121345,1,10,3:2:0:0:
244,136,121458,1,2,3:2:0:0:
219,141,121570,2,0,P|229:88|243:35,1,83.9999981517792,10|10,3:2|3:2,0:0:0:0:
141,4,122019,5,12,3:2:0:0:
58,73,122244,1,10,3:2:0:0:
58,73,122357,1,2,3:2:0:0:
58,73,122469,2,0,L|2:63,2,41.9999990758896,10|2|12,3:2|3:2|3:2,0:0:0:0:
118,164,122918,1,12,3:2:0:0:
30,230,123143,1,12,3:2:0:0:
94,318,123368,6,0,P|140:329|186:328,1,83.9999981517792,12|10,3:2|3:2,0:0:0:0:
294,339,123817,1,10,3:2:0:0:
294,339,123930,1,10,3:2:0:0:
294,339,124042,2,0,B|305:238|236:275|254:183,1,167.999996303558,4|4,3:2|3:2,0:0:0:0:
256,83,124716,5,4,3:2:0:0:
256,83,126064,1,2,3:2:0:0:
344,129,126289,1,2,3:2:0:0:
419,63,126514,2,0,L|429:3,2,38.5000015027523,2|2|2,3:2|0:0|3:2,0:0:0:0:
344,129,126963,2,0,P|334:166|331:210,1,77.0000030055046,2|2,3:2|3:2,0:0:0:0:
359,239,127300,1,2,3:2:0:0:
359,239,127413,5,4,3:2:0:0:
438,317,127637,1,2,3:2:0:0:
438,317,127750,1,2,0:0:0:0:
438,317,127862,2,0,P|471:320|496:321,2,38.5000015027523,2|2|2,3:2|0:0|3:2,0:0:0:0:
352,370,128312,1,2,3:2:0:0:
279,301,128536,1,2,3:2:0:0:
359,239,128761,6,0,P|367:155|296:121,1,154.000006011009,2|2,3:2|3:2,0:0:0:0:
273,117,129323,1,2,3:2:0:0:
273,117,129435,2,0,P|267:154|256:202,1,77.0000030055046,10|10,3:2|3:2,0:0:0:0:
179,268,129885,1,10,3:2:0:0:
95,217,130109,5,4,3:2:0:0:
95,217,130222,1,2,0:0:0:0:
95,217,130334,2,0,P|102:184|107:152,3,41.9999990758896,2|2|2|2,3:2|0:0|3:2|0:0,0:0:0:0:
84,135,130783,1,2,3:2:0:0:
51,41,131008,1,2,3:2:0:0:
51,41,131121,1,2,3:2:0:0:
51,41,131233,2,0,P|7:31|-15:24,2,41.9999990758896,2|2|2,3:2|3:2|3:2,0:0:0:0:
156,11,131682,5,2,3:2:0:0:
162,35,131795,1,2,3:2:0:0:
169,59,131907,1,2,3:2:0:0:
175,83,132019,1,2,3:2:0:0:
183,107,132132,1,2,3:2:0:0:
265,35,132357,1,2,3:2:0:0:
369,65,132581,1,2,3:2:0:0:
395,171,132806,6,0,P|401:207|417:256,1,83.9999981517792,4|2,3:2|3:2,0:0:0:0:
366,349,133255,5,4,3:2:0:0:
146,349,133705,5,4,3:2:0:0:
256,192,134154,5,4,3:2:0:0:
256,192,134267,12,4,135503,0:0:0:0:
