osu file format v14

[General]
AudioFilename: audio.mp3
AudioLeadIn: 0
PreviewTime: 47357
Countdown: 0
SampleSet: Soft
StackLeniency: 0.7
Mode: 0
LetterboxInBreaks: 0
WidescreenStoryboard: 1

[Editor]
DistanceSpacing: 0.8
BeatDivisor: 4
GridSize: 16
TimelineZoom: 2.3

[Metadata]
Title:Chronoexplorers (feat. Finite Limit)
TitleUnicode:Chronoexplorers (feat. Finite Limit)
Artist:takehirotei
ArtistUnicode:takehirotei
Creator:Garden
Version:Finale
Source:
Tags:ibell bellicose dahkjdas Instrumental Electronic Finale Destination NotThatRecords Imaginary Reality ft. 音​​​ゲ​​​ー​​​ROULETTE Vol 2. otoge
BeatmapID:4574993
BeatmapSetID:2168355

[Difficulty]
HPDrainRate:6
CircleSize:4
OverallDifficulty:9.2
ApproachRate:9.8
SliderMultiplier:2.00000000596046
SliderTickRate:1

[Events]
//Background and Video events
0,0,"photo-1577436705536-4f2b677b1639_edit.jpg",0,0
//Break Periods
2,70984,75248
//Storyboard Layer 0 (Background)
//Storyboard Layer 1 (Fail)
//Storyboard Layer 2 (Pass)
//Storyboard Layer 3 (Foreground)
//Storyboard Layer 4 (Overlay)
//Storyboard Sound Samples

[TimingPoints]
-675,224.719101123595,6,2,1,40,1,0
448,-500,6,2,1,40,0,0
672,224.719101123595,6,2,1,40,1,0
672,-500,6,2,1,40,0,0
4492,-250,6,2,1,40,0,0
5615,-133.333333333333,6,2,1,60,0,0
6065,-111.111111111111,6,2,1,70,0,0
6289,-133.333333333333,6,2,1,70,0,0
10110,-100,6,2,1,70,0,0
10784,-125,6,2,1,70,0,0
11458,-200,6,2,1,70,0,0
12525,-166.666666666667,6,2,1,5,0,0
12582,-100,6,2,1,70,0,0
12807,224.719101123595,6,2,1,80,1,0
12807,-125,6,2,1,80,0,0
17301,-83.3333333333333,6,2,1,80,0,0
17526,-100,6,2,1,80,0,0
17750,-83.3333333333333,6,2,1,80,0,0
17863,-90.9090909090909,6,2,1,80,0,0
18200,-83.3333333333333,6,2,1,80,0,0
20896,-100,6,2,1,80,0,0
23368,-250,6,2,1,50,0,0
28762,-133.333333333333,6,2,1,60,0,0
28986,-125,6,2,1,70,0,0
33031,-166.666666666667,6,2,1,70,0,0
34380,-111.111111111111,6,2,1,70,0,0
39099,-133.333333333333,6,2,1,70,0,0
39548,-111.111111111111,6,2,1,70,0,0
42470,224.719101123595,6,2,1,75,1,0
46514,-80,6,2,1,75,0,0
47863,-100,6,2,1,90,0,0
51908,-133.333333333333,6,2,1,90,0,0
53031,-80,6,2,1,90,0,0
53256,-100,6,2,1,90,0,0
58425,-100,6,2,1,75,0,0
59998,-80,6,2,1,90,0,0
60447,-66.6666666666667,6,2,1,90,0,0
60672,-80,6,2,1,90,0,0
61346,-100,6,2,1,90,0,0
69436,-200,6,2,1,90,0,0
69492,-200,6,2,1,60,0,0
70784,224.719101123595,6,2,1,60,1,0
76177,-133.333333333333,6,2,1,70,0,0
80222,-100,6,2,1,75,0,0
81570,-90.9090909090909,6,2,1,90,0,0
84491,-66.6666666666667,6,2,1,90,0,0
84604,-90.9090909090909,6,2,1,90,0,0
84828,-66.6666666666667,6,2,1,90,0,0
85615,-83.3333333333333,6,2,1,90,0,0
86963,-90.9090909090909,6,2,1,90,0,0
89885,-66.6666666666667,6,2,1,90,0,0
89997,-90.9090909090909,6,2,1,90,0,0
90222,-66.6666666666667,6,2,1,90,0,0
91008,-83.3333333333333,6,2,1,90,0,0
103143,-250,6,2,1,75,0,0
103255,-250,6,2,1,60,0,0
107862,-133.333333333333,6,2,1,70,0,0
108536,-111.111111111111,6,2,1,80,0,0
111233,-100,6,2,1,80,0,0
113930,-100,6,2,1,85,0,0
117975,-250,6,2,1,85,0,0
119098,-66.6666666666667,6,2,1,85,0,0
119323,-83.3333333333333,6,2,1,90,0,0
122694,-76.9230769230769,6,2,1,90,0,0
123592,-71.4285714285714,6,2,1,90,0,0
126064,-133.333333333333,6,2,1,70,0,0
127413,-100,6,2,1,80,0,0
130109,-90.9090909090909,6,2,1,90,0,0
132806,-133.333333333333,6,2,1,90,0,0
134154,-285.714285714284,6,2,1,90,0,0
135503,240,6,2,1,60,1,0
135743,-200,6,2,1,60,0,0
136943,255.31914893617,6,2,1,60,1,0
136943,-200,6,2,1,60,0,0
137708,263.157894736843,6,2,1,60,1,0
137708,-200,6,2,1,60,0,0
138497,301.507537688442,6,2,1,50,1,0
138497,-200,6,2,1,50,0,0
139401,363.636363636364,6,2,1,50,1,0
139401,-200,6,2,1,50,0,0
139764,454.545454545455,6,2,1,50,1,0
139764,-200,6,2,1,50,0,0
140218,606.060606060606,6,2,1,50,1,0
140218,-200,6,2,1,50,0,0
140824,606.060606060606,6,2,1,40,1,0
142036,-100,6,2,1,30,0,0
143248,-100,6,2,1,20,0,0
144460,-100,6,2,1,10,0,0
145672,-100,6,2,1,5,0,0

[Colours]
Combo1 : 197,139,139
Combo2 : 255,139,83

[HitObjects]
256,368,448,5,0,0:0:0:0:
272,352,560,1,0,0:0:0:0:
250,343,673,1,2,0:0:0:0:
338,272,896,1,2,0:0:0:0:
204,196,1121,1,2,0:0:0:0:
342,42,1346,1,2,0:0:0:0:
256,368,1795,5,0,0:0:0:0:
240,352,1907,1,0,0:0:0:0:
262,343,2020,1,2,0:0:0:0:
174,272,2245,1,2,0:0:0:0:
308,196,2469,1,2,0:0:0:0:
170,42,2694,1,2,0:0:0:0:
256,368,3143,5,0,0:0:0:0:
272,352,3256,1,0,0:0:0:0:
250,343,3368,1,2,0:0:0:0:
338,272,3593,1,2,0:0:0:0:
204,196,3818,1,2,0:0:0:0:
342,42,4042,2,0,P|346:21|354:-3,1,40.0000001192092,2|0,0:0|0:0,0:0:0:0:
329,50,4492,6,0,P|323:69|319:88,1,40.0000001192092,2|0,0:0|0:0,0:0:0:0:
256,368,4716,5,2,0:0:0:0:
256,336,4941,5,0,0:0:0:0:
256,288,5166,5,0,0:0:0:0:
256,192,5391,5,4,0:3:0:0:
256,192,5840,6,0,B|242:156|275:154|256:119,1,75.0000030845403,4|0,0:3|0:0,0:0:0:0:
326,61,6065,6,0,B|201:65|284:128|171:132,1,179.999995043278,4|0,1:2|1:0,0:0:0:0:
111,75,6402,1,0,1:0:0:0:
58,23,6514,2,0,P|72:65|116:68,1,75.0000030845403,2|0,1:2|0:0,0:0:0:0:
176,217,6739,2,0,P|105:234|69:298,1,150.000006169081,2|0,1:2|1:0,0:0:0:0:
380,354,7188,1,2,1:2:0:0:
428,346,7301,1,2,0:0:0:0:
442,298,7413,6,0,P|406:234|336:217,1,150.000006169081,4|0,1:2|1:0,0:0:0:0:
271,92,7750,1,2,0:0:0:0:
258,177,7863,1,2,1:2:0:0:
313,173,7975,1,2,0:0:0:0:
350,144,8087,1,2,1:2:0:0:
356,110,8200,1,2,0:0:0:0:
349,91,8312,2,0,P|382:48|369:10,1,75.0000030845403,2|0,1:2|0:0,0:0:0:0:
421,168,8537,2,0,P|424:204|458:226,1,75.0000030845403,2|0,1:2|0:0,0:0:0:0:
256,368,8761,5,4,1:2:0:0:
256,368,8986,2,0,P|185:371|158:306,1,150.000006169081,2|0,1:2|1:0,0:0:0:0:
221,242,9323,1,0,0:0:0:0:
73,308,9436,2,0,P|167:257|196:125,1,225.000009253621,2|0,1:2|0:0,0:0:0:0:
81,61,9885,2,0,P|124:109|118:136,1,75.0000030845403,2|0,1:2|0:0,0:0:0:0:
90,215,10110,5,4,3:2:0:0:
3,231,10222,2,0,L|123:195,1,100.000000298023,4|0,3:2|0:0,0:0:0:0:
422,169,10447,5,4,3:2:0:0:
509,153,10559,2,0,L|389:189,1,100.000000298023,4|0,3:2|0:0,0:0:0:0:
183,180,10784,5,4,3:2:0:0:
160,267,10896,2,0,B|187:228|157:233|188:180,1,80.0000002384184,4|0,3:2|0:0,0:0:0:0:
329,204,11121,5,4,3:2:0:0:
352,117,11233,2,0,B|325:156|355:151|324:204,1,80.0000002384184,4|0,3:2|0:0,0:0:0:0:
256,368,11458,6,2,B|295:318|277:245|223:216|211:250|159:240|101:194|121:142|130:55|203:42|279:61|255:128,1,475.000001415609,6|2,3:2|0:1,0:1:0:0:
241,128,12582,6,0,P|227:107|236:82,1,50.0000001490115,2|0,0:0|0:0,0:0:0:0:
308,188,12694,2,0,P|338:194|353:216,1,50.0000001490115,2|0,0:0|0:0,0:0:0:0:
223,218,12807,6,0,P|206:250|159:280,1,80.0000002384184,4|0,3:2|0:0,0:0:0:0:
18,261,13031,2,0,P|57:257|91:236,1,80.0000002384184,2|0,3:2|0:0,0:0:0:0:
121,150,13256,2,0,P|84:151|35:125,1,80.0000002384184,2|0,3:2|0:0,0:0:0:0:
348,384,13481,6,0,P|315:367|286:320,1,80.0000002384184,4|0,3:2|0:0,0:0:0:0:
305,179,13705,2,0,P|308:218|329:252,1,80.0000002384184,2|0,3:2|0:0,0:0:0:0:
416,282,13930,2,0,P|414:245|440:196,1,80.0000002384184,2|0,3:2|0:0,0:0:0:0:
496,34,14155,5,2,3:2:0:0:
496,34,14380,5,2,3:2:0:0:
512,71,14492,1,2,0:0:0:0:
441,119,14604,2,0,P|401:118|360:80,1,80.0000002384184,2|0,3:2|0:0,0:0:0:0:
284,75,14829,2,0,L|257:0,1,80.0000002384184,2|0,3:2|0:0,0:0:0:0:
49,135,15054,5,2,3:2:0:0:
60,175,15166,1,2,3:2:0:0:
111,199,15278,1,2,3:2:0:0:
178,167,15391,1,2,3:2:0:0:
248,212,15503,6,0,P|249:251|224:280,1,80.0000002384184,4|0,3:2|0:0,0:0:0:0:
53,287,15728,1,2,3:2:0:0:
34,317,15840,1,2,0:0:0:0:
100,367,15953,2,0,P|143:358|203:347,1,80.0000002384184,2|0,3:2|0:0,0:0:0:0:
264,212,16177,6,0,P|263:251|288:280,1,80.0000002384184,4|0,3:2|0:0,0:0:0:0:
459,287,16402,1,2,3:2:0:0:
478,317,16514,1,2,0:0:0:0:
412,367,16627,2,0,P|369:358|309:347,1,80.0000002384184,2|0,3:2|0:0,0:0:0:0:
420,219,16851,6,0,P|452:179|509:179,1,80.0000002384184,2|0,3:2|0:0,0:0:0:0:
325,38,17076,2,0,P|392:88|379:143,1,120.000000357628,2|0,3:2|0:0,0:0:0:0:
378,129,17301,6,0,P|355:149|326:150,1,59.9999983477592,2|0,3:2|0:0,0:0:0:0:
256,107,17413,2,0,P|234:88|236:59,1,59.9999983477592,0|0,3:0|0:0,0:0:0:0:
256,192,17526,6,0,B|208:182|182:209|197:219|160:255|124:241,1,150.000000447035,12|0,3:2|0:0,0:0:0:0:
102,208,17750,2,0,L|160:221,1,59.9999983477592,2|0,3:2|0:0,0:0:0:0:
249,200,17863,6,0,P|154:181|22:145,1,220.000007369518,12|0,3:2|3:0,0:0:0:0:
147,4,18200,5,4,3:2:0:0:
160,35,18312,1,0,3:0:0:0:
236,59,18424,5,10,3:2:0:0:
256,107,18537,1,0,3:0:0:0:
331,136,18649,5,2,3:2:0:0:
363,206,18762,1,0,3:0:0:0:
447,232,18874,5,2,3:2:0:0:
490,322,18986,1,0,3:0:0:0:
490,322,19042,1,0,3:0:0:0:
490,322,19099,2,0,P|456:365|382:355,1,119.999996695518,10|0,3:2|3:0,0:0:0:0:
455,239,19323,5,0,3:0:0:0:
455,239,19380,1,0,3:0:0:0:
455,239,19436,2,0,P|491:213|494:179,1,59.9999983477592,2|0,3:2|3:0,0:0:0:0:
405,34,19548,6,0,P|464:75|464:131,1,119.999996695518,2|0,3:2|3:0,0:0:0:0:
343,295,19773,2,0,P|284:254|284:198,1,119.999996695518,10|0,3:2|3:0,0:0:0:0:
289,182,19941,1,0,3:0:0:0:
289,182,19998,2,0,P|353:171|395:112,1,119.999996695518,2|0,3:2|3:0,0:0:0:0:
141,63,20222,5,4,3:2:0:0:
223,38,20335,1,0,3:0:0:0:
301,93,20447,1,10,3:2:0:0:
301,93,20503,1,2,3:2:0:0:
301,93,20559,1,2,3:2:0:0:
289,182,20672,5,2,3:2:0:0:
249,168,20728,1,0,3:0:0:0:
209,181,20784,1,2,3:2:0:0:
188,217,20840,1,0,3:0:0:0:
200,256,20896,2,0,P|324:303|338:378,1,200.000000596046,4|8,3:2|3:2,0:0:0:0:
300,377,21177,1,0,3:0:0:0:
302,380,21233,2,0,P|313:348|326:319,1,50.0000001490115,2|0,3:2|3:0,0:0:0:0:
447,204,21346,2,0,P|426:255|402:317,1,100.000000298023,2|0,3:2|3:0,0:0:0:0:
218,343,21571,5,2,3:2:0:0:
179,331,21627,1,0,3:0:0:0:
141,317,21683,1,2,3:2:0:0:
103,303,21739,1,0,3:0:0:0:
65,289,21795,1,10,3:2:0:0:
0,173,21908,1,0,3:0:0:0:
0,173,21964,1,0,3:0:0:0:
0,173,22020,2,0,P|42:188|100:205,1,100.000000298023,2|0,3:2|3:0,0:0:0:0:
256,64,22245,5,4,3:2:0:0:
256,64,22469,1,10,3:2:0:0:
192,128,22582,1,2,3:2:0:0:
256,192,22694,1,2,3:2:0:0:
320,256,22806,1,2,3:2:0:0:
256,320,22919,1,2,3:2:0:0:
256,320,23368,2,0,P|232:325|208:341,1,40.0000001192092,2|0,0:0|0:0,0:0:0:0:
445,369,23593,5,2,0:0:0:0:
415,294,23818,1,0,0:0:0:0:
456,225,24042,1,2,0:0:0:0:
471,230,24267,1,2,0:0:0:0:
483,234,24717,2,0,P|471:209|463:180,1,40.0000001192092,2|0,0:0|0:0,0:0:0:0:
491,119,24941,6,0,P|396:101|362:48,1,160.000000476837,2|0,0:0|0:0,0:0:0:0:
485,109,25615,1,2,0:0:0:0:
393,137,25840,1,2,0:0:0:0:
353,224,26065,1,0,0:0:0:0:
388,313,26290,6,0,P|337:253|260:246,1,160.000000476837,2|0,0:0|0:0,0:0:0:0:
247,256,26851,1,0,0:0:0:0:
294,342,26964,1,2,0:0:0:0:
122,384,27189,1,2,0:0:0:0:
18,243,27413,1,0,0:0:0:0:
113,89,27638,6,0,P|164:149|241:156,1,160.000000476837,2|0,0:0|0:0,0:0:0:0:
256,141,28200,1,0,0:0:0:0:
256,48,28312,1,4,1:3:0:0:
256,48,28762,2,0,P|210:42|192:9,1,75.0000030845403,4|0,1:3|0:0,0:0:0:0:
332,96,28986,6,0,P|409:103|459:163,1,160.000000476837,4|0,1:3|0:0,0:0:0:0:
445,173,29323,1,0,1:0:0:0:
425,84,29436,2,0,P|438:51|485:30,1,80.0000002384184,2|0,1:2|0:0,0:0:0:0:
342,282,29660,1,2,1:2:0:0:
342,282,29885,2,0,L|507:242,1,160.000000476837,2|0,1:2|1:0,0:0:0:0:
511,259,30222,1,2,0:0:0:0:
475,341,30335,6,0,L|380:364,1,80.0000002384184,4|0,1:2|0:0,0:0:0:0:
256,304,30559,1,2,1:2:0:0:
273,225,30672,1,2,1:2:0:0:
244,150,30784,1,2,1:2:0:0:
169,120,30896,1,2,1:2:0:0:
94,150,31009,1,2,1:2:0:0:
248,297,31233,5,0,1:0:0:0:
281,232,31346,1,0,1:0:0:0:
349,211,31458,1,0,1:0:0:0:
416,237,31571,1,0,1:0:0:0:
488,204,31683,6,0,P|491:123|425:57,1,160.000000476837,4|2,1:2|0:0,0:0:0:0:
338,0,32020,1,2,0:0:0:0:
358,81,32132,2,0,P|307:114|263:108,1,80.0000002384184,2|0,1:2|0:0,0:0:0:0:
85,0,32357,6,0,P|162:-1|218:53,1,160.000000476837,4|2,1:2|1:2,0:0:0:0:
218,53,32638,1,2,0:0:0:0:
218,53,32694,1,2,0:0:0:0:
207,145,32806,2,0,P|176:189|192:242,1,80.0000002384184,2|0,1:2|0:0,0:0:0:0:
351,322,33031,5,2,1:2:0:0:
362,318,33256,1,2,1:2:0:0:
367,307,33481,1,2,1:2:0:0:
360,295,33705,6,0,B|301:256|222:322|282:328|214:399|136:349,1,239.999993391037,2|2,1:2|0:0,0:0:0:0:
130,351,34267,1,2,0:0:0:0:
100,241,34380,6,0,P|135:268|179:272,1,89.9999975216388,4|0,3:2|0:0,0:0:0:0:
332,271,34604,2,0,P|376:268|412:241,1,89.9999975216388,2|0,3:2|0:0,0:0:0:0:
256,240,34829,2,0,L|256:150,1,89.9999975216388,2|0,1:2|0:0,0:0:0:0:
421,226,35054,6,0,P|377:225|345:195,1,89.9999975216388,2|0,3:2|0:0,0:0:0:0:
166,195,35278,2,0,P|134:225|90:226,1,89.9999975216388,2|0,3:2|0:0,0:0:0:0:
256,128,35503,2,0,L|256:32,1,89.9999975216388,2|0,1:2|0:0,0:0:0:0:
107,29,35728,5,2,3:2:0:0:
96,38,35840,1,0,0:0:0:0:
101,52,35953,5,2,3:2:0:0:
167,112,36065,1,2,0:0:0:0:
256,128,36177,1,2,3:2:0:0:
345,112,36290,1,2,0:0:0:0:
411,52,36402,1,2,1:2:0:0:
401,42,36514,1,2,3:2:0:0:
101,332,36739,1,0,3:0:0:0:
111,342,36851,1,2,3:2:0:0:
192,384,36964,1,2,3:2:0:0:
194,294,37076,6,0,P|153:277|141:236,1,89.9999975216388,4|0,3:2|0:0,0:0:0:0:
370,236,37301,2,0,P|358:277|318:294,1,89.9999975216388,2|0,3:2|0:0,0:0:0:0:
256,224,37526,2,0,L|256:128,1,89.9999975216388,2|0,1:2|0:0,0:0:0:0:
394,158,37750,6,0,B|449:168|419:189|471:199,1,89.9999975216388,2|0,3:2|0:0,0:0:0:0:
40,199,37975,2,0,B|93:189|63:168|118:158,1,89.9999975216388,2|0,3:2|0:0,0:0:0:0:
256,112,38200,2,0,L|256:16,1,89.9999975216388,2|0,1:2|0:0,0:0:0:0:
159,77,38424,5,2,3:2:0:0:
169,90,38537,1,2,3:2:0:0:
353,307,38762,1,2,3:2:0:0:
343,294,38874,1,2,3:2:0:0:
256,256,38986,1,2,3:2:0:0:
169,294,39099,2,0,B|107:294|60:243|110:223|60:158|2:175,1,225.000009253621,2|0,1:2|3:0,0:0:0:0:
13,187,39548,2,0,P|51:185|82:134,1,89.9999975216388,2|0,3:2|0:0,0:0:0:0:
256,112,39773,6,0,P|258:43|146:18,1,179.999995043278,4|2,3:2|3:2,0:0:0:0:
158,96,40110,1,2,3:2:0:0:
246,112,40222,1,2,1:2:0:0:
277,196,40335,1,2,3:2:0:0:
228,271,40447,5,2,1:2:0:0:
217,326,40559,1,2,0:0:0:0:
245,355,40672,1,2,3:2:0:0:
267,359,40784,2,0,P|317:348|350:312,1,89.9999975216388,2|0,0:0|3:0,0:0:0:0:
454,188,41009,1,2,0:0:0:0:
496,269,41121,6,0,P|449:280|366:172,1,179.999995043278,2|2,3:2|3:2,0:0:0:0:
450,7,41458,1,2,0:0:0:0:
367,52,41571,2,0,P|379:106|410:115,1,89.9999975216388,2|0,3:2|0:0,0:0:0:0:
502,114,41795,1,2,1:2:0:0:
417,110,41908,2,0,P|353:173|264:176,1,179.999995043278,2|0,3:2|0:0,0:0:0:0:
198,119,42245,2,0,P|170:84|174:40,1,89.9999975216388,2|0,3:2|0:0,0:0:0:0:
57,379,42469,5,4,3:2:0:0:
118,312,42582,1,2,3:2:0:0:
207,320,42694,1,2,3:2:0:0:
277,262,42807,1,2,3:2:0:0:
360,295,42919,1,2,3:2:0:0:
57,379,43144,6,0,P|41:323|13:272,1,100.000000298023,2|2,1:2|1:2,0:0:0:0:
22,285,43312,1,0,1:0:0:0:
22,285,43368,1,0,1:0:0:0:
78,211,43481,1,0,1:0:0:0:
172,226,43593,2,0,P|188:282|216:333,1,100.000000298023,2|2,1:2|1:2,0:0:0:0:
363,303,43818,5,4,3:2:0:0:
430,242,43930,1,2,3:2:0:0:
422,153,44043,1,2,3:2:0:0:
480,83,44155,1,2,3:2:0:0:
447,0,44267,1,2,3:2:0:0:
363,303,44492,6,0,P|352:270|337:242,1,50.0000001490115,2|2,1:2|0:0,0:0:0:0:
376,314,44604,2,0,P|413:326|435:343,1,50.0000001490115,2|2,1:2|0:0,0:0:0:0:
430,242,44717,1,2,0:0:0:0:
422,153,44829,5,2,1:2:0:0:
452,157,44885,1,2,1:2:0:0:
478,141,44941,1,2,1:2:0:0:
489,112,44998,1,2,1:2:0:0:
480,83,45054,1,2,1:2:0:0:
440,4,45166,5,4,3:2:0:0:
379,71,45278,1,2,3:2:0:0:
290,63,45391,1,2,3:2:0:0:
220,121,45503,1,2,3:2:0:0:
137,88,45616,1,2,3:2:0:0:
256,384,45840,5,4,3:2:0:0:
256,368,46065,1,4,3:2:0:0:
256,352,46290,1,4,3:2:0:0:
256,336,46514,6,0,B|247:295|266:318|257:274,3,62.5000001862644,4|2|2|2,3:2|3:2|3:2|3:2,0:0:0:0:
256,192,46739,5,2,3:2:0:0:
240,176,46795,1,2,3:2:0:0:
256,160,46852,1,2,3:2:0:0:
272,144,46908,1,2,3:2:0:0:
256,128,46964,1,2,3:2:0:0:
240,112,47020,1,2,3:2:0:0:
256,96,47076,1,2,3:2:0:0:
272,80,47132,1,2,3:2:0:0:
256,64,47189,1,4,3:2:0:0:
194,1,47301,5,0,3:0:0:0:
194,1,47357,1,0,3:0:0:0:
194,1,47413,2,0,P|143:66|179:106,1,125.000000372529,4|0,3:2|3:0,0:0:0:0:
355,92,47582,1,0,3:0:0:0:
355,92,47638,2,0,P|366:34|318:0,1,125.000000372529,4|0,3:2|3:0,0:0:0:0:
256,96,47863,6,0,P|356:117|399:203,1,200.000000596046,4|10,3:2|3:2,0:0:0:0:
502,308,48200,1,2,0:0:0:0:
454,384,48312,2,0,P|506:358|505:307,1,100.000000298023,2|0,3:2|0:0,0:0:0:0:
464,129,48537,2,0,L|398:317,1,200.000000596046,2|10,3:2|3:2,0:0:0:0:
397,317,48818,1,2,0:0:0:0:
397,317,48874,1,2,0:0:0:0:
316,341,48986,2,0,P|289:308|309:252,1,100.000000298023,2|0,3:2|0:0,0:0:0:0:
485,208,49211,5,2,3:2:0:0:
464,129,49323,1,0,0:0:0:0:
501,26,49436,5,10,3:2:0:0:
451,120,49548,1,2,0:0:0:0:
352,141,49661,1,2,3:2:0:0:
268,108,49773,1,2,0:0:0:0:
256,96,49885,2,0,B|196:83|230:58|167:45,1,100.000000298023,2|0,3:2|0:0,0:0:0:0:
42,87,50110,5,10,3:2:0:0:
69,161,50222,1,2,3:2:0:0:
157,181,50335,5,2,3:2:0:0:
67,175,50447,1,2,3:2:0:0:
2,251,50559,6,0,P|26:350|119:370,1,200.000000596046,2|10,3:2|3:2,0:0:0:0:
256,384,50896,1,2,0:0:0:0:
189,338,51009,1,0,3:0:0:0:
205,249,51121,1,2,0:0:0:0:
293,196,51234,2,0,P|384:223|402:317,1,200.000000596046,2|10,3:2|3:2,0:0:0:0:
419,348,51514,1,2,3:2:0:0:
419,348,51571,2,0,P|388:340|356:329,1,50.0000001490115,2|2,3:2|0:0,0:0:0:0:
421,241,51683,5,2,3:2:0:0:
449,233,51739,1,2,3:2:0:0:
468,210,51795,1,2,3:2:0:0:
467,179,51852,1,2,3:2:0:0:
447,158,51908,1,12,3:2:0:0:
378,105,52020,2,0,P|391:65|410:20,1,75.0000030845403,2|0,0:0|0:0,0:0:0:0:
491,17,52245,1,10,3:2:0:0:
403,34,52357,2,0,P|363:20|318:2,1,75.0000030845403,2|0,0:0|0:0,0:0:0:0:
181,90,52582,6,0,B|255:66|314:118|269:150|327:191|370:183,1,225.000009253621,12|0,3:2|3:0,0:0:0:0:
391,180,52975,1,0,3:0:0:0:
391,180,53031,2,0,P|413:151|411:112,1,62.5000001862644,2|0,3:2|0:0,0:0:0:0:
420,259,53144,2,0,P|458:269|481:290,1,62.5000001862644,2|0,3:2|0:0,0:0:0:0:
490,188,53256,6,0,P|442:205|271:263,1,200.000000596046,4|10,3:2|3:2,0:0:0:0:
194,323,53593,1,2,0:0:0:0:
281,348,53705,1,2,3:2:0:0:
199,308,53818,1,2,0:0:0:0:
169,212,53930,1,2,3:2:0:0:
218,113,54043,1,2,0:0:0:0:
180,27,54155,5,10,3:2:0:0:
168,14,54211,1,2,0:0:0:0:
151,18,54267,1,2,0:0:0:0:
79,71,54380,2,0,P|95:126|135:126,1,100.000000298023,2|0,3:2|0:0,0:0:0:0:
272,40,54604,5,2,3:2:0:0:
307,22,54679,1,2,0:0:0:0:
342,40,54754,1,2,0:0:0:0:
355,77,54829,5,10,3:2:0:0:
313,98,54904,1,2,0:0:0:0:
301,143,54979,1,2,0:0:0:0:
327,181,55054,5,2,3:2:0:0:
378,168,55129,1,2,0:0:0:0:
421,198,55204,1,2,0:0:0:0:
426,250,55278,6,0,P|412:304|319:319,1,150.000000447035,2|0,3:2|0:0,0:0:0:0:
303,305,55503,2,0,B|243:309|279:336|213:342,1,100.000000298023,10|0,3:2|0:0,0:0:0:0:
74,179,55728,5,2,3:2:0:0:
42,203,55784,1,0,3:0:0:0:
40,242,55840,1,2,3:2:0:0:
62,275,55896,1,0,3:0:0:0:
101,284,55953,2,0,P|149:272|198:259,1,100.000000298023,4|0,3:2|0:0,0:0:0:0:
411,100,56177,2,0,P|363:112|314:125,1,100.000000298023,10|0,3:2|0:0,0:0:0:0:
303,305,56402,6,0,P|351:270|337:217,1,100.000000298023,2|0,3:2|3:0,0:0:0:0:
209,79,56627,2,0,P|161:114|175:167,1,100.000000298023,2|0,3:2|3:0,0:0:0:0:
167,156,56795,1,0,3:0:0:0:
172,162,56852,6,0,P|195:181|215:181,1,50.0000001490115,10|0,3:2|3:0,0:0:0:0:
340,222,56964,2,0,P|317:203|297:203,1,50.0000001490115,2|0,3:2|3:0,0:0:0:0:
217,193,57076,5,2,3:2:0:0:
295,191,57189,1,2,3:2:0:0:
210,202,57301,6,0,B|170:250|169:208|128:256,1,100.000000298023,2|0,3:2|0:0,0:0:0:0:
302,182,57526,2,0,B|341:133|342:175|383:127,1,100.000000298023,10|0,3:2|0:0,0:0:0:0:
83,178,57750,6,0,B|20:154|63:142|5:118,1,100.000000298023,2|0,3:2|3:0,0:0:0:0:
429,206,57975,2,0,B|492:230|449:242|506:265,1,100.000000298023,2|0,3:2|3:0,0:0:0:0:
195,354,58200,6,0,B|217:293|233:333|256:278,1,100.000000298023,10|0,3:2|3:0,0:0:0:0:
267,273,58368,1,0,3:0:0:0:
278,267,58425,5,4,3:2:0:0:
256,192,58537,1,2,3:0:0:0:
234,117,58649,1,2,3:0:0:0:
256,0,58874,5,2,0:3:0:0:
293,12,58986,1,2,0:3:0:0:
307,49,59099,1,2,0:3:0:0:
321,86,59211,1,2,0:3:0:0:
358,99,59323,1,2,0:3:0:0:
457,73,59548,5,2,0:3:0:0:
447,70,59604,1,2,0:3:0:0:
437,66,59661,1,2,0:3:0:0:
367,101,59773,1,2,0:3:0:0:
342,176,59885,1,2,0:3:0:0:
390,241,59998,6,0,P|386:271|362:288,1,62.5000001862644,6|0,3:2|0:0,0:0:0:0:
390,241,60110,2,0,P|428:229|441:202,1,62.5000001862644,2|0,3:2|0:0,0:0:0:0:
450,309,60222,6,0,P|464:347|454:388,1,62.5000001862644,2|0,3:2|0:0,0:0:0:0:
459,303,60335,2,0,P|505:328|529:319,1,62.5000001862644,2|0,3:2|0:0,0:0:0:0:
376,313,60447,6,0,B|326:311|352:287|288:289,1,75.0000030845403,2|0,3:2|0:0,0:0:0:0:
465,229,60559,2,0,B|471:186|444:203|454:154,1,75.0000030845403,2|0,3:2|0:0,0:0:0:0:
337,179,60672,6,0,B|279:140|319:129|252:82,1,125.000000372529,2|2,3:2|3:2,0:0:0:0:
224,48,60840,1,2,0:0:0:0:
256,0,60896,5,2,0:0:0:0:
256,8,61009,5,2,0:0:0:0:
256,16,61121,5,2,0:0:0:0:
256,24,61234,5,2,0:0:0:0:
256,32,61346,6,0,P|220:92|84:100,1,200.000000596046,4|8,3:2|0:0,0:0:0:0:
0,290,61683,1,2,0:0:0:0:
44,222,61795,1,2,3:2:0:0:
131,200,61908,1,2,0:0:0:0:
214,254,62020,2,0,P|244:302|230:352,1,100.000000298023,2|2,3:2|0:0,0:0:0:0:
229,349,62189,1,2,0:0:0:0:
220,353,62245,1,10,3:2:0:0:
210,355,62301,1,2,0:0:0:0:
200,355,62357,1,2,0:0:0:0:
190,350,62413,1,2,0:0:0:0:
183,342,62469,2,0,P|132:355|74:364,1,100.000000298023,2|2,3:2|3:2,0:0:0:0:
322,368,62694,5,2,3:2:0:0:
304,280,62807,1,0,3:2:0:0:
394,308,62919,2,0,P|484:275|504:182,1,200.000000596046,10|2,3:2|3:2,0:0:0:0:
451,89,63256,1,0,3:0:0:0:
512,22,63368,2,0,P|499:79|456:97,1,100.000000298023,2|0,3:2|3:0,0:0:0:0:
304,280,63593,5,10,3:2:0:0:
370,220,63705,1,2,3:2:0:0:
378,119,63818,1,2,3:2:0:0:
295,47,63930,1,2,3:2:0:0:
175,29,64043,2,0,P|194:78|206:130,1,100.000000298023,4|0,3:2|3:0,0:0:0:0:
0,236,64267,5,10,3:2:0:0:
11,197,64323,1,2,3:2:0:0:
46,177,64380,1,2,3:2:0:0:
85,182,64436,1,2,3:2:0:0:
114,209,64492,2,0,P|119:233|130:260,3,50.0000001490115,2|2|2|2,3:2|3:2|3:2|3:2,0:0:0:0:
113,344,64717,6,0,B|227:344|167:272|290:272,1,200.000000596046,2|10,3:2|3:2,0:0:0:0:
293,282,64998,1,2,3:2:0:0:
297,291,65054,1,2,3:2:0:0:
300,300,65110,1,2,3:2:0:0:
304,309,65166,1,2,3:2:0:0:
466,384,65391,5,4,3:2:0:0:
498,350,65466,1,2,3:2:0:0:
484,305,65541,1,2,3:2:0:0:
439,292,65616,5,2,3:2:0:0:
394,281,65690,1,2,3:2:0:0:
379,236,65765,1,2,3:2:0:0:
413,204,65840,5,2,3:2:0:0:
450,175,65915,1,2,3:2:0:0:
439,129,65990,1,2,3:2:0:0:
394,115,66065,6,0,P|325:112|291:41,1,150.000000447035,4|0,3:2|0:0,0:0:0:0:
281,7,66290,2,0,P|336:19|395:24,1,100.000000298023,10|0,3:2|3:0,0:0:0:0:
217,54,66458,1,0,3:0:0:0:
217,54,66514,2,0,P|167:48|118:37,1,100.000000298023,2|2,3:2|0:0,0:0:0:0:
57,239,66739,6,0,P|177:224|202:159,1,200.000000596046,4|10,3:2|3:2,0:0:0:0:
168,138,67020,1,0,3:0:0:0:
128,130,67076,1,2,3:2:0:0:
88,121,67132,1,0,3:0:0:0:
48,111,67189,2,0,P|33:46|12:-1,1,100.000000298023,2|2,3:2|3:2,0:0:0:0:
139,219,67413,5,2,3:2:0:0:
147,257,67469,1,2,3:2:0:0:
155,296,67526,1,2,3:2:0:0:
163,334,67582,1,2,3:2:0:0:
171,372,67638,2,0,P|206:379|245:389,3,50.0000001490115,10|0|0|0,3:2|3:0|3:0|3:0,0:0:0:0:
314,382,67863,5,2,3:2:0:0:
353,384,67919,1,2,3:2:0:0:
382,357,67975,1,2,3:2:0:0:
382,317,68031,1,2,3:2:0:0:
350,292,68087,2,0,P|304:283|238:268,1,100.000000298023,4|0,3:2|3:0,0:0:0:0:
130,168,68312,2,0,P|175:176|242:192,1,100.000000298023,10|0,3:2|3:0,0:0:0:0:
433,119,68537,2,0,P|433:48|368:20,1,150.000000447035,2|0,3:2|0:0,0:0:0:0:
286,1,68762,5,4,3:2:0:0:
290,17,68818,1,2,3:2:0:0:
294,33,68874,1,2,3:2:0:0:
297,49,68930,1,2,3:2:0:0:
301,65,68986,1,10,3:2:0:0:
305,82,69043,1,2,3:2:0:0:
308,98,69099,1,2,3:2:0:0:
311,114,69155,1,2,3:2:0:0:
314,131,69211,1,2,3:2:0:0:
316,147,69267,1,2,3:2:0:0:
319,164,69323,1,2,3:2:0:0:
321,180,69380,1,2,3:2:0:0:
323,197,69436,6,0,B|224:229|157:113|219:34|219:34|206:17|206:17|114:0|46:89|100:164,1,500.000001490115,4|2,3:2|0:0,0:0:0:0:
90,147,70784,1,4,0:0:0:0:
48,251,75727,5,0,1:0:0:0:
58,265,75840,1,0,1:0:0:0:
102,272,75952,5,0,1:0:0:0:
134,228,76064,1,0,1:0:0:0:
204,192,76177,5,2,1:2:0:0:
256,258,76289,2,0,P|264:309|286:329,1,75.0000030845403,2|0,1:2|0:0,0:0:0:0:
167,375,76514,2,0,P|229:316|303:323,1,150.000006169081,2|0,1:2|0:0,0:0:0:0:
365,363,76851,1,2,0:0:0:0:
349,371,76963,1,2,0:3:0:0:
495,238,77188,5,2,1:2:0:0:
511,230,77300,2,0,P|506:187|474:159,1,75.0000030845403,2|0,1:2|0:0,0:0:0:0:
463,78,77525,6,0,P|445:153|412:234,1,150.000006169081,2|0,1:2|0:0,0:0:0:0:
299,315,77862,2,0,P|317:240|350:159,1,150.000006169081,2|0,1:2|0:0,0:0:0:0:
291,58,78199,6,0,P|325:72|361:83,1,75.0000030845403,2|2,1:2|0:3,0:0:0:0:
361,83,78368,1,2,0:3:0:0:
361,83,78424,1,2,0:3:0:0:
261,141,78536,2,0,P|226:126|190:115,1,75.0000030845403,2|2,1:2|0:3,0:0:0:0:
38,62,78761,1,0,1:0:0:0:
46,77,78873,6,0,P|117:74|153:12,1,150.000006169081,2|0,1:2|0:0,0:0:0:0:
119,172,79210,2,0,P|47:174|11:236,1,150.000006169081,2|0,1:2|0:0,0:0:0:0:
187,281,79548,6,0,P|201:248|208:209,1,75.0000030845403,2|0,0:0|0:0,0:0:0:0:
337,197,79772,1,2,0:3:0:0:
328,196,79828,1,2,0:3:0:0:
319,198,79885,1,2,0:3:0:0:
311,202,79941,1,2,0:3:0:0:
305,209,79997,2,0,P|311:246|326:281,1,75.0000030845403,2|0,0:0|0:0,0:0:0:0:
256,0,80222,5,2,3:2:0:0:
256,16,80446,5,2,3:2:0:0:
256,32,80559,1,0,3:0:0:0:
256,48,80671,1,2,3:2:0:0:
256,64,80896,5,2,3:2:0:0:
256,80,81121,5,2,3:2:0:0:
240,96,81177,1,0,3:0:0:0:
256,112,81233,1,0,3:0:0:0:
272,128,81289,1,0,3:0:0:0:
256,144,81345,2,0,B|234:207|276:180|255:243,1,100.000000298023,2|2,3:2|3:2,0:0:0:0:
322,384,81570,6,0,P|282:287|179:287,1,220.000007369518,4|10,3:2|3:2,0:0:0:0:
7,154,81907,2,0,P|12:194|82:208,1,110.000003684759,2|2,3:2|0:0,0:0:0:0:
164,170,82132,1,0,3:0:0:0:
87,299,82244,2,0,P|110:196|163:82,1,220.000007369518,2|8,3:2|3:2,0:0:0:0:
354,3,82581,1,2,3:2:0:0:
269,30,82694,1,2,0:0:0:0:
242,113,82806,1,10,3:2:0:0:
298,180,82918,5,2,3:2:0:0:
397,169,83031,1,2,3:2:0:0:
461,243,83143,1,10,3:2:0:0:
445,340,83255,1,2,3:2:0:0:
354,384,83368,5,2,3:2:0:0:
336,374,83480,1,2,3:2:0:0:
364,274,83592,1,2,3:2:0:0:
364,274,83817,5,10,3:2:0:0:
263,297,83930,2,0,P|209:290|158:264,1,110.000003684759,2|2,0:0|3:2,0:0:0:0:
103,172,84154,1,2,3:2:0:0:
103,172,84210,1,0,3:0:0:0:
103,172,84267,6,0,B|110:122|127:107|153:138|196:82|184:31,1,165.000005527139,2|0,3:2|0:0,0:0:0:0:
212,7,84491,2,0,P|157:26|134:32,1,75.0000030845403,10|0,3:2|0:0,0:0:0:0:
108,47,84604,6,0,B|158:54|173:71|142:97|198:140|249:128,1,165.000005527139,2|0,3:2|0:0,0:0:0:0:
264,100,84828,2,0,P|300:89|335:76,1,75.0000030845403,10|0,3:2|0:0,0:0:0:0:
412,0,84941,5,10,3:2:0:0:
498,59,85054,1,0,3:0:0:0:
512,162,85166,1,10,3:2:0:0:
469,257,85278,1,8,3:2:0:0:
374,304,85391,1,2,3:2:0:0:
270,289,85503,1,8,3:2:0:0:
170,332,85615,6,0,P|281:304|311:194,1,239.999993391037,12|10,3:2|3:2,0:0:0:0:
260,93,85952,1,0,3:0:0:0:
342,41,86064,2,0,P|326:95|270:105,1,119.999996695518,2|0,3:2|0:0,0:0:0:0:
84,384,86289,5,2,3:2:0:0:
7,326,86401,1,2,3:2:0:0:
68,247,86514,1,10,3:2:0:0:
68,247,86739,2,0,P|114:186|92:153,1,119.999996695518,2|2,3:2|3:2,0:0:0:0:
134,69,86907,1,0,3:0:0:0:
134,69,86963,6,0,P|106:121|-12:122,1,165.000005527139,4|0,3:2|0:0,0:0:0:0:
8,135,87188,1,10,3:2:0:0:
52,7,87300,2,0,P|71:58|145:65,1,110.000003684759,2|0,3:2|0:0,0:0:0:0:
276,182,87525,1,2,3:2:0:0:
181,157,87637,6,0,P|260:155|306:90,1,165.000005527139,2|0,3:2|0:0,0:0:0:0:
306,90,87862,1,10,3:2:0:0:
446,107,87975,2,0,P|342:96|302:0,1,220.000007369518,2|8,3:2|3:2,0:0:0:0:
439,98,88312,5,2,3:2:0:0:
362,159,88424,1,0,3:0:0:0:
336,254,88536,1,10,3:2:0:0:
384,341,88649,1,0,3:0:0:0:
321,264,88761,1,2,3:2:0:0:
223,247,88873,1,0,3:0:0:0:
136,295,88986,2,0,P|59:296|33:211,1,165.000005527139,2|0,3:2|0:0,0:0:0:0:
0,192,89210,2,0,B|71:180|21:154|93:143,1,110.000003684759,10|0,3:2|0:0,0:0:0:0:
251,86,89435,1,2,3:2:0:0:
224,0,89548,1,2,3:2:0:0:
224,0,89604,1,2,3:2:0:0:
224,0,89660,6,0,L|185:174,1,165.000005527139,4|0,3:2|0:0,0:0:0:0:
187,161,89885,2,0,P|227:170|268:178,1,75.0000030845403,10|0,3:2|0:0,0:0:0:0:
383,34,89997,6,0,L|344:208,1,165.000005527139,4|0,3:2|0:0,0:0:0:0:
346,195,90222,2,0,P|386:204|427:212,1,75.0000030845403,10|0,3:2|0:0,0:0:0:0:
472,49,90334,5,2,3:2:0:0:
406,116,90446,1,2,3:2:0:0:
317,99,90559,1,10,3:2:0:0:
260,176,90671,5,2,3:2:0:0:
163,161,90783,1,10,3:2:0:0:
107,241,90896,1,10,3:2:0:0:
8,225,91008,6,0,B|-16:151|45:104|50:142|128:84|95:19,1,239.999993391037,4|10,3:2|3:2,0:0:0:0:
26,81,91345,1,2,3:2:0:0:
70,159,91458,1,2,3:2:0:0:
159,168,91570,1,10,3:2:0:0:
218,100,91682,1,2,3:2:0:0:
185,15,91795,1,2,3:2:0:0:
130,101,91907,5,10,3:2:0:0:
137,117,91963,1,0,3:0:0:0:
145,133,92019,1,0,3:0:0:0:
151,149,92076,1,0,3:0:0:0:
159,168,92132,2,0,P|137:215|138:243,1,59.9999983477592,2|0,3:2|0:0,0:0:0:0:
213,259,92244,2,0,P|235:277|273:282,1,59.9999983477592,10|0,3:2|0:0,0:0:0:0:
323,223,92357,6,0,P|382:223|430:189,1,119.999996695518,4|0,3:2|3:0,0:0:0:0:
176,350,92581,2,0,P|127:383|68:383,1,119.999996695518,2|0,3:2|3:0,0:0:0:0:
353,136,92806,6,0,P|397:78|379:22,1,119.999996695518,2|0,3:2|3:0,0:0:0:0:
100,295,93031,2,0,P|45:275|24:209,1,119.999996695518,10|0,3:2|3:0,0:0:0:0:
22,221,93199,1,0,3:0:0:0:
22,221,93255,1,2,3:2:0:0:
156,88,93368,6,0,L|123:203,1,119.999996695518,10|2,3:2|3:2,0:0:0:0:
141,218,93536,1,0,3:0:0:0:
160,231,93592,1,2,3:2:0:0:
180,243,93649,1,0,3:0:0:0:
200,256,93705,2,0,L|232:140,1,119.999996695518,10|2,3:2|3:2,0:0:0:0:
457,59,93930,1,2,3:2:0:0:
367,0,94042,6,0,L|335:116,1,119.999996695518,10|2,3:2|3:2,0:0:0:0:
352,130,94210,1,0,3:0:0:0:
371,143,94267,1,2,3:2:0:0:
391,155,94323,1,0,3:0:0:0:
411,168,94379,2,0,L|444:53,1,119.999996695518,10|2,3:2|3:2,0:0:0:0:
312,213,94604,2,0,L|279:328,1,119.999996695518,10|2,3:2|3:2,0:0:0:0:
87,368,94828,1,2,3:2:0:0:
53,354,94885,1,0,3:0:0:0:
34,323,94941,1,2,3:2:0:0:
50,291,94997,1,0,3:0:0:0:
81,273,95053,6,0,L|210:254,1,119.999996695518,4|0,3:2|0:0,0:0:0:0:
50,101,95278,1,10,3:2:0:0:
4,192,95390,2,0,L|123:176,1,119.999996695518,2|0,3:2|0:0,0:0:0:0:
300,244,95615,1,2,3:2:0:0:
300,244,95671,1,2,3:2:0:0:
300,244,95727,6,0,L|429:225,1,119.999996695518,4|0,3:2|0:0,0:0:0:0:
277,77,95952,2,0,P|227:122|240:175,1,119.999996695518,10|0,3:2|3:0,0:0:0:0:
510,327,96177,2,0,L|391:343,1,119.999996695518,2|8,3:2|3:2,0:0:0:0:
382,327,96345,1,2,3:2:0:0:
375,313,96401,5,4,3:2:0:0:
418,226,96514,1,2,3:2:0:0:
511,207,96626,1,10,3:2:0:0:
414,216,96739,1,2,3:2:0:0:
352,142,96851,1,2,3:2:0:0:
386,52,96963,1,2,3:2:0:0:
303,0,97076,5,2,3:2:0:0:
282,12,97188,1,2,3:2:0:0:
277,35,97300,1,10,3:2:0:0:
289,55,97413,1,2,3:2:0:0:
344,131,97525,6,0,P|307:178|232:175,1,119.999996695518,2|10,3:2|3:2,0:0:0:0:
223,172,97694,1,0,3:0:0:0:
223,172,97750,2,0,P|181:134|201:60,1,119.999996695518,4|0,3:2|0:0,0:0:0:0:
28,376,97975,5,10,3:2:0:0:
111,344,98087,1,2,3:2:0:0:
148,250,98199,1,2,3:2:0:0:
87,156,98312,1,10,3:2:0:0:
138,253,98424,2,0,P|194:294|260:292,1,119.999996695518,2|0,3:2|3:0,0:0:0:0:
267,322,98592,1,0,3:0:0:0:
267,322,98649,2,0,P|404:268|404:178,1,239.999993391037,10|2,3:2|3:2,0:0:0:0:
457,9,98986,1,2,3:2:0:0:
509,125,99098,6,0,P|472:110|419:97,1,79.9999977970122,12|0,3:2|3:0,0:0:0:0:
350,77,99248,1,0,3:0:0:0:
315,99,99323,2,0,P|267:52|286:-6,1,119.999996695518,12|0,3:2|3:0,0:0:0:0:
99,121,99548,2,0,P|157:133|230:156,1,119.999996695518,12|0,3:2|3:0,0:0:0:0:
416,192,99772,5,12,3:2:0:0:
471,250,99847,1,2,3:2:0:0:
441,324,99922,1,2,3:2:0:0:
362,341,99997,5,10,3:2:0:0:
331,293,100072,1,2,3:2:0:0:
275,282,100147,1,2,3:2:0:0:
232,318,100222,6,0,P|236:356|270:373,2,79.9999977970122,10|2|2,3:2|3:2|3:2,0:0:0:0:
409,192,100446,5,4,3:2:0:0:
432,115,100559,1,2,3:2:0:0:
392,37,100671,1,10,3:2:0:0:
293,12,100783,1,2,3:2:0:0:
189,59,100896,1,2,3:2:0:0:
187,71,100952,1,2,3:2:0:0:
197,77,101008,1,10,3:2:0:0:
279,102,101121,5,4,3:2:0:0:
308,190,101233,1,2,3:2:0:0:
297,210,101289,1,2,3:2:0:0:
275,216,101345,1,10,3:2:0:0:
213,304,101458,1,2,3:2:0:0:
177,307,101514,1,2,3:2:0:0:
152,280,101570,2,0,P|184:231|194:167,1,119.999996695518,2|2,3:2|3:2,0:0:0:0:
0,42,101795,5,12,3:2:0:0:
22,148,101907,1,2,3:2:0:0:
114,186,102019,1,10,3:2:0:0:
203,164,102132,1,2,3:2:0:0:
262,102,102244,1,10,3:2:0:0:
250,76,102300,1,2,3:2:0:0:
232,67,102357,1,2,3:2:0:0:
213,69,102413,1,2,3:2:0:0:
201,77,102469,5,12,3:2:0:0:
213,172,102581,1,2,3:2:0:0:
283,225,102694,1,2,3:2:0:0:
360,230,102806,1,2,3:2:0:0:
411,211,102918,1,2,3:2:0:0:
437,183,103031,1,2,3:2:0:0:
433,167,103143,6,0,P|371:156|314:121,1,120.000000357628,4|4,3:2|0:3,0:0:0:0:
79,217,104491,2,0,P|141:228|198:263,1,120.000000357628,4|4,0:3|0:3,0:0:0:0:
415,303,105840,6,0,P|384:351|327:353,1,120.000000357628,4|4,0:3|0:3,0:0:0:0:
96,80,107188,2,0,P|127:32|185:31,1,120.000000357628,4|4,0:3|0:3,0:0:0:0:
185,31,107862,6,0,P|176:111|150:205,1,150.000006169081,2|0,3:2|0:0,0:0:0:0:
28,248,108199,2,0,P|108:257|202:283,1,150.000006169081,2|0,3:2|3:0,0:0:0:0:
175,273,108480,1,0,3:0:0:0:
175,273,108536,6,0,P|197:322|240:325,1,89.9999975216388,4|0,3:2|0:0,0:0:0:0:
388,352,108761,1,2,3:2:0:0:
383,371,108873,1,0,0:0:0:0:
300,384,108986,2,0,L|324:290,1,89.9999975216388,2|0,3:2|0:0,0:0:0:0:
473,133,109210,2,0,P|429:207|343:213,1,179.999995043278,2|2,3:2|3:2,0:0:0:0:
256,182,109548,1,2,0:0:0:0:
299,103,109660,1,2,3:2:0:0:
260,22,109772,1,2,0:0:0:0:
169,23,109885,6,0,P|144:69|133:114,1,89.9999975216388,2|2,3:2|0:0,0:0:0:0:
134,105,110053,1,2,0:0:0:0:
134,105,110109,1,2,3:2:0:0:
105,192,110222,2,0,P|63:175|19:165,1,89.9999975216388,2|2,3:2|0:0,0:0:0:0:
170,249,110446,1,2,3:2:0:0:
146,326,110559,1,2,3:2:0:0:
212,371,110671,1,2,0:0:0:0:
287,341,110783,6,0,P|303:296|315:248,1,89.9999975216388,2|2,3:2|0:0,0:0:0:0:
473,234,111007,2,0,P|430:223|388:208,1,89.9999975216388,2|2,3:2|0:0,0:0:0:0:
449,62,111233,5,2,3:2:0:0:
463,54,111345,1,0,3:0:0:0:
479,59,111458,1,2,3:2:0:0:
454,145,111570,1,2,3:2:0:0:
381,198,111682,1,2,3:2:0:0:
292,179,111795,1,2,3:2:0:0:
233,110,111907,5,2,3:2:0:0:
238,101,111963,1,0,3:0:0:0:
243,92,112019,1,0,3:0:0:0:
249,84,112076,1,0,3:0:0:0:
255,75,112132,2,0,B|319:68|277:46|344:37,1,100.000000298023,2|0,3:2|3:0,0:0:0:0:
200,1,112357,2,0,B|136:8|178:30|110:38,1,100.000000298023,2|0,3:2|3:0,0:0:0:0:
126,234,112581,5,2,3:2:0:0:
158,222,112637,1,2,3:2:0:0:
177,192,112694,1,2,3:2:0:0:
171,157,112750,1,2,3:2:0:0:
140,139,112806,2,0,L|155:93,4,25.0000000745058,2|0|0|0|0,1:2|1:0|1:0|1:0|1:0,0:0:0:0:
59,105,113031,5,2,3:2:0:0:
0,166,113143,1,2,3:2:0:0:
43,240,113255,2,0,B|39:308|15:281|11:340,1,100.000000298023,2|0,3:2|0:0,0:0:0:0:
134,384,113480,5,2,3:2:0:0:
153,338,113592,1,2,3:2:0:0:
236,323,113705,1,2,3:2:0:0:
278,235,113817,1,2,3:2:0:0:
382,212,113930,6,0,B|368:212|348:225|348:225|294:225|227:185|237:131,1,200.000000596046,4|0,3:2|0:0,0:0:0:0:
116,0,114267,2,0,B|122:12|144:22|144:22|171:69|170:147|118:166,1,200.000000596046,4|0,3:2|0:0,0:0:0:0:
50,340,114604,2,0,B|57:327|55:304|55:304|82:257|150:219|192:254,1,200.000000596046,4|0,3:2|0:0,0:0:0:0:
374,337,114941,2,0,P|304:324|292:254,1,150.000000447035,2|0,3:2|0:0,0:0:0:0:
292,254,115166,1,2,3:2:0:0:
382,212,115278,6,0,B|394:156|415:192|426:125,1,100.000000298023,12|0,3:2|0:0,0:0:0:0:
268,22,115503,1,2,3:2:0:0:
362,54,115615,6,0,B|306:42|342:21|275:9,1,100.000000298023,12|0,3:2|0:0,0:0:0:0:
152,131,115840,1,2,3:2:0:0:
184,37,115952,6,0,B|172:93|151:57|139:123,1,100.000000298023,12|0,3:2|0:0,0:0:0:0:
296,228,116177,1,2,3:2:0:0:
202,196,116289,6,0,B|258:208|222:229|288:240,1,100.000000298023,12|0,3:2|0:0,0:0:0:0:
512,175,116514,1,2,3:2:0:0:
425,125,116626,6,0,P|379:237|356:323,1,200.000000596046,12|2,3:2|3:2,0:0:0:0:
389,339,116907,1,0,3:0:0:0:
389,339,116963,2,0,P|452:332|470:281,1,100.000000298023,12|0,3:2|0:0,0:0:0:0:
312,158,117188,1,2,3:2:0:0:
359,54,117300,2,0,P|332:105|317:145,1,100.000000298023,12|0,3:2|0:0,0:0:0:0:
183,231,117525,1,2,3:2:0:0:
288,240,117637,2,0,B|250:215|179:195|132:191|132:191|131:171|106:139,1,200.000000596046,12|2,3:2|3:2,0:0:0:0:
77,137,117918,1,0,3:0:0:0:
77,137,117975,6,0,P|129:133|146:101,2,80.0000002384184,12|0|0,3:2|3:0|3:0,0:0:0:0:
256,0,118649,1,4,3:1:0:0:
256,0,119098,6,0,P|255:38|312:56,1,75.0000030845403,2|0,3:2|0:0,0:0:0:0:
357,80,119210,2,0,P|395:81|413:24,1,75.0000030845403,2|0,3:2|0:0,0:0:0:0:
300,139,119323,6,0,B|251:201|307:189|262:248,1,119.999996695518,4|0,3:2|3:0,0:0:0:0:
179,266,119491,1,0,3:0:0:0:
177,266,119548,2,0,P|145:258|109:236,1,59.9999983477592,10|0,3:2|0:0,0:0:0:0:
213,384,119660,2,0,P|226:356|234:328,1,59.9999983477592,2|0,3:2|0:0,0:0:0:0:
318,313,119772,2,0,B|385:347|366:295|439:337,1,119.999996695518,10|0,3:2|3:0,0:0:0:0:
467,316,119941,1,0,3:0:0:0:
467,316,119997,6,0,B|512:257|456:269|505:207,1,119.999996695518,4|0,3:2|3:0,0:0:0:0:
512,128,120166,1,0,3:0:0:0:
512,128,120222,2,0,P|496:101|487:72,1,59.9999983477592,10|0,3:2|0:0,0:0:0:0:
377,190,120334,2,0,P|404:178|433:168,1,59.9999983477592,2|0,3:2|0:0,0:0:0:0:
448,3,120446,1,10,3:2:0:0:
405,0,120503,1,0,3:0:0:0:
370,24,120559,1,2,3:2:0:0:
360,64,120615,1,0,3:0:0:0:
376,102,120671,1,12,3:2:0:0:
304,150,120783,5,2,3:2:0:0:
286,167,120840,1,2,3:2:0:0:
263,160,120896,2,0,P|248:119|231:98,1,59.9999983477592,10|0,3:2|0:0,0:0:0:0:
181,270,121008,2,0,P|208:257|233:240,1,59.9999983477592,2|0,3:2|0:0,0:0:0:0:
173,176,121121,6,0,B|90:148|152:128|53:99,1,119.999996695518,12|2,3:2|3:2,0:0:0:0:
24,10,121289,1,0,3:0:0:0:
24,10,121345,2,0,P|15:39|-11:81,1,59.9999983477592,10|0,3:2|0:0,0:0:0:0:
81,113,121458,2,0,P|89:84|103:57,1,59.9999983477592,2|0,3:2|0:0,0:0:0:0:
0,155,121570,1,10,3:2:0:0:
14,187,121626,1,0,3:0:0:0:
46,201,121682,1,2,3:2:0:0:
79,215,121739,1,0,3:0:0:0:
93,246,121795,2,0,P|39:251|6:306,1,119.999996695518,10|0,3:2|3:0,0:0:0:0:
164,175,122019,6,0,P|282:176|320:289,1,239.999993391037,12|10,3:2|3:2,0:0:0:0:
469,145,122357,1,2,3:2:0:0:
497,114,122413,1,2,3:2:0:0:
498,72,122469,1,10,3:2:0:0:
477,35,122525,1,2,3:2:0:0:
436,23,122581,2,0,P|424:60|417:89,1,59.9999983477592,2|0,3:2|0:0,0:0:0:0:
256,192,122694,6,0,P|341:174|403:157,1,129.999994436502,12|0,3:2|3:0,0:0:0:0:
445,224,122862,1,0,3:0:0:0:
459,238,122918,6,0,P|452:320|402:324,1,129.999994436502,12|0,3:2|3:0,0:0:0:0:
326,342,123087,1,0,3:0:0:0:
290,316,123143,6,0,P|280:264|251:182,1,129.999994436502,12|0,3:2|3:0,0:0:0:0:
224,106,123312,1,0,3:0:0:0:
254,62,123368,6,0,P|219:-3|163:4,1,129.999994436502,12|0,3:2|3:0,0:0:0:0:
184,272,123592,5,10,3:2:0:0:
164,309,123649,1,2,3:2:0:0:
126,327,123705,1,2,3:2:0:0:
85,321,123761,1,2,3:2:0:0:
55,290,123817,2,0,B|60:252|84:281|100:216,1,69.9999980723857,10|0,3:2|0:0,0:0:0:0:
63,158,123930,2,0,B|23:137|57:129|15:107,1,69.9999980723857,10|0,3:2|0:0,0:0:0:0:
170,0,124042,5,4,3:2:0:0:
136,91,124154,1,2,3:2:0:0:
172,182,124267,1,2,3:2:0:0:
260,224,124379,1,2,3:2:0:0:
353,193,124491,2,0,B|388:181|362:166|407:151,1,69.9999980723857,4|0,3:2|0:0,0:0:0:0:
16,368,124716,5,4,3:2:0:0:
16,368,126064,5,2,3:2:0:0:
101,348,126289,1,2,3:2:0:0:
148,276,126514,5,2,3:2:0:0:
142,231,126626,1,2,0:0:0:0:
104,215,126739,1,2,3:2:0:0:
104,215,126963,5,2,3:2:0:0:
115,248,127076,1,0,3:0:0:0:
155,277,127188,1,2,3:2:0:0:
235,285,127300,1,2,3:2:0:0:
319,248,127413,6,0,P|320:122|260:83,1,200.000000596046,4|2,3:2|3:2,0:0:0:0:
344,19,127750,1,2,0:0:0:0:
361,106,127862,1,2,3:2:0:0:
294,167,127975,1,2,0:0:0:0:
204,157,128087,6,0,B|119:146|171:115|104:40|9:77,1,200.000000596046,2|2,3:2|3:2,0:0:0:0:
38,69,128424,1,0,3:0:0:0:
143,76,128536,2,0,P|186:40|180:-6,1,100.000000298023,2|0,3:2|0:0,0:0:0:0:
15,301,128761,6,0,B|59:312|88:279|65:271|103:234|144:251,1,150.000000447035,2|0,3:2|0:0,0:0:0:0:
128,217,128986,2,0,P|145:315|264:315,1,200.000000596046,10|2,3:2|3:2,0:0:0:0:
405,290,129323,1,2,3:2:0:0:
327,358,129435,2,0,P|314:303|302:251,1,100.000000298023,10|0,3:2|3:0,0:0:0:0:
271,238,129604,1,0,3:2:0:0:
271,238,129660,2,0,P|247:247|217:250,1,50.0000001490115,10|0,3:2|0:0,0:0:0:0:
339,177,129772,2,0,P|370:170|403:157,1,50.0000001490115,10|0,3:2|0:0,0:0:0:0:
221,40,129885,1,10,3:2:0:0:
258,50,129941,1,2,3:2:0:0:
279,82,129997,1,2,3:2:0:0:
278,120,130053,1,2,3:2:0:0:
252,152,130109,6,0,P|204:167|133:179,1,110.000003684759,4|2,3:2|0:0,0:0:0:0:
36,328,130334,2,0,B|104:314|66:283|125:271,1,110.000003684759,2|2,3:2|0:0,0:0:0:0:
97,92,130559,2,0,B|32:75|79:46|14:27,1,110.000003684759,2|2,3:2|0:0,0:0:0:0:
145,177,130783,5,2,3:2:0:0:
241,154,130896,1,2,3:2:0:0:
306,227,131008,1,2,3:2:0:0:
271,320,131121,1,2,3:2:0:0:
347,381,131233,2,0,B|411:377|382:341|444:338,1,110.000003684759,2|2,3:2|3:2,0:0:0:0:
483,174,131458,5,2,3:2:0:0:
495,155,131514,1,0,3:0:0:0:
503,133,131570,1,2,3:2:0:0:
506,110,131626,1,0,3:0:0:0:
503,88,131682,1,2,3:2:0:0:
495,66,131739,1,0,3:0:0:0:
483,47,131795,1,2,3:2:0:0:
466,32,131851,1,0,3:0:0:0:
445,21,131907,1,2,3:2:0:0:
423,15,131963,1,0,3:0:0:0:
400,15,132019,1,2,3:2:0:0:
378,20,132076,1,0,3:0:0:0:
358,30,132132,2,0,P|351:89|330:157,1,110.000003684759,2|0,3:2|3:0,0:0:0:0:
292,370,132357,5,2,3:2:0:0:
256,384,132413,1,2,3:2:0:0:
222,364,132469,1,2,3:2:0:0:
190,342,132525,1,2,3:2:0:0:
154,354,132581,2,0,P|161:295|182:227,1,110.000003684759,2|0,3:2|3:0,0:0:0:0:
220,14,132806,5,4,3:2:0:0:
292,370,133031,1,2,3:2:0:0:
42,236,133255,6,0,B|35:259|16:281|16:281|109:244|207:217,1,225.000009253621,4|0,3:2|0:0,0:0:0:0:
470,148,133705,2,0,B|477:125|496:103|496:103|403:140|305:167,1,225.000009253621,4|0,3:2|0:0,0:0:0:0:
256,192,134154,5,4,3:2:0:0:
256,192,134210,12,4,135503,0:0:0:0:
32,192,135743,6,0,P|54:190|86:210,1,50.0000001490115,2|0,0:0|0:0,0:0:0:0:
32,192,135983,2,0,P|53:179|66:158,1,50.0000001490115,2|0,0:0|0:0,0:0:0:0:
144,160,136223,5,2,0:0:0:0:
208,118,136463,1,0,0:0:0:0:
196,42,136703,1,0,0:0:0:0:
140,166,136943,5,2,0:0:0:0:
94,83,137198,1,2,0:0:0:0:
0,100,137453,1,2,0:0:0:0:
137,173,137708,6,0,P|170:223|172:265,1,100.000000298023,2|0,0:0|0:0,0:0:0:0:
98,352,138234,1,2,0:0:0:0:
98,352,138497,6,0,B|164:331|146:358|201:342,1,100.000000298023,2|0,0:0|0:0,0:0:0:0:
232,328,138949,2,0,L|216:377,1,50.0000001490115,2|0,0:0|0:0,0:0:0:0:
418,284,139401,5,2,0:0:0:0:
315,301,139764,2,0,L|338:308,2,25.0000000745058,2|0|2,0:0|0:0|0:0,0:0:0:0:
256,176,140218,5,2,0:0:0:0:
256,192,140824,1,2,0:0:0:0:
256,192,140899,12,0,147490,0:0:0:0:
