osu file format v14

[General]
AudioFilename: audio.mp3
AudioLeadIn: 0
PreviewTime: 47357
Countdown: 0
SampleSet: Soft
StackLeniency: 0.7
Mode: 0
LetterboxInBreaks: 0
WidescreenStoryboard: 0

[Editor]
DistanceSpacing: 1.1
BeatDivisor: 2
GridSize: 32
TimelineZoom: 0.6999998

[Metadata]
Title:Chronoexplorers (feat. Finite Limit)
TitleUnicode:Chronoexplorers (feat. Finite Limit)
Artist:takehirotei
ArtistUnicode:takehirotei
Creator:Garden
Version:Easy
Source:
Tags:ibell bellicose dahkjdas Instrumental Electronic Finale Destination NotThatRecords Imaginary Reality ft. 音​​​ゲ​​​ー​​​ROULETTE Vol 2. otoge
BeatmapID:4576409
BeatmapSetID:2168355

[Difficulty]
HPDrainRate:1
CircleSize:2.8
OverallDifficulty:2
ApproachRate:4
SliderMultiplier:0.400000005960464
SliderTickRate:1

[Events]
//Background and Video events
0,0,"photo-1577436705536-4f2b677b1639_edit.jpg",0,0
//Break Periods
2,23793,27666
2,70984,74857
2,103343,107216
//Storyboard Layer 0 (Background)
//Storyboard Layer 1 (Fail)
//Storyboard Layer 2 (Pass)
//Storyboard Layer 3 (Foreground)
//Storyboard Layer 4 (Overlay)
//Storyboard Sound Samples

[TimingPoints]
-675,224.719101123595,6,2,1,40,1,0
672,224.719101123595,6,2,1,40,1,0
5615,-100,6,2,1,60,0,0
6065,-100,6,2,1,70,0,0
12525,-100,6,2,1,5,0,0
12582,-100,6,2,1,70,0,0
12807,224.719101123595,6,2,1,80,1,0
12807,-100,6,2,1,80,0,0
23368,-100,6,2,1,50,0,0
28762,-100,6,2,1,60,0,0
28986,-100,6,2,1,70,0,0
34380,-100,6,2,1,70,0,0
42470,224.719101123595,6,2,1,75,1,0
42470,-100,6,2,1,75,0,0
47863,-100,6,2,1,90,0,0
58425,-100,6,2,1,75,0,0
59998,-100,6,2,1,90,0,0
69492,-100,6,2,1,60,0,0
70784,224.719101123595,6,2,1,60,1,0
76177,-100,6,2,1,70,0,0
80222,-100,6,2,1,75,0,0
81570,-100,6,2,1,90,0,0
103143,-100,6,2,1,75,0,0
103255,-100,6,2,1,60,0,0
107862,-100,6,2,1,70,0,0
108536,-100,6,2,1,80,0,0
113930,-100,6,2,1,85,0,0
119323,-100,6,2,1,90,0,0
124716,-100,6,2,1,90,0,0
126064,-100,6,2,1,70,0,0
127413,-100,6,2,1,80,0,0
129885,-100,6,2,1,80,0,0
130109,-100,6,2,1,90,0,0
135503,240,6,2,1,60,1,0
136943,255.31914893617,6,2,1,60,1,0
137708,263.157894736843,6,2,1,60,1,0
138497,301.507537688442,6,2,1,50,1,0
139401,363.636363636364,6,2,1,50,1,0
139764,454.545454545455,6,2,1,50,1,0
140218,606.060606060606,6,2,1,50,1,0
140824,606.060606060606,6,2,1,40,1,0
142036,-100,6,2,1,30,0,0
143248,-100,6,2,1,20,0,0
144460,-100,6,2,1,10,0,0
145672,-100,6,2,1,5,0,0

[Colours]
Combo1 : 197,139,139
Combo2 : 255,139,83

[HitObjects]
256,320,672,6,0,P|312:301|372:297,1,120.000001788139,2|2,0:0|0:0,0:0:0:0:
484,338,2020,2,0,P|465:281|461:221,1,120.000001788139,2|2,0:0|0:0,0:0:0:0:
502,108,3368,2,0,P|445:126|385:130,1,120.000001788139,2|2,0:0|0:0,0:0:0:0:
274,85,4716,1,2,0:0:0:0:
291,203,5391,1,4,0:3:0:0:
197,278,6065,6,0,P|153:288|87:234,1,120.000001788139,4|2,1:2|1:2,0:0:0:0:
59,134,7413,1,4,1:2:0:0:
145,51,8087,1,2,1:2:0:0:
256,96,8761,2,0,L|387:73,1,120.000001788139,4|2,1:2|1:2,0:0:0:0:
467,150,10110,2,0,P|502:103|492:45,2,120.000001788139,4|4|6,3:2|3:2|3:2,0:0:0:0:
467,150,12807,6,0,P|510:203|499:260,2,120.000001788139,4|4|2,3:2|3:2|3:2,0:0:0:0:
359,95,14829,1,2,3:2:0:0:
310,204,15503,2,0,P|264:231|192:227,1,120.000001788139,4|4,3:2|3:2,0:0:0:0:
103,157,16851,1,2,3:2:0:0:
171,58,17526,1,12,3:2:0:0:
103,157,18200,6,0,P|78:198|82:281,1,120.000001788139,4|2,3:2|3:2,0:0:0:0:
172,360,19548,2,0,P|231:362|283:334,1,120.000001788139,2|4,3:2|3:2,0:0:0:0:
330,211,20896,1,4,3:2:0:0:
444,277,21571,1,2,3:2:0:0:
494,155,22245,2,0,P|491:95|445:45,1,120.000001788139,4|2,3:2|3:2,0:0:0:0:
329,9,23593,1,2,0:0:0:0:
178,172,28986,6,0,P|160:231|151:307,1,120.000001788139,4|2,1:3|1:2,0:0:0:0:
35,258,30335,2,0,P|53:199|62:123,1,120.000001788139,4|2,1:2|1:2,0:0:0:0:
146,57,31683,1,4,1:2:0:0:
263,83,32357,1,4,1:2:0:0:
305,195,33031,2,0,P|287:254|278:330,1,120.000001788139,2|2,1:2|1:2,0:0:0:0:
387,362,34380,5,4,3:2:0:0:
478,284,35054,1,2,3:2:0:0:
416,180,35728,1,2,3:2:0:0:
506,101,36402,1,2,1:2:0:0:
439,1,37076,6,0,P|389:32|321:39,1,120.000001788139,4|2,3:2|3:2,0:0:0:0:
210,22,38424,1,2,3:2:0:0:
170,135,39099,1,2,1:2:0:0:
287,161,39773,2,0,P|317:215|316:279,1,120.000001788139,4|2,3:2|1:2,0:0:0:0:
229,353,41121,2,0,P|169:351|117:322,1,120.000001788139,2|2,3:2|1:2,0:0:0:0:
82,207,42470,5,4,3:2:0:0:
313,270,43818,5,4,3:2:0:0:
252,37,45166,5,4,3:2:0:0:
168,123,45840,1,4,3:2:0:0:
284,153,46514,2,0,B|356:141|312:108|386:98,1,120.000001788139,4|4,3:2|3:2,0:0:0:0:
504,156,47863,6,0,P|505:222|474:289,1,120.000001788139,4|2,3:2|3:2,0:0:0:0:
379,349,49211,1,2,3:2:0:0:
289,251,49885,1,2,3:2:0:0:
185,333,50559,2,0,P|126:336|75:306,1,120.000001788139,2|2,3:2|3:2,0:0:0:0:
39,179,51908,2,0,P|31:143|18:113,2,60.0000008940696,12|10|12,3:2|3:2|3:2,0:0:0:0:
164,221,53256,6,0,P|234:218|284:177,1,120.000001788139,4|2,3:2|3:2,0:0:0:0:
344,79,54604,1,2,3:2:0:0:
468,121,55278,1,2,3:2:0:0:
462,253,55953,2,0,P|392:256|342:297,1,120.000001788139,4|2,3:2|3:2,0:0:0:0:
256,373,57301,1,2,3:2:0:0:
160,283,57975,1,2,3:2:0:0:
256,192,58649,5,2,3:0:0:0:
256,192,59998,2,0,B|280:125|230:140|256:76,1,120.000001788139,6|2,3:2|3:2,0:0:0:0:
141,11,61346,5,4,3:2:0:0:
28,79,62020,1,2,3:2:0:0:
13,210,62694,2,0,P|29:280|77:307,1,120.000001788139,2|2,3:2|3:2,0:0:0:0:
194,337,64043,1,4,3:2:0:0:
256,220,64717,1,2,3:2:0:0:
169,120,65391,2,0,B|188:56|214:93|234:18,1,120.000001788139,4|4,3:2|3:2,0:0:0:0:
364,9,66739,5,4,3:2:0:0:
451,107,67413,1,2,3:2:0:0:
417,234,68087,1,4,3:2:0:0:
256,192,68762,12,4,70784,0:0:0:0:
184,304,76177,6,0,P|301:310|390:234,1,240.000003576278,2|2,1:2|1:2,0:0:0:0:
328,80,78873,2,0,P|210:73|121:149,1,240.000003576278,2|2,1:2|3:2,0:0:0:0:
57,265,80896,1,2,3:2:0:0:
184,304,81570,5,4,3:2:0:0:
57,265,82244,1,2,3:2:0:0:
121,149,82918,2,0,P|173:105|236:106,1,120.000001788139,2|2,3:2|3:2,0:0:0:0:
343,155,84267,2,0,L|319:283,1,120.000001788139,2|10,3:2|3:2,0:0:0:0:
422,356,85615,1,12,3:2:0:0:
444,225,86289,1,2,3:2:0:0:
320,272,86963,6,0,P|251:258|216:215,2,120.000001788139,4|2|2,3:2|3:2|3:2,0:0:0:0:
444,225,88986,1,2,3:2:0:0:
406,98,89660,2,0,P|363:56|305:48,1,120.000001788139,4|2,3:2|3:2,0:0:0:0:
182,95,91008,1,4,3:2:0:0:
219,222,91682,1,2,3:2:0:0:
93,263,92357,5,4,3:2:0:0:
219,222,93031,1,10,3:2:0:0:
182,95,93705,2,0,P|191:29|232:0,1,120.000001788139,10|10,3:2|3:2,0:0:0:0:
361,26,95053,2,0,L|390:152,1,120.000001788139,4|4,3:2|3:2,0:0:0:0:
503,206,96401,2,0,P|509:268|456:316,1,120.000001788139,4|2,3:2|3:2,0:0:0:0:
355,368,97750,5,4,3:2:0:0:
256,279,98424,1,2,3:2:0:0:
298,154,99098,1,12,3:2:0:0:
203,62,99772,1,12,3:2:0:0:
74,93,100446,2,0,P|39:136|38:206,1,120.000001788139,4|4,3:2|3:2,0:0:0:0:
120,299,101795,2,0,B|192:311|149:341|219:355,1,120.000001788139,12|12,3:2|3:2,0:0:0:0:
342,305,103143,5,4,3:2:0:0:
342,305,108536,6,0,P|367:242|363:182,1,120.000001788139,4|2,3:2|3:2,0:0:0:0:
293,93,109885,2,0,P|230:68|170:72,1,120.000001788139,2|2,3:2|3:2,0:0:0:0:
77,134,111233,1,2,3:2:0:0:
150,228,111907,2,0,P|150:287|126:342,2,120.000001788139,2|2|2,3:2|3:2|3:2,0:0:0:0:
77,134,113930,6,0,B|115:117|115:117|137:85|137:85|181:69,1,120.000001788139,4|4,3:2|3:2,0:0:0:0:
283,120,115278,2,0,B|321:103|321:103|343:71|343:71|387:55,1,120.000001788139,12|12,3:2|3:2,0:0:0:0:
487,110,116626,1,12,3:2:0:0:
510,227,117300,1,12,3:2:0:0:
424,311,117975,2,0,B|386:294|386:294|364:262|364:262|326:248,1,120.000001788139,12|4,3:2|3:1,0:0:0:0:
216,340,119323,5,4,3:2:0:0:
76,303,119997,1,4,3:2:0:0:
34,165,120671,1,12,3:2:0:0:
129,57,121345,1,10,3:2:0:0:
253,129,122019,2,0,P|283:173|286:251,1,120.000001788139,12|12,3:2|3:2,0:0:0:0:
393,337,123368,2,0,P|425:287|429:227,1,120.000001788139,12|4,3:2|3:2,0:0:0:0:
375,93,124716,5,4,3:2:0:0:
375,93,126064,2,0,P|320:64|259:69,1,120.000001788139,2|2,3:2|3:2,0:0:0:0:
161,151,127413,2,0,P|101:153|49:125,2,120.000001788139,4|2|2,3:2|3:2|3:2,0:0:0:0:
263,67,129435,1,10,3:2:0:0:
326,182,130109,6,0,P|328:241|300:293,1,120.000001788139,4|2,3:2|3:2,0:0:0:0:
184,357,131458,1,2,3:2:0:0:
84,269,132132,1,2,3:2:0:0:
256,192,132806,12,4,135503,0:0:0:0:
