osu file format v14

[General]
AudioFilename: audio.mp3
AudioLeadIn: 0
PreviewTime: 47357
Countdown: 0
SampleSet: Soft
StackLeniency: 0.7
Mode: 0
LetterboxInBreaks: 0
WidescreenStoryboard: 0

[Editor]
Bookmarks: 23593,47863,70784,103143,124716
DistanceSpacing: 0.3
BeatDivisor: 4
GridSize: 16
TimelineZoom: 2.1

[Metadata]
Title:Chronoexplorers (feat. Finite Limit)
TitleUnicode:Chronoexplorers (feat. Finite Limit)
Artist:takehirotei
ArtistUnicode:takehirotei
Creator:Garden
Version:Collab Expert
Source:
Tags:ibell bellicose dahkjdas Instrumental Electronic Finale Destination NotThatRecords Imaginary Reality ft. 音​​​ゲ​​​ー​​​ROULETTE Vol 2. otoge
BeatmapID:4574991
BeatmapSetID:2168355

[Difficulty]
HPDrainRate:6
CircleSize:4
OverallDifficulty:9
ApproachRate:9.4
SliderMultiplier:1.80000000596046
SliderTickRate:1

[Events]
//Background and Video events
0,0,"photo-1577436705536-4f2b677b1639_edit.jpg",0,0
//Break Periods
2,70984,75187
//Storyboard Layer 0 (Background)
//Storyboard Layer 1 (Fail)
//Storyboard Layer 2 (Pass)
//Storyboard Layer 3 (Foreground)
//Storyboard Layer 4 (Overlay)
//Storyboard Sound Samples

[TimingPoints]
-675,224.719101123595,6,2,1,40,1,0
6,-100,6,2,1,40,0,0
672,224.719101123595,6,2,1,40,1,0
672,-200,6,2,1,40,0,0
5391,-133.333333333333,6,2,1,40,0,0
5615,-133.333333333333,6,2,1,60,0,0
6065,-133.333333333333,6,2,1,70,0,0
8761,-100,6,2,1,70,0,0
8986,-133.333333333333,6,2,1,70,0,0
12525,-133.333333333333,6,2,1,5,0,0
12582,-133.333333333333,6,2,1,70,0,0
12807,224.719101123595,6,2,1,80,1,0
12807,-100,6,2,1,80,0,0
17526,-83.3333333333333,6,2,1,80,0,0
23368,-200,6,2,1,50,0,0
28762,-133.333333333333,6,2,1,60,0,0
28986,-133.333333333333,6,2,1,70,0,0
30110,-100,6,2,1,70,0,0
30335,-133.333333333333,6,2,1,70,0,0
34380,-111.111111111111,6,2,1,70,0,0
39773,-100,6,2,1,70,0,0
42470,224.719101123595,6,2,1,75,1,0
43144,-166.666666666667,6,2,1,75,0,0
44492,-111.111111111111,6,2,1,75,0,0
46514,-83.3333333333333,6,2,1,75,0,0
47863,-83.3333333333333,6,2,1,90,0,0
52582,-66.6666666666667,6,2,1,90,0,0
52807,-83.3333333333333,6,2,1,90,0,0
55278,-66.6666666666667,6,2,1,90,0,0
55503,-83.3333333333333,6,2,1,90,0,0
58425,-83.3333333333333,6,2,1,75,0,0
58649,-100,6,2,1,75,0,0
59773,-133.333333333333,6,2,1,75,0,0
59998,-83.3333333333333,6,2,1,90,0,0
64043,-66.6666666666667,6,2,1,90,0,0
64267,-83.3333333333333,6,2,1,90,0,0
69436,-133.333333333333,6,2,1,90,0,0
69492,-133.333333333333,6,2,1,60,0,0
70784,224.719101123595,6,2,1,60,1,0
75727,-133.333333333333,6,2,1,60,0,0
76177,-133.333333333333,6,2,1,70,0,0
79997,-100,6,2,1,70,0,0
80222,-100,6,2,1,75,0,0
81570,-83.3333333333333,6,2,1,90,0,0
91008,-66.6666666666667,6,2,1,90,0,0
91233,-83.3333333333333,6,2,1,90,0,0
92357,-83.3333333333333,6,2,1,90,0,0
97750,-66.6666666666667,6,2,1,90,0,0
97975,-83.3333333333333,6,2,1,90,0,0
103143,-83.3333333333333,6,2,1,75,0,0
103255,-83.3333333333333,6,2,1,60,0,0
103817,-200,6,2,1,60,0,0
107862,-200,6,2,1,70,0,0
108312,-83.3333333333333,6,2,1,70,0,0
108536,-83.3333333333333,6,2,1,80,0,0
113930,-66.6666666666667,6,2,1,85,0,0
114941,-83.3333333333333,6,2,1,85,0,0
116963,-66.6666666666667,6,2,1,85,0,0
117188,-83.3333333333333,6,2,1,85,0,0
118649,-200,6,2,1,85,0,0
119323,-83.3333333333333,6,2,1,90,0,0
126064,-133.333333333333,6,2,1,70,0,0
127413,-100,6,2,1,80,0,0
129885,-86.9565217391304,6,2,1,80,0,0
130109,-86.9565217391304,6,2,1,90,0,0
131458,-76.9230769230769,6,2,1,90,0,0
132806,-133.333333333333,6,2,1,90,0,0
135503,240,6,2,1,60,1,0
135743,-200,6,2,1,60,0,0
136943,255.31914893617,6,2,1,60,1,0
136943,-200,6,2,1,60,0,0
137708,263.157894736843,6,2,1,60,1,0
137708,-200,6,2,1,60,0,0
138497,301.507537688442,6,2,1,50,1,0
138497,-200,6,2,1,50,0,0
139401,363.636363636364,6,2,1,50,1,0
139764,454.545454545455,6,2,1,50,1,0
139764,-200,6,2,1,50,0,0
140218,606.060606060606,6,2,1,50,1,0
140824,606.060606060606,6,2,1,40,1,0
142036,-100,6,2,1,30,0,0
143248,-100,6,2,1,20,0,0
144460,-100,6,2,1,10,0,0
145672,-100,6,2,1,5,0,0

[Colours]
Combo1 : 197,139,139
Combo2 : 255,139,83

[HitObjects]
260,377,448,5,0,0:0:0:0:
260,377,560,1,0,0:0:0:0:
260,377,672,1,2,0:0:0:0:
295,284,896,1,2,0:0:0:0:
229,168,1121,1,2,0:0:0:0:
284,29,1346,1,2,0:0:0:0:
260,377,1795,5,0,0:0:0:0:
260,377,1907,1,0,0:0:0:0:
260,377,2019,1,2,0:0:0:0:
321,285,2245,1,2,0:0:0:0:
205,167,2469,1,2,0:0:0:0:
305,28,2694,1,2,0:0:0:0:
260,377,3143,5,0,0:0:0:0:
260,377,3255,1,0,0:0:0:0:
260,377,3367,1,2,0:0:0:0:
345,284,3593,1,2,0:0:0:0:
181,165,3818,1,2,0:0:0:0:
329,27,4042,2,0,P|334:74|311:123,1,90.000000298023,2|0,0:0|0:0,0:0:0:0:
183,357,4492,5,2,0:0:0:0:
183,357,4716,2,0,P|178:310|201:261,2,90.000000298023,2|0|0,0:0|0:0|0:0,0:0:0:0:
256,192,5391,5,4,0:3:0:0:
256,192,5840,5,4,0:3:0:0:
211,131,5952,1,0,0:0:0:0:
143,158,6065,2,0,P|60:155|12:128,1,135.000005596876,4|0,1:2|1:0,0:0:0:0:
84,17,6402,1,0,1:0:0:0:
84,17,6514,2,0,P|82:60|116:79,1,67.500002798438,2|0,1:2|0:0,0:0:0:0:
145,245,6739,2,0,P|228:275|268:381,1,202.500008395314,2|0,1:2|0:0,0:0:0:0:
512,258,7188,5,2,1:2:0:0:
474,326,7301,1,2,0:0:0:0:
406,294,7413,2,0,P|356:315|340:337,1,67.500002798438,4|0,1:2|0:0,0:0:0:0:
424,31,7638,5,0,1:0:0:0:
489,69,7750,1,2,0:0:0:0:
487,126,7863,1,2,1:2:0:0:
451,164,7975,1,2,0:0:0:0:
405,153,8087,1,2,1:2:0:0:
366,174,8200,1,2,0:0:0:0:
362,213,8312,2,0,P|319:155|322:83,1,135.000005596876,2|2,1:2|1:2,0:0:0:0:
318,94,8761,6,0,P|302:44|257:44,1,90.000000298023,4|0,1:2|0:0,0:0:0:0:
360,299,8986,2,0,P|309:370|179:348,1,202.500008395314,2|0,1:2|0:0,0:0:0:0:
458,228,9436,2,0,P|366:211|243:161,1,202.500008395314,2|0,1:2|0:0,0:0:0:0:
123,17,9885,2,0,P|167:27|212:53,1,67.500002798438,2|0,1:2|0:0,0:0:0:0:
202,367,10110,5,4,3:2:0:0:
188,319,10222,1,4,3:2:0:0:
310,17,10447,5,4,3:2:0:0:
324,65,10559,1,4,3:2:0:0:
23,161,10784,5,4,3:2:0:0:
71,147,10896,1,4,3:2:0:0:
489,223,11121,5,4,3:2:0:0:
441,237,11233,1,4,3:2:0:0:
181,168,11458,6,0,B|139:173|163:119|241:82|235:161|276:115|276:115|276:115|276:115|271:73|325:97|362:175|283:169|329:210|329:210|330:210|330:210|372:205|348:259|269:296|276:217|234:263|234:263|233:263|233:263|239:305|185:281|148:202|227:209|181:168,1,607.500025185942,6|0,3:2|0:0,0:0:0:0:
237,35,12582,5,2,0:0:0:0:
218,50,12694,1,2,0:0:0:0:
218,75,12807,2,0,P|244:111|276:143,1,90.000000298023,4|0,3:2|0:0,0:0:0:0:
333,6,13031,2,0,P|343:76|350:97,1,90.000000298023,2|0,3:2|0:0,0:0:0:0:
468,24,13256,2,0,P|450:65|438:108,1,90.000000298023,2|0,3:2|0:0,0:0:0:0:
294,309,13481,6,0,P|249:253|233:238,1,90.000000298023,4|0,3:2|0:0,0:0:0:0:
179,378,13705,2,0,P|168:307|161:286,1,90.000000298023,2|0,3:2|0:0,0:0:0:0:
43,360,13930,2,0,P|69:294|74:272,1,90.000000298023,2|0,3:2|0:0,0:0:0:0:
143,193,14155,5,2,3:2:0:0:
143,193,14380,5,2,3:2:0:0:
236,240,14492,1,2,0:0:0:0:
275,143,14604,2,0,B|283:88|312:122|320:44,1,90.000000298023,2|0,3:2|0:0,0:0:0:0:
437,218,14829,2,0,P|387:200|350:159,1,90.000000298023,2|0,3:2|0:0,0:0:0:0:
236,26,15054,5,2,3:2:0:0:
163,1,15166,1,2,3:2:0:0:
122,70,15278,1,2,3:2:0:0:
44,82,15391,1,2,3:2:0:0:
8,153,15503,2,0,P|10:209|41:225,1,90.000000298023,4|0,3:2|0:0,0:0:0:0:
0,335,15728,5,2,3:2:0:0:
37,380,15840,1,2,0:0:0:0:
91,361,15953,2,0,P|119:329|106:277,1,90.000000298023,2|0,3:2|0:0,0:0:0:0:
35,223,16177,2,0,P|85:188|131:192,1,90.000000298023,4|0,3:2|0:0,0:0:0:0:
142,96,16402,5,2,3:2:0:0:
194,107,16514,1,2,0:0:0:0:
202,160,16627,2,0,B|192:207|237:194|229:247,1,90.000000298023,2|0,3:2|0:0,0:0:0:0:
286,370,16851,6,0,P|221:343|175:339,1,90.000000298023,2|0,3:2|0:0,0:0:0:0:
344,279,17076,2,0,P|334:209|315:167,1,90.000000298023,2|0,3:2|0:0,0:0:0:0:
434,328,17301,2,0,P|489:285|516:247,1,90.000000298023,2|0,3:2|3:0,0:0:0:0:
233,249,17526,2,0,P|140:233|129:108,1,215.999994123458,12|2,3:2|3:2,0:0:0:0:
168,40,17863,2,0,P|141:24|115:27,4,53.9999985308646,12|0|0|0|0,3:2|0:0|0:0|0:0|3:0,0:0:0:0:
37,189,18200,6,0,P|70:143|122:126,1,107.999997061729,4|0,3:2|3:0,0:0:0:0:
112,329,18424,2,0,P|117:272|154:231,1,107.999997061729,10|0,3:2|3:0,0:0:0:0:
261,382,18649,2,0,P|237:330|248:276,1,107.999997061729,2|0,3:2|3:0,0:0:0:0:
424,347,18874,2,0,P|378:313|361:261,1,107.999997061729,2|0,3:2|3:0,0:0:0:0:
492,230,19099,2,0,B|429:250|473:149|331:129|284:205,1,215.999994123458,10|0,3:2|3:0,0:0:0:0:
431,89,19436,1,2,3:2:0:0:
305,181,19548,6,0,P|348:128|331:84,1,107.999997061729,2|0,3:2|3:0,0:0:0:0:
132,120,19773,2,0,P|127:68|166:33,1,107.999997061729,10|0,3:2|3:0,0:0:0:0:
275,1,19998,6,0,L|252:61,3,53.9999985308646,2|0|0|0,3:2|3:0|3:0|3:0,0:0:0:0:
236,101,20222,2,0,L|213:161,3,53.9999985308646,4|0|0|0,3:2|3:0|3:0|3:0,0:0:0:0:
203,206,20447,5,10,3:2:0:0:
203,206,20503,1,2,3:2:0:0:
203,206,20559,1,2,3:2:0:0:
87,211,20672,5,2,3:2:0:0:
66,260,20784,1,2,3:2:0:0:
112,288,20896,2,0,B|276:227|276:227|317:250,1,215.999994123458,4|8,3:2|3:2,0:0:0:0:
463,336,21233,1,2,3:2:0:0:
358,378,21346,2,0,L|396:276,1,107.999997061729,2|0,3:2|3:0,0:0:0:0:
494,224,21571,6,0,P|475:195|438:191,3,53.9999985308646,2|0|2|0,3:2|3:0|3:2|3:0,0:0:0:0:
505,127,21795,2,0,P|470:128|448:158,3,53.9999985308646,10|0|0|0,3:2|3:0|3:0|3:0,0:0:0:0:
428,66,22020,2,0,P|412:96|427:130,3,53.9999985308646,2|0|0|0,3:2|3:0|3:0|3:0,0:0:0:0:
378,191,22245,5,4,3:2:0:0:
378,191,22469,5,10,3:2:0:0:
396,276,22582,1,2,3:2:0:0:
320,319,22694,1,2,3:2:0:0:
255,260,22806,1,2,3:2:0:0:
291,179,22919,1,2,3:2:0:0:
291,179,23368,2,0,P|280:147|258:131,1,45.0000001490115,2|0,0:0|0:0,0:0:0:0:
90,7,23593,5,2,0:0:0:0:
166,33,23818,1,0,0:0:0:0:
197,107,24042,1,2,0:0:0:0:
168,182,24267,1,2,0:0:0:0:
168,182,24717,2,0,P|140:198|110:200,1,45.0000001490115,2|0,0:0|0:0,0:0:0:0:
56,158,24941,6,0,P|44:104|9:67,2,90.000000298023,2|0|0,0:0|0:0|0:0,0:0:0:0:
0,306,25615,1,2,0:0:0:0:
73,270,25840,1,2,0:0:0:0:
133,324,26065,1,0,0:0:0:0:
302,372,26290,6,0,P|292:289|210:287,1,180.000000596046,2|0,0:0|0:0,0:0:0:0:
210,287,26851,1,0,0:0:0:0:
297,262,26964,2,0,P|339:249|361:211,1,90.000000298023,2|2,0:0|0:0,0:0:0:0:
377,30,27413,1,0,0:0:0:0:
455,200,27638,6,0,P|365:188|359:104,1,180.000000596046,2|0,0:0|0:0,0:0:0:0:
354,112,28200,1,0,0:0:0:0:
272,75,28312,2,0,P|336:80|376:29,1,135.000000447034,4|0,1:3|0:0,0:0:0:0:
194,27,28762,2,0,P|191:64|172:102,1,67.500002798438,4|0,1:3|0:0,0:0:0:0:
86,224,28986,6,0,P|131:172|204:180,1,135.000005596876,4|0,1:3|0:0,0:0:0:0:
278,193,29323,2,0,P|266:225|261:264,1,67.500002798438,0|2,1:0|1:2,0:0:0:0:
340,306,29548,1,0,0:0:0:0:
340,306,29660,2,0,P|365:240|364:173,2,135.000005596876,2|2|0,1:2|1:2|1:0,0:0:0:0:
445,137,30222,2,0,P|429:96|386:89,1,90.000000298023,2|4,0:0|1:2,0:0:0:0:
72,31,30559,5,2,1:2:0:0:
125,36,30672,1,2,1:2:0:0:
166,70,30784,1,2,1:2:0:0:
171,123,30896,1,2,1:2:0:0:
145,170,31009,1,2,1:2:0:0:
262,272,31233,5,0,1:0:0:0:
219,239,31346,1,0,1:0:0:0:
168,255,31458,1,0,1:0:0:0:
117,271,31571,1,0,1:0:0:0:
75,237,31683,2,0,P|36:171|72:117,2,135.000005596876,4|2|2,1:2|0:0|1:2,0:0:0:0:
452,336,32357,2,0,P|436:290|389:277,1,101.250004197657,4|0,1:2|0:0,0:0:0:0:
369,282,32582,2,0,L|356:327,2,33.750001399219,2|2|2,1:2|0:0|0:0,0:0:0:0:
286,359,32806,2,0,B|241:360|265:340|221:343,1,67.500002798438,2|0,1:2|0:0,0:0:0:0:
138,365,33031,5,2,1:2:0:0:
205,209,33256,1,2,1:2:0:0:
307,175,33481,1,2,1:2:0:0:
374,19,33705,2,0,B|200:21|326:116|133:123,1,270.000011193752,2|2,1:2|0:0,0:0:0:0:
141,122,34267,1,2,0:0:0:0:
189,35,34380,6,0,P|281:80|348:105,1,161.999995592594,4|2,3:2|3:2,0:0:0:0:
416,140,34717,1,0,0:0:0:0:
487,100,34829,2,0,P|481:50|436:37,1,80.9999977962969,2|0,1:2|0:0,0:0:0:0:
416,140,35054,2,0,P|384:220|368:298,1,161.999995592594,2|2,3:2|3:2,0:0:0:0:
300,352,35391,1,0,0:0:0:0:
223,306,35503,2,0,P|238:268|242:221,1,80.9999977962969,2|0,1:2|0:0,0:0:0:0:
33,70,35728,5,2,3:2:0:0:
15,81,35840,1,0,0:0:0:0:
32,54,35953,5,2,3:2:0:0:
112,51,36065,1,2,0:0:0:0:
173,102,36177,1,2,3:2:0:0:
173,183,36290,1,2,0:0:0:0:
117,241,36402,1,2,1:2:0:0:
117,241,36851,6,0,P|78:239|39:217,1,80.9999977962969,2|2,3:2|3:2,0:0:0:0:
67,354,37076,2,0,P|173:335|183:268,1,161.999995592594,4|2,3:2|3:2,0:0:0:0:
292,220,37413,1,0,0:0:0:0:
275,307,37526,2,0,P|296:267|295:227,1,80.9999977962969,2|0,1:2|0:0,0:0:0:0:
124,49,37750,5,2,3:2:0:0:
137,66,37863,1,0,0:0:0:0:
116,153,37975,5,2,3:2:0:0:
138,147,38087,1,0,0:0:0:0:
208,214,38200,5,2,1:2:0:0:
215,194,38312,1,0,0:0:0:0:
292,147,38424,5,2,3:2:0:0:
281,132,38537,1,2,3:2:0:0:
482,233,38762,5,2,3:2:0:0:
491,313,38874,1,2,3:2:0:0:
432,368,38986,1,2,3:2:0:0:
352,349,39099,2,0,B|311:288|363:216|453:202|405:115,1,242.999993388891,2|0,1:2|3:0,0:0:0:0:
303,2,39548,6,0,P|335:22|383:40,1,80.9999977962969,2|0,3:2|0:0,0:0:0:0:
465,43,39773,2,0,P|388:57|280:101,1,180.000000596046,4|2,3:2|3:2,0:0:0:0:
63,0,40110,1,2,3:2:0:0:
22,69,40222,1,2,1:2:0:0:
67,136,40335,1,2,3:2:0:0:
146,120,40447,2,0,P|166:75|169:20,1,90.000000298023,2|2,1:2|0:0,0:0:0:0:
287,11,40672,1,2,3:2:0:0:
287,11,40784,2,0,P|246:115|240:199,1,180.000000596046,2|2,0:0|0:0,0:0:0:0:
380,285,41121,6,0,P|320:271|310:249,1,90.000000298023,2|0,3:2|0:0,0:0:0:0:
218,354,41346,2,0,P|200:295|214:275,1,90.000000298023,2|2,3:2|0:0,0:0:0:0:
82,253,41571,2,0,P|124:208|148:210,1,90.000000298023,2|0,3:2|0:0,0:0:0:0:
89,59,41795,6,0,P|213:59|239:181,1,270.000000894069,2|0,1:2|0:0,0:0:0:0:
226,168,42245,2,0,P|228:126|263:90,1,90.000000298023,2|0,3:2|0:0,0:0:0:0:
400,279,42469,5,4,3:2:0:0:
314,251,42582,1,2,3:2:0:0:
314,161,42694,1,2,3:2:0:0:
400,133,42807,1,2,3:2:0:0:
452,206,42919,1,2,3:2:0:0:
174,335,43144,6,0,P|135:315|118:307,1,53.9999985308646,2|2,1:2|1:2,0:0:0:0:
116,285,43312,1,0,1:0:0:0:
116,285,43368,2,0,P|148:253|173:240,1,53.9999985308646,0|0,1:0|1:0,0:0:0:0:
233,248,43593,2,0,P|238:274|247:299,1,53.9999985308646,2|2,1:2|1:2,0:0:0:0:
452,206,43818,5,4,3:2:0:0:
400,133,43930,1,2,3:2:0:0:
314,161,44043,1,2,3:2:0:0:
314,251,44155,1,2,3:2:0:0:
400,279,44267,1,2,3:2:0:0:
341,0,44492,6,0,P|330:20|330:44,4,40.4999988981485,2|2|2|2|2,1:2|0:0|1:2|0:0|0:0,0:0:0:0:
424,56,44829,1,2,1:2:0:0:
424,56,44885,1,2,1:2:0:0:
424,56,44941,2,0,P|413:100|393:145,1,80.9999977962969,2|2,1:2|1:2,0:0:0:0:
400,279,45166,5,4,3:2:0:0:
314,251,45279,1,2,3:2:0:0:
314,161,45391,1,2,3:2:0:0:
400,133,45504,1,2,3:2:0:0:
452,206,45616,1,2,3:2:0:0:
256,384,45840,5,4,3:2:0:0:
256,368,46065,1,4,3:2:0:0:
256,352,46290,1,4,3:2:0:0:
256,336,46514,6,0,B|247:298|264:318|256:283,7,53.9999985308646,4|2|2|2|2|2|2|2,3:2|3:2|3:2|3:2|3:2|3:2|3:2|3:2,0:0:0:0:
256,208,46964,5,2,3:2:0:0:
240,192,47020,1,2,3:2:0:0:
256,176,47076,1,2,3:2:0:0:
272,160,47132,1,2,3:2:0:0:
256,144,47189,1,4,3:2:0:0:
256,144,47413,6,0,B|240:81|274:105|255:35,1,107.999997061729,4|0,3:2|3:0,0:0:0:0:
208,28,47582,1,0,3:0:0:0:
208,28,47638,2,0,B|274:9|250:43|313:27,1,107.999997061729,4|0,3:2|3:0,0:0:0:0:
489,107,47863,6,0,B|449:141|444:203|444:203|402:151|350:146,1,215.999994123458,4|10,3:2|3:2,0:0:0:0:
406,73,48200,1,2,0:0:0:0:
264,139,48312,2,0,P|262:197|308:221,1,107.999997061729,2|0,3:2|0:0,0:0:0:0:
380,268,48537,2,0,B|356:249|356:249|299:246|234:313|263:385,1,215.999994123458,2|10,3:2|3:2,0:0:0:0:
260,377,48818,1,2,0:0:0:0:
260,377,48874,1,2,0:0:0:0:
236,296,48986,6,0,B|169:297|207:341|130:344,1,107.999997061729,2|0,3:2|0:0,0:0:0:0:
38,288,49211,2,0,B|-5:242|52:238|6:190,1,107.999997061729,2|0,3:2|0:0,0:0:0:0:
61,376,49436,5,10,3:2:0:0:
143,342,49548,1,2,0:0:0:0:
124,252,49661,1,2,3:2:0:0:
201,218,49773,5,2,0:0:0:0:
189,165,49886,1,2,3:2:0:0:
237,145,49998,2,0,P|274:97|299:41,1,107.999997061729,0|10,0:0|3:2,0:0:0:0:
294,54,50222,1,2,3:2:0:0:
152,92,50335,2,0,P|175:43|209:1,1,107.999997061729,2|2,3:2|3:2,0:0:0:0:
99,168,50559,6,0,B|71:132|3:132|3:132|58:91|67:45,1,215.999994123458,2|10,3:2|3:2,0:0:0:0:
157,96,50896,1,2,0:0:0:0:
27,226,51009,2,0,B|29:286|75:257|73:328,1,107.999997061729,0|2,3:0|0:0,0:0:0:0:
166,384,51234,2,0,B|158:376|193:392|193:392|185:292|255:222,1,215.999994123458,2|10,3:2|3:2,0:0:0:0:
251,225,51514,1,2,3:2:0:0:
251,225,51571,1,2,3:2:0:0:
251,225,51627,1,2,3:2:0:0:
251,225,51683,2,0,P|199:252|132:232,1,107.999997061729,2|2,3:2|3:2,0:0:0:0:
291,314,51908,5,12,3:2:0:0:
355,257,52020,1,2,0:0:0:0:
334,173,52132,1,0,0:0:0:0:
401,117,52245,1,10,3:2:0:0:
385,32,52357,1,2,0:0:0:0:
303,3,52469,1,0,0:0:0:0:
238,60,52582,2,0,B|234:79|246:92|246:92|344:114|428:176|428:176|443:204|423:224,1,270.000011193752,12|0,3:2|0:0,0:0:0:0:
512,277,52919,1,0,3:0:0:0:
512,277,52975,1,0,3:0:0:0:
512,277,53031,2,0,B|477:298|480:342|480:342|458:347|445:366,1,107.999997061729,2|2,3:2|3:2,0:0:0:0:
396,287,53256,6,0,B|347:261|202:325|313:363|251:395|195:371,1,215.999994123458,4|10,3:2|3:2,0:0:0:0:
359,373,53593,1,2,0:0:0:0:
294,271,53705,2,0,B|275:208|247:258|227:161,1,107.999997061729,2|2,3:2|0:0,0:0:0:0:
155,223,53930,1,2,3:2:0:0:
87,168,54043,1,2,0:0:0:0:
121,88,54155,2,0,P|107:62|77:50,2,53.9999985308646,10|2|2,3:2|0:0|0:0,0:0:0:0:
206,96,54380,2,0,B|225:33|253:83|273:-14,1,107.999997061729,2|0,3:2|0:0,0:0:0:0:
233,185,54604,6,0,P|266:168|309:178,2,71.9999980411528,2|2|2,3:2|0:0|0:0,0:0:0:0:
295,126,54829,6,0,P|321:152|325:196,2,71.9999980411528,10|2|2,3:2|0:0|0:0,0:0:0:0:
401,176,55054,6,0,P|384:209|343:226,2,71.9999980411528,2|2|2,3:2|0:0|0:0,0:0:0:0:
381,311,55278,6,0,B|445:297|456:354|499:362|499:362|506:311|454:294|482:227,1,270.000011193752,2|10,3:2|3:2,0:0:0:0:
335,384,55616,1,0,0:0:0:0:
335,384,55728,2,0,P|305:352|305:321,1,53.9999985308646,2|0,3:2|3:0,0:0:0:0:
264,338,55840,2,0,P|276:296|303:280,1,53.9999985308646,2|0,3:2|3:0,0:0:0:0:
262,257,55953,6,0,P|304:221|360:227,1,107.999997061729,4|0,3:2|0:0,0:0:0:0:
145,94,56177,2,0,P|173:141|157:195,1,107.999997061729,10|0,3:2|0:0,0:0:0:0:
264,138,56402,2,0,B|313:103|263:83|317:50,1,107.999997061729,2|0,3:2|3:0,0:0:0:0:
173,210,56627,2,0,P|72:182|13:272,1,215.999994123458,2|10,3:2|3:2,0:0:0:0:
12,262,56908,1,0,3:0:0:0:
12,262,56964,1,2,3:2:0:0:
12,262,57020,1,0,3:0:0:0:
12,262,57076,2,0,B|40:258|40:258|62:301|115:300,1,107.999997061729,2|2,3:2|3:2,0:0:0:0:
160,383,57301,6,0,B|184:345|262:354|262:354|194:316|191:262,1,215.999994123458,2|10,3:2|3:2,0:0:0:0:
193,279,57750,2,0,P|248:271|247:218,1,107.999997061729,2|0,3:2|3:0,0:0:0:0:
350,247,57975,2,0,P|370:195|323:170,1,107.999997061729,2|0,3:2|3:0,0:0:0:0:
406,91,58200,2,0,P|371:48|326:75,1,107.999997061729,10|0,3:2|3:0,0:0:0:0:
330,66,58368,1,0,3:0:0:0:
330,66,58425,2,0,P|249:50|219:24,1,107.999997061729,4|2,3:2|3:0,0:0:0:0:
125,19,58649,6,0,B|140:20|146:9|146:9|191:-4|244:75|195:125,1,180.000000596046,2|2,3:0|0:3,0:0:0:0:
253,188,58986,1,2,0:3:0:0:
253,188,59099,2,0,P|213:216|165:195,1,90.000000298023,2|2,0:3|0:3,0:0:0:0:
98,246,59323,2,0,P|117:317|214:275,1,180.000000596046,2|2,0:3|0:3,0:0:0:0:
205,300,59604,1,2,0:3:0:0:
205,300,59661,1,2,0:3:0:0:
292,298,59773,2,0,P|290:333|271:372,1,67.500002798438,2|2,0:3|0:3,0:0:0:0:
377,368,59998,5,6,3:2:0:0:
400,289,60110,1,2,3:2:0:0:
462,356,60222,5,2,3:2:0:0:
391,285,60335,1,2,3:2:0:0:
487,270,60447,5,2,3:2:0:0:
382,281,60559,1,2,3:2:0:0:
429,210,60672,6,0,B|425:156|380:186|379:117,1,107.999997061729,2|2,3:2|3:2,0:0:0:0:
463,104,60896,5,2,0:0:0:0:
414,44,61009,1,2,0:0:0:0:
339,42,61121,1,2,0:0:0:0:
294,103,61234,1,2,0:0:0:0:
311,176,61346,6,0,B|246:235|149:220|149:220|166:255|120:285,1,215.999994123458,4|8,3:2|0:0,0:0:0:0:
253,300,61683,1,2,0:0:0:0:
123,126,61795,2,0,P|67:147|59:202,1,107.999997061729,2|2,3:2|0:0,0:0:0:0:
56,304,62020,2,0,B|57:334|57:334|98:336|121:372,1,107.999997061729,2|2,3:2|0:0,0:0:0:0:
121,372,62189,1,2,0:0:0:0:
121,372,62245,2,0,P|143:360|200:350,3,53.9999985308646,10|2|2|2,3:2|0:0|0:0|0:0,0:0:0:0:
203,384,62469,2,0,B|248:347|200:327|254:290,1,107.999997061729,2|2,3:2|3:2,0:0:0:0:
393,229,62694,6,0,P|336:226|278:176,1,107.999997061729,2|0,3:2|3:2,0:0:0:0:
356,43,62919,2,0,P|324:90|252:116,1,107.999997061729,10|0,3:2|0:0,0:0:0:0:
175,3,63144,2,0,P|200:53|186:129,1,107.999997061729,2|0,3:2|3:0,0:0:0:0:
210,190,63368,2,0,B|198:217|198:217|158:215|117:250,1,107.999997061729,2|0,3:2|3:0,0:0:0:0:
18,373,63593,5,10,3:2:0:0:
84,337,63705,1,2,3:2:0:0:
42,267,63818,1,2,3:2:0:0:
71,179,63930,1,2,3:2:0:0:
0,97,64043,6,0,B|11:106|14:129|14:129|103:141|182:58|182:58|180:84|199:105,1,270.000011193752,4|10,3:2|3:2,0:0:0:0:
314,141,64380,1,2,3:2:0:0:
293,0,64492,2,0,P|291:30|258:57,3,53.9999985308646,2|2|2|2,3:2|3:2|3:2|3:2,0:0:0:0:
264,57,64717,2,0,B|219:80|196:154|238:206|238:206|227:248|196:245,1,215.999994123458,2|10,3:2|3:2,0:0:0:0:
198,236,64998,1,2,3:2:0:0:
182,240,65054,1,2,3:2:0:0:
169,250,65110,1,2,3:2:0:0:
164,265,65166,1,2,3:2:0:0:
299,384,65391,5,4,3:2:0:0:
310,337,65466,5,2,3:2:0:0:
350,313,65541,5,2,3:2:0:0:
397,314,65616,5,2,3:2:0:0:
435,340,65690,5,2,3:2:0:0:
482,334,65765,5,2,3:2:0:0:
512,298,65840,5,2,3:2:0:0:
510,250,65915,5,2,3:2:0:0:
476,215,65990,5,2,3:2:0:0:
434,221,66065,6,0,P|385:272|377:167,1,215.999994123458,4|10,3:2|3:2,0:0:0:0:
352,175,66346,1,0,3:0:0:0:
352,175,66402,2,0,P|376:146|377:100,1,53.9999985308646,0|0,3:0|3:0,0:0:0:0:
463,96,66514,2,0,P|446:37|383:39,1,107.999997061729,2|2,3:2|0:0,0:0:0:0:
312,0,66739,6,0,P|301:80|153:134,1,215.999994123458,4|10,3:2|3:2,0:0:0:0:
190,142,67020,1,0,3:0:0:0:
190,142,67076,2,0,P|168:101|180:66,1,53.9999985308646,2|0,3:2|3:0,0:0:0:0:
40,14,67189,2,0,P|70:61|79:133,1,107.999997061729,2|2,3:2|3:2,0:0:0:0:
18,236,67413,6,0,P|36:216|77:216,3,53.9999985308646,2|2|2|2,3:2|3:2|3:2|3:2,0:0:0:0:
78,197,67638,2,0,P|104:202|124:238,3,53.9999985308646,10|0|0|0,3:2|3:0|3:0|3:0,0:0:0:0:
144,228,67863,2,0,P|152:253|131:289,3,53.9999985308646,2|2|2|2,3:2|3:2|3:2|3:2,0:0:0:0:
139,304,68087,5,4,3:2:0:0:
180,367,68200,1,0,3:0:0:0:
255,366,68312,1,10,3:2:0:0:
304,309,68424,1,0,3:0:0:0:
278,237,68536,1,2,3:2:0:0:
484,33,68762,5,4,3:2:0:0:
471,56,68818,1,2,3:2:0:0:
447,69,68874,1,2,3:2:0:0:
420,69,68930,1,2,3:2:0:0:
397,54,68986,2,0,P|367:56|348:86,3,53.9999985308646,10|2|2|2,3:2|3:2|3:2|3:2,0:0:0:0:
328,75,69211,2,0,P|314:101|331:133,3,53.9999985308646,2|2|2|2,3:2|3:2|3:2|3:2,0:0:0:0:
310,154,69436,6,0,B|413:179|491:81|491:81|339:232|372:360|570:413|556:200|441:191,1,675.00002798438,4|2,3:2|0:0,0:0:0:0:
457,194,70784,5,4,0:0:0:0:
39,262,75727,5,0,1:0:0:0:
46,277,75840,1,0,1:0:0:0:
78,290,75952,5,0,1:0:0:0:
85,305,76065,1,0,1:0:0:0:
69,344,76177,5,2,1:2:0:0:
76,359,76289,2,0,P|148:321|212:324,1,135.000005596876,2|2,1:2|1:2,0:0:0:0:
277,354,76626,1,0,0:0:0:0:
464,171,76851,2,0,P|440:230|366:236,1,135.000005596876,2|0,0:0|0:0,0:0:0:0:
279,270,77188,1,2,1:2:0:0:
282,256,77300,2,0,P|292:223|300:187,1,67.500002798438,2|0,1:2|0:0,0:0:0:0:
194,38,77525,6,0,P|279:67|276:124,1,135.000005596876,2|0,1:2|0:0,0:0:0:0:
359,136,77862,2,0,P|311:141|205:168,1,135.000005596876,2|0,1:2|0:0,0:0:0:0:
80,128,78199,2,0,P|113:121|145:112,1,67.500002798438,2|2,1:2|0:3,0:0:0:0:
145,112,78368,1,2,0:3:0:0:
145,112,78424,1,2,0:3:0:0:
154,204,78536,2,0,P|115:210|70:223,1,67.500002798438,2|2,1:2|0:3,0:0:0:0:
17,270,78761,1,0,1:0:0:0:
11,285,78873,6,0,P|46:338|108:325,1,135.000005596876,2|0,1:2|0:0,0:0:0:0:
322,226,79210,2,0,P|295:287|280:353,1,135.000005596876,2|0,1:2|0:0,0:0:0:0:
182,378,79548,2,0,P|194:345|200:309,1,67.500002798438,2|0,0:0|0:0,0:0:0:0:
112,188,79772,1,2,0:3:0:0:
100,200,79828,1,2,0:3:0:0:
98,217,79885,1,2,0:3:0:0:
108,231,79941,1,2,0:3:0:0:
121,241,79997,2,0,P|168:236|220:218,1,90.000000298023,2|0,0:0|0:0,0:0:0:0:
256,0,80222,5,2,3:2:0:0:
256,16,80446,1,2,3:2:0:0:
256,32,80671,1,2,3:2:0:0:
256,48,80896,1,2,3:2:0:0:
256,64,81121,5,2,3:2:0:0:
240,80,81177,1,0,3:0:0:0:
256,96,81233,1,0,3:0:0:0:
272,112,81289,1,0,3:0:0:0:
256,128,81345,2,0,P|215:141|160:148,1,90.000000298023,2|2,3:2|3:2,0:0:0:0:
337,30,81570,6,0,P|355:78|405:95,1,107.999997061729,4|0,3:2|0:0,0:0:0:0:
498,160,81795,1,10,3:2:0:0:
397,205,81907,2,0,P|424:100|463:0,1,215.999994123458,2|0,3:2|3:0,0:0:0:0:
484,259,82244,2,0,P|457:352|337:341,1,215.999994123458,2|8,3:2|3:2,0:0:0:0:
259,210,82581,2,0,P|269:250|331:267,1,107.999997061729,2|2,3:2|0:0,0:0:0:0:
337,30,82806,1,10,3:2:0:0:
354,22,82918,5,2,3:2:0:0:
378,106,83031,1,2,3:2:0:0:
337,182,83143,1,10,3:2:0:0:
252,197,83255,1,2,3:2:0:0:
175,156,83368,1,2,3:2:0:0:
99,197,83480,1,2,3:2:0:0:
93,286,83592,1,2,3:2:0:0:
93,286,83817,5,10,3:2:0:0:
161,342,83930,2,0,P|189:297|175:247,1,107.999997061729,2|2,0:0|3:2,0:0:0:0:
24,139,84154,1,2,3:2:0:0:
24,139,84210,1,0,3:0:0:0:
24,139,84267,2,0,P|46:185|131:175,1,107.999997061729,2|0,3:2|0:0,0:0:0:0:
213,18,84491,1,10,3:2:0:0:
316,49,84604,6,0,P|203:69|190:173,1,215.999994123458,2|10,3:2|3:2,0:0:0:0:
183,155,84885,1,0,3:0:0:0:
183,155,84941,2,0,P|252:151|287:129,1,107.999997061729,10|0,3:2|3:0,0:0:0:0:
431,270,85166,2,0,P|393:212|356:193,1,107.999997061729,10|8,3:2|3:2,0:0:0:0:
417,0,85390,2,0,P|385:61|387:103,1,107.999997061729,2|8,3:2|3:2,0:0:0:0:
319,370,85615,6,0,B|278:340|323:267|368:229|399:251|402:285|451:267|507:202|464:151,1,323.999991185188,12|0,3:2|3:0,0:0:0:0:
508,384,86064,2,0,P|463:360|396:348,1,107.999997061729,2|0,3:2|0:0,0:0:0:0:
183,155,86289,1,2,3:2:0:0:
271,195,86401,1,2,3:2:0:0:
240,287,86514,1,10,3:2:0:0:
240,287,86739,6,0,P|166:276|148:231,1,107.999997061729,2|2,3:2|3:2,0:0:0:0:
134,224,86907,1,0,3:0:0:0:
134,224,86963,2,0,P|180:114|202:15,1,215.999994123458,4|10,3:2|3:2,0:0:0:0:
201,19,87300,2,0,P|245:47|230:96,1,107.999997061729,2|0,3:2|0:0,0:0:0:0:
74,60,87525,1,2,3:2:0:0:
38,159,87637,2,0,P|88:140|141:131,1,107.999997061729,2|0,3:2|0:0,0:0:0:0:
334,307,87862,2,0,P|327:207|229:189,1,215.999994123458,10|0,3:2|0:0,0:0:0:0:
421,27,88199,1,8,3:2:0:0:
332,47,88312,6,0,B|343:113|377:92|387:143,1,107.999997061729,2|0,3:2|3:0,0:0:0:0:
317,277,88536,2,0,B|265:319|300:338|265:368,1,107.999997061729,10|0,3:2|3:0,0:0:0:0:
500,225,88761,2,0,B|437:201|438:241|394:226,1,107.999997061729,2|0,3:2|3:0,0:0:0:0:
184,317,88986,2,0,B|122:317|83:280|120:243|110:207|54:178|-3:228,1,215.999994123458,2|10,3:2|3:2,0:0:0:0:
27,209,89435,6,0,P|54:262|102:254,1,107.999997061729,2|2,3:2|3:2,0:0:0:0:
126,238,89604,1,2,3:2:0:0:
126,238,89660,2,0,P|150:188|156:133,1,107.999997061729,4|0,3:2|0:0,0:0:0:0:
86,10,89885,1,10,3:2:0:0:
1,49,89997,2,0,P|21:102|74:96,1,107.999997061729,4|0,3:2|0:0,0:0:0:0:
174,42,90222,1,10,3:2:0:0:
179,23,90334,5,2,3:2:0:0:
264,11,90446,1,2,3:2:0:0:
328,69,90559,1,10,3:2:0:0:
298,149,90671,1,2,3:2:0:0:
339,224,90783,1,10,3:2:0:0:
424,237,90896,1,10,3:2:0:0:
505,180,91008,6,0,B|394:217|291:264|291:264|291:286|256:309,1,270.000011193752,4|10,3:2|3:2,0:0:0:0:
89,353,91345,1,2,3:2:0:0:
15,307,91458,1,2,3:2:0:0:
29,222,91570,1,10,3:2:0:0:
111,197,91682,2,0,B|182:213|135:246|223:261,1,107.999997061729,2|2,3:2|3:2,0:0:0:0:
409,354,91907,5,10,3:2:0:0:
398,372,91963,1,0,3:0:0:0:
378,381,92019,1,0,3:0:0:0:
356,379,92076,1,0,3:0:0:0:
339,364,92132,2,0,P|358:307|364:230,1,107.999997061729,2|10,3:2|3:2,0:0:0:0:
387,26,92357,5,4,3:2:0:0:
322,83,92469,1,0,3:0:0:0:
491,135,92581,5,2,3:2:0:0:
474,49,92694,1,0,3:0:0:0:
344,169,92806,5,2,3:2:0:0:
427,197,92918,1,0,3:0:0:0:
408,111,93031,6,0,B|379:85|304:129|338:137|307:182|265:181|265:181|256:161|188:161,1,215.999994123458,10|2,3:2|3:2,0:0:0:0:
168,0,93368,2,0,P|224:29|227:92,1,107.999997061729,10|2,3:2|3:2,0:0:0:0:
233,69,93536,1,0,3:0:0:0:
233,69,93592,1,2,3:2:0:0:
158,113,93705,5,10,3:2:0:0:
73,94,93817,1,2,3:2:0:0:
8,152,93930,1,2,3:2:0:0:
14,237,94042,1,10,3:2:0:0:
81,291,94154,2,0,P|139:288|181:247,1,107.999997061729,2|2,3:2|3:2,0:0:0:0:
179,219,94323,1,0,3:0:0:0:
179,219,94379,2,0,B|157:184|182:137|182:137|233:127|233:127|240:81|265:52|293:48,1,215.999994123458,10|10,3:2|3:2,0:0:0:0:
91,0,94716,2,0,P|146:10|162:62,1,107.999997061729,2|2,3:2|3:2,0:0:0:0:
334,135,94941,1,2,3:2:0:0:
334,135,94997,1,0,3:0:0:0:
334,135,95053,6,0,P|391:111|449:102,1,107.999997061729,4|0,3:2|0:0,0:0:0:0:
488,20,95278,1,10,3:2:0:0:
417,90,95390,2,0,P|426:142|451:190,1,107.999997061729,2|0,3:2|0:0,0:0:0:0:
352,274,95615,1,2,3:2:0:0:
452,300,95727,2,0,B|429:304|429:304|376:284|378:221|331:197|248:218,1,215.999994123458,4|10,3:2|3:2,0:0:0:0:
39,168,96064,2,0,P|45:221|86:255,1,107.999997061729,0|2,3:0|3:2,0:0:0:0:
258,307,96289,1,8,3:2:0:0:
250,323,96401,5,4,3:2:0:0:
175,277,96514,1,2,3:2:0:0:
153,193,96626,1,10,3:2:0:0:
192,115,96739,1,2,3:2:0:0:
276,95,96851,1,2,3:2:0:0:
350,139,96963,1,2,3:2:0:0:
431,109,97076,5,2,3:2:0:0:
450,99,97188,1,2,3:2:0:0:
459,79,97300,1,10,3:2:0:0:
453,57,97413,1,2,3:2:0:0:
391,12,97525,6,0,P|347:7|373:47,1,107.999997061729,2|10,3:2|3:2,0:0:0:0:
457,258,97750,2,0,B|442:229|445:207|445:207|377:180|290:139|290:139|292:112|273:92,1,270.000011193752,4|10,3:2|3:2,0:0:0:0:
90,26,98087,1,2,3:2:0:0:
172,49,98199,1,2,3:2:0:0:
197,132,98312,1,10,3:2:0:0:
144,199,98424,6,0,P|93:227|16:222,1,107.999997061729,2|0,3:2|3:0,0:0:0:0:
24,217,98592,1,0,3:0:0:0:
24,217,98649,2,0,P|161:243|184:315,1,215.999994123458,10|2,3:2|3:2,0:0:0:0:
378,353,98986,1,2,3:2:0:0:
282,384,99098,5,12,3:2:0:0:
255,340,99173,5,0,3:0:0:0:
276,294,99248,5,0,3:0:0:0:
324,281,99323,6,0,P|337:240|362:178,1,107.999997061729,12|0,3:2|3:0,0:0:0:0:
433,0,99548,2,0,P|483:5|493:55,1,107.999997061729,12|0,3:2|3:0,0:0:0:0:
512,161,99772,5,12,3:2:0:0:
468,139,99847,5,2,3:2:0:0:
424,121,99922,5,2,3:2:0:0:
379,105,99997,5,10,3:2:0:0:
333,92,100072,5,2,3:2:0:0:
286,82,100147,5,2,3:2:0:0:
238,74,100222,6,0,P|250:107|257:145,2,71.9999980411528,10|2|2,3:2|3:2|3:2,0:0:0:0:
142,0,100446,5,4,3:2:0:0:
85,50,100559,1,2,3:2:0:0:
121,115,100671,1,10,3:2:0:0:
54,150,100783,1,2,3:2:0:0:
94,214,100896,2,0,P|119:221|145:231,2,53.9999985308646,2|2|10,3:2|3:2|3:2,0:0:0:0:
11,343,101121,5,4,3:2:0:0:
95,311,101233,1,2,3:2:0:0:
95,311,101289,1,2,3:2:0:0:
95,311,101345,2,0,P|157:332|224:347,1,107.999997061729,10|2,3:2|3:2,0:0:0:0:
226,330,101514,1,2,3:2:0:0:
226,330,101570,2,0,P|235:280|257:223,1,107.999997061729,2|2,3:2|3:2,0:0:0:0:
339,0,101795,5,12,3:2:0:0:
430,6,101907,1,2,3:2:0:0:
497,69,102019,1,10,3:2:0:0:
512,159,102132,1,2,3:2:0:0:
465,238,102244,2,0,B|436:244|408:224|418:219|404:199|367:204,1,107.999997061729,10|2,3:2|3:2,0:0:0:0:
337,220,102413,1,2,3:2:0:0:
337,220,102469,2,0,P|283:180|297:137,1,107.999997061729,12|2,3:2|3:2,0:0:0:0:
500,348,102694,5,2,3:2:0:0:
453,374,102806,1,2,3:2:0:0:
400,363,102918,1,2,3:2:0:0:
375,314,103031,1,2,3:2:0:0:
383,301,103143,5,4,3:2:0:0:
284,349,103368,1,2,0:0:0:0:
177,271,103592,1,0,0:0:0:0:
21,351,103817,2,0,P|59:381|106:375,1,90.000000298023,2|0,0:0|0:0,0:0:0:0:
383,301,104267,5,2,0:0:0:0:
383,301,104379,1,0,0:0:0:0:
383,301,104491,1,4,0:3:0:0:
273,293,104716,1,2,0:0:0:0:
219,172,104941,1,0,0:0:0:0:
45,163,105166,2,0,P|62:207|106:226,1,90.000000298023,2|0,0:0|0:0,0:0:0:0:
383,301,105615,5,2,0:0:0:0:
383,301,105727,1,0,0:0:0:0:
383,301,105840,1,4,0:3:0:0:
291,239,106064,1,2,0:0:0:0:
305,107,106289,1,0,0:0:0:0:
159,12,106514,2,0,P|152:59|180:97,1,90.000000298023,2|0,0:0|0:0,0:0:0:0:
368,381,106963,5,2,0:0:0:0:
368,381,107188,2,0,P|390:343|382:300,2,90.000000298023,4|0|0,0:3|0:0|0:0,0:0:0:0:
256,192,107862,5,2,3:2:0:0:
256,192,108199,1,2,3:2:0:0:
304,256,108312,6,0,B|321:250|321:250|331:192|386:185,1,107.999997061729,2|0,0:0|3:0,0:0:0:0:
412,199,108480,1,0,3:0:0:0:
412,199,108536,2,0,P|473:211|478:92,1,215.999994123458,4|2,3:2|3:2,0:0:0:0:
306,26,108873,1,0,0:0:0:0:
403,3,108986,2,0,P|393:70|360:113,1,107.999997061729,2|0,3:2|0:0,0:0:0:0:
322,340,109210,6,0,B|243:302|334:288|241:207|165:228,1,215.999994123458,2|2,3:2|3:2,0:0:0:0:
192,325,109548,1,2,0:0:0:0:
277,150,109660,2,0,B|271:90|228:128|221:59,1,107.999997061729,2|2,3:2|0:0,0:0:0:0:
11,307,109885,6,0,P|10:357|57:377,1,107.999997061729,2|2,3:2|0:0,0:0:0:0:
57,377,110053,1,2,0:0:0:0:
57,377,110109,2,0,P|84:314|88:257,1,107.999997061729,2|2,3:2|3:2,0:0:0:0:
32,51,110334,5,2,0:0:0:0:
42,133,110446,1,2,3:2:0:0:
106,192,110559,1,2,3:2:0:0:
190,193,110671,1,2,0:0:0:0:
262,144,110783,2,0,P|299:152|314:233,1,107.999997061729,2|2,3:2|0:0,0:0:0:0:
308,307,111008,2,0,P|362:325|384:280,1,107.999997061729,2|2,3:2|0:0,0:0:0:0:
502,171,111233,5,2,3:2:0:0:
444,164,111346,1,0,3:0:0:0:
406,122,111458,1,2,3:2:0:0:
415,65,111570,1,2,3:2:0:0:
380,19,111683,1,2,3:2:0:0:
324,1,111795,1,2,3:2:0:0:
276,31,111907,2,0,P|236:22|219:-7,3,53.9999985308646,2|0|0|0,3:2|3:0|3:0|3:0,0:0:0:0:
217,5,112132,6,0,B|212:73|263:34|263:104,1,107.999997061729,2|0,3:2|3:0,0:0:0:0:
406,122,112357,2,0,B|411:190|360:151|360:221,1,107.999997061729,2|0,3:2|3:0,0:0:0:0:
256,384,112581,5,2,3:2:0:0:
237,365,112637,1,2,3:2:0:0:
256,347,112693,1,2,3:2:0:0:
274,328,112749,1,2,3:2:0:0:
256,307,112806,2,0,B|241:287|241:287|279:245|252:197,1,107.999997061729,2|0,1:2|1:0,0:0:0:0:
89,42,113031,5,2,3:2:0:0:
151,132,113143,1,2,3:2:0:0:
258,102,113255,1,2,3:2:0:0:
258,102,113480,5,2,3:2:0:0:
297,140,113592,1,2,3:2:0:0:
371,115,113705,1,2,3:2:0:0:
384,36,113817,1,2,3:2:0:0:
469,13,113930,6,0,B|444:26|444:26|398:112|417:235|417:235|383:256,1,270.000011193752,4|0,3:2|0:0,0:0:0:0:
124,165,114267,2,0,B|147:180|147:180|245:176|342:98|342:98|377:116,1,270.000011193752,4|0,3:2|0:0,0:0:0:0:
421,383,114604,2,0,B|422:354|422:354|370:272|253:227|253:227|252:187,1,270.000011193752,4|0,3:2|0:0,0:0:0:0:
224,19,114941,2,0,P|274:80|249:116,1,107.999997061729,2|0,3:2|0:0,0:0:0:0:
83,363,115166,5,2,3:2:0:0:
135,370,115278,2,0,B|213:364|162:315|249:315,1,107.999997061729,12|0,3:2|0:0,0:0:0:0:
25,141,115503,5,2,3:2:0:0:
34,192,115615,2,0,B|63:264|94:201|121:283,1,107.999997061729,12|0,3:2|0:0,0:0:0:0:
219,16,115840,5,2,3:2:0:0:
172,39,115952,2,0,B|112:89|182:99|111:150,1,107.999997061729,12|0,3:2|0:0,0:0:0:0:
397,160,116177,5,2,3:2:0:0:
358,122,116289,2,0,B|291:80|303:150|233:99,1,107.999997061729,12|0,3:2|0:0,0:0:0:0:
315,372,116514,5,2,3:2:0:0:
340,323,116626,2,0,B|358:247|296:279|323:197,1,107.999997061729,12|0,3:2|0:0,0:0:0:0:
458,308,116851,5,2,3:2:0:0:
458,308,116907,1,0,3:0:0:0:
458,308,116963,2,0,B|407:270|322:243|246:263|246:263|214:253|208:223,1,270.000011193752,12|2,3:2|3:2,0:0:0:0:
41,375,117300,2,0,B|68:357|68:357|62:307|104:269,1,107.999997061729,12|0,3:2|0:0,0:0:0:0:
62,28,117525,1,2,3:2:0:0:
50,61,117637,2,0,B|52:93|52:93|98:113|110:168,1,107.999997061729,12|0,3:2|0:0,0:0:0:0:
15,194,117862,5,2,3:2:0:0:
15,194,117918,1,0,3:0:0:0:
15,194,117975,2,0,P|128:185|195:103,2,215.999994123458,12|0|0,3:2|3:0|3:0,0:0:0:0:
245,40,118649,6,0,P|213:10|172:21,1,90.000000298023,4|0,3:1|0:0,0:0:0:0:
327,363,119098,5,2,3:2:0:0:
136,299,119210,1,2,3:2:0:0:
203,384,119323,2,0,P|237:325|237:265,1,107.999997061729,4|0,3:2|3:0,0:0:0:0:
239,255,119491,1,0,3:0:0:0:
239,255,119548,2,0,P|288:250|302:193,1,107.999997061729,10|2,3:2|3:2,0:0:0:0:
362,8,119772,5,10,3:2:0:0:
451,42,119885,1,0,3:0:0:0:
451,42,119941,1,0,3:0:0:0:
451,42,119997,2,0,P|494:79|472:140,1,107.999997061729,4|0,3:2|3:0,0:0:0:0:
467,165,120166,1,0,3:0:0:0:
467,165,120222,2,0,P|413:157|369:127,1,107.999997061729,10|2,3:2|3:2,0:0:0:0:
204,12,120446,5,10,3:2:0:0:
235,19,120502,1,0,3:0:0:0:
253,45,120558,1,2,3:2:0:0:
254,76,120614,1,0,3:0:0:0:
231,99,120671,2,0,B|161:91|201:147|105:129,1,107.999997061729,12|2,3:2|3:2,0:0:0:0:
362,8,120896,6,0,P|357:38|331:45,2,53.9999985308646,10|0|2,3:2|0:0|3:2,0:0:0:0:
281,181,121121,5,12,3:2:0:0:
250,188,121177,1,0,0:0:0:0:
232,214,121233,1,2,3:2:0:0:
231,245,121289,1,0,3:0:0:0:
254,268,121346,2,0,B|324:260|284:316|380:298,1,107.999997061729,10|2,3:2|3:2,0:0:0:0:
202,345,121570,5,10,3:2:0:0:
185,372,121626,1,0,3:0:0:0:
155,384,121682,1,2,3:2:0:0:
122,383,121739,1,0,3:0:0:0:
96,362,121795,2,0,B|88:336|88:336|131:317|132:271,1,107.999997061729,10|0,3:2|3:0,0:0:0:0:
12,152,122019,6,0,P|7:212|60:249,1,107.999997061729,12|0,3:2|3:0,0:0:0:0:
150,32,122244,1,10,3:2:0:0:
77,88,122357,1,2,3:2:0:0:
112,178,122469,1,10,3:2:0:0:
112,178,122525,1,2,3:2:0:0:
112,178,122581,2,0,P|165:172|212:147,1,107.999997061729,2|12,3:2|3:2,0:0:0:0:
422,254,122806,6,0,P|400:236|374:235,2,53.9999985308646,0|0|12,3:0|3:0|3:2,0:0:0:0:
256,32,123031,1,0,3:0:0:0:
256,32,123087,1,0,3:0:0:0:
256,32,123143,2,0,B|262:93|301:55|307:119,1,107.999997061729,12|0,3:2|3:0,0:0:0:0:
309,158,123312,1,0,3:0:0:0:
309,158,123368,2,0,P|283:205|277:258,1,107.999997061729,12|0,3:2|3:0,0:0:0:0:
112,178,123592,5,10,3:2:0:0:
141,191,123649,1,2,3:2:0:0:
159,217,123705,1,2,3:2:0:0:
159,249,123761,1,2,3:2:0:0:
143,277,123817,2,0,P|165:295|191:296,1,53.9999985308646,10|0,3:2|0:0,0:0:0:0:
220,371,123930,2,0,P|246:360|260:338,1,53.9999985308646,10|0,3:2|0:0,0:0:0:0:
335,374,124042,5,4,3:2:0:0:
419,384,124154,1,2,3:2:0:0:
486,331,124267,1,2,3:2:0:0:
506,246,124379,1,2,3:2:0:0:
460,173,124491,1,4,3:2:0:0:
460,173,124716,5,4,3:2:0:0:
460,173,126064,6,0,P|446:204|437:244,1,67.500002798438,2|0,3:2|0:0,0:0:0:0:
396,384,126289,2,0,P|410:353|419:313,1,67.500002798438,2|0,3:2|0:0,0:0:0:0:
358,262,126514,1,2,3:2:0:0:
358,262,126626,1,2,0:0:0:0:
358,262,126739,2,0,P|316:256|218:222,1,135.000005596876,2|2,3:2|3:2,0:0:0:0:
161,260,127076,1,0,3:0:0:0:
95,225,127188,1,2,3:2:0:0:
84,151,127300,1,2,3:2:0:0:
143,88,127413,6,0,P|232:121|324:134,1,180.000000596046,4|2,3:2|3:2,0:0:0:0:
387,188,127750,1,2,0:0:0:0:
470,154,127862,1,2,3:2:0:0:
490,65,127975,1,2,0:0:0:0:
421,6,128087,6,0,P|404:50|400:108,1,90.000000298023,2|0,3:2|0:0,0:0:0:0:
462,254,128312,1,2,3:2:0:0:
462,254,128424,1,0,3:0:0:0:
462,254,128536,2,0,P|479:210|483:152,1,90.000000298023,2|0,3:2|0:0,0:0:0:0:
297,237,128761,6,0,B|408:262|329:321|459:345,2,180.000000596046,2|10|2,3:2|3:2|3:2,0:0:0:0:
218,192,129323,1,2,3:2:0:0:
298,149,129435,1,10,3:2:0:0:
298,149,129660,2,0,P|313:104|319:52,1,90.000000298023,10|10,3:2|3:2,0:0:0:0:
191,9,129885,1,10,3:2:0:0:
182,16,129941,1,2,3:2:0:0:
173,23,129997,1,2,3:2:0:0:
164,29,130053,1,2,3:2:0:0:
155,36,130109,6,0,P|173:84|223:88,1,103.500002316832,4|2,3:2|0:0,0:0:0:0:
398,33,130334,2,0,P|347:24|318:65,1,103.500002316832,2|2,3:2|0:0,0:0:0:0:
284,231,130559,2,0,P|316:191|295:146,1,103.500002316832,2|2,3:2|0:0,0:0:0:0:
50,250,130783,5,2,3:2:0:0:
100,316,130896,1,2,3:2:0:0:
178,289,131008,5,2,3:2:0:0:
239,345,131121,1,2,3:2:0:0:
314,311,131233,5,2,3:2:0:0:
388,346,131345,1,2,3:2:0:0:
466,293,131458,6,0,B|498:221|451:243|485:180,1,116.999995031595,2|2,3:2|3:2,0:0:0:0:
471,158,131626,1,0,3:0:0:0:
471,158,131682,2,0,B|399:126|421:173|358:138,1,116.999995031595,2|2,3:2|3:2,0:0:0:0:
331,153,131851,1,0,3:0:0:0:
331,153,131907,2,0,B|363:81|316:103|351:41,1,116.999995031595,2|2,3:2|3:2,0:0:0:0:
336,18,132076,1,0,3:0:0:0:
336,18,132132,2,0,B|264:-14|286:33|224:-1,1,116.999995031595,2|0,3:2|3:0,0:0:0:0:
91,0,132357,5,2,3:2:0:0:
91,0,132413,1,2,3:2:0:0:
91,0,132469,2,0,B|83:37|74:17|67:57,1,58.4999975157976,2|2,3:2|3:2,0:0:0:0:
127,165,132581,2,0,P|169:124|155:74,1,116.999995031595,2|0,3:2|3:0,0:0:0:0:
38,165,132806,5,4,3:2:0:0:
474,219,133031,1,2,3:2:0:0:
136,120,133255,6,0,P|179:211|199:310,1,202.500008395314,4|0,3:2|0:0,0:0:0:0:
375,263,133705,2,0,P|332:172|312:73,1,202.500008395314,4|0,3:2|0:0,0:0:0:0:
256,192,134154,5,4,3:2:0:0:
256,192,134210,12,4,135503,0:0:0:0:
81,370,135743,6,0,P|91:349|96:313,1,45.0000001490115,2|0,0:0|0:0,0:0:0:0:
176,315,135983,2,0,P|186:294|191:258,1,45.0000001490115,2|0,0:0|0:0,0:0:0:0:
126,221,136223,1,2,0:0:0:0:
117,226,136463,1,0,0:0:0:0:
118,236,136703,1,0,0:0:0:0:
256,320,136943,6,0,P|306:314|346:287,1,90.000000298023,2|2,0:0|0:0,0:0:0:0:
374,193,137453,1,2,0:0:0:0:
430,272,137708,2,0,P|343:277|283:214,1,180.000000596046,2|2,0:0|0:0,0:0:0:0:
465,197,138497,6,0,P|492:157|487:104,1,90.000000298023,2|0,0:0|0:0,0:0:0:0:
480,114,138949,2,0,L|460:61,1,45.0000001490115,2|0,0:0|0:0,0:0:0:0:
334,0,139401,5,2,0:0:0:0:
378,84,139764,2,0,L|387:55,2,22.5000000745057,2|0|2,0:0|0:0|0:0,0:0:0:0:
256,208,140218,5,2,0:0:0:0:
256,192,140824,1,2,0:0:0:0:
256,192,140975,12,0,147490,0:0:0:0:
