osu file format v14

[General]
AudioFilename: audio.ogg
AudioLeadIn: 0
PreviewTime: 8514
Countdown: 0
SampleSet: Normal
StackLeniency: 0.7
Mode: 1
LetterboxInBreaks: 0
WidescreenStoryboard: 1

[Editor]
DistanceSpacing: 5.5
BeatDivisor: 4
GridSize: 32
TimelineZoom: 2.1

[Metadata]
Title:Average Chiptune Fan vs. Average Hardcore Enjoyer
TitleUnicode:Average Chiptune Fan vs. Average Hardcore Enjoyer
Artist:takehirotei
ArtistUnicode:takehirotei
Creator:Faputa
Version:Average Oni Fan
Source:
Tags:versus remix Can You Feel My Heart by Bring Me the Horizon extended version ver. instrumental electronic chiptune hardcore meme タケヒロ Takehiro 鄭 Tei
BeatmapID:3471045
BeatmapSetID:1698707

[Difficulty]
HPDrainRate:6
CircleSize:2
OverallDifficulty:6
ApproachRate:10
SliderMultiplier:1.4
SliderTickRate:1

[Events]
//Background and Video events
0,0,"Average Chiptune Fan Vs Average Hardcore Enjoyer.jpg",0,0
//Break Periods
//Storyboard Layer 0 (Background)
//Storyboard Layer 1 (Fail)
//Storyboard Layer 2 (Pass)
//Storyboard Layer 3 (Foreground)
//Storyboard Layer 4 (Overlay)
//Storyboard Sound Samples

[TimingPoints]
42,235.360572396912,4,1,0,90,1,0
42,-133.333333333333,4,1,0,90,0,0
983,-117.647058823529,4,1,0,90,0,0
4278,-116.279069767442,4,1,0,90,0,0
4513,-113.636363636364,4,1,0,90,0,0
4749,-111.111111111111,4,1,0,90,0,0
7691,-110.344827586207,4,1,0,90,0,0
7808,-109.58904109589,4,1,0,90,0,0
7867,-109.215017064846,4,1,0,90,0,0
7926,-108.843537414966,4,1,0,90,0,0
7985,-108.474576271186,4,1,0,90,0,0
8044,-108.108108108108,4,1,0,90,0,0
8161,-107.38255033557,4,1,0,90,0,0
8220,-107.023411371237,4,1,0,90,0,0
8279,-106.666666666667,4,1,0,90,0,0
8397,-105.960264900662,4,1,0,90,0,0
8456,-105.263157894737,4,1,0,95,0,0
23578,-105.263157894737,4,1,0,100,0,1
29285,-105.032859530104,4,1,0,100,0,1
29344,-104.80345683722,4,1,0,100,0,1
29403,-104.575163398693,4,1,0,100,0,1
29462,-104.347862381865,4,1,0,100,0,1
29579,-103.896103896104,4,1,0,100,0,1
29697,-103.448240190262,4,1,0,100,0,1
29756,-103.225806451613,4,1,0,100,0,1
29815,-103.004327211786,4,1,0,100,0,1
29932,-102.564102564103,4,1,0,100,0,1
29991,-102.345450693544,4,1,0,100,0,1
30050,-102.127624807617,4,1,0,100,0,1
30168,-101.694949727102,4,1,0,100,0,1
30226,-101.479881106171,4,1,0,100,0,1
30285,-101.26582278481,4,1,0,100,0,1
30344,-101.26582278481,4,1,0,100,0,1
30403,-100.840302238554,4,1,0,100,0,1
30521,-100.418443654709,4,1,0,100,0,1
30638,-100,4,1,0,100,0,0
30697,-100,4,1,0,50,0,0
31580,-100,4,1,0,40,0,0
32168,-100,4,1,0,30,0,0
32757,-100,4,1,0,20,0,0
33345,-100,4,1,0,10,0,0
33933,-100,4,1,0,5,0,0

[HitObjects]
256,192,42,5,8,0:0:0:0:
256,192,277,1,8,0:0:0:0:
256,192,512,1,8,0:0:0:0:
256,192,630,1,8,0:0:0:0:
256,192,748,1,0,0:0:0:0:
256,192,983,1,8,0:0:0:0:
256,192,1101,1,0,0:0:0:0:
256,192,1218,1,8,0:0:0:0:
256,192,1336,1,0,0:0:0:0:
256,192,1454,1,8,0:0:0:0:
256,192,1630,1,8,0:0:0:0:
256,192,1807,1,0,0:0:0:0:
256,192,1924,1,8,0:0:0:0:
256,192,2042,1,0,0:0:0:0:
256,192,2160,1,8,0:0:0:0:
256,192,2277,1,0,0:0:0:0:
256,192,2395,1,8,0:0:0:0:
256,192,2572,1,8,0:0:0:0:
256,192,2748,1,0,0:0:0:0:
256,192,2866,1,0,0:0:0:0:
256,192,2984,1,8,0:0:0:0:
256,192,3101,1,0,0:0:0:0:
256,192,3219,1,8,0:0:0:0:
256,192,3337,1,0,0:0:0:0:
256,192,3513,1,8,0:0:0:0:
256,192,3690,1,8,0:0:0:0:
256,192,3807,1,0,0:0:0:0:
256,192,3925,1,8,0:0:0:0:
256,192,4043,1,0,0:0:0:0:
256,192,4160,1,0,0:0:0:0:
256,192,4278,1,8,0:0:0:0:
256,192,4513,1,0,0:0:0:0:
256,192,4749,1,8,0:0:0:0:
256,192,4866,1,0,0:0:0:0:
256,192,4984,1,8,0:0:0:0:
256,192,5102,1,0,0:0:0:0:
256,192,5219,1,8,0:0:0:0:
256,192,5396,1,8,0:0:0:0:
256,192,5572,1,0,0:0:0:0:
256,192,5690,1,8,0:0:0:0:
256,192,5808,1,0,0:0:0:0:
256,192,5926,1,8,0:0:0:0:
256,192,6043,1,0,0:0:0:0:
256,192,6161,1,8,0:0:0:0:
256,192,6337,1,8,0:0:0:0:
256,192,6514,1,0,0:0:0:0:
256,192,6632,1,8,0:0:0:0:
256,192,6749,1,8,0:0:0:0:
256,192,6867,1,0,0:0:0:0:
256,192,6985,1,8,0:0:0:0:
256,192,7102,1,0,0:0:0:0:
256,192,7279,1,8,0:0:0:0:
256,192,7455,1,8,0:0:0:0:
256,192,7573,1,0,0:0:0:0:
256,192,7691,1,0,0:0:0:0:
256,192,7808,1,8,0:0:0:0:
256,192,7867,1,8,0:0:0:0:
256,192,7926,1,0,0:0:0:0:
256,192,7985,1,0,0:0:0:0:
256,192,8044,1,8,0:0:0:0:
256,192,8161,1,8,0:0:0:0:
256,192,8220,1,8,0:0:0:0:
256,192,8279,1,8,0:0:0:0:
256,192,8397,1,8,0:0:0:0:
256,192,8514,1,4,0:0:0:0:
256,192,8750,1,0,0:0:0:0:
256,192,8868,1,8,0:0:0:0:
256,192,8985,1,0,0:0:0:0:
256,192,9162,1,8,0:0:0:0:
256,192,9221,1,0,0:0:0:0:
256,192,9338,1,8,0:0:0:0:
256,192,9456,1,8,0:0:0:0:
256,192,9574,1,0,0:0:0:0:
256,192,9691,1,8,0:0:0:0:
256,192,9809,1,0,0:0:0:0:
256,192,9927,1,8,0:0:0:0:
256,192,10103,1,0,0:0:0:0:
256,192,10162,1,8,0:0:0:0:
256,192,10280,1,8,0:0:0:0:
256,192,10397,1,0,0:0:0:0:
256,192,10515,1,8,0:0:0:0:
256,192,10633,1,0,0:0:0:0:
256,192,10750,1,8,0:0:0:0:
256,192,10868,1,0,0:0:0:0:
256,192,11045,1,8,0:0:0:0:
256,192,11103,1,0,0:0:0:0:
256,192,11221,1,8,0:0:0:0:
256,192,11339,1,0,0:0:0:0:
256,192,11456,1,8,0:0:0:0:
256,192,11574,1,0,0:0:0:0:
256,192,11692,1,0,0:0:0:0:
256,192,11810,1,8,0:0:0:0:
256,192,11927,1,8,0:0:0:0:
256,192,12045,1,0,0:0:0:0:
256,192,12104,1,0,0:0:0:0:
256,192,12163,1,0,0:0:0:0:
256,192,12221,1,0,0:0:0:0:
256,192,12280,1,8,0:0:0:0:
256,192,12516,1,0,0:0:0:0:
256,192,12633,1,8,0:0:0:0:
256,192,12751,1,0,0:0:0:0:
256,192,12927,1,8,0:0:0:0:
256,192,12986,1,0,0:0:0:0:
256,192,13104,1,8,0:0:0:0:
256,192,13222,1,8,0:0:0:0:
256,192,13339,1,0,0:0:0:0:
256,192,13457,1,8,0:0:0:0:
256,192,13575,1,0,0:0:0:0:
256,192,13692,1,8,0:0:0:0:
256,192,13869,1,0,0:0:0:0:
256,192,13928,1,8,0:0:0:0:
256,192,14045,1,8,0:0:0:0:
256,192,14163,1,0,0:0:0:0:
256,192,14281,1,8,0:0:0:0:
256,192,14398,1,0,0:0:0:0:
256,192,14516,1,8,0:0:0:0:
256,192,14634,1,0,0:0:0:0:
256,192,14810,1,8,0:0:0:0:
256,192,14869,1,0,0:0:0:0:
256,192,14987,1,8,0:0:0:0:
256,192,15105,1,0,0:0:0:0:
256,192,15222,1,8,0:0:0:0:
256,192,15340,1,0,0:0:0:0:
256,192,15458,1,0,0:0:0:0:
256,192,15575,1,8,0:0:0:0:
256,192,15693,1,0,0:0:0:0:
256,192,15811,1,8,0:0:0:0:
256,192,15869,1,8,0:0:0:0:
256,192,15928,1,0,0:0:0:0:
256,192,15987,1,0,0:0:0:0:
256,192,16046,1,8,0:0:0:0:
256,192,16281,1,8,0:0:0:0:
256,192,16399,1,0,0:0:0:0:
256,192,16517,1,8,0:0:0:0:
256,192,16693,1,0,0:0:0:0:
256,192,16752,1,8,0:0:0:0:
256,192,16870,1,0,0:0:0:0:
256,192,16987,1,8,0:0:0:0:
256,192,17105,1,0,0:0:0:0:
256,192,17223,1,8,0:0:0:0:
256,192,17341,1,8,0:0:0:0:
256,192,17458,1,0,0:0:0:0:
256,192,17635,1,0,0:0:0:0:
256,192,17694,1,8,0:0:0:0:
256,192,17811,1,8,0:0:0:0:
256,192,17929,1,0,0:0:0:0:
256,192,18047,1,8,0:0:0:0:
256,192,18164,1,0,0:0:0:0:
256,192,18282,1,8,0:0:0:0:
256,192,18400,1,0,0:0:0:0:
256,192,18576,1,8,0:0:0:0:
256,192,18635,1,0,0:0:0:0:
256,192,18753,1,8,0:0:0:0:
256,192,18870,1,0,0:0:0:0:
256,192,18988,1,0,0:0:0:0:
256,192,19106,1,8,0:0:0:0:
256,192,19223,1,0,0:0:0:0:
256,192,19341,1,8,0:0:0:0:
256,192,19459,1,8,0:0:0:0:
256,192,19576,1,0,0:0:0:0:
256,192,19635,1,0,0:0:0:0:
256,192,19694,1,0,0:0:0:0:
256,192,19753,1,0,0:0:0:0:
256,192,19812,1,8,0:0:0:0:
256,192,20047,1,8,0:0:0:0:
256,192,20165,1,0,0:0:0:0:
256,192,20283,1,8,0:0:0:0:
256,192,20459,1,0,0:0:0:0:
256,192,20518,1,8,0:0:0:0:
256,192,20636,1,0,0:0:0:0:
256,192,20753,1,8,0:0:0:0:
256,192,20871,1,0,0:0:0:0:
256,192,20989,1,8,0:0:0:0:
256,192,21106,1,8,0:0:0:0:
256,192,21224,1,0,0:0:0:0:
256,192,21400,1,0,0:0:0:0:
256,192,21459,1,8,0:0:0:0:
256,192,21577,1,8,0:0:0:0:
256,192,21695,1,0,0:0:0:0:
256,192,21812,1,8,0:0:0:0:
256,192,21930,1,0,0:0:0:0:
256,192,22048,1,8,0:0:0:0:
256,192,22165,1,0,0:0:0:0:
256,192,22342,1,8,0:0:0:0:
256,192,22401,1,0,0:0:0:0:
256,192,22518,1,8,0:0:0:0:
256,192,22636,1,0,0:0:0:0:
256,192,22754,1,0,0:0:0:0:
256,192,22871,1,8,0:0:0:0:
256,192,22989,1,0,0:0:0:0:
256,192,23107,1,8,0:0:0:0:
256,192,23225,1,0,0:0:0:0:
256,192,23283,1,0,0:0:0:0:
256,192,23342,1,8,0:0:0:0:
256,192,23401,1,8,0:0:0:0:
256,192,23460,1,8,0:0:0:0:
256,192,23578,1,4,0:0:0:0:
256,192,23813,1,0,0:0:0:0:
256,192,23931,1,8,0:0:0:0:
256,192,24048,1,0,0:0:0:0:
256,192,24166,1,8,0:0:0:0:
256,192,24225,1,8,0:0:0:0:
256,192,24284,1,0,0:0:0:0:
256,192,24401,1,0,0:0:0:0:
256,192,24519,1,8,0:0:0:0:
256,192,24637,1,0,0:0:0:0:
256,192,24754,1,8,0:0:0:0:
256,192,24872,1,0,0:0:0:0:
256,192,24990,1,8,0:0:0:0:
256,192,25107,1,0,0:0:0:0:
256,192,25166,1,0,0:0:0:0:
256,192,25225,1,8,0:0:0:0:
256,192,25343,1,8,0:0:0:0:
256,192,25460,1,0,0:0:0:0:
256,192,25578,1,8,0:0:0:0:
256,192,25696,1,0,0:0:0:0:
256,192,25813,1,8,0:0:0:0:
256,192,25931,1,0,0:0:0:0:
256,192,25990,1,0,0:0:0:0:
256,192,26049,1,8,0:0:0:0:
256,192,26167,1,8,0:0:0:0:
256,192,26225,1,8,0:0:0:0:
256,192,26284,1,0,0:0:0:0:
256,192,26402,1,8,0:0:0:0:
256,192,26520,1,8,0:0:0:0:
256,192,26637,1,0,0:0:0:0:
256,192,26755,1,0,0:0:0:0:
256,192,26873,1,8,0:0:0:0:
256,192,26931,1,8,0:0:0:0:
256,192,26990,1,8,0:0:0:0:
256,192,27108,1,0,0:0:0:0:
256,192,27167,1,0,0:0:0:0:
256,192,27226,1,8,0:0:0:0:
256,192,27343,1,0,0:0:0:0:
256,192,27579,1,0,0:0:0:0:
256,192,27696,1,8,0:0:0:0:
256,192,27814,1,0,0:0:0:0:
256,192,27932,1,8,0:0:0:0:
256,192,27991,1,8,0:0:0:0:
256,192,28049,1,0,0:0:0:0:
256,192,28167,1,8,0:0:0:0:
256,192,28285,1,8,0:0:0:0:
256,192,28402,1,0,0:0:0:0:
256,192,28520,1,8,0:0:0:0:
256,192,28638,1,8,0:0:0:0:
256,192,28755,1,0,0:0:0:0:
256,192,28814,1,0,0:0:0:0:
256,192,28873,1,8,0:0:0:0:
256,192,29226,1,0,0:0:0:0:
256,192,29285,1,0,0:0:0:0:
256,192,29344,1,0,0:0:0:0:
256,192,29403,1,0,0:0:0:0:
256,192,29462,1,8,0:0:0:0:
256,192,29579,1,0,0:0:0:0:
256,192,29697,1,8,0:0:0:0:
256,192,29756,1,8,0:0:0:0:
256,192,29815,1,0,0:0:0:0:
256,192,29932,1,8,0:0:0:0:
256,192,29991,1,8,0:0:0:0:
256,192,30050,1,0,0:0:0:0:
256,192,30168,1,8,0:0:0:0:
256,192,30226,1,8,0:0:0:0:
256,192,30285,1,0,0:0:0:0:
256,192,30344,1,0,0:0:0:0:
256,192,30403,1,8,0:0:0:0:
256,192,30521,1,0,0:0:0:0:
256,192,30638,1,12,0:0:0:0:
256,192,30756,12,0,33933,0:0:0:0:
