osu file format v14

[General]
AudioFilename: audio.mp3
AudioLeadIn: 0
PreviewTime: 155904
Countdown: 1
SampleSet: Soft
StackLeniency: 0.7
Mode: 0
LetterboxInBreaks: 0
WidescreenStoryboard: 0

[Editor]
DistanceSpacing: 1.3
BeatDivisor: 8
GridSize: 4
TimelineZoom: 1.3

[Metadata]
Title:TOKIO FUNKA
TitleUnicode:トキヲ・ファンカ
Artist:takamatt feat. GUMI
ArtistUnicode:takamatt feat. GUMI
Creator:Bara-
Version:FUNK
Source:
Tags:
BeatmapID:1433739
BeatmapSetID:677998

[Difficulty]
HPDrainRate:4
CircleSize:3.5
OverallDifficulty:8.6
ApproachRate:9.3
SliderMultiplier:2.4
SliderTickRate:2

[Events]
//Background and Video events
0,0,"xXx_Sample_Background_xXx.jpg",0,0
//Break Periods
2,105729,107475
//Storyboard Layer 0 (Background)
//Storyboard Layer 1 (Fail)
//Storyboard Layer 2 (Pass)
//Storyboard Layer 3 (Foreground)
//Storyboard Sound Samples

[TimingPoints]
1029,500,4,2,1,70,1,0
5029,-133.333333333333,4,3,1,70,0,0
13029,-113.636363636364,4,3,1,70,0,0
21029,-200,4,2,1,70,0,0
29029,-90.9090909090909,4,1,1,70,0,0
33029,-76.9230769230769,4,1,1,70,0,0
40029,500,4,3,1,70,1,0
40029,-133.333333333333,4,3,1,70,0,0
56029,-80,4,1,1,70,0,1
72029,-153.846153846154,4,3,1,70,0,0
88029,-66.6666666666667,4,1,1,70,0,1
96029,-58.8235294117647,4,1,1,70,0,1
104029,-200,4,2,1,70,0,0
108029,-133.333333333333,4,2,1,70,0,0
116029,-66.6666666666667,4,2,1,70,0,0
117529,100,5,2,1,70,1,0
117529,-333.333333333333,5,2,1,70,0,0
118029,500,5,2,1,70,1,0
118029,-133.333333333333,5,2,1,70,0,0
118529,100,5,2,1,70,1,0
118529,-333.333333333333,5,2,1,70,0,0
119029,500,4,2,1,70,1,0
119029,-133.333333333333,4,2,1,70,0,0
119529,-100,4,2,1,70,0,0
120029,-133.333333333333,4,2,1,70,0,0
121029,-66.6666666666667,4,2,1,70,0,0
121779,-50,4,2,1,70,0,0
122029,-133.333333333333,4,2,1,70,0,0
124779,-50,4,2,1,70,0,0
125029,-133.333333333333,4,2,1,70,0,0
127029,-66.6666666666667,4,2,1,70,0,0
127529,-50,4,2,1,70,0,0
128029,-133.333333333333,4,2,1,70,0,0
132029,-100,4,2,1,70,0,0
133029,-133.333333333333,4,2,1,70,0,0
133529,-66.6666666666667,4,2,1,70,0,0
134029,-133.333333333333,4,2,1,70,0,0
136029,-100,4,2,1,70,0,0
137029,-133.333333333333,4,2,1,70,0,0
137529,-50,4,2,1,70,0,0
138029,-133.333333333333,4,2,1,70,0,0
140029,500,4,2,1,70,1,0
140029,-105.263157894737,4,2,1,70,0,0
148029,-86.9565217391303,4,2,1,70,0,0
156029,-66.6666666666667,4,1,1,70,0,1
171966,-66.6666666666667,4,1,1,70,0,0
172029,-58.8235294117647,4,1,1,70,0,1
180029,-52.6315789473684,4,1,1,70,0,1
187904,-52.6315789473684,4,1,1,70,0,0
188029,-66.6666666666667,4,1,1,70,0,1
204029,-66.6666666666667,4,2,1,70,0,0
210029,-400,4,2,1,70,0,0
226029,-303.030303030303,4,2,1,70,0,0
242029,-200,4,2,1,70,0,0
250029,-133.333333333333,4,2,1,70,0,0
264029,-90.9090909090909,4,1,1,70,0,0
270029,-200,4,2,1,70,0,0
272029,-55.5555555555556,4,1,1,70,0,1
280029,-50,4,1,1,70,0,1
287904,-50,4,1,1,70,0,0
288029,-52.6315789473684,4,1,1,70,0,1
303904,-66.6666666666667,4,1,1,70,0,0
304029,-66.6666666666667,4,1,1,70,0,1
320029,-100,4,2,1,70,0,0

[Colours]
Combo1 : 128,0,255
Combo2 : 255,0,128
Combo3 : 255,0,0
Combo4 : 0,128,192

[HitObjects]
96,88,1029,5,12,3:3:0:0:
96,88,2029,1,12,3:3:0:0:
96,88,3029,1,12,3:3:0:0:
96,88,3529,1,12,3:3:0:0:
96,88,4029,1,0,3:2:0:0:
171,187,4279,1,8,3:2:0:0:
171,187,4341,1,8,3:2:0:0:
171,187,4404,1,8,3:2:0:0:
244,80,4529,1,8,3:1:0:0:
374,83,4654,1,8,3:1:0:0:
443,192,4779,1,8,3:1:0:0:
390,311,4904,1,8,3:1:0:0:
262,332,5029,6,0,P|205:285|124:277,1,135.000005149841,12|8,0:1|0:0,0:0:0:0:
130,282,5779,1,8,0:0:0:0:
257,302,6029,6,0,P|314:254|395:246,1,135.000005149841,4|8,0:0|0:0,0:0:0:0:
390,252,6779,1,8,0:0:0:0:
263,272,7029,6,0,P|205:224|124:216,1,135.000005149841,4|8,0:0|0:0,0:0:0:0:
130,222,7779,1,8,0:0:0:0:
257,242,8029,6,0,P|314:194|395:186,1,135.000005149841,4|8,0:0|0:0,0:0:0:0:
390,192,8529,2,0,P|381:140|396:93,1,90.0000034332277,0|8,0:0|0:0,0:0:0:0:
454,56,8904,1,8,0:2:0:0:
454,56,9029,6,0,L|276:66,1,135.000005149841,12|8,0:0|0:0,0:0:0:0:
319,63,9529,1,0,0:0:0:0:
319,63,9779,1,8,0:0:0:0:
319,63,9904,1,8,0:0:0:0:
390,104,10029,6,0,L|212:114,1,135.000005149841,12|8,0:0|0:0,0:0:0:0:
255,111,10529,1,0,0:0:0:0:
255,111,10779,1,8,0:0:0:0:
255,111,10904,1,8,0:0:0:0:
326,152,11029,6,0,L|148:162,1,135.000005149841,12|8,0:0|0:0,0:0:0:0:
191,159,11529,1,0,0:0:0:0:
191,159,11779,1,8,0:0:0:0:
226,180,11904,1,8,0:0:0:0:
262,200,12029,1,0,0:0:0:0:
153,283,12279,1,8,0:2:0:0:
153,283,12341,1,8,0:2:0:0:
153,283,12404,1,8,0:2:0:0:
127,207,12529,1,8,0:1:0:0:
191,159,12654,1,8,0:1:0:0:
262,200,12779,1,8,0:1:0:0:
238,278,12904,1,8,0:1:0:0:
153,283,13029,6,0,P|88:279|28:290,1,105.600003222656,4|0,0:0|0:0,0:0:0:0:
19,303,13404,1,8,0:0:0:0:
19,303,13529,2,0,L|10:241,1,52.8000016113282
47,180,13779,2,0,L|38:118,1,52.8000016113282,8|0,0:0|0:0,0:0:0:0:
18,49,14029,6,0,B|122:47|122:47|175:63,1,158.400004833984,4|8,0:0|0:0,0:0:0:0:
174,62,15029,6,0,P|239:66|299:55,1,105.600003222656,4|0,0:0|0:0,0:0:0:0:
308,42,15404,1,8,0:0:0:0:
308,42,15529,2,0,L|317:104,1,52.8000016113282
280,165,15779,2,0,L|289:227,1,52.8000016113282,8|0,0:0|0:0,0:0:0:0:
310,298,16029,6,0,L|139:281,1,158.400004833984,4|8,0:0|0:0,0:0:0:0:
139,288,16779,6,8,B|137:309|137:309|143:324,2,35.2000010742188
157,245,17029,6,0,P|89:256|54:228,2,105.600003222656,0|2|0,0:0|0:2|0:0,0:0:0:0:
245,151,17779,1,2,0:2:0:0:
332,56,18029,2,0,P|381:41|428:63,1,105.600003222656,8|2,0:0|0:2,0:0:0:0:
419,169,18404,2,0,P|370:184|324:162,1,105.600003222656,8|0,0:0|0:2,0:0:0:0:
376,113,18779,1,2,0:2:0:0:
466,254,19029,6,0,P|384:277|258:235,1,211.200006445313,4|0,0:0|0:0,0:0:0:0:
256,60,19779,1,2,0:2:0:0:
243,277,20029,6,8,B|253:251|253:251|252:238,2,35.2000010742188,8|8|8,0:2|0:2|0:2,0:2:0:0:
173,325,20279,1,8,0:2:0:0:
173,325,20404,1,8,0:2:0:0:
173,325,20529,2,8,L|112:318,1,52.8000016113282,8|8,0:1|0:1,0:1:0:0:
395,249,20779,2,0,L|334:242,1,52.8000016113282,8|8,0:1|0:1,0:0:0:0:
136,84,21029,6,0,B|76:77|76:77|188:66|268:96|367:60,1,330,0|8,0:0|0:0,0:0:0:0:
373,85,22529,2,0,P|373:123|358:152,1,60,0|2,0:0|0:0,0:0:0:0:
297,236,23029,6,0,P|336:200|436:225,1,150,0|8,0:0|0:0,0:0:0:0:
442,315,23779,2,0,P|383:358|314:338,1,150,2|8,0:0|0:0,0:0:0:0:
370,276,24529,5,2,0:0:0:0:
165,328,24904,1,8,0:0:0:0:
165,328,25029,6,0,B|146:293|135:238|161:153|161:153|168:194,1,210,2|2,0:0|0:0,0:0:0:0:
180,204,26029,2,0,L|170:104,2,90,8|8|2,0:0|0:0|0:0,0:0:0:0:
250,355,27029,6,0,P|284:317|190:206,1,210
180,204,28029,2,0,L|170:104,1,90,8|8,0:0|0:0,0:0:0:0:
186,57,28529,2,8,P|207:48|232:50,1,30
363,174,28779,2,8,P|385:174|408:162,1,30,8|8,0:1|0:1,0:1:0:0:
434,97,29029,6,0,L|423:318,1,198.000006042481,12|0,0:0|2:0,0:0:0:0:
309,67,29529,2,0,L|318:264,1,198.000006042481,8|0,0:0|2:0,0:0:0:0:
202,96,30029,2,0,L|193:294,1,198.000006042481,8|0,0:0|2:0,0:0:0:0:
77,66,30529,2,0,L|86:263,1,198.000006042481,8|0,0:0|2:0,0:0:0:0:
199,375,31029,6,0,P|263:338|196:218,1,198.000006042481,8|0,0:0|2:0,0:0:0:0:
233,150,31529,2,0,P|160:207|193:294,1,198.000006042481,8|0,0:0|2:0,0:0:0:0:
328,317,32029,2,0,P|366:315|401:308,1,66.0000020141602,8|0,1:0|2:0,2:0:0:0:
233,150,32279,2,0,P|271:152|306:159,1,66.0000020141602,0|0,2:0|2:0,2:0:0:0:
127,301,32529,2,0,P|165:299|200:292,1,66.0000020141602,8|0,1:0|2:0,2:0:0:0:
32,134,32779,2,0,P|70:136|105:143,1,66.0000020141602,0|0,2:0|2:0,2:0:0:0:
356,213,33029,6,0,P|378:178|354:98,2,77.9999964294435,8|0|2,0:0|2:2|2:2,0:0:0:0:
206,148,33404,1,8,2:0:0:0:
227,133,33529,6,0,P|265:135|298:157,1,77.9999964294435,8|0,0:0|2:2,0:0:0:0:
450,166,33779,2,0,P|411:163|379:142,1,77.9999964294435,2|0,2:0|2:2,0:0:0:0:
148,204,34029,6,0,P|126:169|150:89,2,77.9999964294435,8|0|2,0:0|2:2|2:2,0:0:0:0:
298,139,34404,1,8,2:0:0:0:
276,124,34529,6,0,P|237:126|205:147,1,77.9999964294435,8|0,0:0|2:2,0:0:0:0:
54,157,34779,2,0,P|92:154|124:133,1,77.9999964294435,2|8,2:0|1:2,0:0:0:0:
256,192,35029,12,0,38904,2:0:0:0:
69,50,40029,6,0,L|214:70,1,135.000005149841,4|0,0:0|0:0,0:0:0:0:
228,100,40529,2,0,L|373:80,1,135.000005149841,8|0,0:0|2:0,0:0:0:0:
391,62,41029,2,0,P|374:104|420:193,1,135.000005149841,0|8,0:0|0:0,0:0:0:0:
406,184,41904,5,0,0:0:0:0:
406,184,41966,1,0,0:0:0:0:
406,184,42029,2,0,L|346:189,1,45.0000017166138,4|0,0:0|0:0,0:0:0:0:
215,258,42404,5,4,0:0:0:0:
215,258,42529,2,0,L|275:263,1,45.0000017166138,4|0,0:0|0:0,0:0:0:0:
382,335,42779,1,8,0:0:0:0:
382,335,42904,2,0,L|322:330,1,45.0000017166138,0|6,0:0|0:0,0:0:0:0:
215,258,43279,2,0,L|155:253,1,45.0000017166138,0|6,0:0|0:0,0:0:0:0:
48,181,43654,2,0,L|-12:176,1,45.0000017166138,0|6,0:0|0:0,0:0:0:0:
112,82,44029,6,0,L|208:67,1,90.0000034332277,0|6,0:0|0:2,0:0:0:0:
200,68,44404,1,0,0:0:0:0:
88,160,44529,6,0,L|184:145,1,90.0000034332277,0|6,0:0|0:2,0:0:0:0:
176,146,44904,1,0,0:0:0:0:
64,238,45029,6,0,L|160:223,1,90.0000034332277,0|6,0:0|0:2,0:0:0:0:
152,224,45404,1,0,0:0:0:0:
39,315,45529,6,0,L|135:300,1,90.0000034332277,0|6,0:0|0:2,0:0:0:0:
128,302,45904,1,0,0:0:0:0:
233,329,46029,6,0,L|290:335,1,45.0000017166138
364,279,46278,2,0,L|421:285,1,45.0000017166138,6|0,0:2|0:0,0:0:0:0:
152,224,46529,6,0,L|209:230,1,45.0000017166138
283,174,46778,2,0,L|340:180,1,45.0000017166138,6|0,0:2|0:0,0:0:0:0:
71,119,47030,6,0,L|128:125,1,45.0000017166138
202,69,47279,2,0,L|391:88,1,180.000006866455,6|6,0:2|0:2,0:0:0:0:
443,158,47904,1,0,0:0:0:0:
443,158,47966,1,0,0:0:0:0:
443,158,48029,6,0,B|460:235|425:217|446:293,1,135.000005149841,4|0,0:2|0:0,0:0:0:0:
495,353,48529,2,0,P|454:324|366:329,1,135.000005149841,8|0,0:0|0:0,0:0:0:0:
311,372,49029,2,0,L|124:358,1,180.000006866455,8|0,0:0|0:0,0:0:0:0:
86,362,49904,5,0,0:0:0:0:
86,362,49966,1,0,0:0:0:0:
86,362,50029,2,0,L|146:357,1,45.0000017166138,4|0,0:0|0:0,0:0:0:0:
277,288,50404,5,4,0:0:0:0:
277,288,50529,2,0,L|217:283,1,45.0000017166138,4|0,0:0|0:0,0:0:0:0:
110,211,50779,1,8,0:0:0:0:
110,211,50904,2,0,L|170:216,1,45.0000017166138,0|6,0:0|0:0,0:0:0:0:
277,288,51279,2,0,L|337:293,1,45.0000017166138,0|6,0:0|0:0,0:0:0:0:
444,365,51654,2,0,L|504:370,1,45.0000017166138,0|6,0:0|0:0,0:0:0:0:
337,203,52029,6,0,L|318:308,1,90.0000034332277,8|6,0:0|0:2,0:0:0:0:
256,332,52404,1,0,0:0:0:0:
143,218,52529,6,0,L|162:323,1,90.0000034332277,8|6,0:0|0:2,0:0:0:0:
256,332,52904,1,0,0:0:0:0:
401,233,53029,6,0,L|382:338,1,90.0000034332277,8|6,0:0|0:2,0:0:0:0:
256,332,53404,1,0,0:0:0:0:
79,248,53529,6,0,L|98:353,1,90.0000034332277,8|6,0:0|0:2,0:0:0:0:
256,332,53904,1,0,0:0:0:0:
465,263,54029,6,0,P|470:229|469:206,1,45.0000017166138,8|0,0:0|0:2,0:0:0:0:
381,67,54279,2,0,P|375:100|377:124,1,45.0000017166138,8|0,0:0|0:2,0:0:0:0:
451,27,54529,2,0,L|277:61,1,157.500006008148
267,87,55029,6,0,P|264:117|271:146,1,60.0000022888184,8|0,0:0|0:0,0:0:0:0:
284,179,55279,2,0,P|286:208|279:237,1,60.0000022888184,8|0,0:0|0:0,0:0:0:0:
267,270,55529,2,0,P|264:299|271:328,1,60.0000022888184,8|0,0:0|0:0,0:0:0:0:
298,352,55779,2,8,B|317:352|317:352|324:342,2,30.0000011444092
199,358,56029,6,0,B|119:340|119:340|12:363,1,150,6|0,0:0|2:0,0:0:0:0:
120,266,56404,2,0,B|200:284|200:284|307:261,1,150,8|0,0:0|2:0,0:0:0:0:
343,132,56779,2,0,P|244:101|197:193,1,225,8|0,0:0|2:0,0:0:0:0:
266,269,57279,1,0,0:0:0:0:
274,172,57404,2,0,P|219:117|135:143,1,150,8|0,0:0|2:0,0:0:0:0:
72,225,57779,2,0,L|81:315,1,75,8|0,0:0|0:0,0:0:0:0:
197,336,58029,5,2,0:0:0:0:
266,269,58154,1,0,0:0:0:0:
361,284,58279,1,0,0:0:0:0:
430,217,58404,2,0,P|432:178|423:138,1,75,8|0,0:0|0:0,0:0:0:0:
274,172,58654,1,0,0:0:0:0:
205,105,58779,2,0,P|203:66|212:26,1,75,8|0,0:0|0:0,0:0:0:0:
210,313,59029,1,2,0:0:0:0:
279,246,59154,2,0,P|281:207|272:167,1,75,8|0,0:0|0:0,0:0:0:0:
210,30,59404,2,0,P|202:67|205:105,1,75,8|0,0:0|0:0,0:0:0:0:
211,113,59779,1,8,0:0:0:0:
157,358,60029,5,6,0:0:0:0:
64,327,60154,1,0,0:0:0:0:
64,230,60279,1,0,0:0:0:0:
157,200,60404,2,0,L|247:214,1,75,8|0,0:0|0:0,0:0:0:0:
378,131,60654,1,0,0:0:0:0:
285,101,60779,2,0,L|195:115,1,75,8|0,0:0|0:0,0:0:0:0:
452,142,61029,2,0,L|378:131,2,75,10|0|0,0:0|0:0|0:0,0:0:0:0:
231,211,61404,2,0,L|157:200,1,75,8|0,0:0|0:0,0:0:0:0:
63,326,61654,2,0,L|138:315,1,75,8|0,0:0|0:0,0:0:0:0:
303,251,61904,1,0,0:0:0:0:
303,251,61966,1,0,0:0:0:0:
303,251,62029,6,0,P|311:209|292:162,1,75,2|0,0:0|0:0,0:0:0:0:
211,83,62279,1,0,0:0:0:0:
153,32,62404,2,0,L|65:40,1,75,8|0,0:0|0:0,0:0:0:0:
301,83,62654,1,0,0:0:0:0:
359,32,62779,2,0,L|447:40,1,75,8|0,0:0|0:0,0:0:0:0:
256,22,63029,1,2,0:0:0:0:
209,178,63154,2,0,P|200:214|209:251,1,75,8|0,0:0|0:0,0:0:0:0:
424,348,63404,2,0,P|432:311|424:275,1,75,8|0,0:0|0:0,0:0:0:0:
209,178,63654,1,0,0:0:0:0:
151,304,63779,2,0,P|181:325|218:330,1,75,8|0,0:0|0:0,0:0:0:0:
479,224,64029,6,0,L|292:239,1,150,14|0,0:0|0:0,0:0:0:0:
208,177,64404,2,0,L|59:166,1,150,8|0,0:0|0:0,0:0:0:0:
76,309,64779,2,0,L|150:303,1,75,8|0,0:0|0:0,0:0:0:0:
329,235,65029,2,0,P|342:191|330:124,1,75,2|0,0:0|0:0,0:0:0:0:
221,105,65279,1,0,0:0:0:0:
221,105,65404,2,0,P|208:149|220:216,1,75,8|0,0:0|0:0,0:0:0:0:
239,269,65654,1,0,0:0:0:0:
330,235,65779,1,8,0:0:0:0:
358,232,65841,1,0,3:0:0:0:
386,234,65904,1,0,3:0:0:0:
413,240,65966,1,0,3:0:0:0:
439,250,66029,6,0,B|431:135|431:135|442:93,1,150,10|0,0:0|0:0,0:0:0:0:
329,86,66404,2,0,B|338:202|338:202|330:235,1,150,8|0,0:0|0:0,0:0:0:0:
177,160,66779,2,0,B|183:86,1,75,8|0,0:0|0:0,0:0:0:0:
70,78,67029,1,2,0:0:0:0:
183,235,67154,2,0,B|177:160,1,75,8|0,0:0|0:0,0:0:0:0:
291,153,67404,1,8,0:0:0:0:
178,310,67529,2,0,B|183:235,1,75
291,153,67779,2,0,B|285:78,1,75
285,78,67966,1,0,0:0:0:0:
285,78,68029,6,0,L|447:88,1,150,2|0,0:0|0:0,0:0:0:0:
141,143,68404,2,0,L|302:152,1,150,8|0,0:0|0:0,0:0:0:0:
0,208,68779,2,0,L|74:212,1,75,8|0,0:0|0:0,0:0:0:0:
368,184,69029,2,0,P|372:155|359:107,2,75,2|0|0,0:0|0:0|0:0,0:0:0:0:
290,232,69404,2,0,L|128:241,1,150,8|0,0:0|0:0,0:0:0:0:
431,297,69779,2,0,L|356:301,1,75,8|0,0:0|0:0,0:0:0:0:
192,158,70029,6,0,P|188:129|201:81,1,75,2|0,0:0|0:0,0:0:0:0:
368,184,70279,2,0,P|372:155|359:107,1,75,0|8,0:0|0:0,0:0:0:0:
96,210,70529,2,0,P|92:181|105:133,1,75
464,236,70779,2,0,P|468:207|455:159,1,75,8|0,0:0|0:0,0:0:0:0:
198,85,71029,5,0,0:0:0:0:
192,158,71154,1,0,0:0:0:0:
367,184,71279,5,0,0:0:0:0:
361,111,71404,1,0,0:0:0:0:
104,137,71529,5,0,0:0:0:0:
98,210,71654,1,0,0:0:0:0:
464,236,71779,5,0,0:0:0:0:
457,163,71904,1,0,0:0:0:0:
10,189,72029,6,8,P|15:251|82:306,2,116.999994644165,8|8|8,0:0|0:0|0:1,0:0:0:0:
94,116,73029,2,0,L|205:129,1,77.9999964294435,8|0,0:2|0:0,0:0:0:0:
234,217,73529,2,0,L|156:226,1,77.9999964294435,0|8,0:2|0:2,0:0:0:0:
285,288,74029,6,0,P|314:256|312:174,2,116.999994644165,0|8|8,0:0|0:0|0:1,0:0:0:0:
210,332,75029,2,8,B|247:320|247:320|285:332|285:332|322:320|322:320|359:332|359:332|397:320|397:320|435:332,1,233.999989288331,8|8,0:1|0:1,0:1:0:0:
483,235,76029,6,0,B|500:156|500:156|485:103,1,116.999994644165,0|8,0:0|0:0,0:0:0:0:
447,67,76779,1,8,0:1:0:0:
318,140,77029,2,0,P|285:149|219:141,1,77.9999964294435,8|0,0:2|0:0,0:0:0:0:
168,84,77529,2,0,P|135:75|69:83,1,77.9999964294435,0|8,0:2|0:2,0:0:0:0:
24,168,78029,6,0,L|32:328,1,155.999992858887
64,350,78654,2,0,P|90:302|139:291,1,77.9999964294435
260,384,79029,1,0,0:0:0:0:
182,276,79154,1,0,0:0:0:0:
308,317,79279,1,0,0:0:0:0:
182,358,79404,1,0,0:0:0:0:
260,251,79529,2,0,P|269:214|270:186,1,38.9999982147218
279,85,79779,2,0,P|275:65|269:47,1,38.9999982147218
158,11,80029,6,0,L|134:11,13,19.4999991073609,0|0|0|0|0|0|0|0|0|0|0|0|0|2,0:0|0:0|0:0|0:0|0:0|0:0|0:0|0:0|0:0|0:0|0:0|0:0|0:0|0:2,0:0:0:0:
108,37,80904,6,0,L|84:37,1,19.4999991073609,2|2,0:1|0:2,0:0:0:0:
54,106,81029,6,0,L|75:271,1,155.999992858887
201,311,81779,1,0,0:0:0:0:
348,106,82028,2,0,L|331:238,2,116.999994644165,0|8|8,0:0|0:0|0:1,0:0:0:0:
164,106,83029,1,8,0:2:0:0:
256,68,83154,1,8,0:2:0:0:
348,106,83279,1,0,0:0:0:0:
256,144,83404,1,8,0:2:0:0:
164,106,83529,2,0,L|94:113,1,58.4999973220826,0|0,0:0|2:0,0:0:0:0:
84,107,83779,2,0,P|94:151|83:193,1,77.9999964294435
74,199,84404,5,0,0:0:0:0:
55,211,84778,1,0,0:0:0:0:
39,218,85029,2,0,L|210:210,2,155.999992858887
256,192,86154,12,0,87404,0:0:0:0:
175,109,87529,5,0,0:0:0:0:
374,162,87654,1,0,0:0:0:0:
181,236,87779,1,0,0:0:0:0:
293,63,87904,1,0,0:0:0:0:
304,269,88029,6,0,P|405:285|481:233,1,180.000006866455,4|0,0:0|0:0,0:0:0:0:
384,72,88404,2,0,L|374:161,1,90.0000034332277,8|0,0:0|0:0,0:0:0:0:
181,236,88654,1,0,0:0:0:0:
165,19,88779,2,0,L|174:108,1,90.0000034332277,8|0,0:0|0:0,0:0:0:0:
215,318,89029,6,0,P|153:262|55:269,1,180.000006866455
11,71,89404,2,0,P|98:76|164:18,1,180.000006866455,8|0,0:0|0:0,0:0:0:0:
286,167,89779,2,0,P|329:155|373:161,1,90.0000034332277,8|0,0:0|0:0,0:0:0:0:
429,374,90029,6,0,P|351:335|337:250,1,180.000006866455,4|0,0:0|0:0,0:0:0:0:
468,102,90404,2,0,L|427:278,1,180.000006866455,8|0,0:0|0:0,0:0:0:0:
215,318,90779,2,0,P|170:324|127:312,1,90.0000034332277,8|0,0:0|0:0,0:0:0:0:
44,206,91029,5,0,0:0:0:0:
175,239,91154,2,0,P|202:274|214:317,1,90.0000034332277,8|0,0:0|0:0,0:0:0:0:
13,371,91404,2,0,P|0:283|43:205,1,180.000006866455,8|0,0:0|0:0,0:0:0:0:
215,101,91779,2,0,L|125:99,1,90.0000034332277,8|0,0:0|0:0,0:0:0:0:
387,131,92029,5,4,0:0:0:0:
276,265,92279,1,0,0:0:0:0:
276,265,92404,1,8,0:0:0:0:
276,265,92529,1,0,0:0:0:0:
215,101,92779,1,8,0:0:0:0:
369,230,93029,5,0,0:0:0:0:
198,200,93279,1,0,0:0:0:0:
198,200,93404,1,8,0:0:0:0:
198,200,93529,1,0,0:0:0:0:
215,101,93654,2,0,P|213:54|194:6,2,90.0000034332277,0|8|0,0:0|0:0|0:0,0:0:0:0:
45,250,94029,6,0,P|111:192|198:200,1,180.000006866455,12|0,0:0|0:0,0:0:0:0:
170,383,94404,2,0,P|150:343|146:299,1,90.0000034332277,8|0,0:0|0:0,0:0:0:0:
198,200,94654,1,0,0:0:0:0:
371,132,94779,2,0,P|347:169|310:195,1,90.0000034332277,8|0,0:0|0:0,0:0:0:0:
198,200,95029,5,0,0:0:0:0:
53,85,95154,2,0,P|97:86|138:105,1,90.0000034332277,8|0,0:0|0:0,0:0:0:0:
343,315,95404,2,0,P|298:313|257:294,2,90.0000034332277,8|0|0,0:0|0:0|0:0,0:0:0:0:
490,224,95779,1,0,0:0:0:0:
495,202,95841,1,0,0:0:0:0:
496,179,95904,1,0,0:0:0:0:
495,157,95966,1,0,0:0:0:0:
490,135,96029,6,0,B|400:190|400:190|349:164|286:186,1,204.000003890991,4|0,0:0|0:0,0:0:0:0:
281,374,96404,2,0,P|320:343|341:297,1,102.000001945496,8|0,0:0|0:0,0:0:0:0:
341,83,96654,1,0,0:0:0:0:
187,206,96779,2,0,P|207:252|247:284,1,102.000001945496,8|0,0:0|0:0,0:0:0:0:
484,370,97029,6,0,B|383:364|383:364|275:375,1,204.000003890991
43,279,97404,2,0,B|144:273|144:273|252:284,1,204.000003890991,8|0,0:0|0:0,0:0:0:0:
406,190,97779,2,0,B|304:180,1,102.000001945496,8|0,0:0|0:0,0:0:0:0:
116,96,98029,6,0,P|244:93|296:17,1,204.000003890991,4|0,0:0|0:0,0:0:0:0:
67,28,98404,2,0,B|36:70|36:70|52:221,1,204.000003890991,8|0,0:0|0:0,0:0:0:0:
174,300,98779,2,0,B|184:198,1,102.000001945496,8|0,0:0|0:0,0:0:0:0:
51,221,99029,5,0,0:0:0:0:
105,347,99154,2,0,P|152:381|206:378,1,102.000001945496,8|0,0:0|0:0,0:0:0:0:
407,347,99404,2,0,P|360:381|306:378,1,102.000001945496,8|0,0:0|0:0,0:0:0:0:
174,300,99654,1,8,0:0:0:0:
328,198,99779,1,8,0:0:0:0:
184,198,99904,1,8,0:0:0:0:
338,300,100029,5,12,0:0:0:0:
254,75,100279,1,0,0:0:0:0:
254,75,100404,1,8,0:0:0:0:
254,75,100529,1,0,0:0:0:0:
102,261,100779,1,8,0:0:0:0:
361,163,101029,5,0,0:0:0:0:
124,124,101279,1,0,0:0:0:0:
124,124,101404,1,8,0:0:0:0:
208,348,101654,1,0,0:0:0:0:
208,348,101779,1,8,0:0:0:0:
208,348,101904,1,0,0:0:0:0:
208,347,102029,6,0,P|269:270|252:173,1,204.000003890991,12|0,0:0|0:0,0:0:0:0:
61,220,102404,2,0,P|107:242|158:243,1,102.000001945496,8|0,0:0|0:0,0:0:0:0:
252,173,102654,1,0,0:0:0:0:
443,221,102779,2,0,P|397:242|346:243,1,102.000001945496,8|0,0:0|0:0,0:0:0:0:
252,173,103029,5,0,0:0:0:0:
318,95,103154,1,8,0:0:0:0:
318,95,103216,1,0,0:0:0:0:
318,95,103279,1,0,0:0:0:0:
252,17,103404,1,8,0:0:0:0:
186,95,103529,2,0,P|134:102|68:86,1,102.000001945496
346,243,103779,2,8,P|398:250|464:234,1,102.000001945496
256,192,104029,12,0,105529,0:0:0:0:
48,94,108029,6,0,B|80:55|127:46|172:50|213:75|213:75|181:112|177:166,1,270.000010299683,4|8,0:0|0:3,0:0:0:0:
244,240,109029,2,0,B|236:193|188:167|135:173|110:222|110:222|83:199|52:195|19:201,1,270.000010299683,8|8,0:0|0:3,0:0:0:0:
13,365,110029,6,0,P|38:318|46:265,1,90.0000034332277,8|0,1:3|0:0,0:0:0:0:
24,200,110404,2,0,P|49:153|57:100,1,90.0000034332277,8|0,1:3|0:0,0:0:0:0:
35,35,110779,1,8,1:0:0:0:
194,100,111029,1,8,0:0:0:0:
194,100,111154,2,8,L|182:155,1,45.0000017166138,8|8,0:3|0:3,0:3:0:0:
202,234,111404,1,0,0:0:0:0:
202,234,111529,2,0,L|194:100,1,135.000005149841,8|0,0:3|0:0,0:0:0:0:
245,37,112029,6,0,B|290:27|290:27|343:46,1,90.0000034332277,8|0,0:3|0:0,0:0:0:0:
492,100,112404,2,0,B|447:90|447:90|394:109,1,90.0000034332277,8|0,0:3|0:0,0:0:0:0:
405,104,112779,1,8,0:3:0:0:
343,286,113029,2,0,P|422:264|443:146,1,180.000006866455,8|0,0:0|0:0,0:0:0:0:
452,168,113779,2,8,L|456:231,1,45.0000017166138,8|8,0:3|0:3,0:3:0:0:
344,291,114029,5,0,1:0:0:0:
232,193,114279,2,0,P|182:184|114:193,1,90.0000034332277,8|0,1:3|0:0,0:0:0:0:
24,271,114654,2,0,P|74:262|142:271,1,90.0000034332277,8|0,1:3|0:0,0:0:0:0:
191,306,115029,5,0,1:0:0:0:
27,171,115154,1,8,1:0:0:0:
27,171,115279,1,8,1:0:0:0:
191,306,115404,2,8,P|205:271|204:231,1,45.0000017166138,8|8,1:3|1:3,1:3:0:0:
166,103,115654,6,0,L|163:88,8,15.0000005722046,0|0|0|0|0|0|0|0|0,1:0|1:0|1:0|1:0|1:0|1:0|1:0|1:0|1:0,1:0:0:0:
149,64,116029,6,0,B|128:48|128:48|95:41,1,60.0000022888184,12|0,1:3|0:0,0:0:0:0:
95,127,116195,2,0,B|70:118|70:118|37:121,1,60.0000022888184,12|0,1:3|0:0,0:0:0:0:
63,203,116362,2,0,B|36:202|36:202|6:216,1,60.0000022888184,12|0,1:3|0:0,0:0:0:0:
133,331,116529,6,0,B|154:347|154:347|186:353,1,60.0000022888184,12|0,1:3|0:0,0:0:0:0:
187,268,116695,2,0,B|211:276|211:276|244:273,1,60.0000022888184,12|0,1:3|0:0,0:0:0:0:
219,192,116862,2,0,B|245:192|245:192|275:178,1,60.0000022888184,12|0,1:3|0:0,0:0:0:0:
315,40,117029,6,0,B|294:81|294:81|316:86|326:104|326:104|307:117|312:138|312:138|328:151|348:162|348:162|332:193|332:193|348:206|359:214|359:214|347:250|361:302,1,270.000010299683,12|0,1:0|0:0,0:0:0:0:
290,340,117529,6,0,L|230:346,1,35.9999989013672,8|0,1:3|0:0,0:0:0:0:
260,307,117629,2,0,L|200:313,1,35.9999989013672,8|0,1:3|0:0,0:0:0:0:
230,274,117729,2,0,L|170:280,1,35.9999989013672,8|0,1:3|0:0,0:0:0:0:
200,241,117829,2,0,L|140:247,1,35.9999989013672,8|0,1:3|0:0,0:0:0:0:
170,208,117929,2,0,L|110:214,1,35.9999989013672,8|0,1:3|0:0,0:0:0:0:
140,175,118029,6,0,L|-3:189,1,135.000005149841,4|8,1:3|0:3,0:0:0:0:
222,44,118529,6,0,L|282:38,1,35.9999989013672,8|0,1:3|0:0,0:0:0:0:
252,77,118629,2,0,L|312:71,1,35.9999989013672,8|0,1:3|0:0,0:0:0:0:
282,110,118729,2,0,L|342:104,1,35.9999989013672,8|0,1:3|0:0,0:0:0:0:
312,143,118829,2,0,L|372:137,1,35.9999989013672,8|0,1:3|0:0,0:0:0:0:
342,176,118929,2,0,L|402:170,1,35.9999989013672,8|0,1:3|0:0,0:0:0:0:
372,209,119029,6,0,L|482:197,1,90.0000034332277,4|0,1:3|0:3,0:0:0:0:
299,332,119529,6,0,P|268:311|249:271,1,60,12|0,1:3|0:0,0:0:0:0:
208,195,119779,2,0,P|177:216|158:256,1,60,12|0,1:3|0:0,0:0:0:0:
71,313,120029,6,0,B|75:293|83:279|83:279|57:269|57:269|88:250|88:250|49:216|49:216|96:201|96:201|63:171|60:115|77:89,1,315.000012016297
161,57,121029,6,0,P|168:95|155:141,1,60.0000022888184,12|0,1:3|0:0,0:0:0:0:
351,133,121195,2,0,P|314:120|281:85,1,60.0000022888184,12|0,1:3|0:0,0:0:0:0:
191,259,121362,2,0,P|220:233|266:222,1,60.0000022888184,12|0,1:3|0:0,0:0:0:0:
377,329,121529,6,0,B|365:337|365:337|333:323|297:328|297:328|268:306,1,120.000004577637,12|0,1:3|0:0,0:0:0:0:
81,281,121779,6,2,B|93:289|93:289|125:275|160:280|160:280|190:258,1,120,12|0,1:0|0:0,0:0:0:0:
21,342,122029,6,0,P|-3:280|22:220,1,135.000005149841,0|0,0:0|1:0,0:0:0:0:
102,157,122529,6,0,L|158:156,1,45.0000017166138,0|0,1:0|1:0,1:0:0:0:
190,258,122779,2,0,L|246:257,1,45.0000017166138,0|0,1:0|1:0,1:0:0:0:
14,56,123029,6,0,L|70:55,1,45.0000017166138,8|0,1:0|1:0,1:0:0:0:
102,157,123279,2,0,L|158:156,1,45.0000017166138,0|0,1:0|1:0,1:0:0:0:
278,359,123529,6,0,L|334:358,1,45.0000017166138,8|0,1:0|1:0,1:0:0:0:
189,257,123779,2,0,L|234:257,1,45.0000017166138,8|8,1:0|1:0,1:0:0:0:
293,120,124029,5,4,3:3:0:0:
271,125,124091,1,4,3:3:0:0:
252,136,124154,1,4,3:3:0:0:
236,152,124216,1,4,3:3:0:0:
224,171,124279,5,4,3:3:0:0:
218,193,124341,1,4,3:3:0:0:
217,215,124404,1,4,3:3:0:0:
223,237,124466,1,4,3:3:0:0:
234,257,124529,6,12,P|237:279|236:312,2,30.0000011444092,12|12|12,0:3|0:3|0:3,0:3:0:0:
185,341,124779,6,0,P|266:355|312:279,1,180,6|0,0:0|0:0,0:0:0:0:
310,206,125029,6,0,B|316:226|331:246|331:246|353:242|375:256|375:256|399:255|421:245|421:245|427:224|444:209|444:209|450:186|424:160|439:107,1,270.000010299683,12|8,0:0|0:3,0:0:0:0:
361,38,126029,6,0,B|339:48|339:48|332:43|332:43|273:60,1,90.0000034332277,8|0,1:3|0:0,0:0:0:0:
204,25,126404,2,0,B|182:35|182:35|175:30|175:30|116:47,1,90.0000034332277,8|0,1:3|0:0,0:0:0:0:
47,12,126779,1,8,1:0:0:0:
191,216,127029,6,0,B|190:244|190:244|199:259|199:259|194:284,2,60.0000022888184,12|12|12,1:3|1:3|1:3,0:3:0:0:
124,297,127279,2,0,P|165:344|222:344,1,120.000004577637,12|0,1:3|0:0,0:0:0:0:
351,309,127529,6,0,B|374:307|376:269|376:269|342:274|342:274|304:256|304:256|278:278|240:259|193:273,1,240,12|8,1:3|1:3,0:0:0:0:
194,272,128029,6,2,P|208:206|32:295,1,450.000017166138
32,296,129404,1,0,0:0:0:0:
52,306,129529,5,0,0:0:0:0:
81,302,129612,1,0,0:0:0:0:
111,299,129695,1,0,0:0:0:0:
141,296,129778,1,0,0:0:0:0:
215,203,130029,6,0,L|304:212,1,90.0000034332277,0|8,0:0|0:3,0:0:0:0:
141,296,130529,1,0,0:0:0:0:
220,284,130654,2,0,L|309:293,1,90.0000034332277,8|0,0:3|0:3,0:0:0:0:
370,349,131029,5,8,0:3:0:0:
397,200,131154,1,8,0:0:0:0:
397,200,131279,1,8,0:0:0:0:
370,349,131404,1,8,0:3:0:0:
463,242,131529,6,0,B|481:201|481:201|448:139,1,90.0000034332277,0|8,0:0|0:3,0:0:0:0:
356,79,131904,1,8,1:0:0:0:
356,79,131966,1,8,1:0:0:0:
356,79,132029,5,12,1:1:0:0:
311,75,132154,1,0,1:0:0:0:
266,71,132279,1,0,1:0:0:0:
157,157,132404,5,12,1:3:0:0:
201,153,132529,1,0,1:0:0:0:
246,149,132654,1,0,1:0:0:0:
355,234,132779,5,12,1:3:0:0:
311,230,132904,1,0,1:0:0:0:
202,315,133029,6,0,B|204:304|248:310|248:310|201:298|186:327|128:311,1,157.500006008148,12|0,1:1|0:0,0:0:0:0:
74,256,133529,6,0,B|57:231|57:231|54:195,1,60.0000022888184
168,163,133695,2,0,B|154:190|154:190|125:210,1,60.0000022888184
41,129,133862,2,0,B|71:126|71:126|103:142,1,60.0000022888184
220,233,134029,6,0,P|242:238|265:239,1,45.0000017166138
346,224,134279,2,0,B|338:267|338:267|349:311,1,90.0000034332277,8|0,1:3|0:0,0:0:0:0:
430,312,134654,2,0,B|441:267,1,45.0000017166138,8|8,1:3|0:0,0:0:0:0:
337,89,135029,2,0,L|346:231,1,135.000005149841,8|0,0:0|0:0,0:0:0:0:
276,282,135529,2,0,L|279:326,1,45.0000017166138,8|0,0:0|0:0,0:0:0:0:
199,369,135779,5,8,1:0:0:0:
199,369,135841,1,8,1:0:0:0:
199,369,135904,1,8,1:0:0:0:
199,369,135966,1,8,1:0:0:0:
199,369,136029,5,12,1:0:0:0:
194,309,136154,1,0,0:0:0:0:
190,249,136279,1,0,0:0:0:0:
283,83,136404,5,8,1:0:0:0:
278,142,136529,1,0,0:0:0:0:
274,202,136654,1,0,0:0:0:0:
366,368,136778,5,8,1:0:0:0:
361,309,136903,1,0,0:0:0:0:
453,143,137029,6,0,B|459:129|459:129|448:116|439:115|439:115|435:125|423:106|423:106|426:96|426:96|434:91|430:71|430:71|418:60|418:60|409:68|409:68|397:75|389:68|389:68|370:63,1,157.500006008148,12|0,1:0|0:0,0:0:0:0:
311,38,137529,6,0,P|304:73|325:121,1,80,0|0,1:0|0:0,0:0:0:0:
170,169,137696,2,0,P|203:157|234:115,1,80,0|0,1:0|0:0,0:0:0:0:
354,226,137862,2,0,P|327:202|275:196,1,80,0|0,1:0|0:0,0:0:0:0:
79,275,138029,6,0,P|100:279|123:280,1,45.0000017166138
205,265,138279,2,0,B|197:308|197:308|208:352,1,90.0000034332277,8|0,1:3|0:0,0:0:0:0:
289,353,138654,1,0,0:0:0:0:
289,353,138779,2,0,B|300:308,1,45.0000017166138,8|0,0:0|0:0,0:0:0:0:
196,130,139029,5,0,1:0:0:0:
198,163,139154,1,0,1:0:0:0:
200,197,139279,1,0,1:0:0:0:
202,231,139404,1,0,1:0:0:0:
204,264,139529,5,8,1:0:0:0:
335,297,139654,1,8,1:0:0:0:
407,183,139779,1,8,1:0:0:0:
321,80,139904,1,8,1:0:0:0:
196,130,140029,6,0,P|127:138|48:120,1,113.999996955872,8|2,0:0|0:0,0:0:0:0:
9,190,140404,2,0,P|2:246|10:302,1,113.999996955872,8|0,0:1|0:0,0:0:0:0:
103,348,140779,2,0,L|178:340,1,56.9999984779358,10|0,0:1|0:0,0:0:0:0:
360,268,141029,6,0,L|247:256,1,113.999996955872,0|2,0:0|0:0,0:0:0:0:
414,349,141404,2,0,P|445:311|447:224,1,113.999996955872,8|0,0:1|0:0,0:0:0:0:
398,137,141779,2,0,P|393:110|393:81,1,56.9999984779358,10|0,0:1|0:1,0:1:0:0:
447,7,142029,6,0,L|287:24,1,113.999996955872,0|2,0:0|0:0,0:0:0:0:
253,91,142404,2,0,L|93:74,1,113.999996955872,8|0,0:1|0:0,0:0:0:0:
46,172,142779,2,0,L|102:166,1,56.9999984779358,10|0,0:1|0:0,0:0:0:0:
191,238,143029,5,0,0:0:0:0:
336,172,143154,2,0,L|279:166,1,56.9999984779358,8|2,0:1|0:1,0:1:0:0:
191,238,143404,2,0,L|134:232,1,56.9999984779358,8|0,0:1|0:1,0:1:0:0:
46,304,143654,1,8,0:1:0:0:
46,304,143779,2,8,P|41:330|48:368,1,56.9999984779358,10|8,0:1|0:1,0:1:0:0:
158,384,144029,6,0,P|220:380|278:365,1,113.999996955872,0|2,0:0|0:0,0:0:0:0:
361,258,144404,2,0,P|305:244|248:241,1,113.999996955872,8|0,0:1|0:0,0:0:0:0:
435,310,144779,2,0,P|449:268|446:238,1,56.9999984779358,8|0,0:1|0:0,0:0:0:0:
362,144,145029,6,0,P|357:201|361:258,1,113.999996955872,0|2,0:0|0:0,0:0:0:0:
246,354,145404,2,0,P|251:297|248:241,1,113.999996955872,8|0,0:1|0:0,0:0:0:0:
175,115,145779,2,0,L|101:114,1,56.9999984779358,10|0,0:1|0:0,0:0:0:0:
14,211,146029,6,0,P|5:271|48:326,1,113.999996955872,0|2,0:0|0:0,0:0:0:0:
186,293,146404,2,0,P|139:262|84:252,1,113.999996955872,8|0,0:1|0:0,0:0:0:0:
229,358,146779,2,0,P|254:335|262:295,1,56.9999984779358,10|0,0:1|0:0,0:0:0:0:
256,192,147029,5,0,0:0:0:0:
175,111,147154,2,0,L|86:121,1,56.9999984779358,8|2,0:1|0:0,0:0:0:0:
337,111,147404,2,0,L|426:121,1,56.9999984779358,8|0,0:1|0:0,0:0:0:0:
256,35,147654,1,8,0:0:0:0:
256,35,147779,2,8,L|256:95,1,56.9999984779358,10|8,0:0|0:0,0:0:0:0:
153,219,148029,6,0,P|84:228|68:161,1,138.000002632141,12|2,0:0|0:0,0:0:0:0:
202,157,148404,2,0,B|231:196|231:196|217:320,1,138.000002632141,8|0,0:0|0:0,0:0:0:0:
316,337,148779,2,0,B|305:248,1,69.0000013160706,10|0,0:0|0:0,0:0:0:0:
252,384,149029,6,0,P|331:373|409:387,1,138.000002632141,8|2,0:0|0:0,0:0:0:0:
444,265,149404,2,0,P|365:276|287:262,1,138.000002632141,8|0,0:0|0:0,0:0:0:0:
210,150,149779,2,0,P|204:118|209:74,1,69.0000013160706,10|0,0:0|0:0,0:0:0:0:
344,67,150029,6,0,L|152:87,1,138.000002632141,12|2,0:0|0:0,0:0:0:0:
0,149,150404,2,0,L|137:163,1,138.000002632141,8|0,0:0|0:0,0:0:0:0:
256,241,150779,2,0,L|324:234,1,69.0000013160706,10|0,0:0|0:0,0:0:0:0:
350,143,151029,5,0,0:0:0:0:
256,241,151154,2,0,L|187:234,1,69.0000013160706,8|2,0:0|0:0,0:0:0:0:
122,334,151404,2,0,L|190:327,1,69.0000013160706,8|0,0:0|0:0,0:0:0:0:
162,163,151654,1,8,0:0:0:0:
118,227,151779,2,8,L|49:220,1,69.0000013160706,10|8,0:0|0:0,0:0:0:0:
83,8,152029,6,0,P|155:48|153:175,2,207.000003948212,0|8|8,0:0|0:0|0:0,0:0:0:0:
429,8,153029,6,0,P|357:48|359:175,2,207.000003948212,0|8|8,0:0|0:0|0:0,0:0:0:0:
429,8,153904,2,0,L|419:91,1,69.0000013160706,0|2,0:0|0:0,0:0:0:0:
420,76,154404,2,0,L|410:159,1,69.0000013160706,0|2,0:0|0:0,0:0:0:0:
411,144,154904,2,0,L|401:227,1,69.0000013160706,0|2,0:0|0:0,0:0:0:0:
402,212,155404,2,0,L|392:129,1,69.0000013160706,0|2,0:0|0:0,0:0:0:0:
393,143,155904,5,0,1:0:0:0:
393,143,156029,6,0,P|332:132|347:28,1,180.000006866455,6|0,0:0|0:0,0:0:0:0:
450,91,156404,2,0,B|468:129|468:129|460:288,1,180.000006866455,8|0,0:0|0:0,0:0:0:0:
348,334,156779,2,0,B|341:196,1,90.0000034332277,8|0,0:0|0:0,0:0:0:0:
229,22,157029,6,0,B|222:159,1,90.0000034332277,10|0,0:0|0:0,0:0:0:0:
128,161,157279,1,0,0:0:0:0:
198,318,157404,2,0,B|82:243,1,90.0000034332277,8|0,0:0|0:0,0:0:0:0:
128,161,157654,1,0,0:0:0:0:
300,160,157779,2,0,B|224:111,1,90.0000034332277,8|0,0:0|0:0,0:0:0:0:
339,259,158029,6,0,P|384:226|384:98,1,180.000006866455,6|0,0:0|0:0,0:0:0:0:
224,111,158404,2,0,B|176:121|176:121|300:160,1,180.000006866455,8|0,0:0|0:0,0:0:0:0:
424,231,158779,2,0,B|338:258,1,90.0000034332277,8|0,0:0|0:0,0:0:0:0:
295,362,159029,5,2,0:0:0:0:
166,231,159154,2,0,B|251:258,1,90.0000034332277,8|0,0:0|0:0,0:0:0:0:
300,160,159404,2,0,B|214:132,1,90.0000034332277,8|0,0:0|0:0,0:0:0:0:
74,210,159654,2,8,P|77:255|132:316,2,90.0000034332277
214,132,160029,5,6,0:0:0:0:
87,30,160154,1,0,0:0:0:0:
214,132,160279,1,0,0:0:0:0:
87,30,160404,2,0,L|72:228,1,180.000006866455,8|0,0:0|0:0,0:0:0:0:
215,335,160779,2,0,L|207:245,1,90.0000034332277,8|0,0:0|0:0,0:0:0:0:
135,372,161029,6,0,P|235:349|320:363,1,180.000006866455,2|2,0:0|0:0,0:0:0:0:
382,233,161404,2,0,P|282:256|197:242,1,180.000006866455,8|0,0:0|0:0,0:0:0:0:
25,93,161779,2,0,L|33:182,1,90.0000034332277,8|0,0:0|0:0,0:0:0:0:
210,344,162029,5,6,0:0:0:0:
285,300,162154,1,0,0:0:0:0:
298,214,162279,1,0,0:0:0:0:
239,151,162404,2,0,P|219:118|217:48,1,90.0000034332277,8|0,0:0|0:0,0:0:0:0:
210,344,162654,1,0,0:0:0:0:
151,280,162779,2,0,P|130:246|128:176,1,90.0000034332277,8|0,0:0|0:0,0:0:0:0:
212,67,163029,6,0,L|324:62,1,90.0000034332277,6|0,0:0|0:0,0:0:0:0:
301,62,163216,1,0,0:0:0:0:
301,62,163279,1,0,0:0:0:0:
239,151,163404,1,8,0:0:0:0:
239,151,163466,1,0,0:0:0:0:
239,151,163529,2,0,B|230:195|230:195|244:260,1,90.0000034332277
382,299,163779,2,0,B|391:254|391:254|382:210,1,90.0000034332277,8|0,0:0|0:0,0:0:0:0:
95,272,164029,6,0,P|157:212|239:238,1,180.000006866455,6|0,0:0|0:0,0:0:0:0:
305,350,164404,1,8,0:0:0:0:
181,384,164529,2,0,L|175:294,1,90.0000034332277
244,61,164779,2,0,L|238:150,1,90.0000034332277,8|0,0:0|0:0,0:0:0:0:
246,174,164966,1,0,0:0:0:0:
259,195,165029,6,0,L|348:190,2,90.0000034332277,2|0|0,0:0|0:0|0:0,0:0:0:0:
243,60,165404,2,0,L|423:69,1,180.000006866455,8|0,0:0|0:0,0:0:0:0:
158,247,165779,2,0,P|147:203|151:159,1,90.0000034332277,8|0,0:0|0:0,0:0:0:0:
257,286,166029,6,0,B|199:268|199:268|74:277,1,180.000006866455,6|0,0:0|0:0,0:0:0:0:
182,374,166404,1,8,0:0:0:0:
321,348,166529,2,0,P|342:308|330:231,1,90.0000034332277
278,84,166779,2,0,P|257:123|255:168,1,90.0000034332277,8|0,0:0|0:0,0:0:0:0:
413,341,167029,5,2,0:0:0:0:
257,286,167154,2,0,L|131:288,1,90.0000034332277,8|0,0:0|0:0,0:0:0:0:
6,75,167404,2,0,L|95:76,1,90.0000034332277,8|0,0:0|0:0,0:0:0:0:
176,181,167654,1,8,0:0:0:0:
86,180,167779,1,8,0:0:0:0:
176,181,167904,1,8,0:0:0:0:
86,180,168029,6,0,B|85:311|85:311|123:371,1,180.000006866455,6|0,0:0|0:0,0:0:0:0:
231,356,168404,1,8,0:0:0:0:
175,271,168529,2,0,L|176:181,1,90.0000034332277
85,90,168778,2,0,L|86:179,1,90.0000034332277,8|0,0:0|0:0,0:0:0:0:
218,33,169029,5,2,0:0:0:0:
354,75,169154,1,0,0:0:0:0:
218,33,169279,1,0,0:0:0:0:
354,75,169404,2,0,P|373:122|363:261,1,180.000006866455,8|0,0:0|0:0,0:0:0:0:
253,285,169779,2,0,P|247:241|261:199,1,90.0000034332277,8|0,0:0|0:0,0:0:0:0:
354,75,170029,6,0,P|280:122|184:104,1,180.000006866455,6|0,0:0|0:0,0:0:0:0:
110,46,170404,1,8,0:0:0:0:
22,98,170529,2,0,L|32:209,1,90.0000034332277
116,308,170779,2,0,L|126:197,1,90.0000034332277,8|0,0:0|0:0,0:0:0:0:
311,247,171029,6,0,L|301:136,1,90.0000034332277,8|0,0:0|0:0,0:0:0:0:
302,157,171216,1,0,0:0:0:0:
302,157,171279,1,0,0:0:0:0:
384,80,171404,1,8,0:0:0:0:
384,80,171466,1,8,0:0:0:0:
384,80,171529,1,8,0:0:0:0:
276,49,171654,1,8,0:0:0:0:
302,157,171779,1,8,0:0:0:0:
384,80,171904,1,8,0:0:0:0:
276,49,172029,6,0,B|175:30|175:30|63:45,1,204.000003890991,14|0,0:0|0:0,0:0:0:0:
29,262,172404,2,0,B|129:275|129:275|230:256,1,204.000003890991,8|0,0:0|0:0,0:0:0:0:
302,157,172779,1,8,0:0:0:0:
230,256,172904,1,0,0:0:0:0:
302,157,173029,6,0,P|356:133|430:240,1,204.000003890991,8|0,0:0|0:0,0:0:0:0:
389,384,173404,2,0,B|356:384|340:351|340:351|359:211,1,204.000003890991,8|0,0:0|0:0,0:0:0:0:
202,70,173779,2,0,B|215:171,1,102.000001945496,8|0,0:0|0:0,0:0:0:0:
118,335,174029,6,0,P|55:256|48:155,1,204.000003890991,6|0,0:0|0:0,0:0:0:0:
202,70,174404,2,0,B|318:39|300:108|417:65,1,204.000003890991,8|0,0:0|0:0,0:0:0:0:
290,258,174779,2,0,P|264:215|255:165,1,102.000001945496,8|0,0:0|0:0,0:0:0:0:
348,0,175029,5,0,0:0:0:0:
401,70,175154,2,8,L|391:185,1,102.000001945496,8|0,0:0|0:0,0:0:0:0:
299,359,175404,2,8,L|289:244,1,102.000001945496,8|0,0:0|0:0,0:0:0:0:
186,109,175654,1,8,0:0:0:0:
55,133,175779,1,8,0:0:0:0:
186,109,175904,1,8,0:0:0:0:
55,133,176029,5,14,0:0:0:0:
127,297,176279,1,0,0:0:0:0:
127,297,176404,1,8,0:0:0:0:
127,297,176529,1,0,0:0:0:0:
256,192,176779,1,8,0:0:0:0:
457,133,177029,5,8,0:0:0:0:
385,297,177279,1,0,0:0:0:0:
385,297,177404,1,8,0:0:0:0:
256,192,177654,1,0,0:0:0:0:
256,192,177779,1,8,0:0:0:0:
256,192,177904,1,0,0:0:0:0:
256,192,178029,6,0,B|242:148|242:148|180:113|116:123|85:166,1,204.000003890991,6|0,0:0|0:0,0:0:0:0:
141,362,178404,1,8,0:0:0:0:
158,348,178529,2,0,L|168:247,1,102.000001945496
246,90,178779,2,0,L|255:191,1,102.000001945496,8|0,0:0|0:0,0:0:0:0:
334,349,179029,6,0,L|343:247,1,102.000001945496,0|8,0:0|0:0,0:0:0:0:
422,90,179279,2,0,L|431:191,1,102.000001945496,0|8,0:0|0:0,0:0:0:0:
433,353,179529,1,0,0:0:0:0:
408,359,179591,1,0,0:0:0:0:
383,360,179654,1,0,0:0:0:0:
358,356,179716,1,0,0:0:0:0:
333,348,179779,1,8,0:0:0:0:
308,355,179842,1,0,0:0:0:0:
283,359,179904,1,0,0:0:0:0:
258,358,179967,1,0,0:0:0:0:
233,352,180029,6,0,P|126:343|5:364,1,227.999993911743,6|0,0:0|0:0,0:0:0:0:
206,180,180404,2,0,P|317:199|431:191,1,227.999993911743,8|0,0:0|0:0,0:0:0:0:
268,86,180779,2,0,P|229:128|206:180,1,113.999996955872,8|0,0:0|0:0,0:0:0:0:
332,307,181029,6,0,B|374:324|397:353|397:353|343:216,1,227.999993911743
206,179,181404,1,8,0:0:0:0:
94,266,181529,2,0,B|84:329|111:322|101:386,1,113.999996955872
214,291,181779,2,0,B|224:228|197:235|207:171,1,113.999996955872,8|0,0:0|0:0,0:0:0:0:
290,78,182029,6,0,P|182:125|75:70,1,227.999993911743,6|0,0:0|0:0,0:0:0:0:
10,285,182404,2,0,P|112:243|213:290,1,227.999993911743,8|0,0:0|0:0,0:0:0:0:
400,235,182779,2,0,P|344:225|297:193,1,113.999996955872,8|0,0:0|0:0,0:0:0:0:
391,68,183029,5,0,0:0:0:0:
475,196,183154,2,0,P|484:232|441:311,1,113.999996955872,8|0,0:0|0:0,0:0:0:0:
297,193,183404,2,0,P|269:144|277:88,1,113.999996955872,8|0,0:0|0:0,0:0:0:0:
391,68,183654,1,8,0:0:0:0:
277,88,183779,1,8,0:0:0:0:
163,68,183904,1,8,0:0:0:0:
49,88,184029,6,0,P|32:142|57:317,1,227.999993911743
167,289,184404,1,8,0:0:0:0:
273,309,184529,2,0,P|299:198|276:87,1,227.999993911743,0|8,0:0|0:0,0:0:0:0:
391,68,185029,6,0,P|408:122|383:297,1,227.999993911743
273,309,185404,1,8,0:0:0:0:
167,289,185529,2,0,P|147:235|140:178,1,113.999996955872,0|8,0:0|0:0,0:0:0:0:
276,87,185779,2,0,P|268:143|249:197,1,113.999996955872,8|8,0:0|0:0,0:0:0:0:
167,289,186029,6,0,L|37:286,1,113.999996955872,4|0,0:0|0:0,0:0:0:0:
372,178,186279,2,0,L|502:175,1,113.999996955872,0|8,0:0|0:0,0:0:0:0:
140,178,186529,2,0,L|10:175,1,113.999996955872
345,289,186779,2,0,L|475:286,1,113.999996955872,8|0,0:0|0:0,0:0:0:0:
256,173,187029,5,0,0:0:0:0:
190,95,187154,1,8,0:0:0:0:
190,95,187216,1,0,0:0:0:0:
190,95,187279,1,0,0:0:0:0:
256,17,187404,1,8,0:0:0:0:
322,95,187529,2,0,P|374:102|445:85,1,113.999996955872
190,95,187779,2,0,P|138:88|67:105,1,113.999996955872
96,363,188029,6,0,P|132:279|134:176,1,180.000006866455,4|0,0:0|0:0,0:0:0:0:
14,158,188404,1,8,0:0:0:0:
140,270,188529,2,0,P|184:262|214:217,1,90.0000034332277
322,95,188779,2,0,P|366:103|396:148,1,90.0000034332277,8|0,0:0|0:0,0:0:0:0:
358,340,189029,6,0,P|328:241|329:142,1,180.000006866455
168,17,189404,2,0,P|138:116|139:215,1,180.000006866455,8|0,0:0|0:0,0:0:0:0:
7,357,189779,2,0,P|24:315|35:271,1,90.0000034332277,8|0,0:0|0:0,0:0:0:0:
12,66,190029,6,0,P|100:72|168:17,1,180.000006866455,4|0,0:0|0:0,0:0:0:0:
481,214,190404,2,0,P|393:220|325:164,1,180.000006866455,8|0,0:0|0:0,0:0:0:0:
418,16,190779,2,0,P|430:60|430:105,1,90.0000034332277,8|0,0:0|0:0,0:0:0:0:
256,233,191029,5,0,0:0:0:0:
76,5,191154,2,0,P|63:48|64:93,1,90.0000034332277,8|0,0:0|0:0,0:0:0:0:
243,321,191404,2,0,P|255:278|255:233,1,90.0000034332277,8|0,0:0|0:0,0:0:0:0:
181,62,191654,1,8,0:0:0:0:
295,62,191779,1,8,0:0:0:0:
181,62,191904,1,8,0:0:0:0:
295,62,192029,6,0,P|259:146|257:249,1,180.000006866455,4|0,0:0|0:0,0:0:0:0:
395,279,192404,1,8,0:0:0:0:
260,160,192529,2,0,P|216:168|186:213,1,90.0000034332277
112,330,192779,2,0,P|68:322|38:277,1,90.0000034332277,8|0,0:0|0:0,0:0:0:0:
156,26,193029,6,0,P|186:125|185:224,1,180.000006866455
344,367,193404,2,0,P|374:268|373:169,1,180.000006866455,8|0,0:0|0:0,0:0:0:0:
504,26,193779,2,0,P|487:68|476:112,1,90.0000034332277,8|0,0:0|0:0,0:0:0:0:
499,317,194029,6,0,P|411:311|344:367,1,180.000006866455,4|0,0:0|0:0,0:0:0:0:
31,170,194404,2,0,P|118:163|186:219,1,180.000006866455,8|0,0:0|0:0,0:0:0:0:
93,367,194779,2,0,P|81:323|82:279,1,90.0000034332277,8|0,0:0|0:0,0:0:0:0:
256,151,195029,5,0,0:0:0:0:
418,367,195154,2,0,P|430:323|430:279,1,90.0000034332277,8|0,0:0|0:0,0:0:0:0:
268,63,195404,2,0,P|255:106|256:151,1,90.0000034332277,8|0,0:0|0:0,0:0:0:0:
313,310,195654,1,8,0:0:0:0:
199,310,195779,1,8,0:0:0:0:
313,310,195904,1,8,0:0:0:0:
199,310,196029,6,0,P|148:271|139:156,1,180.000006866455,4|0,0:0|0:0,0:0:0:0:
252,77,196404,1,8,0:0:0:0:
320,202,196529,2,0,L|231:210,1,90.0000034332277
109,302,196779,2,0,L|198:309,1,90.0000034332277,8|0,0:0|0:0,0:0:0:0:
388,252,197029,6,0,B|403:201|403:201|357:71,1,180.000006866455
230,209,197404,2,0,B|188:329|188:329|203:380,1,180.000006866455,8|0,0:0|0:0,0:0:0:0:
308,180,197779,2,0,P|271:136|219:127,1,90.0000034332277,8|0,0:0|0:0,0:0:0:0:
55,229,198029,6,0,B|141:200|141:200|229:209,1,180.000006866455,4|0,0:0|0:0,0:0:0:0:
385,315,198404,2,0,B|299:286|299:286|210:295,1,180.000006866455,8|0,0:0|0:0,0:0:0:0:
74,315,198779,2,0,P|54:249|62:196,1,90.0000034332277,8|0,0:0|0:0,0:0:0:0:
213,11,199029,5,0,0:0:0:0:
210,295,199154,2,0,P|230:229|222:176,1,90.0000034332277,8|0,0:0|0:0,0:0:0:0:
213,11,199404,2,0,P|193:77|201:130,1,90.0000034332277,8|0,0:0|0:0,0:0:0:0:
229,208,199654,1,8,0:0:0:0:
313,74,199779,1,8,0:0:0:0:
229,208,199904,1,8,0:0:0:0:
313,74,200029,6,0,P|364:113|373:228,1,180.000006866455,12|0,0:0|0:0,0:0:0:0:
260,307,200404,1,8,0:0:0:0:
191,181,200529,2,0,L|281:174,1,90.0000034332277
403,82,200779,2,0,L|313:74,1,90.0000034332277,8|0,0:0|0:0,0:0:0:0:
124,132,201029,6,0,B|109:183|109:183|155:313,1,180.000006866455
281,174,201404,2,0,B|324:55|324:55|309:4,1,180.000006866455,8|0,0:0|0:0,0:0:0:0:
204,204,201779,2,0,P|241:248|293:257,1,90.0000034332277,8|0,0:0|0:0,0:0:0:0:
457,155,202029,6,0,B|371:184|371:184|282:174,1,180.000006866455,4|0,0:0|0:0,0:0:0:0:
74,10,202404,2,0,B|160:39|160:39|248:29,1,180.000006866455,8|0,0:0|0:0,0:0:0:0:
438,69,202779,2,0,P|458:135|450:188,1,90.0000034332277,8|0,0:0|0:0,0:0:0:0:
340,303,203029,5,0,0:0:0:0:
249,30,203154,2,0,P|229:96|237:149,1,90.0000034332277,8|0,0:0|0:0,0:0:0:0:
340,303,203404,2,0,P|360:237|352:184,1,90.0000034332277,8|0,0:0|0:0,0:0:0:0:
229,116,203654,1,8,0:0:0:0:
359,216,203779,1,8,0:0:0:0:
249,30,203904,1,8,0:0:0:0:
340,303,204029,5,12,1:0:0:0:
256,192,204154,12,0,205529,0:0:0:0:
256,192,205654,12,0,207029,0:0:0:0:
34,119,210029,6,0,P|78:142|152:145,1,120,6|12,0:0|0:3,0:0:0:0:
233,62,212029,2,0,P|212:140|256:287,1,225,2|0,0:0|0:0,0:0:0:0:
317,325,214029,6,0,P|274:358|220:354,1,105,12|0,0:3|0:0,0:0:0:0:
167,303,215029,2,0,P|124:270|70:274,1,105,2|0,0:0|0:0,0:0:0:0:
15,318,216029,2,0,L|15:222,1,90,2|8,0:0|0:3,0:0:0:0:
51,69,217029,2,0,L|51:159,1,90,12|0,0:3|0:3,0:0:0:0:
118,26,218029,6,0,P|157:23|218:34,1,90,0|2,0:0|0:0,0:0:0:0:
280,62,219029,2,0,L|318:59,1,30,8|2,0:3|0:0,0:0:0:0:
330,69,219404,2,0,L|368:66,1,30,0|2,0:3|0:0,0:0:0:0:
426,125,219904,1,2,0:0:0:0:
426,125,219966,1,2,0:0:0:0:
426,125,220029,6,0,B|437:165|417:200|434:244,1,120,6|0,0:0|0:0,0:0:0:0:
434,244,221904,1,2,0:0:0:0:
434,244,221966,1,2,0:0:0:0:
434,244,222029,6,0,B|394:255|359:235|329:247,1,105,6|0,0:0|0:0,0:0:0:0:
305,253,223029,2,0,P|279:251|249:246,1,45,2|0,0:0|0:0,0:0:0:0:
240,234,223529,2,0,P|214:235|184:241,1,45,2|0,0:0|0:0,0:0:0:0:
173,250,224029,6,0,P|165:202|128:169,1,90,0|8,0:0|0:3,0:0:0:0:
92,152,225029,2,0,P|61:119|56:75,1,90,12|0,0:3|0:3,0:0:0:0:
130,19,226029,6,0,L|201:26,1,59.3999998187256,6|0,0:0|0:0,0:0:0:0:
222,40,226529,2,0,L|293:33,1,59.3999998187256,2|0,0:0|0:0,0:0:0:0:
316,22,227029,2,0,P|311:62|328:113,1,79.1999997583008,12|0,0:3|0:0,0:0:0:0:
372,195,228029,6,0,P|336:158|270:166,1,118.799999637451,2|0,0:0|0:0,0:0:0:0:
211,217,229029,2,0,L|126:206,1,79.1999997583008
58,300,229779,1,0,0:0:0:0:
58,300,229904,1,0,0:0:0:0:
58,300,230029,6,0,L|116:292,1,59.3999998187256,12|0,0:3|0:0,0:0:0:0:
145,302,230529,2,0,L|203:294,1,59.3999998187256,2|0,0:0|0:0,0:0:0:0:
232,304,231029,2,0,L|310:293,1,79.1999997583008,2|2,0:0|0:0,0:0:0:0:
335,217,231779,1,2,0:0:0:0:
307,142,232029,6,0,L|183:132,1,118.799999637451,2|8,0:0|0:3,0:0:0:0:
130,69,233029,2,0,L|254:59,1,118.799999637451,12|0,0:3|0:3,0:0:0:0:
89,134,234029,6,0,P|66:114|54:87,1,59.3999998187256,6|0,0:0|0:0,0:0:0:0:
34,87,234529,2,0,P|21:113|0:133,1,59.3999998187256,2|0,0:0|0:0,0:0:0:0:
1,155,235029,2,0,L|5:249,1,79.1999997583008,8|0,0:3|0:0,0:0:0:0:
85,332,236029,6,0,L|212:326,1,118.799999637451,2|0,0:0|0:0,0:0:0:0:
264,281,237029,2,0,L|352:285,1,79.1999997583008
395,219,237779,1,0,0:0:0:0:
398,136,238029,6,0,L|381:76,1,59.3999998187256,12|0,0:3|0:0,0:0:0:0:
348,71,238529,2,0,L|331:11,1,59.3999998187256,2|0,0:0|0:0,0:0:0:0:
297,6,239029,2,0,P|250:26|205:17,1,79.1999997583008,0|2,0:0|0:0,0:0:0:0:
191,6,239695,1,2,0:0:0:0:
195,22,239862,1,2,0:0:0:0:
199,38,240029,6,0,L|197:129,1,79.1999997583008,2|0,0:0|0:0,0:0:0:0:
256,166,240779,1,8,0:3:0:0:
314,117,241029,2,0,L|313:38,1,79.1999997583008,12|0,0:3|0:0,0:0:0:0:
446,109,241904,1,0,0:0:0:0:
446,109,241966,1,0,0:0:0:0:
446,109,242029,6,0,L|444:237,1,120,0|8,0:0|0:3,0:0:0:0:
441,230,243029,2,0,L|443:265,1,30,8|0,0:0|0:0,0:0:0:0:
365,333,243529,1,12,0:3:0:0:
365,333,244029,6,0,P|312:294|240:300,1,120,0|12,0:0|0:3,0:0:0:0:
197,184,245029,2,0,P|144:223|72:217,1,120,8|12,0:0|0:3,0:0:0:0:
90,35,245904,1,0,0:0:0:0:
105,22,246029,6,0,L|123:158,1,120,12|0,0:3|0:0,0:0:0:0:
181,302,247029,2,0,L|199:166,1,120,8|12,0:0|0:3,0:0:0:0:
196,183,248029,5,2,0:0:0:0:
227,88,248279,1,0,0:0:0:0:
326,88,248529,1,12,0:3:0:0:
357,183,248779,1,12,0:3:0:0:
277,241,249029,1,8,0:0:0:0:
277,241,249529,1,12,0:3:0:0:
246,146,249779,1,12,0:3:0:0:
326,88,250029,5,4,0:0:0:0:
326,88,251029,2,0,L|328:137,1,45.0000017166138,8|0,0:0|0:0,0:0:0:0:
263,229,251529,1,12,0:3:0:0:
407,52,252029,6,0,P|365:13|245:41,1,180.000006866455,0|12,0:0|0:3,0:0:0:0:
108,248,253029,2,0,P|190:276|262:228,1,180.000006866455,8|12,0:0|0:3,0:0:0:0:
187,53,253904,1,0,0:0:0:0:
187,53,254029,6,0,L|179:208,1,135.000005149841,12|0,0:3|0:0,0:0:0:0:
262,228,254529,2,0,L|268:362,1,135.000005149841,12|0,0:3|0:0,0:0:0:0:
375,315,255029,5,12,0:3:0:0:
427,210,255154,1,12,0:3:0:0:
398,96,255279,1,12,0:3:0:0:
304,27,255404,1,12,0:3:0:0:
187,35,255529,1,12,0:3:0:0:
103,117,255654,1,12,0:3:0:0:
91,233,255779,1,12,0:3:0:0:
156,330,255904,1,12,0:3:0:0:
268,362,256029,5,12,0:3:0:0:
256,192,256154,8,4,260029,0:0:0:0:
141,125,263529,5,12,0:3:0:0:
380,188,263654,1,12,0:3:0:0:
148,277,263779,1,12,0:3:0:0:
282,69,263904,1,12,0:3:0:0:
296,317,264029,6,0,P|417:336|509:273,1,198.000006042481,12|0,0:0|2:0,0:0:0:0:
282,69,264529,2,0,P|160:49|69:113,1,198.000006042481,8|0,0:0|2:0,0:0:0:0:
148,277,265029,2,0,P|168:234|163:178,1,66.0000020141602,8|0,0:0|2:0,0:0:0:0:
282,69,265279,2,0,P|262:112|267:168,1,66.0000020141602,2|0,2:0|2:0,0:0:0:0:
296,317,265529,2,0,P|276:274|281:218,1,66.0000020141602,8|0,0:0|2:0,0:0:0:0:
97,82,265779,2,0,P|117:125|112:181,1,66.0000020141602,2|0,2:0|2:0,0:0:0:0:
234,364,266029,6,0,L|391:346,1,132.00000402832,8|2,0:0|2:0,0:0:0:0:
411,255,266404,1,0,2:0:0:0:
365,161,266529,2,0,L|233:145,1,132.00000402832,8|2,0:0|2:0,0:0:0:0:
137,188,266904,1,0,0:0:0:0:
214,68,267029,2,0,L|411:91,1,198.000006042481,8|0,0:0|2:0,0:0:0:0:
137,188,267529,2,0,L|333:165,1,198.000006042481,10|0,0:0|2:0,0:0:0:0:
255,347,268029,5,8,0:0:0:0:
137,188,268154,1,0,2:0:0:0:
333,165,268279,1,2,2:0:0:0:
254,347,268404,2,0,P|225:361|192:363,1,66.0000020141602,0|8,2:0|0:0,0:0:0:0:
74,204,268654,2,0,P|103:189|136:187,1,66.0000020141602,0|2,2:0|0:0,0:0:0:0:
256,262,268904,1,0,0:0:0:0:
396,90,269029,5,8,1:0:0:0:
381,81,269091,1,0,3:0:0:0:
366,75,269154,1,0,3:0:0:0:
350,71,269216,1,0,3:0:0:0:
334,70,269279,1,2,3:2:0:0:
317,71,269341,1,0,3:0:0:0:
301,74,269404,1,0,3:0:0:0:
286,80,269466,1,0,3:0:0:0:
272,89,269529,5,8,1:0:0:0:
257,97,269592,1,0,3:0:0:0:
242,103,269654,1,0,3:0:0:0:
226,106,269717,1,0,3:0:0:0:
209,107,269779,1,2,3:2:0:0:
193,106,269842,1,0,3:0:0:0:
177,102,269904,1,0,3:0:0:0:
162,96,269967,1,0,3:0:0:0:
147,87,270029,6,0,L|152:151,1,60,2|0,0:0|0:0,0:0:0:0:
130,113,270404,6,0,L|135:177,1,60,2|2,0:0|0:0,0:0:0:0:
113,139,270779,6,0,L|118:203,1,60,2|0,0:0|0:0,0:0:0:0:
96,165,271154,6,0,L|101:229,1,60,2|2,0:0|0:0,0:0:0:0:
79,191,271529,6,0,L|84:255,1,60,2|2,0:0|0:0,0:0:0:0:
195,324,271904,1,2,0:0:0:0:
351,48,272029,6,0,P|366:154|354:261,1,215.999993408203,12|0,0:0|0:0,0:0:0:0:
104,352,272403,2,0,P|112:278|246:241,1,215.999993408203,8|0,0:0|0:0,0:0:0:0:
395,349,272779,1,8,0:0:0:0:
195,324,272904,1,0,0:0:0:0:
395,349,273029,6,0,P|426:325|451:250,1,107.999996704102,12|0,0:0|0:0,0:0:0:0:
432,64,273279,1,0,0:0:0:0:
289,170,273404,2,0,P|346:257|450:262,1,215.999993408203,8|0,0:0|0:0,0:0:0:0:
295,65,273779,2,0,P|258:70|199:114,1,107.999996704102,8|0,0:0|0:0,0:0:0:0:
169,191,273966,1,0,0:0:0:0:
169,191,274029,6,0,P|148:55|74:6,1,215.999993408203,12|0,0:0|0:0,0:0:0:0:
60,308,274404,2,0,P|149:340|293:284,1,215.999993408203,8|0,0:0|0:0,0:0:0:0:
439,108,274779,2,0,P|390:132|337:140,1,107.999996704102,8|0,0:0|0:0,0:0:0:0:
256,27,275029,5,4,0:0:0:0:
73,108,275154,2,0,P|121:132|174:140,1,107.999996704102,8|0,0:0|0:0,0:0:0:0:
364,341,275404,2,0,P|315:316|262:308,1,107.999996704102,8|0,0:0|0:0,0:0:0:0:
100,334,275654,1,0,0:0:0:0:
245,176,275779,1,8,0:0:0:0:
252,150,275841,1,0,0:0:0:0:
251,123,275904,1,0,0:0:0:0:
242,97,275966,1,0,0:0:0:0:
226,76,276029,5,4,0:0:0:0:
137,251,276279,1,8,0:0:0:0:
86,177,276404,1,8,0:0:0:0:
366,176,276654,1,8,0:0:0:0:
315,250,276779,1,8,0:0:0:0:
366,176,276904,1,8,0:0:0:0:
315,250,277029,5,12,0:0:0:0:
207,48,277279,1,8,0:0:0:0:
305,48,277404,1,8,0:0:0:0:
197,250,277654,1,8,0:0:0:0:
146,176,277779,1,0,0:0:0:0:
197,250,277904,1,8,0:0:0:0:
146,176,278029,6,0,P|90:168|38:329,1,215.999993408203,12|0,0:0|0:0,0:0:0:0:
46,64,278404,1,8,0:0:0:0:
234,154,278529,2,0,P|229:207|197:250,1,107.999996704102
352,345,278779,2,0,P|346:291|314:249,1,107.999996704102,8|0,0:0|0:0,0:0:0:0:
146,176,279029,5,4,0:0:0:0:
372,136,279154,1,8,0:0:0:0:
133,96,279279,1,0,0:0:0:0:
385,56,279404,1,8,0:0:0:0:
120,16,279529,1,0,0:0:0:0:
398,56,279653,1,8,0:0:0:0:
107,95,279778,1,8,0:0:0:0:
411,135,279903,1,8,0:0:0:0:
94,175,280029,6,0,P|79:279|210:323,1,240,12|0,0:0|0:0,0:0:0:0:
401,234,280404,2,0,B|346:220|346:220|164:239,1,240,8|0,0:0|0:0,0:0:0:0:
37,74,280779,2,0,B|156:86,1,120,8|0,0:0|0:0,0:0:0:0:
426,351,281029,6,0,P|401:234|419:116,1,240,14|0,0:0|0:0,0:0:0:0:
254,23,281404,1,8,0:0:0:0:
94,175,281529,2,0,P|54:129|36:73,1,120
419,117,281779,2,0,P|403:169|354:224,1,120,8|0,0:0|0:0,0:0:0:0:
279,259,281966,1,0,0:0:0:0:
260,259,282029,6,0,B|141:215|145:313|23:251,1,240,12|0,0:0|0:0,0:0:0:0:
231,362,282403,2,8,P|340:330|361:218,1,240,8|0,0:0|0:0,0:0:0:0:
97,58,282779,2,0,P|84:108|98:187,1,120,8|0,0:0|0:0,0:0:0:0:
260,259,283029,5,4,0:0:0:0:
423,58,283154,2,0,P|436:108|422:187,1,120,8|0,0:0|0:0,0:0:0:0:
168,323,283403,2,0,P|155:273|169:194,1,120,8|0,0:0|0:0,0:0:0:0:
305,121,283654,1,8,0:0:0:0:
199,102,283779,1,8,0:0:0:0:
320,84,283904,1,8,0:0:0:0:
183,65,284029,6,0,L|63:80,1,120,12|0,0:0|0:0,0:0:0:0:
424,135,284279,2,0,L|303:120,1,120,0|8,0:0|0:0,0:0:0:0:
184,205,284529,6,0,L|63:190,1,120
424,135,284779,2,0,L|303:149,1,120,8|0,0:0|0:0,0:0:0:0:
305,364,285029,6,0,L|425:349,1,120,12|0,0:0|0:0,0:0:0:0:
64,294,285279,2,0,L|184:308,1,120,0|8,0:0|0:0,0:0:0:0:
304,224,285529,6,0,L|424:238,1,120
64,294,285779,2,0,L|184:279,1,120,8|0,0:0|0:0,0:0:0:0:
366,208,286029,6,0,P|403:127|271:56,1,240,12|0,0:0|0:0,0:0:0:0:
183,279,286404,1,8,0:0:0:0:
279,241,286529,2,0,P|280:182|314:134,1,120
160,39,286779,2,0,P|166:93|209:145,1,120,8|0,0:0|0:0,0:0:0:0:
366,208,287029,5,4,0:0:0:0:
140,248,287154,1,8,0:0:0:0:
379,288,287279,1,0,0:0:0:0:
127,328,287404,1,8,0:0:0:0:
392,368,287529,1,4,0:0:0:0:
114,328,287653,1,8,0:0:0:0:
405,289,287778,1,8,0:0:0:0:
101,249,287903,1,8,0:0:0:0:
418,209,288029,6,0,P|433:105|334:28,1,227.999993911743,12|0,0:0|0:0,0:0:0:0:
105,105,288404,2,0,B|220:155|215:73|325:140,1,227.999993911743,8|0,0:0|0:0,0:0:0:0:
264,313,288779,2,0,P|244:255|250:194,1,113.999996955872,8|0,0:0|0:0,0:0:0:0:
60,38,289029,6,0,B|27:76|27:76|38:263,1,227.999993911743,12|0,0:0|0:0,0:0:0:0:
264,313,289404,2,0,B|274:135|274:135|241:97,1,227.999993911743,8|0,0:0|0:0,0:0:0:0:
151,307,289779,2,0,P|232:317|293:304,1,113.999996955872,8|0,0:0|0:0,0:0:0:0:
403,238,290029,6,0,P|312:174|204:258,1,227.999993911743,12|0,0:0|0:0,0:0:0:0:
448,312,290404,2,0,B|485:262|485:262|452:73,1,227.999993911743,8|0,0:0|0:0,0:0:0:0:
277,23,290779,2,0,B|296:135,1,113.999996955872,8|0,0:0|0:0,0:0:0:0:
218,222,291029,5,4,0:0:0:0:
94,175,291154,2,0,B|113:62,1,113.999996955872,8|0,0:0|0:0,0:0:0:0:
237,334,291404,2,0,B|217:221,1,113.999996955872,8|0,0:0|0:0,0:0:0:0:
426,166,291654,2,0,B|407:279,2,113.999996955872,0|8|8,0:0|0:0|0:0,0:0:0:0:
94,175,292029,6,0,P|79:279|178:356,1,227.999993911743,12|0,0:0|0:0,0:0:0:0:
407,279,292404,2,0,B|292:229|297:311|187:244,1,227.999993911743,8|0,0:0|0:0,0:0:0:0:
248,71,292779,2,0,P|268:129|262:190,1,113.999996955872,8|0,0:0|0:0,0:0:0:0:
452,346,293029,6,0,B|485:308|485:308|474:121,1,227.999993911743,12|0,0:0|0:0,0:0:0:0:
248,71,293404,2,0,B|238:249|238:249|271:287,1,227.999993911743,8|0,0:0|0:0,0:0:0:0:
361,77,293779,2,0,P|280:67|219:80,1,113.999996955872,8|0,0:0|0:0,0:0:0:0:
109,146,294029,6,0,P|200:210|308:126,1,227.999993911743,12|0,0:0|0:0,0:0:0:0:
64,72,294404,2,0,B|27:122|27:122|60:311,1,227.999993911743,8|0,0:0|0:0,0:0:0:0:
235,361,294779,2,0,B|216:249,1,113.999996955872,8|0,0:0|0:0,0:0:0:0:
294,162,295029,5,4,0:0:0:0:
412,238,295154,2,0,B|393:351,1,113.999996955872,8|0,0:0|0:0,0:0:0:0:
275,50,295404,2,0,B|295:163,1,113.999996955872,8|0,0:0|0:0,0:0:0:0:
136,158,295654,1,8,0:0:0:0:
117,271,295779,1,8,0:0:0:0:
136,158,295904,1,8,0:0:0:0:
117,271,296029,6,0,B|233:231|222:333|336:278,1,227.999993911743,4|0,0:0|0:0,0:0:0:0:
430,134,296404,2,0,P|325:113|275:206,1,227.999993911743,8|0,0:0|0:0,0:0:0:0:
396,337,296779,2,0,P|419:283|404:227,1,113.999996955872,8|0,0:0|0:0,0:0:0:0:
284,103,297029,6,0,L|35:91,1,227.999993911743,12|0,0:0|0:0,0:0:0:0:
12,288,297404,2,0,L|239:277,1,227.999993911743,8|0,0:0|0:0,0:0:0:0:
356,143,297779,2,0,P|365:100|314:30,1,113.999996955872,8|0,0:0|0:0,0:0:0:0:
143,166,298029,6,0,P|223:124|364:148,1,227.999993911743,12|0,0:0|0:0,0:0:0:0:
462,316,298404,2,0,P|352:338|249:292,1,227.999993911743,8|0,0:0|0:0,0:0:0:0:
56,92,298779,2,0,L|73:233,1,113.999996955872,8|0,0:0|0:0,0:0:0:0:
249,292,299029,5,4,0:0:0:0:
453,184,299154,2,0,L|466:70,1,113.999996955872,8|0,0:0|0:0,0:0:0:0:
235,178,299404,2,0,L|248:291,1,113.999996955872,8|0,0:0|0:0,0:0:0:0:
439,297,299654,2,8,L|452:183,2,113.999996955872,8|0|0,0:0|0:0|0:0,0:0:0:0:
395,113,300029,6,0,B|279:153|290:51|176:106,1,227.999993911743,4|0,0:0|0:0,0:0:0:0:
82,250,300404,2,0,P|186:270|236:177,1,227.999993911743,8|0,0:0|0:0,0:0:0:0:
116,47,300779,2,0,P|93:101|108:157,1,113.999996955872,8|0,0:0|0:0,0:0:0:0:
228,281,301029,6,0,L|477:293,1,227.999993911743,12|0,0:0|0:0,0:0:0:0:
500,96,301404,2,0,L|272:106,1,227.999993911743,8|0,0:0|0:0,0:0:0:0:
156,241,301779,2,0,P|147:284|198:354,1,113.999996955872,8|0,0:0|0:0,0:0:0:0:
369,218,302029,6,0,P|289:260|148:236,1,227.999993911743,12|0,0:0|0:0,0:0:0:0:
61,84,302404,2,0,P|170:61|273:107,1,227.999993911743,8|0,0:0|0:0,0:0:0:0:
456,292,302779,2,0,L|439:151,1,113.999996955872,8|0,0:0|0:0,0:0:0:0:
165,278,303029,5,4,0:0:0:0:
352,250,303154,1,8,0:0:0:0:
154,222,303279,1,0,0:0:0:0:
363,194,303404,1,8,0:0:0:0:
143,166,303529,1,8,0:0:0:0:
374,138,303654,1,8,0:0:0:0:
132,110,303779,1,8,0:0:0:0:
384,82,303904,1,8,0:0:0:0:
121,54,304029,6,0,P|99:159|104:263,1,180.000006866455,12|0,0:0|0:0,0:0:0:0:
226,299,304404,2,0,P|248:194|243:90,1,180.000006866455,8|0,0:0|0:0,0:0:0:0:
121,54,304779,2,0,L|12:69,1,90.0000034332277,8|0,0:0|0:0,0:0:0:0:
169,358,305029,6,0,P|225:335|368:353,1,180.000006866455,12|0,0:3|0:0,0:0:0:0:
471,190,305404,2,0,P|382:201|297:173,1,180.000006866455,8|0,0:0|0:0,0:0:0:0:
375,9,305779,2,0,P|395:70|386:126,1,90.0000034332277,8|0,0:0|0:0,0:0:0:0:
203,202,306029,6,0,P|221:116|298:75,1,180.000006866455,12|0,0:3|0:0,0:0:0:0:
195,307,306404,2,0,P|118:265|99:180,1,180.000006866455,8|0,0:0|0:0,0:0:0:0:
290,308,306779,2,0,P|277:350|248:384,1,90.0000034332277,8|0,0:0|0:0,0:0:0:0:
301,201,307029,5,12,0:3:0:0:
301,201,307154,2,0,P|343:213|377:242,1,90.0000034332277,8|0,0:0|0:0,0:0:0:0:
419,71,307404,2,0,P|376:83|342:112,1,90.0000034332277,8|0,0:0|0:0,0:0:0:0:
391,330,307779,5,8,0:0:0:0:
391,330,308029,6,0,P|413:225|408:121,1,180.000006866455,12|0,0:0|0:0,0:0:0:0:
286,85,308404,2,0,P|264:190|269:294,1,180.000006866455,8|0,0:0|0:0,0:0:0:0:
391,330,308779,2,0,L|500:315,1,90.0000034332277,8|0,0:0|0:0,0:0:0:0:
343,26,309029,6,0,P|287:49|144:31,1,180.000006866455,12|0,0:3|0:0,0:0:0:0:
41,194,309404,2,0,P|129:182|214:210,1,180.000006866455,8|0,0:0|0:0,0:0:0:0:
137,375,309779,2,0,P|117:314|126:258,1,90.0000034332277,8|0,0:0|0:0,0:0:0:0:
309,182,310029,6,0,P|290:267|213:308,1,180.000006866455,4|0,0:0|0:0,0:0:0:0:
317,77,310404,2,0,P|393:118|412:203,1,180.000006866455,8|0,0:0|0:0,0:0:0:0:
222,76,310779,2,0,P|234:33|263:0,1,90.0000034332277,8|0,0:0|0:0,0:0:0:0:
211,183,311029,5,12,0:3:0:0:
211,183,311154,2,0,P|168:170|134:141,1,90.0000034332277,8|0,0:0|0:0,0:0:0:0:
25,318,311404,2,0,P|67:305|101:276,1,90.0000034332277,8|0,0:0|0:0,0:0:0:0:
487,318,311779,6,0,P|444:305|410:276,1,90.0000034332277,8|8,0:0|0:0,0:0:0:0:
447,47,312029,6,0,P|479:131|488:221,1,180.000006866455,4|0,0:0|0:0,0:0:0:0:
305,368,312404,2,0,P|313:278|345:194,1,180.000006866455,8|0,0:0|0:0,0:0:0:0:
447,47,312779,2,0,L|307:66,1,90.0000034332277,8|0,0:0|0:0,0:0:0:0:
129,129,313029,6,0,P|106:93|196:35,1,180.000006866455,12|0,0:3|0:0,0:0:0:0:
197,186,313404,2,0,B|146:212|146:212|7:191,1,180.000006866455,8|0,0:0|0:0,0:0:0:0:
5,354,313779,2,0,B|126:335,1,90.0000034332277,8|0,0:0|0:0,0:0:0:0:
252,198,314029,6,0,B|341:160|339:231|426:193,1,180.000006866455,12|0,0:3|0:0,0:0:0:0:
504,49,314404,2,0,P|420:35|378:109,1,180.000006866455,8|0,0:0|0:0,0:0:0:0:
287,336,314779,2,0,P|233:341|192:319,1,90.0000034332277,8|0,0:0|0:0,0:0:0:0:
293,100,315029,5,12,0:3:0:0:
293,100,315154,2,0,P|347:95|388:117,1,90.0000034332277,8|0,0:0|0:0,0:0:0:0:
477,255,315404,2,0,P|435:270|391:264,1,90.0000034332277,8|0,0:0|0:0,0:0:0:0:
201,326,315654,1,0,0:0:0:0:
201,326,315779,2,0,P|159:310|115:316,1,90.0000034332277,8|0,0:0|0:0,0:0:0:0:
98,333,315966,1,0,0:0:0:0:
80,350,316029,6,0,P|47:266|39:176,1,180.000006866455,4|0,0:0|0:0,0:0:0:0:
207,16,316404,2,0,P|198:105|166:189,1,180.000006866455,8|0,0:0|0:0,0:0:0:0:
65,337,316779,2,0,L|205:318,1,90.0000034332277,8|0,0:0|0:0,0:0:0:0:
383,255,317029,6,0,P|406:291|316:349,1,180.000006866455,12|0,0:3|0:0,0:0:0:0:
315,198,317404,2,0,B|366:172|366:172|505:193,1,180.000006866455,8|0,0:0|0:0,0:0:0:0:
507,30,317779,2,0,B|385:48,1,90.0000034332277,8|0,0:0|0:0,0:0:0:0:
256,122,318029,6,0,B|167:160|169:89|82:127,1,180.000006866455,12|0,0:3|0:0,0:0:0:0:
3,270,318404,2,0,P|87:283|129:210,1,180.000006866455,8|0,0:0|0:0,0:0:0:0:
225,48,318779,2,0,P|279:43|320:65,1,90.0000034332277,8|0,0:0|0:0,0:0:0:0:
215,220,319029,5,12,0:3:0:0:
215,220,319154,2,0,P|161:225|120:203,1,90.0000034332277,8|0,0:0|0:0,0:0:0:0:
83,127,319404,2,0,P|124:111|168:117,1,90.0000034332277,8|0,0:0|0:0,0:0:0:0:
434,312,319779,2,0,P|389:318|348:302,1,90.0000034332277,8|8,0:0|0:0,0:0:0:0:
305,216,320029,5,4,0:0:0:0:
305,216,320404,2,8,P|248:191|132:193,1,180
16,267,321029,6,0,P|31:226|23:123,1,120,12|0,0:3|0:0,0:0:0:0:
3,83,321404,2,8,P|60:108|176:106,1,180
277,28,322029,6,8,P|366:20|449:51,2,180,12|8|8,0:3|0:0|0:0,0:0:0:0:
175,106,323029,5,12,0:3:0:0:
175,106,323154,2,0,P|171:153|214:224,1,120,8|8,0:0|0:0,0:0:0:0:
278,201,323529,2,0,P|279:141|248:91,1,120,0|8,0:0|0:0,0:0:0:0:
175,106,323904,1,0,0:0:0:0:
175,106,324029,5,4,0:0:0:0:
175,106,324404,2,8,P|232:131|348:129,1,180
410,98,324904,1,8,0:3:0:0:
464,55,325029,6,0,P|449:96|457:199,1,120,12|0,0:3|0:0,0:0:0:0:
477,239,325404,2,8,P|420:214|304:216,1,180
203,294,326029,6,8,P|113:301|30:270,2,180,12|8|8,0:3|0:0|0:0,0:0:0:0:
305,216,327029,1,12,0:3:0:0:
305,216,327154,2,0,P|309:169|266:98,1,120,8|8,0:0|0:0,0:0:0:0:
202,121,327529,2,0,P|200:180|231:230,1,120,0|8,0:0|0:0,0:0:0:0:
329,321,327904,1,12,0:3:0:0:
329,321,327966,1,12,0:3:0:0:
329,321,328029,6,0,L|208:342,1,120,12|0,0:3|0:0,0:0:0:0:
161,284,328404,2,0,L|40:305,1,120,8|0,0:0|0:0,0:0:0:0:
2,240,328779,1,8,0:0:0:0:
34,84,329029,6,0,L|155:63,1,120,12|0,0:3|0:0,0:0:0:0:
202,121,329404,2,0,L|323:100,1,120,8|0,0:0|0:0,0:0:0:0:
361,165,329779,1,8,0:0:0:0:
384,360,330029,6,0,P|437:290|433:196,2,180,12|8|8,0:3|0:0|0:0,0:0:0:0:
259,305,331029,1,0,0:0:0:0:
259,305,331154,2,0,P|204:288|129:293,1,120,8|8,0:0|0:0,0:0:0:0:
71,209,331529,2,0,P|130:211|187:193,1,120,0|8,0:0|0:0,0:0:0:0:
183,63,332029,6,0,L|304:42,1,120,12|0,0:3|0:0,0:0:0:0:
351,100,332404,2,0,L|472:79,1,120,8|0,0:0|0:0,0:0:0:0:
510,144,332779,1,8,0:0:0:0:
478,300,333029,6,0,L|357:321,1,120,12|0,0:3|0:0,0:0:0:0:
310,263,333404,2,0,L|189:284,1,120,8|0,0:0|0:0,0:0:0:0:
151,219,333779,1,8,0:0:0:0:
128,24,334029,6,0,P|75:94|79:188,2,180,12|8|8,0:3|0:0|0:0,0:0:0:0:
253,79,335029,5,12,0:3:0:0:
306,146,335154,1,8,0:1:0:0:
306,146,335216,1,12,0:3:0:0:
306,146,335279,1,12,0:3:0:0:
221,158,335404,1,8,0:1:0:0:
253,79,335529,1,12,0:3:0:0:
306,146,335654,1,12,0:3:0:0:
274,225,335779,1,8,0:1:0:0:
189,237,335904,1,6,0:2:0:0:
