osu file format v14

[General]
AudioFilename: 01. .mp3
AudioLeadIn: 0
PreviewTime: 87475
Countdown: 0
SampleSet: None
StackLeniency: 0.7
Mode: 3
LetterboxInBreaks: 0
SpecialStyle: 0
WidescreenStoryboard: 1

[Editor]
Bookmarks: 107975,209975
DistanceSpacing: 1.3
BeatDivisor: 4
GridSize: 4
TimelineZoom: 2.599999

[Metadata]
Title:TOKIO FUNKA
TitleUnicode:トキヲ・ファンカ
Artist:takamatt feat. GUMI
ArtistUnicode:takamatt feat. GUMI
Creator:-Kamikaze-
Version:Mid-Summer Marathon
Source:
Tags:Evening lZenxl Z3nx Kami ajeemaniz ExUsagi LordRaika 7K oriental dubstep E.P. かごめP Kagome-P イーストエンド・パンデモニウム East End Pandemonium Happy Party☆彡 VOCA NICO☆PARTY EXIT TUNES PRESENTS GUMity from Megpoid VOCALOID 3
BeatmapID:1144249
BeatmapSetID:539611

[Difficulty]
HPDrainRate:8
CircleSize:7
OverallDifficulty:9
ApproachRate:5
SliderMultiplier:1.4
SliderTickRate:1

[Events]
//Background and Video events
0,0,"xXx_Sample_Background_xXx.jpg",0,0
Video,91,"vid.avi"
//Break Periods
//Storyboard Layer 0 (Background)
//Storyboard Layer 1 (Fail)
//Storyboard Layer 2 (Pass)
//Storyboard Layer 3 (Foreground)
//Storyboard Sound Samples
Sample,1029,0,"LR3_GreatDrum.wav",100
Sample,2029,0,"LR3_GreatDrum.wav",100
Sample,3029,0,"LR3_GreatDrum.wav",100
Sample,3529,0,"LR3_GreatDrum.wav",100
Sample,4029,0,"LR3_GreatDrum.wav",100
Sample,17779,0,"LR_Kick Drum Fast.wav",35
Sample,28654,0,"LR_Clap hollow echo.wav",44
Sample,28779,0,"LR_Clap hollow echo.wav",44
Sample,28904,0,"LR_Clap hollow echo.wav",44
Sample,31529,0,"LR_Kick Beat 2.wav",100
Sample,45966,0,"LR3_AGG F5.wav",40
Sample,50279,0,"LR3_AGG C6.wav",28
Sample,53904,0,"LR3_AGG F5.wav",45
Sample,54529,0,"LR3_AGG C6.wav",45
Sample,55279,0,"LR_Drum Barrel Finish.wav",33
Sample,56029,0,"LR_Drum Barrel Finish.wav",33
Sample,60529,0,"LR_Kick Drum Fast.wav",78
Sample,60529,0,"LR_Drum Barrel Finish.wav",22
Sample,60779,0,"LR_Snare Fast.wav",40
Sample,60779,0,"LR_Clap hollow echo.wav",66
Sample,61529,0,"LR_Drum Barrel Finish.wav",22
Sample,61529,0,"LR_Kick Drum Fast.wav",78
Sample,61779,0,"LR_Snare Fast.wav",50
Sample,61779,0,"LR_Clap hollow echo.wav",50
Sample,67404,0,"LR_Clap hollow echo.wav",66
Sample,67404,0,"LR_Snare Fast.wav",40
Sample,69529,0,"LR_Kick Drum Fast.wav",78
Sample,69529,0,"LR_Drum Barrel Finish.wav",22
Sample,69779,0,"LR_Clap hollow echo.wav",50
Sample,69779,0,"LR_Snare Fast.wav",50
Sample,70404,0,"LR_Snare Fast.wav",50
Sample,75060,0,"LR_Snare Fast.wav",30
Sample,82779,0,"LR_Snare Fast.wav",30
Sample,83029,0,"LR_Snare Fast.wav",30
Sample,83779,0,"LR_Kick Loud Bass Drop.wav",40
Sample,84029,0,"LR_Kick Loud Bass Drop.wav",40
Sample,85029,0,"LR_Snare Fast.wav",40
Sample,120029,0,"LR3_GrowlLRFOFF.wav",50
Sample,120029,0,"LR3_GrowlWSL.wav",66
Sample,123529,0,"LR3_GrowlBassDFM.wav",45
Sample,157029,0,"LR3_KFDF.wav",40
Sample,157029,0,"LR_Chm Whistle Short.wav",36
Sample,157529,0,"LR3_SWDSH.wav",25
Sample,159279,0,"LR_Snare Hat 2.wav",18
Sample,160279,0,"LR_Drum J Hit Med Bass.wav",44
Sample,160279,0,"LR_J Hit Pong.wav",44
Sample,160779,0,"LR_Drum J Hit Med Bass.wav",44
Sample,160779,0,"LR_J Hit Pong.wav",44
Sample,161029,0,"LR_Kick Beat 2.wav",40
Sample,161029,0,"LR3_KFDF.wav",23
Sample,161529,0,"LR_Chm loong.wav",18
Sample,161529,0,"LR3_SWDSH.wav",13
Sample,161779,0,"LR_J Hit Pong.wav",44
Sample,161779,0,"LR_Drum J Hit Med Bass.wav",44
Sample,162029,0,"LR_Kick Beat 2.wav",40
Sample,162279,0,"LR_Drum J Hit Med Bass.wav",44
Sample,162279,0,"LR_J Hit Pong.wav",44
Sample,162527,0,"LR_Kick Beat 2.wav",40
Sample,162777,0,"LR_J Hit Pong.wav",44
Sample,162777,0,"LR_Drum J Hit Med Bass.wav",44
Sample,163216,0,"LR_Clap kick.wav",35
Sample,163216,0,"LR_Clap hollow echo.wav",35
Sample,163216,0,"LR_Clap Kick Fast Low Beat.wav",35
Sample,163404,0,"LR_Clap Kick Fast Low Beat.wav",35
Sample,163779,0,"LR_Clap Kick Fast Low Beat.wav",35
Sample,164779,0,"LR_Clap Kick Fast Low Beat.wav",50
Sample,165029,0,"LR_Kick Beat 2.wav",40
Sample,165404,0,"LR_Clap Kick Fast Low Beat.wav",50
Sample,165529,0,"LR_Kick Beat 2.wav",40
Sample,165779,0,"LR_Clap Kick Fast Low Beat.wav",50
Sample,166027,0,"LR_Kick Beat 2.wav",40
Sample,166404,0,"LR_Clap Kick Fast Low Beat.wav",50
Sample,166529,0,"LR_Kick Beat 2.wav",40
Sample,166779,0,"LR_Clap Kick Fast Low Beat.wav",70
Sample,167029,0,"LR_Kick Beat 2.wav",40
Sample,167154,0,"LR_Clap Kick Fast Low Beat.wav",70
Sample,167529,0,"LR_Kick Beat 2.wav",40
Sample,167779,0,"LR_Clap Kick Fast Low Beat.wav",70
Sample,168029,0,"LR_Kick Beat 2.wav",40
Sample,168279,0,"LR_Drum J Hit Med Bass.wav",44
Sample,168279,0,"LR_J Hit Pong.wav",44
Sample,168404,0,"LR_Clap Kick Fast Low Beat.wav",70
Sample,168529,0,"LR_Kick Beat 2.wav",40
Sample,168779,0,"LR_Clap Kick Fast Low Beat.wav",70
Sample,168779,0,"LR_J Hit Pong.wav",44
Sample,168779,0,"LR_Drum J Hit Med Bass.wav",44
Sample,169029,0,"LR_Kick Beat 2.wav",40
Sample,169029,0,"LR3_KFDF.wav",23
Sample,169279,0,"LR_J Hit Pong.wav",44
Sample,169279,0,"LR_Drum J Hit Med Bass.wav",44
Sample,169404,0,"LR_Clap Kick Fast Low Beat.wav",70
Sample,169529,0,"LR_Chm loong.wav",18
Sample,169529,0,"LR_Kick Beat 2.wav",40
Sample,169529,0,"LR3_SWDSH.wav",13
Sample,169779,0,"LR_Clap Kick Fast Low Beat.wav",70
Sample,169779,0,"LR_Drum J Hit Med Bass.wav",44
Sample,169779,0,"LR_J Hit Pong.wav",44
Sample,170029,0,"LR_Kick Beat 2.wav",40
Sample,170279,0,"LR_Drum J Hit Med Bass.wav",44
Sample,170279,0,"LR_J Hit Pong.wav",44
Sample,170404,0,"LR_Clap Kick Fast Low Beat.wav",70
Sample,170529,0,"LR_Kick Beat 2.wav",40
Sample,170779,0,"LR_Drum J Hit Med Bass.wav",44
Sample,170779,0,"LR_Clap Kick Fast Low Beat.wav",70
Sample,170779,0,"LR_J Hit Pong.wav",44
Sample,171216,0,"LR_Clap hollow echo.wav",35
Sample,171216,0,"LR_Clap kick.wav",35
Sample,171216,0,"LR_Clap Kick Fast Low Beat.wav",35
Sample,171404,0,"LR_Clap Kick Fast Low Beat.wav",35
Sample,171779,0,"LR_Clap Kick Fast Low Beat.wav",35
Sample,172029,0,"LR3_SSXFG.wav",24
Sample,172779,0,"LR3_SSXFG.wav",24
Sample,173402,0,"LR_Drum Rim Fast.wav",50
Sample,174029,0,"LR3_SSXFG.wav",24
Sample,174779,0,"LR3_SSXFG.wav",24
Sample,176029,0,"LR3_SSXFG.wav",24
Sample,176779,0,"LR3_SSXFG.wav",24
Sample,178029,0,"LR3_SSXFG.wav",24
Sample,178779,0,"LR3_SSXFG.wav",24
Sample,179154,0,"LR_Snare Hat 2.wav",45
Sample,179404,0,"LR_Snare Hat 2.wav",45
Sample,180029,0,"LR3_SSXFG.wav",24
Sample,180404,0,"LR_Drum Rim Fast.wav",45
Sample,180779,0,"LR3_SSXFG.wav",24
Sample,182029,0,"LR3_SSXFG.wav",24
Sample,182404,0,"LR_Drum Rim Fast.wav",45
Sample,182779,0,"LR3_SSXFG.wav",24
Sample,182779,0,"LR_Drum Rim Fast.wav",45
Sample,183154,0,"LR_Drum Rim Fast.wav",45
Sample,184029,0,"LR3_SSXFG.wav",24
Sample,184779,0,"LR3_SSXFG.wav",24
Sample,184779,0,"LR_Drum Rim Fast.wav",45
Sample,185404,0,"LR_Drum Rim Fast.wav",45
Sample,186029,0,"LR3_SSXFG.wav",24
Sample,186779,0,"LR3_SSXFG.wav",24
Sample,187404,0,"LR_Drum Rim Fast.wav",45
Sample,188029,0,"LR3_SSXFG.wav",24
Sample,188779,0,"LR3_SSXFG.wav",24
Sample,190029,0,"LR3_SSXFG.wav",24
Sample,190779,0,"LR3_SSXFG.wav",24
Sample,191154,0,"LR_Drum Rim Fast.wav",45
Sample,191154,0,"LR_Snare Hat 2.wav",45
Sample,191404,0,"LR_Drum Rim Fast.wav",45
Sample,191404,0,"LR_Snare Hat 2.wav",45
Sample,192029,0,"LR3_SSXFG.wav",24
Sample,192779,0,"LR3_SSXFG.wav",24
Sample,193029,0,"LR_Drum Rim Fast.wav",75
Sample,194029,0,"LR3_SSXFG.wav",24
Sample,194779,0,"LR3_SSXFG.wav",24
Sample,195779,0,"LR_Clap Kick Fast Low Beat.wav",80
Sample,196029,0,"LR3_SSXFG.wav",24
Sample,196779,0,"LR3_SSXFG.wav",24
Sample,197529,0,"LR_Drum Rim Fast.wav",75
Sample,198029,0,"LR3_SSXFG.wav",24
Sample,198779,0,"LR3_SSXFG.wav",24
Sample,200029,0,"LR3_SSXFG.wav",24
Sample,200779,0,"LR3_SSXFG.wav",24
Sample,201279,0,"LR_Snare Fast.wav",22
Sample,201404,0,"LR_Drum Rim Fast.wav",45
Sample,202029,0,"LR3_SSXFG.wav",24
Sample,202779,0,"LR3_SSXFG.wav",24
Sample,223029,0,"LR3_GreatDrum.wav",80
Sample,255029,0,"LR_Kick Loud Bass Drop.wav",33
Sample,255154,0,"LR_Clap hollow echo.wav",23
Sample,255154,0,"LR_Clap Kick Fast Low Beat.wav",28
Sample,255279,0,"LR_Clap Kick Fast Low Beat.wav",28
Sample,255279,0,"LR_Clap hollow echo.wav",23
Sample,255404,0,"LR_Clap Kick Fast Low Beat.wav",28
Sample,255404,0,"LR_Clap hollow echo.wav",23
Sample,255529,0,"LR_Clap hollow echo.wav",23
Sample,255529,0,"LR_Clap Kick Fast Low Beat.wav",28
Sample,255654,0,"LR_Clap Kick Fast Low Beat.wav",28
Sample,255654,0,"LR_Clap hollow echo.wav",23
Sample,255779,0,"LR_Clap hollow echo.wav",23
Sample,255779,0,"LR_Clap Kick Fast Low Beat.wav",28
Sample,255904,0,"LR_Clap Kick Fast Low Beat.wav",28
Sample,255904,0,"LR_Clap hollow echo.wav",23
Sample,256029,0,"LR_Clap Kick Fast Low Beat.wav",28
Sample,263404,0,"LR3_GrowlMRFL.wav",33
Sample,263529,0,"LR_Kick Loud Bass Drop.wav",28
Sample,263529,0,"LR_Clap Kick Fast Low Beat.wav",34
Sample,263529,0,"LR_Clap kick.wav",24
Sample,263654,0,"LR_Clap kick.wav",24
Sample,263654,0,"LR_Clap Kick Fast Low Beat.wav",34
Sample,263779,0,"LR_Kick Loud Bass Drop.wav",28
Sample,263779,0,"LR_Clap kick.wav",24
Sample,263779,0,"LR_Clap Kick Fast Low Beat.wav",34
Sample,263904,0,"LR_Clap Kick Fast Low Beat.wav",34
Sample,263904,0,"LR_Clap kick.wav",24
Sample,263904,0,"LR_Drum J Hit Med Bass.wav",33
Sample,264029,0,"LR_Clap Kick Fast Low Beat.wav",34
Sample,264029,0,"LR_Kick Loud Bass Drop.wav",28
Sample,264029,0,"LR_Clap kick.wav",24
Sample,271779,0,"LR3_GrowlRRL.wav",100
Sample,272404,0,"LR_Clap Kick Fast Low Beat.wav",50
Sample,272779,0,"LR_Clap Kick Fast Low Beat.wav",50
Sample,272779,0,"LR_Drum Rim Fast.wav",50
Sample,273404,0,"LR_Drum Rim Fast.wav",50
Sample,273404,0,"LR_Clap kick.wav",50
Sample,273404,0,"LR_Clap Kick Fast Low Beat.wav",50
Sample,273779,0,"LR_Clap Kick Fast Low Beat.wav",50
Sample,273779,0,"LR_Clap kick.wav",44
Sample,274404,0,"LR_Clap Kick Fast Low Beat.wav",50
Sample,274779,0,"LR_Clap Kick Fast Low Beat.wav",50
Sample,274779,0,"LR_Drum Rim Fast.wav",50
Sample,275154,0,"LR_Clap Kick Fast Low Beat.wav",50
Sample,275404,0,"LR_Clap Kick Fast Low Beat.wav",50
Sample,275779,0,"LR_Clap kick.wav",50
Sample,275779,0,"LR_Clap Kick Fast Low Beat.wav",50
Sample,276404,0,"LR_Clap Kick Fast Low Beat.wav",50
Sample,276779,0,"LR_Clap Kick Fast Low Beat.wav",50
Sample,277029,0,"LR_Kick Beat 2.wav",30
Sample,277404,0,"LR_Clap Kick Fast Low Beat.wav",50
Sample,277404,0,"LR_Clap kick.wav",50
Sample,277779,0,"LR_Clap kick.wav",44
Sample,278404,0,"LR_Clap kick.wav",50
Sample,278404,0,"LR_Clap Kick Fast Low Beat.wav",50
Sample,278779,0,"LR_Clap hollow echo.wav",50
Sample,278779,0,"LR_Clap kick.wav",50
Sample,279154,0,"LR_Clap kick.wav",50
Sample,279154,0,"LR_Clap hollow echo.wav",50
Sample,279404,0,"LR_Clap kick.wav",50
Sample,279404,0,"LR_Clap hollow echo.wav",50
Sample,279529,0,"LR_Kick Beat 2.wav",30
Sample,279779,0,"LR_Clap hollow echo.wav",50
Sample,279779,0,"LR_Clap kick.wav",50
Sample,280404,0,"LR_Clap Kick Fast Low Beat.wav",50
Sample,280529,0,"LR_Kick Beat 2.wav",30
Sample,281279,0,"LR_Drum Rim Fast.wav",50
Sample,281404,0,"LR_Clap Kick Fast Low Beat.wav",50
Sample,281779,0,"LR_Clap Kick Fast Low Beat.wav",50
Sample,282404,0,"LR_Clap Kick Fast Low Beat.wav",50
Sample,282779,0,"LR_Clap Kick Fast Low Beat.wav",50
Sample,283029,0,"LR_Drum Rim Fast.wav",60
Sample,283154,0,"LR_Clap Kick Fast Low Beat.wav",50
Sample,283154,0,"LR_Clap hollow echo.wav",50
Sample,283404,0,"LR_Clap Kick Fast Low Beat.wav",50
Sample,283404,0,"LR_Drum Rim Fast.wav",50
Sample,283404,0,"LR_Clap hollow echo.wav",50
Sample,283779,0,"LR_Clap kick.wav",50
Sample,283779,0,"LR_Clap Kick Fast Low Beat.wav",50
Sample,284404,0,"LR_Clap Kick Fast Low Beat.wav",50
Sample,284404,0,"LR_Clap hollow echo.wav",50
Sample,284779,0,"LR_Drum Rim Fast.wav",50
Sample,284779,0,"LR_Clap Kick Fast Low Beat.wav",50
Sample,285404,0,"LR_Clap Kick Fast Low Beat.wav",50
Sample,285404,0,"LR_Drum Rim Fast.wav",50
Sample,285529,0,"LR_Kick Beat 2.wav",30
Sample,285779,0,"LR_Clap Kick Fast Low Beat.wav",50
Sample,285779,0,"LR_Clap kick.wav",50
Sample,286029,0,"LR_Kick Beat 2.wav",30
Sample,286404,0,"LR_Clap Kick Fast Low Beat.wav",50
Sample,286404,0,"LR_Clap kick.wav",50
Sample,286529,0,"LR_Kick Beat 2.wav",30
Sample,286779,0,"LR_Clap kick.wav",50
Sample,286779,0,"LR_Clap Kick Fast Low Beat.wav",50
Sample,287029,0,"LR_Kick Beat 2.wav",30
Sample,287154,0,"LR_Clap Kick Fast Low Beat.wav",50
Sample,287154,0,"LR_Clap kick.wav",50
Sample,287404,0,"LR_Clap kick.wav",50
Sample,287404,0,"LR_Clap Kick Fast Low Beat.wav",50
Sample,287529,0,"LR_Kick Beat 2.wav",30
Sample,287779,0,"LR_Clap kick.wav",44
Sample,288404,0,"LR_Clap kick.wav",50
Sample,288404,0,"LR_Clap Kick Fast Low Beat.wav",50
Sample,288779,0,"LR_Clap kick.wav",44
Sample,289029,0,"LR_Kick Beat 2.wav",30
Sample,289279,0,"LR_Snare Hat 2.wav",50
Sample,289404,0,"LR_Clap kick.wav",50
Sample,289404,0,"LR_Clap Kick Fast Low Beat.wav",50
Sample,290404,0,"LR_Clap Kick Fast Low Beat.wav",50
Sample,290779,0,"LR_Clap Kick Fast Low Beat.wav",50
Sample,290779,0,"LR_Drum Rim Fast.wav",50
Sample,291029,0,"LR_Drum Rim Fast.wav",30
Sample,291154,0,"LR_Clap Kick Fast Low Beat.wav",50
Sample,291154,0,"LR_Drum Rim Fast.wav",50
Sample,291404,0,"LR_Clap Kick Fast Low Beat.wav",50
Sample,291529,0,"LR_Kick Beat 2.wav",30
Sample,292279,0,"LR_Drum Rim Fast.wav",56
Sample,292404,0,"LR_Clap hollow echo.wav",50
Sample,292404,0,"LR_Clap Kick Fast Low Beat.wav",50
Sample,292779,0,"LR_Drum Rim Fast.wav",50
Sample,293779,0,"LR_Kick Beat 2.wav",44
Sample,293779,0,"LR_Kick Drum Fast.wav",44
Sample,294404,0,"LR_Drum Rim Fast.wav",50
Sample,294404,0,"LR_Clap Kick Fast Low Beat.wav",50
Sample,294779,0,"LR_Drum Rim Fast.wav",51
Sample,294779,0,"LR_Clap kick.wav",44
Sample,295154,0,"LR_Clap kick.wav",50
Sample,295154,0,"LR_Clap Kick Fast Low Beat.wav",50
Sample,295404,0,"LR_Clap Kick Fast Low Beat.wav",50
Sample,295404,0,"LR_Clap kick.wav",50
Sample,295529,0,"LR_Kick Beat 2.wav",30
Sample,295779,0,"LR_Clap kick.wav",44
Sample,295779,0,"LR_Kick Beat 2.wav",30
Sample,296404,0,"LR_Clap Kick Fast Low Beat.wav",50
Sample,296404,0,"LR_Clap kick.wav",50
Sample,296779,0,"LR_Drum Rim Fast.wav",50
Sample,296779,0,"LR_Clap Kick Fast Low Beat.wav",50
Sample,297404,0,"LR_Drum Rim Fast.wav",50
Sample,297404,0,"LR_Clap Kick Fast Low Beat.wav",50
Sample,297404,0,"LR_Clap kick.wav",50
Sample,297779,0,"LR_Clap Kick Fast Low Beat.wav",50
Sample,297779,0,"LR_Clap hollow echo.wav",50
Sample,297779,0,"LR_Drum Rim Fast.wav",50
Sample,298404,0,"LR_Clap Kick Fast Low Beat.wav",50
Sample,298404,0,"LR_Drum Rim Fast.wav",50
Sample,298404,0,"LR_Clap kick.wav",50
Sample,298779,0,"LR_Clap kick.wav",50
Sample,298779,0,"LR_Clap Kick Fast Low Beat.wav",50
Sample,298779,0,"LR_Drum Rim Fast.wav",50
Sample,299154,0,"LR_Clap kick.wav",50
Sample,299154,0,"LR_Drum Rim Fast.wav",50
Sample,299154,0,"LR_Clap Kick Fast Low Beat.wav",50
Sample,299404,0,"LR_Clap Kick Fast Low Beat.wav",50
Sample,299404,0,"LR_Clap kick.wav",50
Sample,299404,0,"LR_Drum Rim Fast.wav",50
Sample,299779,0,"LR_Clap Kick Fast Low Beat.wav",50
Sample,299779,0,"LR_Clap kick.wav",50
Sample,300404,0,"LR_Clap Kick Fast Low Beat.wav",50
Sample,300404,0,"LR_Clap hollow echo.wav",50
Sample,300779,0,"LR_Clap Kick Fast Low Beat.wav",50
Sample,300779,0,"LR_Drum Rim Fast.wav",50
Sample,301404,0,"LR_Clap kick.wav",50
Sample,301404,0,"LR_Clap Kick Fast Low Beat.wav",50
Sample,301529,0,"LR_Kick Beat 2.wav",60
Sample,301779,0,"LR_Clap kick.wav",50
Sample,301779,0,"LR_Clap Kick Fast Low Beat.wav",50
Sample,302404,0,"LR_Clap Kick Fast Low Beat.wav",50
Sample,302779,0,"LR_Drum Rim Fast.wav",50
Sample,302779,0,"LR_Clap Kick Fast Low Beat.wav",50
Sample,303154,0,"LR_Drum Rim Fast.wav",50
Sample,303154,0,"LR_Clap Kick Fast Low Beat.wav",50
Sample,303404,0,"LR_Clap Kick Fast Low Beat.wav",50
Sample,303404,0,"LR_Drum Rim Fast.wav",50
Sample,303779,0,"LR_Clap Kick Fast Low Beat.wav",50
Sample,303779,0,"LR_Clap kick.wav",50
Sample,304029,0,"LR_Drum Barrel Finish.wav",33
Sample,305029,0,"LR3_KFDF.wav",33
Sample,307154,0,"LR_Clap kick.wav",44
Sample,307404,0,"LR_Clap kick.wav",44
Sample,308779,0,"LR_Clap kick.wav",44
Sample,309029,0,"LR3_KFDF.wav",33
Sample,309529,0,"LR3_SWDSH.wav",14
Sample,309529,0,"LR_Chm loong.wav",18
Sample,310404,0,"LR_Clap Kick Fast Low Beat.wav",35
Sample,311154,0,"LR_Clap kick.wav",44
Sample,311779,0,"LR_Clap kick.wav",44
Sample,312404,0,"LR_Clap Kick Fast Low Beat.wav",35
Sample,313029,0,"LR3_KFDF.wav",33
Sample,313529,0,"LR3_SWDSH.wav",14
Sample,313529,0,"LR_Chm loong.wav",18
Sample,314404,0,"LR_Clap Kick Fast Low Beat.wav",35
Sample,315154,0,"LR_Clap Kick Fast Low Beat.wav",35
Sample,315404,0,"LR_Clap Kick Fast Low Beat.wav",35
Sample,315779,0,"LR_Clap Kick Fast Low Beat.wav",35
Sample,316404,0,"LR_Clap Kick Fast Low Beat.wav",35
Sample,316779,0,"LR_Clap Kick Fast Low Beat.wav",35
Sample,317029,0,"LR3_KFDF.wav",23
Sample,317404,0,"LR_Clap Kick Fast Low Beat.wav",35
Sample,317529,0,"LR_Chm loong.wav",18
Sample,317529,0,"LR3_SWDSH.wav",14
Sample,318404,0,"LR_Clap Kick Fast Low Beat.wav",35
Sample,318779,0,"LR_Clap Kick Fast Low Beat.wav",35
Sample,319154,0,"LR_Clap kick.wav",44
Sample,319779,0,"LR_Clap kick.wav",44
Sample,321529,0,"LR_Chm loong.wav",18
Sample,321529,0,"LR3_SWDSH.wav",14
Sample,325529,0,"LR3_SWDSH.wav",14
Sample,325529,0,"LR_Chm loong.wav",18
Sample,329529,0,"LR3_SWDSH.wav",14
Sample,329529,0,"LR_Chm loong.wav",18
Sample,333529,0,"LR3_SWDSH.wav",14
Sample,335904,0,"LR_Chm loong.wav",25

[TimingPoints]
1029,500,4,3,69,45,1,0
35029,-133.333333333333,4,3,69,45,0,0
38904,-166.666666666667,4,3,69,45,0,0
39779,-200,4,3,69,45,0,0
39966,-111.111111111111,4,3,69,45,0,0
40029,500,4,3,69,45,1,0
72029,-111.111111111111,4,3,69,45,0,0
79029,-74.0740740740741,4,3,69,45,0,0
79091,-222.222222222222,4,3,69,45,0,0
79154,-74.0740740740741,4,3,69,45,0,0
79216,-222.222222222222,4,3,69,45,0,0
79279,-74.0740740740741,4,3,69,45,0,0
79341,-222.222222222222,4,3,69,45,0,0
79404,-74.0740740740741,4,3,69,45,0,0
79466,-222.222222222222,4,3,69,45,0,0
79529,-74.0740740740741,4,3,69,45,0,0
79591,-222.222222222222,4,3,69,45,0,0
79654,-74.0740740740741,4,3,69,45,0,0
79716,-222.222222222222,4,3,69,45,0,0
79779,-74.0740740740741,4,3,69,45,0,0
79841,-222.222222222222,4,3,69,45,0,0
79904,-66.6666666666667,4,3,69,45,0,0
79966,-200,4,3,69,45,0,0
80029,-60.6060606060606,4,3,69,45,0,0
80091,-181.818181818182,4,3,69,45,0,0
80154,-60.6060606060606,4,3,69,45,0,0
80216,-181.818181818182,4,3,69,45,0,0
80279,-60.6060606060606,4,3,69,45,0,0
80341,-181.818181818182,4,3,69,45,0,0
80404,-60.6060606060606,4,3,69,45,0,0
80529,-76.9230769230769,4,3,69,45,0,0
81029,-111.111111111111,4,3,69,45,0,0
86029,-66.6666666666667,4,3,69,45,0,0
86091,-142.857142857143,4,3,69,45,0,0
86154,-66.6666666666667,4,3,69,45,0,0
86216,-142.857142857143,4,3,69,45,0,0
86279,-66.6666666666667,4,3,69,45,0,0
86341,-100,4,3,69,45,0,0
86779,-66.6666666666667,4,3,69,45,0,0
86841,-142.857142857143,4,3,69,45,0,0
86904,-66.6666666666667,4,3,69,45,0,0
86966,-100,4,3,69,45,0,0
87154,-66.6666666666667,4,3,69,45,0,0
87216,-142.857142857143,4,3,69,45,0,0
87279,-66.6666666666667,4,3,69,45,0,0
87341,-100,4,3,69,45,0,0
87529,-66.6666666666667,4,3,69,45,0,0
87591,-142.857142857143,4,3,69,45,0,0
87654,-66.6666666666667,4,3,69,45,0,0
87716,-142.857142857143,4,3,69,45,0,0
87779,-66.6666666666667,4,3,69,45,0,0
87841,-142.857142857143,4,3,69,45,0,0
87904,-66.6666666666667,4,3,69,45,0,0
87966,-142.857142857143,4,3,69,45,0,0
88029,-100,4,3,69,45,0,1
93654,-66.6666666666667,4,3,69,45,0,1
93716,-200,4,3,69,45,0,1
93779,-66.6666666666667,4,3,69,45,0,1
93841,-200,4,3,69,45,0,1
93904,-66.6666666666667,4,3,69,45,0,1
93966,-200,4,3,69,45,0,1
94029,-66.6666666666667,4,3,69,45,0,1
94091,-200,4,3,69,45,0,1
94154,-66.6666666666667,4,3,69,45,0,1
94216,-200,4,3,69,45,0,1
94279,-66.6666666666667,4,3,69,45,0,1
94341,-200,4,3,69,45,0,1
94404,-66.6666666666667,4,3,69,45,0,1
94466,-200,4,3,69,45,0,1
94529,-66.6666666666667,4,3,69,45,0,1
94591,-200,4,3,69,45,0,1
94654,-66.6666666666667,4,3,69,45,0,1
94716,-200,4,3,69,45,0,1
94779,-66.6666666666667,4,3,69,45,0,1
94841,-200,4,3,69,45,0,1
94904,-66.6666666666667,4,3,69,45,0,1
94966,-200,4,3,69,45,0,1
95029,-66.6666666666667,4,3,69,45,0,1
95091,-200,4,3,69,45,0,1
95154,-66.6666666666667,4,3,69,45,0,1
95216,-200,4,3,69,45,0,1
95279,-66.6666666666667,4,3,69,45,0,1
95341,-200,4,3,69,45,0,1
95404,-66.6666666666667,4,3,69,45,0,1
95466,-200,4,3,69,45,0,1
95529,-66.6666666666667,4,3,69,45,0,1
95591,-200,4,3,69,45,0,1
95654,-66.6666666666667,4,3,69,45,0,1
95716,-200,4,3,69,45,0,1
95779,-66.6666666666667,4,3,69,45,0,1
95841,-200,4,3,69,45,0,1
95904,-66.6666666666667,4,3,69,45,0,1
95966,-200,4,3,69,45,0,1
96029,-100,4,3,69,45,0,1
101654,-66.6666666666667,4,3,69,45,0,1
101716,-200,4,3,69,45,0,1
101779,-66.6666666666667,4,3,69,45,0,1
101841,-200,4,3,69,45,0,1
101904,-66.6666666666667,4,3,69,45,0,1
101966,-200,4,3,69,45,0,1
102029,-66.6666666666667,4,3,69,45,0,1
102091,-200,4,3,69,45,0,1
102154,-66.6666666666667,4,3,69,45,0,1
102216,-200,4,3,69,45,0,1
102279,-66.6666666666667,4,3,69,45,0,1
102341,-200,4,3,69,45,0,1
102404,-66.6666666666667,4,3,69,45,0,1
102466,-200,4,3,69,45,0,1
102529,-66.6666666666667,4,3,69,45,0,1
102591,-200,4,3,69,45,0,1
102654,-66.6666666666667,4,3,69,45,0,1
102716,-200,4,3,69,45,0,1
102779,-66.6666666666667,4,3,69,45,0,1
102841,-200,4,3,69,45,0,1
102904,-66.6666666666667,4,3,69,45,0,1
102966,-200,4,3,69,45,0,1
103029,-66.6666666666667,4,3,69,45,0,1
103091,-200,4,3,69,45,0,1
103154,-66.6666666666667,4,3,69,45,0,1
103216,-200,4,3,69,45,0,1
103279,-66.6666666666667,4,3,69,45,0,1
103341,-200,4,3,69,45,0,1
103404,-66.6666666666667,4,3,69,45,0,1
103466,-200,4,3,69,45,0,1
103529,-100,4,3,69,45,0,1
104029,-117.647058823529,4,3,69,45,0,0
108029,-100,4,3,69,45,0,0
116029,-66.6666666666667,4,3,69,45,0,0
116107,-200,4,3,69,45,0,0
116185,-66.6666666666667,4,3,69,45,0,0
116263,-200,4,3,69,45,0,0
116341,-66.6666666666667,4,3,69,45,0,0
116404,-200,4,3,69,45,0,0
116497,-66.6666666666667,4,3,69,45,0,0
116576,-200,4,3,69,45,0,0
116654,-66.6666666666667,4,3,69,45,0,0
116737,-200,4,3,69,45,0,0
116810,-66.6666666666667,4,3,69,45,0,0
116888,-200,4,3,69,45,0,0
116966,-66.6666666666667,4,3,69,45,0,0
117029,-100,4,3,69,45,0,0
121029,-66.6666666666667,4,3,69,45,0,0
121107,-200,4,3,69,45,0,0
121185,-66.6666666666667,4,3,69,45,0,0
121279,-200,4,3,69,45,0,0
121372,-66.6666666666667,4,3,69,45,0,0
121451,-200,4,3,69,45,0,0
121528,-66.6666666666667,4,3,69,45,0,0
121591,-133.333333333333,4,3,69,45,0,0
121654,-100,4,3,69,45,0,0
121716,-200,4,3,69,45,0,0
121841,-66.6666666666667,4,3,69,45,0,0
121916,-133.333333333333,4,3,69,45,0,0
122029,-100,4,3,69,45,0,0
123779,-80,4,3,69,45,0,0
123841,-133.333333333333,4,3,69,45,0,0
123904,-80,4,3,69,45,0,0
123966,-133.333333333333,4,3,69,45,0,0
124029,-80,4,3,69,45,0,0
124091,-133.333333333333,4,3,69,45,0,0
124154,-80,4,3,69,45,0,0
124216,-133.333333333333,4,3,69,45,0,0
124279,-80,4,3,69,45,0,0
124341,-133.333333333333,4,3,69,45,0,0
124404,-80,4,3,69,45,0,0
124466,-133.333333333333,4,3,69,45,0,0
124529,-80,4,3,69,45,0,0
124591,-133.333333333333,4,3,69,45,0,0
124654,-80,4,3,69,45,0,0
124716,-133.333333333333,4,3,69,45,0,0
124779,-80,4,3,69,45,0,0
124904,-133.333333333333,4,3,69,45,0,0
125029,-100,4,3,69,45,0,0
127029,-66.6666666666667,4,3,69,45,0,0
127050,-200,4,3,69,45,0,0
127070,-66.6666666666667,4,3,69,45,0,0
127091,-200,4,3,69,45,0,0
127112,-66.6666666666667,4,3,69,45,0,0
127133,-200,4,3,69,45,0,0
127154,-66.6666666666667,4,3,69,45,0,0
127185,-200,4,3,69,45,0,0
127216,-66.6666666666667,4,3,69,45,0,0
127247,-200,4,3,69,45,0,0
127279,-66.6666666666667,4,3,69,45,0,0
127310,-200,4,3,69,45,0,0
127341,-66.6666666666667,4,3,69,45,0,0
127435,-200,4,3,69,45,0,0
127654,-66.6666666666667,4,3,69,45,0,0
127779,-100,4,3,69,45,0,0
130029,-80,4,3,69,45,0,0
130091,-133.333333333333,4,3,69,45,0,0
130154,-80,4,3,69,45,0,0
130216,-133.333333333333,4,3,69,45,0,0
130279,-80,4,3,69,45,0,0
130341,-133.333333333333,4,3,69,45,0,0
130404,-80,4,3,69,45,0,0
130466,-133.333333333333,4,3,69,45,0,0
130529,-80,4,3,69,45,0,0
130591,-133.333333333333,4,3,69,45,0,0
130654,-80,4,3,69,45,0,0
130716,-133.333333333333,4,3,69,45,0,0
130779,-80,4,3,69,45,0,0
130841,-133.333333333333,4,3,69,45,0,0
130904,-80,4,3,69,45,0,0
130966,-133.333333333333,4,3,69,45,0,0
131029,-80,4,3,69,45,0,0
131091,-133.333333333333,4,3,69,45,0,0
131154,-80,4,3,69,45,0,0
131216,-133.333333333333,4,3,69,45,0,0
131279,-80,4,3,69,45,0,0
131341,-133.333333333333,4,3,69,45,0,0
131404,-80,4,3,69,45,0,0
131466,-133.333333333333,4,3,69,45,0,0
131529,-100,4,3,69,45,0,0
131654,-90.9090909090909,4,3,69,45,0,0
132029,-100,4,3,69,45,0,0
132091,-133.333333333333,4,3,69,45,0,0
132154,-80,4,3,69,45,0,0
132216,-133.333333333333,4,3,69,45,0,0
132279,-80,4,3,69,45,0,0
132341,-133.333333333333,4,3,69,45,0,0
132404,-80,4,3,69,45,0,0
132466,-133.333333333333,4,3,69,45,0,0
132529,-80,4,3,69,45,0,0
132591,-133.333333333333,4,3,69,45,0,0
132654,-80,4,3,69,45,0,0
132716,-133.333333333333,4,3,69,45,0,0
132779,-80,4,3,69,45,0,0
132841,-133.333333333333,4,3,69,45,0,0
132904,-80,4,3,69,45,0,0
132966,-133.333333333333,4,3,69,45,0,0
133029,-100,4,3,69,45,0,0
136029,-80,4,3,69,45,0,0
136091,-133.333333333333,4,3,69,45,0,0
136154,-80,4,3,69,45,0,0
136216,-133.333333333333,4,3,69,45,0,0
136279,-80,4,3,69,45,0,0
136341,-133.333333333333,4,3,69,45,0,0
136404,-80,4,3,69,45,0,0
136466,-133.333333333333,4,3,69,45,0,0
136529,-80,4,3,69,45,0,0
136591,-133.333333333333,4,3,69,45,0,0
136654,-80,4,3,69,45,0,0
136716,-133.333333333333,4,3,69,45,0,0
136779,-80,4,3,69,45,0,0
136841,-133.333333333333,4,3,69,45,0,0
136904,-80,4,3,69,45,0,0
136966,-133.333333333333,4,3,69,45,0,0
137029,-100,4,3,69,45,0,0
137529,-66.6666666666667,4,3,69,45,0,0
137591,-200,4,3,69,45,0,0
137685,-66.6666666666667,4,3,69,45,0,0
137747,-200,4,3,69,45,0,0
137841,-66.6666666666667,4,3,69,45,0,0
137904,-200,4,3,69,45,0,0
137935,-100,4,3,69,45,0,0
139529,-66.6666666666667,4,3,69,45,0,0
139591,-142.857142857143,4,3,69,45,0,0
139654,-66.6666666666667,4,3,69,45,0,0
139716,-142.857142857143,4,3,69,45,0,0
139779,-66.6666666666667,4,3,69,45,0,0
139841,-142.857142857143,4,3,69,45,0,0
139904,-66.6666666666667,4,3,69,45,0,0
139966,-142.857142857143,4,3,69,45,0,0
140029,-100,4,3,69,45,0,0
154029,-133.333333333333,4,3,69,45,0,0
154216,-57.1428571428571,4,3,69,45,0,0
154279,-111.111111111111,4,3,69,45,0,0
154529,-133.333333333333,4,3,69,45,0,0
154716,-57.1428571428571,4,3,69,45,0,0
154779,-111.111111111111,4,3,69,45,0,0
155029,-133.333333333333,4,3,69,45,0,0
155216,-57.1428571428571,4,3,69,45,0,0
155279,-111.111111111111,4,3,69,45,0,0
155529,-133.333333333333,4,3,69,45,0,0
155716,-57.1428571428571,4,3,69,45,0,0
155779,-111.111111111111,4,3,69,45,0,0
156029,-100,4,3,69,45,0,0
172029,-100,4,3,69,45,0,1
177654,-80,4,3,69,45,0,1
177716,-133.333333333333,4,3,69,45,0,1
177779,-80,4,3,69,45,0,1
177841,-133.333333333333,4,3,69,45,0,1
177904,-80,4,3,69,45,0,1
177966,-133.333333333333,4,3,69,45,0,1
178029,-80,4,3,69,45,0,1
178091,-133.333333333333,4,3,69,45,0,1
178154,-80,4,3,69,45,0,1
178216,-133.333333333333,4,3,69,45,0,1
178279,-80,4,3,69,45,0,1
178341,-133.333333333333,4,3,69,45,0,1
178404,-80,4,3,69,45,0,1
178466,-133.333333333333,4,3,69,45,0,1
178529,-80,4,3,69,45,0,1
178591,-133.333333333333,4,3,69,45,0,1
178654,-80,4,3,69,45,0,1
178716,-133.333333333333,4,3,69,45,0,1
178779,-80,4,3,69,45,0,1
178841,-133.333333333333,4,3,69,45,0,1
178904,-80,4,3,69,45,0,1
178966,-133.333333333333,4,3,69,45,0,1
179029,-80,4,3,69,45,0,1
179091,-133.333333333333,4,3,69,45,0,1
179154,-80,4,3,69,45,0,1
179216,-133.333333333333,4,3,69,45,0,1
179279,-80,4,3,69,45,0,1
179341,-133.333333333333,4,3,69,45,0,1
179404,-80,4,3,69,45,0,1
179466,-133.333333333333,4,3,69,45,0,1
179529,-80,4,3,69,45,0,1
179591,-133.333333333333,4,3,69,45,0,1
179654,-80,4,3,69,45,0,1
179716,-133.333333333333,4,3,69,45,0,1
179779,-80,4,3,69,45,0,1
179841,-133.333333333333,4,3,69,45,0,1
179904,-80,4,3,69,45,0,1
179966,-133.333333333333,4,3,69,45,0,1
180029,-100,4,3,69,45,0,1
185529,-80,4,3,69,45,0,1
185591,-133.333333333333,4,3,69,45,0,1
185654,-80,4,3,69,45,0,1
185716,-133.333333333333,4,3,69,45,0,1
185779,-80,4,3,69,45,0,1
185841,-133.333333333333,4,3,69,45,0,1
185904,-80,4,3,69,45,0,1
185966,-133.333333333333,4,3,69,45,0,1
186029,-80,4,3,69,45,0,1
186091,-133.333333333333,4,3,69,45,0,1
186154,-80,4,3,69,45,0,1
186216,-133.333333333333,4,3,69,45,0,1
186279,-80,4,3,69,45,0,1
186341,-133.333333333333,4,3,69,45,0,1
186404,-80,4,3,69,45,0,1
186466,-133.333333333333,4,3,69,45,0,1
186529,-80,4,3,69,45,0,1
186591,-133.333333333333,4,3,69,45,0,1
186654,-80,4,3,69,45,0,1
186716,-133.333333333333,4,3,69,45,0,1
186779,-80,4,3,69,45,0,1
186841,-133.333333333333,4,3,69,45,0,1
186904,-80,4,3,69,45,0,1
186966,-133.333333333333,4,3,69,45,0,1
187029,-80,4,3,69,45,0,1
187091,-133.333333333333,4,3,69,45,0,1
187154,-80,4,3,69,45,0,1
187216,-133.333333333333,4,3,69,45,0,1
187279,-80,4,3,69,45,0,1
187341,-133.333333333333,4,3,69,45,0,1
187404,-80,4,3,69,45,0,1
187466,-133.333333333333,4,3,69,45,0,1
187529,-100,4,3,69,45,0,1
204029,-100,4,3,69,45,0,0
207029,-103.092783505155,4,3,69,45,0,0
207529,-105.263157894737,4,3,69,45,0,0
208029,-108.695652173913,4,3,69,45,0,0
208529,-111.111111111111,4,3,69,45,0,0
209029,-114.285714285714,4,3,69,45,0,0
209529,-117.647058823529,4,3,69,45,0,0
210029,-125,4,3,69,45,0,0
226029,-111.111111111111,4,3,69,45,0,0
242029,-111.111111111111,4,3,69,45,0,0
256029,-100,4,3,69,45,0,0
263529,-80,4,3,69,45,0,0
263591,-133.333333333333,4,3,69,45,0,0
263654,-80,4,3,69,45,0,0
263716,-133.333333333333,4,3,69,45,0,0
263779,-80,4,3,69,45,0,0
263841,-133.333333333333,4,3,69,45,0,0
263904,-80,4,3,69,45,0,0
263966,-133.333333333333,4,3,69,45,0,0
264029,-100,4,3,69,45,0,0
270029,-117.647058823529,4,3,69,45,0,0
271779,-333.333333333333,4,3,69,45,0,0
271904,-50,4,3,69,45,0,0
271987,-66.6666666666667,4,3,69,45,0,0
272029,-100,4,3,69,45,0,1
277779,-80,4,3,69,45,0,1
277841,-133.333333333333,4,3,69,45,0,1
277904,-80,4,3,69,45,0,1
277966,-133.333333333333,4,3,69,45,0,1
278029,-80,4,3,69,45,0,1
278091,-133.333333333333,4,3,69,45,0,1
278154,-80,4,3,69,45,0,1
278216,-133.333333333333,4,3,69,45,0,1
278279,-80,4,3,69,45,0,1
278341,-133.333333333333,4,3,69,45,0,1
278404,-80,4,3,69,45,0,1
278466,-133.333333333333,4,3,69,45,0,1
278529,-80,4,3,69,45,0,1
278591,-133.333333333333,4,3,69,45,0,1
278654,-80,4,3,69,45,0,1
278716,-133.333333333333,4,3,69,45,0,1
278779,-80,4,3,69,45,0,1
278841,-133.333333333333,4,3,69,45,0,1
278904,-80,4,3,69,45,0,1
278966,-133.333333333333,4,3,69,45,0,1
279029,-80,4,3,69,45,0,1
279091,-133.333333333333,4,3,69,45,0,1
279154,-80,4,3,69,45,0,1
279216,-133.333333333333,4,3,69,45,0,1
279279,-80,4,3,69,45,0,1
279341,-133.333333333333,4,3,69,45,0,1
279404,-80,4,3,69,45,0,1
279466,-133.333333333333,4,3,69,45,0,1
279529,-80,4,3,69,45,0,1
279591,-133.333333333333,4,3,69,45,0,1
279654,-80,4,3,69,45,0,1
279716,-133.333333333333,4,3,69,45,0,1
279779,-80,4,3,69,45,0,1
279841,-133.333333333333,4,3,69,45,0,1
279904,-80,4,3,69,45,0,1
279966,-133.333333333333,4,3,69,45,0,1
280029,-100,4,3,69,45,0,1
285654,-80,4,3,69,45,0,1
285716,-133.333333333333,4,3,69,45,0,1
285779,-80,4,3,69,45,0,1
285841,-133.333333333333,4,3,69,45,0,1
285904,-80,4,3,69,45,0,1
285966,-133.333333333333,4,3,69,45,0,1
286029,-80,4,3,69,45,0,1
286091,-133.333333333333,4,3,69,45,0,1
286154,-80,4,3,69,45,0,1
286216,-133.333333333333,4,3,69,45,0,1
286279,-80,4,3,69,45,0,1
286341,-133.333333333333,4,3,69,45,0,1
286404,-80,4,3,69,45,0,1
286466,-133.333333333333,4,3,69,45,0,1
286529,-80,4,3,69,45,0,1
286591,-133.333333333333,4,3,69,45,0,1
286654,-80,4,3,69,45,0,1
286716,-133.333333333333,4,3,69,45,0,1
286779,-80,4,3,69,45,0,1
286841,-133.333333333333,4,3,69,45,0,1
286904,-80,4,3,69,45,0,1
286966,-133.333333333333,4,3,69,45,0,1
287029,-80,4,3,69,45,0,1
287091,-133.333333333333,4,3,69,45,0,1
287154,-80,4,3,69,45,0,1
287216,-133.333333333333,4,3,69,45,0,1
287279,-80,4,3,69,45,0,1
287341,-133.333333333333,4,3,69,45,0,1
287404,-100,4,3,69,45,0,1
304029,-105.263157894737,4,3,69,24,0,0
335029,-71.4285714285714,4,3,69,12,0,0
335091,-166.666666666667,4,3,69,12,0,0
335154,-71.4285714285714,4,3,69,12,0,0
335185,-166.666666666667,4,3,69,12,0,0
335216,-71.4285714285714,4,3,69,12,0,0
335247,-166.666666666667,4,3,69,12,0,0
335279,-71.4285714285714,4,3,69,12,0,0
335341,-166.666666666667,4,3,69,12,0,0
335404,-71.4285714285714,4,3,69,12,0,0
335435,-166.666666666667,4,3,69,12,0,0
335466,-71.4285714285714,4,3,69,12,0,0
335497,-166.666666666667,4,3,69,12,0,0
335529,-71.4285714285714,4,3,69,12,0,0
335591,-166.666666666667,4,3,69,12,0,0
335654,-71.4285714285714,4,3,69,12,0,0
335716,-166.666666666667,4,3,69,12,0,0
335779,-71.4285714285714,4,3,69,12,0,0
335841,-166.666666666667,4,3,69,12,0,0
335904,-111.111111111111,4,3,69,12,0,0

[Colours]
Combo1 : 45,88,228
Combo2 : 40,205,31

[HitObjects]
256,192,1029,5,8,0:0:0:80:LR_Kick Loud Bass Drop.wav
329,192,1029,1,4,0:0:0:33:LR_Clap hollow echo.wav
182,192,1029,1,4,0:0:0:45:LR_Drum J Hit Med Bass.wav
256,192,2029,5,8,0:0:0:80:LR_Kick Loud Bass Drop.wav
329,192,2029,1,4,0:0:0:33:LR_Clap hollow echo.wav
182,192,2029,1,4,0:0:0:45:LR_Drum J Hit Med Bass.wav
256,192,3029,5,8,0:0:0:80:LR_Kick Loud Bass Drop.wav
329,192,3029,1,4,0:0:0:33:LR_Clap hollow echo.wav
182,192,3029,1,4,0:0:0:45:LR_Drum J Hit Med Bass.wav
256,192,3529,5,8,0:0:0:80:LR_Kick Loud Bass Drop.wav
182,192,3529,1,4,0:0:0:45:LR_Drum J Hit Med Bass.wav
329,192,3529,1,4,0:0:0:33:LR_Clap hollow echo.wav
256,192,4029,5,8,0:0:0:80:LR_Kick Loud Bass Drop.wav
329,192,4029,1,4,0:0:0:33:LR_Clap hollow echo.wav
182,192,4029,1,4,0:0:0:45:LR_Drum J Hit Med Bass.wav
475,192,4310,1,0,0:0:0:20:LR_Clap hollow echo.wav
36,192,4310,1,0,0:0:0:20:LR_Clap hollow echo.wav
402,192,4372,1,0,0:0:0:20:LR_Clap hollow echo.wav
109,192,4372,1,0,0:0:0:20:LR_Clap hollow echo.wav
182,192,4435,1,0,0:0:0:20:LR_Clap hollow echo.wav
329,192,4435,1,0,0:0:0:20:LR_Clap hollow echo.wav
36,192,4529,1,0,0:0:0:35:LR_Clap kick Fast Low Beat.wav
475,192,4529,1,0,0:0:0:30:LR_Clap hollow echo.wav
329,192,4654,1,0,0:0:0:30:LR_Clap hollow echo.wav
182,192,4654,1,0,0:0:0:35:LR_Clap kick Fast Low Beat.wav
475,192,4779,1,0,0:0:0:30:LR_Clap hollow echo.wav
36,192,4779,1,0,0:0:0:35:LR_Clap kick Fast Low Beat.wav
329,192,4904,1,0,0:0:0:30:LR_Clap hollow echo.wav
182,192,4904,1,0,0:0:0:35:LR_Clap kick Fast Low Beat.wav
109,192,5029,1,0,0:0:0:30:LR_Drum J Hit Med Bass.wav
402,192,5029,1,0,0:0:0:77:LR_Kick Loud Bass Drop.wav
256,192,5029,1,0,0:0:0:55:LR_Drum Barrel Finish.wav
402,192,5279,1,0,0:0:0:20:LR_J Hit.wav
329,192,5404,1,0,0:0:0:14:LR_J Hit Drum.wav
109,192,5404,1,4,3:0:0:50:
402,192,5529,1,0,0:0:0:20:LR_J Hit.wav
329,192,5654,1,0,0:0:0:14:LR_J Hit Drum.wav
182,192,5779,1,0,0:0:0:77:LR_Drum Rim Fast.wav
402,192,5779,1,0,0:0:0:20:LR_J Hit.wav
329,192,5904,1,0,0:0:0:14:LR_J Hit Drum.wav
402,192,6029,1,0,0:0:0:20:LR_J Hit.wav
182,192,6029,1,0,0:0:0:100:LR_Drum EDge.wav
402,192,6279,1,0,0:0:0:20:LR_J Hit.wav
182,192,6404,1,0,0:0:0:100:LR_Drum EDge.wav
329,192,6404,1,0,0:0:0:14:LR_J Hit Drum.wav
402,192,6529,1,0,0:0:0:20:LR_J Hit.wav
329,192,6654,1,0,0:0:0:14:LR_J Hit Drum.wav
36,192,6779,1,0,0:0:0:44:LR_Drum Rim Fast.wav
402,192,6779,1,0,0:0:0:20:LR_J Hit.wav
329,192,6904,1,0,0:0:0:14:LR_J Hit Drum.wav
109,192,7029,1,12,0:0:0:50:LR_Kick Loud Bass Drop.wav
402,192,7029,1,0,0:0:0:20:LR_J Hit.wav
36,192,7029,1,4,0:0:0:33:LR_Drum J Hit Med Bass.wav
402,192,7279,1,0,0:0:0:20:LR_J Hit.wav
109,192,7404,1,4,3:0:0:50:
329,192,7404,1,0,0:0:0:14:LR_J Hit Drum.wav
402,192,7529,1,0,0:0:0:20:LR_J Hit.wav
329,192,7654,1,0,0:0:0:14:LR_J Hit Drum.wav
402,192,7779,1,0,0:0:0:20:LR_J Hit.wav
182,192,7779,1,0,0:0:0:77:LR_Drum Rim Fast.wav
329,192,7904,1,0,0:0:0:14:LR_J Hit Drum.wav
182,192,8029,1,0,0:0:0:100:LR_Drum EDge.wav
402,192,8029,1,0,0:0:0:20:LR_J Hit.wav
402,192,8279,1,0,0:0:0:20:LR_J Hit.wav
182,192,8404,1,0,0:0:0:100:LR_Drum EDge.wav
329,192,8404,1,0,0:0:0:14:LR_J Hit Drum.wav
402,192,8529,1,0,0:0:0:20:LR_J Hit.wav
329,192,8654,1,0,0:0:0:14:LR_J Hit Drum.wav
402,192,8779,1,0,0:0:0:20:LR_J Hit.wav
329,192,8904,1,0,0:0:0:14:LR_J Hit Drum.wav
109,192,9029,1,12,0:0:0:50:LR_Kick Loud Bass Drop.wav
36,192,9029,1,4,0:0:0:33:LR_Drum J Hit Med Bass.wav
402,192,9029,1,0,0:0:0:20:LR_J Hit.wav
329,192,9279,1,0,0:0:0:28:LR_J Hit.wav
402,192,9404,1,0,0:0:0:14:LR_J Hit Drum.wav
109,192,9404,1,4,3:0:0:50:
329,192,9529,1,0,0:0:0:28:LR_J Hit.wav
402,192,9654,1,0,0:0:0:14:LR_J Hit Drum.wav
182,192,9779,1,0,0:0:0:77:LR_Drum Rim Fast.wav
329,192,9779,1,0,0:0:0:28:LR_J Hit.wav
182,192,9904,1,0,0:0:0:30:LR_Drum Click.wav
402,192,9904,1,0,0:0:0:14:LR_J Hit Drum.wav
182,192,10029,1,0,0:0:0:100:LR_Drum EDge.wav
329,192,10029,1,0,0:0:0:28:LR_J Hit.wav
329,192,10279,1,0,0:0:0:28:LR_J Hit.wav
182,192,10404,1,0,0:0:0:100:LR_Drum EDge.wav
402,192,10404,1,0,0:0:0:14:LR_J Hit Drum.wav
329,192,10529,1,0,0:0:0:28:LR_J Hit.wav
402,192,10654,1,0,0:0:0:14:LR_J Hit Drum.wav
36,192,10779,1,0,0:0:0:44:LR_Drum Rim Fast.wav
329,192,10779,1,0,0:0:0:28:LR_J Hit.wav
402,192,10904,1,0,0:0:0:14:LR_J Hit Drum.wav
109,192,11029,1,12,0:0:0:50:LR_Kick Loud Bass Drop.wav
36,192,11029,1,4,0:0:0:33:LR_Drum J Hit Med Bass.wav
329,192,11029,1,0,0:0:0:28:LR_J Hit.wav
329,192,11279,1,0,0:0:0:28:LR_J Hit.wav
402,192,11404,1,0,0:0:0:14:LR_J Hit Drum.wav
109,192,11404,1,4,3:0:0:50:
329,192,11529,1,0,0:0:0:28:LR_J Hit.wav
402,192,11654,1,0,0:0:0:14:LR_J Hit Drum.wav
182,192,11779,1,0,0:0:0:44:LR_Drum Rim Fast.wav
329,192,11779,1,0,0:0:0:28:LR_J Hit.wav
402,192,11904,1,0,0:0:0:14:LR_J Hit Drum.wav
36,192,12029,1,0,0:0:0:100:LR_Drum EDge.wav
182,192,12029,1,0,0:0:0:44:LR_Drum Rim Fast.wav
329,192,12029,1,0,0:0:0:28:LR_J Hit.wav
402,192,12279,1,0,0:0:0:20:LR_Clap hollow echo.wav
36,192,12310,1,0,0:0:0:20:LR_Clap hollow echo.wav
109,192,12372,1,0,0:0:0:40:LR_Clap hollow echo.wav
329,192,12404,1,0,0:0:0:100:LR_Drum Edge.wav
182,192,12435,1,0,0:0:0:20:LR_Clap hollow echo.wav
402,192,12529,1,0,0:0:0:30:LR_Clap hollow echo.wav
36,192,12529,1,0,0:0:0:35:LR_Clap kick Fast Low Beat.wav
182,192,12654,1,0,0:0:0:35:LR_Clap kick Fast Low Beat.wav
329,192,12654,1,0,0:0:0:30:LR_Clap hollow echo.wav
402,192,12779,1,0,0:0:0:30:LR_Clap hollow echo.wav
36,192,12779,1,0,0:0:0:35:LR_Clap kick Fast Low Beat.wav
329,192,12904,1,0,0:0:0:30:LR_Clap hollow echo.wav
182,192,12904,1,0,0:0:0:35:LR_Clap kick Fast Low Beat.wav
109,192,13029,1,0,0:0:0:55:LR_Drum Barrel Finish.wav
36,192,13029,1,0,0:0:0:30:LR_Drum J Hit Med Bass.wav
402,192,13029,1,0,0:0:0:77:LR_Kick Loud Bass Drop.wav
475,192,13279,1,0,0:0:0:40:LR_J Hit.wav
182,192,13279,1,0,0:0:0:20:LR_Kick Drum Fast.wav
329,192,13404,1,0,0:0:0:16:LR_J Hit Drum.wav
109,192,13404,1,0,0:0:0:20:LR_Kick Drum Fast.wav
475,192,13529,1,0,0:0:0:40:LR_J Hit.wav
329,192,13654,1,0,0:0:0:16:LR_J Hit Drum.wav
182,192,13779,1,0,0:0:0:50:LR_Kick Drum Fast.wav
475,192,13779,1,0,0:0:0:40:LR_J Hit.wav
329,192,13904,1,0,0:0:0:16:LR_J Hit Drum.wav
36,192,14029,1,0,0:0:0:33:LR_Drum EDge.wav
109,192,14029,1,0,0:0:0:49:LR_Kick Drum Fast.wav
475,192,14029,1,0,0:0:0:40:LR_J Hit.wav
182,192,14279,1,0,0:0:0:35:LR_Drum EDge.wav
475,192,14279,1,0,0:0:0:40:LR_J Hit.wav
182,192,14404,1,0,0:0:0:35:LR_Drum Click.wav
329,192,14404,1,0,0:0:0:16:LR_J Hit Drum.wav
475,192,14529,1,0,0:0:0:40:LR_J Hit.wav
329,192,14654,1,0,0:0:0:16:LR_J Hit Drum.wav
475,192,14779,1,0,0:0:0:40:LR_J Hit.wav
109,192,14779,1,0,0:0:0:49:LR_Kick Drum Fast.wav
329,192,14904,1,0,0:0:0:16:LR_J Hit Drum.wav
36,192,15029,1,0,0:0:0:33:LR_Drum EDge.wav
109,192,15029,1,0,0:0:0:49:LR_Kick Drum Fast.wav
475,192,15029,1,0,0:0:0:40:LR_J Hit.wav
475,192,15279,1,0,0:0:0:40:LR_J Hit.wav
182,192,15279,1,0,0:0:0:20:LR_Kick Drum Fast.wav
329,192,15404,1,0,0:0:0:16:LR_J Hit Drum.wav
109,192,15404,1,0,0:0:0:49:LR_Kick Drum Fast.wav
475,192,15529,1,0,0:0:0:40:LR_J Hit.wav
329,192,15654,1,0,0:0:0:16:LR_J Hit Drum.wav
475,192,15779,1,0,0:0:0:40:LR_J Hit.wav
182,192,15779,1,0,0:0:0:50:LR_Kick Drum Fast.wav
329,192,15904,1,0,0:0:0:16:LR_J Hit Drum.wav
475,192,16029,1,0,0:0:0:40:LR_J Hit.wav
36,192,16029,1,0,0:0:0:49:LR_Kick Drum Fast.wav
182,192,16029,1,0,0:0:0:33:LR_Drum EDge.wav
475,192,16279,1,0,0:0:0:40:LR_J Hit.wav
182,192,16279,1,0,0:0:0:35:LR_Drum EDge.wav
329,192,16404,1,0,0:0:0:16:LR_J Hit Drum.wav
182,192,16404,1,0,0:0:0:35:LR_Drum Click.wav
475,192,16529,1,0,0:0:0:40:LR_J Hit.wav
329,192,16654,1,0,0:0:0:16:LR_J Hit Drum.wav
475,192,16779,1,0,0:0:0:40:LR_J Hit.wav
329,192,16904,1,0,0:0:0:16:LR_J Hit Drum.wav
475,192,17029,1,2,2:0:0:28:LR_Clap Hit P.wav
256,192,17029,1,0,0:0:0:33:LR_Drum J Hit Med Bass.wav
109,192,17029,1,0,0:0:0:50:LR_Kick Loud Bass Drop.wav
182,192,17029,1,2,2:0:0:55:
36,192,17279,1,0,0:0:0:33:LR_Clap Hit P.wav
329,192,17279,1,0,0:0:0:35:LR_Kick Drum Fast.wav
182,192,17279,1,0,0:0:0:48:LR_J Hit Pong.wav
475,192,17404,1,0,0:0:0:33:LR_J Hit.wav
109,192,17404,1,0,0:0:0:28:LR_Clap Hit P.wav
329,192,17529,1,2,2:0:0:55:
475,192,17654,1,0,0:0:0:33:LR_J Hit.wav
36,192,17779,1,0,0:0:0:48:LR_J Hit Pong.wav
329,192,17779,1,2,2:0:0:60:LR_Chm Whistle Short.wav
182,192,17779,1,0,0:0:0:0:
182,192,17904,1,0,0:0:0:33:LR_Clap Hit P.wav
475,192,17904,1,0,0:0:0:25:LR_Chm loong.wav
182,192,18029,1,0,0:0:0:50:LR_J Hit.wav
109,192,18029,1,0,0:0:0:50:LR_Drum EDge.wav
329,192,18029,1,2,2:0:0:55:
36,192,18279,1,0,0:0:0:33:LR_Clap Hit P.wav
182,192,18279,1,0,0:0:0:48:LR_J Hit Pong.wav
329,192,18279,1,0,0:0:0:33:LR_Drum Rim Fast.wav
475,192,18404,1,0,0:0:0:33:LR_J Hit.wav
329,192,18529,1,0,0:0:0:25:LR_Chm loong.wav
475,192,18654,1,0,0:0:0:25:LR_J Hit.wav
36,192,18779,1,0,0:0:0:33:LR_Clap Hit P.wav
329,192,18779,1,2,2:0:0:60:LR_Chm Whistle Short.wav
182,192,18779,1,0,0:0:0:48:LR_J Hit Pong.wav
475,192,18904,1,2,2:0:0:55:
109,192,19029,1,0,0:0:0:55:LR_Kick Drum Fast.wav
329,192,19029,1,0,0:0:0:33:LR_Kick Loud Bass Drop.wav
182,192,19029,1,0,0:0:0:33:LR_Drum J Hit Med Bass.wav
329,192,19279,1,0,0:0:0:28:LR_J Hit.wav
475,192,19404,1,0,0:0:0:33:LR_Drum J Hit Med Bass.wav
109,192,19404,1,0,0:0:0:55:LR_Kick Drum Fast.wav
182,192,19404,1,0,0:0:0:33:LR_Drum J Hit Med Bass.wav
329,192,19529,1,2,2:0:0:55:
475,192,19654,1,0,0:0:0:28:LR_J Hit.wav
109,192,19779,1,0,0:0:0:48:LR_J Hit Pong.wav
36,192,19779,1,0,0:0:0:33:LR_Clap Hit P.wav
329,192,19779,1,2,2:0:0:60:LR_Chm Whistle Short.wav
475,192,19904,1,2,2:0:0:55:
256,192,20029,1,0,0:0:0:40:LR_J Hit.wav
36,192,20154,1,0,0:0:0:27:LR_Drum J Hit Med Bass.wav
475,192,20154,1,0,0:0:0:27:LR_Drum J Hit Med Bass.wav
402,192,20216,1,0,0:0:0:27:LR_Drum J Hit Med Bass.wav
109,192,20216,1,0,0:0:0:27:LR_Drum J Hit Med Bass.wav
182,192,20279,1,0,0:0:0:27:LR_Drum J Hit Med Bass.wav
329,192,20279,1,0,0:0:0:27:LR_Drum J Hit Med Bass.wav
36,192,20310,1,0,0:0:0:100:LR_Kick Loud Bass Drop.wav
475,192,20310,1,0,0:0:0:44:LR_Clap hollow echo.wav
329,192,20404,1,0,0:0:0:44:LR_Clap hollow echo.wav
182,192,20404,1,0,0:0:0:55:LR_Drum J Hit Med Bass.wav
36,192,20529,1,0,0:0:0:55:LR_Drum J Hit Med Bass.wav
475,192,20529,1,0,0:0:0:44:LR_Clap hollow echo.wav
182,192,20654,1,0,0:0:0:55:LR_Drum J Hit Med Bass.wav
329,192,20654,1,0,0:0:0:44:LR_Clap hollow echo.wav
475,192,20779,1,0,0:0:0:22:LR_Clap hollow echo.wav
402,192,20779,1,0,0:0:0:22:LR_Clap hollow echo.wav
109,192,20779,1,0,0:0:0:27:LR_Drum J Hit Med Bass.wav
36,192,20779,1,0,0:0:0:27:LR_Drum J Hit Med Bass.wav
182,192,20904,1,0,0:0:0:55:LR_Drum J Hit Med Bass.wav
329,192,20904,1,0,0:0:0:44:LR_Clap hollow echo.wav
36,192,21029,128,0,22779:0:0:0:100:LR3_GreatDrum.wav
109,192,21029,128,0,22779:0:0:0:100:LR_Drum Barrel Finish.wav
475,192,21029,1,0,0:0:0:88:LR_Drum J Hit Med Bass.wav
402,192,21029,128,0,21154:0:0:0:95:LR_Kick Loud Bass Drop.wav
256,192,21029,1,0,0:0:0:50:LR_Kick Loud Bass Drop.wav
329,192,21154,128,0,21279:0:0:0:80:LR3_GreatDrum.wav
475,192,21279,128,0,21404:0:0:0:40:LR_J Hit Pong.wav
402,192,21404,128,0,21654:0:0:0:80:LR3_GreatDrum.wav
329,192,21654,128,0,21779:0:0:0:80:LR3_GreatDrum.wav
475,192,21779,128,0,21904:0:0:0:40:LR_J Hit Pong.wav
402,192,21904,128,0,22029:0:0:0:80:LR3_GreatDrum.wav
329,192,22029,128,0,22279:0:0:0:80:LR3_GreatDrum.wav
402,192,22279,128,0,22404:0:0:0:40:LR_J Hit Pong.wav
475,192,22404,128,0,22779:0:0:0:80:LR3_GreatDrum.wav
402,192,22779,128,0,23029:0:0:0:40:LR_J Hit Pong.wav
36,192,23029,1,0,0:0:0:88:LR_Drum J Hit Med Bass.wav
182,192,23029,128,0,24779:0:0:0:100:LR_Kick Loud Bass Drop.wav
329,192,23029,128,0,23154:0:0:0:88:LR_Drum Barrel Finish.wav
109,192,23029,128,0,24779:0:0:0:100:LR3_GreatDrum.wav
256,192,23029,1,0,0:0:0:33:LR_Drum Rim Fast.wav
402,192,23154,128,0,23279:0:0:0:80:LR3_GreatDrum.wav
475,192,23279,128,0,23404:0:0:0:80:LR3_GreatDrum.wav
402,192,23404,128,0,23654:0:0:0:80:LR3_GreatDrum.wav
329,192,23654,128,0,23779:0:0:0:80:LR3_GreatDrum.wav
402,192,23779,128,0,23904:0:0:0:40:LR_J Hit Pong.wav
475,192,23904,128,0,24029:0:0:0:80:LR3_GreatDrum.wav
402,192,24029,128,0,24279:0:0:0:80:LR3_GreatDrum.wav
329,192,24279,128,0,24404:0:0:0:80:LR3_GreatDrum.wav
402,192,24404,128,0,24779:0:0:0:80:LR3_GreatDrum.wav
36,192,25029,128,0,26779:0:0:0:100:LR_Drum J Hit Med Bass.wav
475,192,25029,128,0,25154:0:0:0:95:LR_Drum Barrel Finish.wav
182,192,25029,1,0,0:0:0:66:LR_Kick Loud Bass Drop.wav
109,192,25029,128,0,26779:0:0:0:100:LR3_GreatDrum.wav
256,192,25029,1,0,0:0:0:33:LR_Drum Rim Fast.wav
329,192,25154,128,0,25279:0:0:0:80:LR3_GreatDrum.wav
402,192,25279,128,0,25404:0:0:0:40:LR_J Hit Pong.wav
329,192,25404,128,0,25654:0:0:0:80:LR3_GreatDrum.wav
475,192,25654,128,0,25779:0:0:0:80:LR3_GreatDrum.wav
329,192,25779,128,0,25904:0:0:0:40:LR_J Hit Pong.wav
402,192,25904,128,0,26029:0:0:0:80:LR3_GreatDrum.wav
329,192,26029,128,0,26279:0:0:0:80:LR3_GreatDrum.wav
402,192,26279,128,0,26404:0:0:0:40:LR_J Hit Pong.wav
329,192,26404,128,0,26779:0:0:0:80:LR3_GreatDrum.wav
402,192,26779,128,0,27029:0:0:0:40:LR_J Hit Pong.wav
182,192,27029,128,0,28029:0:0:0:100:LR_Drum Barrel Finish.wav
36,192,27029,128,0,28029:0:0:0:100:LR_Drum J Hit Med Bass.wav
329,192,27029,128,0,27154:0:0:0:100:LR_Kick Loud Bass Drop.wav
109,192,27029,1,0,0:0:0:100:LR3_GreatDrum.wav
256,192,27029,1,0,0:0:0:33:LR_Drum Rim Fast.wav
475,192,27154,128,0,27279:0:0:0:80:LR3_GreatDrum.wav
329,192,27279,128,0,27404:0:0:0:80:LR3_GreatDrum.wav
402,192,27404,128,0,27654:0:0:0:80:LR3_GreatDrum.wav
329,192,27654,128,0,27779:0:0:0:80:LR3_GreatDrum.wav
402,192,27779,128,0,27904:0:0:0:40:LR_J Hit Pong.wav
475,192,27904,128,0,28029:0:0:0:80:LR3_GreatDrum.wav
329,192,28029,128,0,28404:0:0:0:80:LR3_GreatDrum.wav
36,192,28154,1,0,0:0:0:54:LR_Drum J Hit Med Bass.wav
109,192,28216,1,0,0:0:0:54:LR_Drum J Hit Med Bass.wav
182,192,28279,1,0,0:0:0:54:LR_Drum J Hit Med Bass.wav
36,192,28310,1,0,0:0:0:100:LR_Kick Loud Bass Drop.wav
182,192,28404,1,0,0:0:0:55:LR_Drum J Hit Med Bass.wav
402,192,28404,128,0,28529:0:0:0:44:LR_Clap hollow echo.wav
36,192,28529,1,0,0:0:0:55:LR_Drum J Hit Med Bass.wav
329,192,28529,128,0,28779:0:0:0:44:LR_Clap hollow echo.wav
182,192,28654,1,0,0:0:0:55:LR_Drum J Hit Med Bass.wav
36,192,28779,1,0,0:0:0:54:LR_Drum J Hit Med Bass.wav
402,192,28779,1,0,0:0:0:27:LR_Drum J Hit Med Bass.wav
329,192,28904,1,0,0:0:0:50:LR_Kick Loud Bass Drop.wav
182,192,28904,1,0,0:0:0:55:LR_Drum J Hit Med Bass.wav
36,192,29029,1,0,0:0:0:66:LR_Clap kick.wav
109,192,29029,1,0,0:0:0:66:LR_Kick Loud Bass Drop.wav
256,192,29029,1,0,0:0:0:85:LR_Snare Hat 2.wav
329,192,29154,1,0,0:0:0:35:LR_Snare Hat 2.wav
475,192,29279,1,0,0:0:0:80:LR_Kick Drum Fast.wav
329,192,29404,1,0,0:0:0:35:LR_Snare Hat 2.wav
256,192,29529,1,0,0:0:0:100:LR_Clap kick Fast Low Beat.wav
182,192,29529,1,8,2:0:0:0:
36,192,29529,1,0,0:0:0:66:LR_Clap kick.wav
109,192,29529,1,0,0:0:0:66:LR_Kick Loud Bass Drop.wav
329,192,29654,1,0,0:0:0:35:LR_Snare Hat 2.wav
475,192,29779,1,0,0:0:0:80:LR_Kick Drum Fast.wav
329,192,29904,1,0,0:0:0:35:LR_Snare Hat 2.wav
36,192,30029,1,0,0:0:0:66:LR_Clap kick.wav
182,192,30029,1,8,2:0:0:0:
109,192,30029,1,0,0:0:0:66:LR_Kick Loud Bass Drop.wav
256,192,30029,1,0,0:0:0:100:LR_Clap kick Fast Low Beat.wav
329,192,30154,1,0,0:0:0:35:LR_Snare Hat 2.wav
475,192,30279,1,0,0:0:0:80:LR_Kick Drum Fast.wav
329,192,30404,1,0,0:0:0:35:LR_Snare Hat 2.wav
256,192,30529,1,0,0:0:0:100:LR_Clap kick Fast Low Beat.wav
182,192,30529,1,8,2:0:0:0:
36,192,30529,1,0,0:0:0:66:LR_Clap kick.wav
109,192,30529,1,0,0:0:0:66:LR_Kick Loud Bass Drop.wav
329,192,30654,1,0,0:0:0:35:LR_Snare Hat 2.wav
475,192,30779,1,0,0:0:0:80:LR_Kick Drum Fast.wav
329,192,30904,1,0,0:0:0:35:LR_Snare Hat 2.wav
109,192,31029,1,8,2:0:0:0:
402,192,31029,1,0,0:0:0:66:LR_Kick Loud Bass Drop.wav
475,192,31029,1,0,0:0:0:66:LR_Clap kick.wav
256,192,31029,1,0,0:0:0:100:LR_Clap kick Fast Low Beat.wav
36,192,31154,1,0,0:0:0:35:LR_Snare Hat 2.wav
182,192,31279,1,0,0:0:0:80:LR_Kick Drum Fast.wav
36,192,31404,1,0,0:0:0:35:LR_Snare Hat 2.wav
256,192,31529,1,0,0:0:0:100:LR_Clap kick Fast Low Beat.wav
402,192,31529,1,0,0:0:0:66:LR_Kick Loud Bass Drop.wav
475,192,31529,1,0,0:0:0:66:LR_Clap kick.wav
329,192,31529,1,8,2:0:0:0:
36,192,31654,1,0,0:0:0:35:LR_Snare Hat 2.wav
182,192,31779,1,0,0:0:0:80:LR_Kick Drum Fast.wav
36,192,31904,1,0,0:0:0:35:LR_Snare Hat 2.wav
402,192,32029,1,0,0:0:0:60:LR_Clap kick.wav
109,192,32029,1,0,0:0:0:40:LR_Clap kick Fast Low Beat.wav
256,192,32029,1,0,0:0:0:100:LR_Kick Beat 2.wav
182,192,32154,1,0,0:0:0:40:LR_Clap kick Fast Low Beat.wav
329,192,32154,1,0,0:0:0:60:LR_Clap kick.wav
475,192,32279,1,0,0:0:0:60:LR_Clap kick.wav
36,192,32279,1,0,0:0:0:40:LR_Clap kick Fast Low Beat.wav
329,192,32404,1,0,0:0:0:60:LR_Clap kick.wav
182,192,32404,1,0,0:0:0:40:LR_Clap kick Fast Low Beat.wav
109,192,32529,1,0,0:0:0:40:LR_Clap kick Fast Low Beat.wav
256,192,32529,1,0,0:0:0:100:LR_Kick Beat 2.wav
402,192,32529,1,0,0:0:0:60:LR_Clap kick.wav
182,192,32654,1,0,0:0:0:40:LR_Clap kick Fast Low Beat.wav
329,192,32654,1,0,0:0:0:60:LR_Clap kick.wav
475,192,32779,1,0,0:0:0:60:LR_Clap kick.wav
36,192,32779,1,0,0:0:0:40:LR_Clap kick Fast Low Beat.wav
182,192,32904,1,0,0:0:0:40:LR_Clap kick Fast Low Beat.wav
329,192,32904,1,0,0:0:0:60:LR_Clap kick.wav
109,192,33029,1,0,0:0:0:30:LR_Clap kick.wav
256,192,33029,1,0,0:0:0:100:LR_Kick Beat 2.wav
475,192,33029,1,0,0:0:0:30:LR_Clap kick.wav
36,192,33029,1,0,0:0:0:0:
329,192,33154,1,0,0:0:0:0:
182,192,33154,1,0,0:0:0:0:
402,192,33279,1,0,0:0:0:100:LR_Kick Beat 2.wav
109,192,33279,1,0,0:0:0:0:
329,192,33404,1,0,0:0:0:0:
36,192,33404,1,0,0:0:0:0:
256,192,33529,1,0,0:0:0:0:
402,192,33529,1,0,0:0:0:0:
475,192,33529,1,0,0:0:0:0:
182,192,33529,1,0,0:0:0:0:
329,192,33654,1,0,0:0:0:0:
109,192,33654,1,0,0:0:0:0:
402,192,33779,1,0,0:0:0:100:LR_Kick Beat 2.wav
36,192,33779,1,0,0:0:0:0:
329,192,33904,1,0,0:0:0:0:
109,192,33904,1,0,0:0:0:0:
256,192,34029,1,0,0:0:0:0:
402,192,34029,1,0,0:0:0:0:
475,192,34029,1,0,0:0:0:0:
182,192,34029,1,0,0:0:0:0:
329,192,34154,1,0,0:0:0:0:
36,192,34154,1,0,0:0:0:0:
109,192,34279,1,0,0:0:0:0:
402,192,34279,1,0,0:0:0:100:LR_Kick Beat 2.wav
329,192,34404,1,0,0:0:0:0:
182,192,34404,1,0,0:0:0:0:
256,192,34529,1,0,0:0:0:0:
402,192,34529,1,0,0:0:0:0:
36,192,34529,1,0,0:0:0:0:
475,192,34529,1,0,0:0:0:0:
475,192,34654,1,0,0:0:0:100:LR_Kick Beat 2.wav
402,192,34654,1,0,0:0:0:50:LR_Snare Hat 2.wav
182,192,34779,1,0,0:0:0:75:LR_Snare Hat 2.wav
109,192,34779,1,0,0:0:0:100:LR_Kick Beat 2.wav
182,192,34904,1,0,0:0:0:100:LR_Snare Hat 2.wav
109,192,34904,1,0,0:0:0:100:LR_Kick Beat 2.wav
402,192,35029,128,0,38904:0:0:0:20:drum-hitnormal69.wav
109,192,38904,128,0,40029:0:0:0:50:LR3_GreatDrum.wav
256,192,39779,128,0,40029:0:0:0:50:LR3_GreatDrum.wav
475,192,39966,1,0,0:0:0:30:LR_Kick Loud Bass Drop.wav
402,192,40029,1,0,0:0:0:30:LR_Kick Loud Bass Drop.wav
329,192,40029,1,0,0:0:0:35:LR_Drum J Hit Med Bass.wav
36,192,40435,1,0,0:0:0:100:LR3_GreatDrum.wav
182,192,40497,1,0,0:0:0:44:LR_Drum J Hit Med Bass.wav
402,192,40497,1,0,0:0:0:66:LR_Kick Drum Fast.wav
36,192,40779,1,0,0:0:0:40:LR_Drum Rim Fast.wav
36,192,40987,1,0,0:0:0:100:LR3_GreatDrum.wav
182,192,41029,1,0,0:0:0:45:LR_Drum EDge.wav
329,192,41029,128,0,41529:0:0:0:32:LR_J Hit.wav
109,192,41404,1,0,0:0:0:33:LR_Drum EDge.wav
402,192,41529,128,0,41779:0:0:0:60:LR3_GreatDrum.wav
36,192,41529,1,0,0:0:0:50:LR_Drum Rim Fast.wav
36,192,41779,1,0,0:0:0:28:LR_Snare Hat 2.wav
475,192,41779,128,0,42279:0:0:0:60:LR3_GreatDrum.wav
182,192,41904,1,0,0:0:0:45:LR_Kick Drum Fast.wav
36,192,42029,1,0,0:0:0:33:LR_Drum J Hit Med Bass.wav
182,192,42154,1,0,0:0:0:30:LR3_GreatDrum.wav
329,192,42279,128,0,42529:0:0:0:60:LR3_GreatDrum.wav
36,192,42279,1,0,0:0:0:28:LR_Snare Hat 2.wav
109,192,42404,1,0,0:0:0:33:LR_Drum J Hit Med Bass.wav
475,192,42529,128,0,42779:0:0:0:60:LR3_GreatDrum.wav
182,192,42529,1,0,0:0:0:44:LR_Kick Drum Fast.wav
36,192,42779,1,0,0:0:0:44:LR_Drum Rim Fast.wav
402,192,42779,128,0,43029:0:0:0:60:LR3_GreatDrum.wav
329,192,43029,128,0,43279:0:0:0:60:LR3_GreatDrum.wav
182,192,43029,1,2,2:0:0:50:LR3_KFDF.wav
109,192,43029,1,0,0:0:0:25:LR_Chm Whistle Short.wav
36,192,43404,1,0,0:0:0:33:LR_Chm Whistle Short.wav
109,192,43466,1,2,2:0:0:39:LR3_SWDSH.wav
329,192,43529,128,0,43779:0:0:0:60:LR3_GreatDrum.wav
182,192,43529,1,0,0:0:0:55:LR_Drum Rim Fast.wav
182,192,43779,1,0,0:0:0:25:LR_Chm Whistle Short.wav
475,192,43779,128,0,44029:0:0:0:60:LR3_GreatDrum.wav
109,192,43904,1,0,0:0:0:33:LR_Drum J Hit Med Bass.wav
182,192,43935,1,0,0:0:0:40:LR_Drum J Hit Med Bass.wav
329,192,44029,1,0,0:0:0:44:LR_Kick Beat 2.wav
256,192,44029,1,0,0:0:0:23:LR_Drum Barrel Finish.wav
402,192,44029,1,0,0:0:0:0:
182,192,44310,1,0,0:0:0:25:LR_Kick Low Strong Beat.wav
109,192,44310,1,0,0:0:0:30:LR_Kick Drum Fast.wav
36,192,44310,1,0,0:0:0:44:LR_J Hit Pong.wav
256,192,44435,1,0,0:0:0:44:LR3_GreatDrum.wav
329,192,44529,1,0,0:0:0:40:LR_Drum Barrel Finish.wav
182,192,44779,1,0,0:0:0:25:LR_Kick Low Strong Beat.wav
109,192,44779,1,0,0:0:0:30:LR_Kick Drum Fast.wav
36,192,44779,1,0,0:0:0:44:LR_J Hit Pong.wav
256,192,44935,1,0,0:0:0:44:LR_Drum Rim Fast.wav
329,192,44997,1,0,0:0:0:44:LR_Hit Snare Soft.wav
402,192,45029,128,0,45529:0:0:0:40:LR_Kick Loud Bass Drop.wav
36,192,45310,1,0,0:0:0:44:LR_J Hit Pong.wav
109,192,45310,1,0,0:0:0:30:LR_Kick Drum Fast.wav
182,192,45310,1,0,0:0:0:25:LR_Kick Low Strong Beat.wav
256,192,45435,1,0,0:0:0:34:LR_Drum Rim Fast.wav
329,192,45529,128,0,45779:0:0:0:60:LR3_GreatDrum.wav
402,192,45779,128,0,45904:0:0:0:60:LR3_GreatDrum.wav
182,192,45779,1,0,0:0:0:25:LR_Kick Low Strong Beat.wav
109,192,45779,1,0,0:0:0:30:LR_Kick Drum Fast.wav
36,192,45779,1,0,0:0:0:44:LR_J Hit Pong.wav
329,192,45904,128,0,46029:0:0:0:60:LR3_GreatDrum.wav
475,192,46029,128,0,46279:2:0:0:60:LR3_AGG F6.wav
329,192,46279,128,0,46529:0:0:0:60:LR3_GreatDrum.wav
36,192,46279,1,0,0:0:0:44:LR_J Hit Pong.wav
109,192,46279,1,0,0:0:0:30:LR_Kick Drum Fast.wav
182,192,46279,1,0,0:0:0:25:LR_Kick Low Strong Beat.wav
402,192,46529,128,0,46654:0:0:0:45:LR3_AGG C6.wav
182,192,46779,1,0,0:0:0:25:LR_Kick Low Strong Beat.wav
109,192,46779,1,0,0:0:0:30:LR_Kick Drum Fast.wav
36,192,46779,1,0,0:0:0:44:LR_J Hit Pong.wav
402,192,46779,128,0,47029:0:0:0:60:LR3_GreatDrum.wav
475,192,47029,128,0,47529:0:0:0:52:LR_Chm loong.wav
182,192,47029,1,0,0:0:0:34:LR_Drum Rim Fast.wav
36,192,47279,1,0,0:0:0:44:LR_J Hit Pong.wav
109,192,47279,1,0,0:0:0:30:LR_Kick Drum Fast.wav
182,192,47279,1,0,0:0:0:25:LR_Kick Low Strong Beat.wav
256,192,47435,1,0,0:0:0:44:LR3_GreatDrum.wav
329,192,47497,1,0,0:0:0:40:LR_Drum Barrel Finish.wav
182,192,47779,1,0,0:0:0:25:LR_Kick Low Strong Beat.wav
475,192,47779,128,0,47904:0:0:0:60:LR3_GreatDrum.wav
329,192,47779,1,0,0:0:0:0:
36,192,47862,1,0,0:0:0:44:LR3_GreatDrum.wav
402,192,47904,128,0,48029:0:0:0:60:LR3_GreatDrum.wav
329,192,48029,1,2,2:0:0:0:
109,192,48029,1,0,0:0:0:50:LR_Kick Drum Fast.wav
182,192,48029,1,0,0:0:0:25:LR_Kick Loud Bass Drop.wav
182,192,48445,1,0,0:0:0:44:LR3_GreatDrum.wav
402,192,48529,1,0,0:0:0:50:LR_Drum Rim Fast.wav
109,192,48529,1,0,0:0:0:38:LR_Kick Loud Bass Drop.wav
36,192,48779,1,0,0:0:0:40:LR_Drum Rim Fast.wav
182,192,48997,1,0,0:0:0:44:LR_Kick Loud Bass Drop.wav
109,192,48997,1,0,0:0:0:44:LR_Drum J Hit Med Bass.wav
475,192,48997,128,0,49529:0:0:0:70:LR3_GreatDrum.wav
256,192,48997,1,0,0:0:0:44:LR3_GreatDrum.wav
36,192,49372,1,0,0:0:0:42:LR3_AGG C6.wav
329,192,49529,128,0,49779:0:0:0:70:LR3_GreatDrum.wav
36,192,49716,1,0,0:0:0:44:LR3_GreatDrum.wav
182,192,49779,1,0,0:0:0:42:LR3_AGG C6.wav
475,192,49779,128,0,50279:0:0:0:70:LR3_GreatDrum.wav
182,192,49935,1,0,0:0:0:44:LR3_GreatDrum.wav
109,192,50029,1,0,0:0:0:33:LR_Drum J Hit Med Bass.wav
402,192,50279,128,0,50529:0:0:0:70:LR3_GreatDrum.wav
182,192,50529,1,0,0:0:0:50:LR3_GreatDrum.wav
36,192,50529,1,0,0:0:0:40:LR_Kick Drum Fast.wav
329,192,50529,128,0,50779:0:0:0:50:LR3_GreatDrum.wav
256,192,50654,1,0,0:0:0:28:LR3_AGG C6.wav
402,192,50779,128,0,51029:0:0:0:40:LR3_GreatDrum.wav
109,192,50779,1,0,0:0:0:40:LR3_GreatDrum.wav
182,192,51029,1,0,0:0:0:50:LR_Drum Rim Fast.wav
475,192,51029,128,0,51279:0:0:0:70:LR3_GreatDrum.wav
329,192,51279,128,0,51529:0:0:0:70:LR3_GreatDrum.wav
182,192,51435,1,0,0:0:0:60:LR_Drum Rim Fast.wav
475,192,51529,128,0,51779:0:0:0:70:LR3_GreatDrum.wav
402,192,51779,128,0,52029:0:0:0:70:LR3_GreatDrum.wav
182,192,51862,1,0,0:0:0:33:LR_Drum Rim Fast.wav
109,192,51935,1,0,0:0:0:45:LR_Drum Rim Fast.wav
36,192,52029,1,0,0:0:0:45:LR_Drum Rim Fast.wav
329,192,52029,128,0,52404:0:0:0:70:LR3_GreatDrum.wav
182,192,52029,1,0,0:0:0:50:LR_Drum J Hit Med Bass.wav
36,192,52310,1,0,0:0:0:44:LR_J Hit Pong.wav
182,192,52310,1,0,0:0:0:25:LR_Kick Low Strong Beat.wav
256,192,52310,1,0,0:0:0:0:
402,192,52404,128,0,52779:0:0:0:70:LR3_GreatDrum.wav
109,192,52529,1,0,0:0:0:30:LR_Kick Drum Fast.wav
182,192,52779,1,0,0:0:0:25:LR_Kick Low Strong Beat.wav
36,192,52779,1,0,0:0:0:44:LR_J Hit Pong.wav
329,192,52779,128,0,53029:0:0:0:70:LR3_GreatDrum.wav
256,192,52779,1,0,0:0:0:0:
109,192,53029,1,0,0:0:0:30:LR_Kick Drum Fast.wav
402,192,53029,128,0,53529:0:0:0:70:LR3_GreatDrum.wav
36,192,53310,1,0,0:0:0:44:LR_J Hit Pong.wav
182,192,53310,1,0,0:0:0:25:LR_Kick Low Strong Beat.wav
256,192,53310,1,0,0:0:0:0:
109,192,53529,1,0,0:0:0:30:LR_Kick Drum Fast.wav
182,192,53779,1,0,0:0:0:25:LR_Kick Low Strong Beat.wav
36,192,53779,1,0,0:0:0:44:LR_J Hit Pong.wav
475,192,53779,128,0,53904:0:0:0:70:LR3_GreatDrum.wav
256,192,53779,1,0,0:0:0:0:
402,192,53904,128,0,54029:0:0:0:70:LR3_GreatDrum.wav
256,192,54029,1,0,0:0:0:44:LR_Drum Rim Fast.wav
329,192,54029,1,0,0:0:0:40:LR_Kick Drum Fast.wav
36,192,54029,128,0,55029:0:0:0:52:LR3_AGG F6.wav
329,192,54195,1,0,0:0:0:40:LR_Kick Drum Fast.wav
256,192,54195,1,0,0:0:0:40:LR_Kick Drum Fast.wav
182,192,54279,1,0,0:0:0:40:LR_Kick Drum Fast.wav
109,192,54279,1,0,0:0:0:40:LR_Kick Loud Bass Drop.wav
182,192,54529,1,0,0:0:0:40:LR_Kick Loud Bass Drop.wav
109,192,54529,1,0,0:0:0:40:LR_Kick Drum Fast.wav
329,192,54779,1,0,0:0:0:35:LR_Drum Rim Fast.wav
475,192,54904,1,0,0:0:0:40:LR_Kick Drum Fast.wav
329,192,54966,1,0,0:0:0:44:LR_Hit Snare Soft.wav
256,192,55029,1,0,0:0:0:40:LR_J Hit.wav
109,192,55029,1,0,0:0:0:40:LR_Kick Loud Bass Drop.wav
36,192,55195,1,0,0:0:0:33:LR_Drum J Hit Med Bass.wav
109,192,55195,1,0,0:0:0:30:LR_Kick Drum Fast.wav
402,192,55195,1,0,0:0:0:40:LR_Drum Rim Fast.wav
475,192,55195,1,0,0:0:0:33:LR_Drum J Hit Med Bass.wav
182,192,55279,1,0,0:0:0:100:LR_Drum Rim Fast.wav
256,192,55279,1,0,0:0:0:25:LR_Drum J Hit Med Bass.wav
329,192,55279,1,0,0:0:0:100:LR_Drum Rim Fast.wav
36,192,55404,1,0,0:0:0:33:LR_Drum J Hit Med Bass.wav
109,192,55404,1,0,0:0:0:30:LR_Kick Drum Fast.wav
475,192,55404,1,0,0:0:0:33:LR_Drum J Hit Med Bass.wav
402,192,55404,1,0,0:0:0:40:LR_Drum Rim Fast.wav
256,192,55529,1,0,0:0:0:25:LR_Drum J Hit Med Bass.wav
329,192,55529,1,0,0:0:0:30:LR_Drum Barrel Finish.wav
182,192,55529,1,0,0:0:0:30:LR_Drum Barrel Finish.wav
475,192,55695,1,0,0:0:0:33:LR_Drum J Hit Med Bass.wav
402,192,55695,1,0,0:0:0:40:LR_Drum Rim Fast.wav
36,192,55695,1,0,0:0:0:33:LR_Drum J Hit Med Bass.wav
109,192,55695,1,0,0:0:0:30:LR_Kick Drum Fast.wav
182,192,55779,1,0,0:0:0:30:LR_Drum Barrel Finish.wav
256,192,55779,1,0,0:0:0:25:LR_Drum J Hit Med Bass.wav
329,192,55779,1,0,0:0:0:30:LR_Drum Barrel Finish.wav
329,192,56029,1,0,0:0:0:100:LR_Drum Rim Fast.wav
256,192,56029,1,0,0:0:0:25:LR_Drum J Hit Med Bass.wav
182,192,56029,1,0,0:0:0:100:LR_Drum Rim Fast.wav
36,192,56279,1,0,0:0:0:25:LR_Snare Hat 2.wav
475,192,56279,1,0,0:0:0:25:LR_Snare Hat 2.wav
182,192,56404,1,0,0:0:0:33:LR_Clap hollow echo.wav
329,192,56404,1,0,0:0:0:33:LR_Clap hollow echo.wav
256,192,56404,1,0,0:0:0:70:LR_Snare Fast.wav
475,192,56529,1,0,0:0:0:78:LR_Kick Drum Fast.wav
109,192,56529,1,0,0:0:0:22:LR_Drum Barrel Finish.wav
402,192,56654,1,0,0:0:0:33:LR3_GreatDrum.wav
36,192,56654,1,0,0:0:0:33:LR3_GreatDrum.wav
329,192,56779,1,0,0:0:0:33:LR_Clap hollow echo.wav
256,192,56779,1,0,0:0:0:70:LR_Snare Fast.wav
182,192,56779,1,0,0:0:0:33:LR_Clap hollow echo.wav
36,192,56904,1,0,0:0:0:33:LR3_GreatDrum.wav
475,192,56904,1,0,0:0:0:33:LR3_GreatDrum.wav
182,192,57029,1,0,0:0:0:78:LR_Kick Drum Fast.wav
329,192,57029,1,0,0:0:0:22:LR_Drum Barrel Finish.wav
36,192,57154,1,0,0:0:0:33:LR3_GreatDrum.wav
402,192,57154,1,0,0:0:0:33:LR3_GreatDrum.wav
109,192,57279,1,0,0:0:0:24:LR_Snare Hat 2.wav
475,192,57279,1,0,0:0:0:24:LR_Snare Hat 2.wav
182,192,57404,1,0,0:0:0:33:LR_Clap hollow echo.wav
256,192,57404,1,0,0:0:0:70:LR_Snare Fast.wav
329,192,57404,1,0,0:0:0:33:LR_Clap hollow echo.wav
36,192,57529,1,0,0:0:0:78:LR_Kick Drum Fast.wav
475,192,57529,1,0,0:0:0:22:LR_Drum Barrel Finish.wav
256,192,57654,1,0,0:0:0:33:LR3_GreatDrum.wav
402,192,57779,1,0,0:0:0:33:LR_Clap hollow echo.wav
182,192,57779,1,0,0:0:0:35:LR_Snare Fast.wav
109,192,57779,1,0,0:0:0:33:LR_Clap hollow echo.wav
329,192,57779,1,0,0:0:0:35:LR_Snare Fast.wav
256,192,58029,1,0,0:0:0:22:LR_Drum Barrel Finish.wav
36,192,58029,1,0,0:0:0:39:LR_Kick Drum Fast.wav
329,192,58029,1,0,0:0:0:39:LR_Kick Drum Fast.wav
182,192,58154,1,0,0:0:0:33:LR3_GreatDrum.wav
402,192,58154,1,0,0:0:0:33:LR3_GreatDrum.wav
36,192,58279,1,0,0:0:0:24:LR_Snare Hat 2.wav
256,192,58279,1,0,0:0:0:24:LR_Clap Drum hit.wav
329,192,58404,1,0,0:0:0:33:LR_Clap hollow echo.wav
109,192,58404,1,0,0:0:0:33:LR_Clap hollow echo.wav
402,192,58404,1,0,0:0:0:33:LR_Clap hollow echo.wav
182,192,58404,1,0,0:0:0:70:LR_Snare Fast.wav
256,192,58529,1,0,0:0:0:22:LR_Drum Barrel Finish.wav
36,192,58529,1,0,0:0:0:44:LR_Drum Rim Fast.wav
182,192,58654,1,0,0:0:0:24:LR_Snare Hat 2.wav
475,192,58654,1,0,0:0:0:24:LR_Snare Hat 2.wav
329,192,58779,1,0,0:0:0:33:LR_Clap hollow echo.wav
109,192,58779,1,0,0:0:0:33:LR_Clap hollow echo.wav
402,192,58779,1,0,0:0:0:33:LR_Clap hollow echo.wav
36,192,58779,1,0,0:0:0:70:LR_Snare Fast.wav
182,192,58904,1,0,0:0:0:33:LR3_GreatDrum.wav
475,192,58904,1,0,0:0:0:33:LR3_GreatDrum.wav
256,192,59029,1,0,0:0:0:11:LR_Drum Barrel Finish.wav
36,192,59029,1,0,0:0:0:78:LR_Kick Drum Fast.wav
329,192,59029,1,0,0:0:0:11:LR_Drum Barrel Finish.wav
475,192,59154,1,0,0:0:0:33:LR_Clap hollow echo.wav
402,192,59154,1,0,0:0:0:55:LR_Snare Fast.wav
182,192,59154,1,0,0:0:0:33:LR_Clap hollow echo.wav
36,192,59279,1,0,0:0:0:24:LR_Snare Hat 2.wav
256,192,59279,1,0,0:0:0:12:LR_Snare Hat 2.wav
109,192,59279,1,0,0:0:0:26:LR_Kick Drum Fast.wav
475,192,59404,1,0,0:0:0:55:LR_Snare Fast.wav
402,192,59404,1,0,0:0:0:33:LR_Clap hollow echo.wav
182,192,59404,1,0,0:0:0:33:LR_Clap hollow echo.wav
109,192,59529,1,0,0:0:0:26:LR_Kick Drum Fast.wav
256,192,59529,1,0,0:0:0:35:LR_Snare Fast.wav
329,192,59529,1,0,0:0:0:26:LR_Kick Drum Fast.wav
36,192,59529,1,0,0:0:0:18:LR_Snare Fast.wav
402,192,59654,1,0,0:0:0:33:LR3_GreatDrum.wav
256,192,59779,1,0,0:0:0:18:LR_Snare Fast.wav
329,192,59779,1,0,0:0:0:33:LR_Clap hollow echo.wav
36,192,59779,1,0,0:0:0:18:LR_Snare Fast.wav
109,192,59779,1,0,0:0:0:78:LR_Kick Drum Fast.wav
475,192,60029,1,0,0:0:0:22:LR_Drum Barrel Finish.wav
182,192,60029,1,0,0:0:0:78:LR_Kick Drum Fast.wav
256,192,60029,1,0,0:0:0:39:LR_Snare Hat 2.wav
402,192,60154,1,0,0:0:0:33:LR3_GreatDrum.wav
109,192,60154,1,0,0:0:0:33:LR3_GreatDrum.wav
36,192,60279,1,0,0:0:0:24:LR_Snare Hat 2.wav
329,192,60279,1,0,0:0:0:24:LR_Snare Hat 2.wav
182,192,60404,1,0,0:0:0:35:LR_Snare Fast.wav
402,192,60404,1,0,0:0:0:35:LR_Snare Fast.wav
109,192,60404,1,0,0:0:0:33:LR_Clap hollow echo.wav
475,192,60404,1,0,0:0:0:33:LR_Clap hollow echo.wav
475,192,60654,1,0,0:0:0:16:LR3_GreatDrum.wav
402,192,60654,1,0,0:0:0:16:LR3_GreatDrum.wav
109,192,60654,1,0,0:0:0:16:LR3_GreatDrum.wav
182,192,60654,1,0,0:0:0:16:LR3_GreatDrum.wav
109,192,60904,1,0,0:0:0:16:LR3_GreatDrum.wav
182,192,60904,1,0,0:0:0:16:LR3_GreatDrum.wav
475,192,60904,1,0,0:0:0:16:LR3_GreatDrum.wav
402,192,60904,1,0,0:0:0:16:LR3_GreatDrum.wav
329,192,61029,1,0,0:0:0:22:LR_Drum Barrel Finish.wav
36,192,61029,1,0,0:0:0:78:LR_Kick Drum Fast.wav
256,192,61029,1,0,0:0:0:44:LR_Snare Hat 2.wav
109,192,61154,1,0,0:0:0:33:LR3_GreatDrum.wav
402,192,61154,1,0,0:0:0:33:LR3_GreatDrum.wav
475,192,61279,1,0,0:0:0:24:LR_Snare Hat 2.wav
182,192,61279,1,0,0:0:0:24:LR_Snare Hat 2.wav
36,192,61404,1,0,0:0:0:33:LR_Clap hollow echo.wav
109,192,61404,1,0,0:0:0:35:LR_Snare Fast.wav
402,192,61404,1,0,0:0:0:33:LR_Clap hollow echo.wav
329,192,61404,1,0,0:0:0:35:LR_Snare Fast.wav
109,192,61654,1,0,0:0:0:16:LR3_GreatDrum.wav
329,192,61654,1,0,0:0:0:16:LR3_GreatDrum.wav
36,192,61654,1,0,0:0:0:16:LR3_GreatDrum.wav
402,192,61654,1,0,0:0:0:16:LR3_GreatDrum.wav
109,192,61904,1,0,0:0:0:16:LR3_GreatDrum.wav
329,192,61904,1,0,0:0:0:16:LR3_GreatDrum.wav
36,192,61904,1,0,0:0:0:16:LR3_GreatDrum.wav
402,192,61904,1,0,0:0:0:16:LR3_GreatDrum.wav
256,192,62029,1,0,0:0:0:22:LR_Drum Barrel Finish.wav
182,192,62029,1,0,0:0:0:44:LR_Snare Hat 2.wav
475,192,62029,1,0,0:0:0:78:LR_Kick Drum Fast.wav
109,192,62154,1,0,0:0:0:33:LR3_GreatDrum.wav
402,192,62154,1,0,0:0:0:33:LR3_GreatDrum.wav
36,192,62279,1,0,0:0:0:24:LR_Snare Hat 2.wav
329,192,62279,1,0,0:0:0:24:LR_Snare Hat 2.wav
182,192,62404,1,0,0:0:0:50:LR_Snare Fast.wav
402,192,62404,1,0,0:0:0:50:LR_Clap hollow echo.wav
256,192,62404,1,0,0:0:0:33:LR_Clap hollow echo.wav
329,192,62529,1,0,0:0:0:22:LR_Drum Barrel Finish.wav
109,192,62529,1,0,0:0:0:78:LR_Kick Drum Fast.wav
182,192,62654,1,0,0:0:0:33:LR3_GreatDrum.wav
475,192,62654,1,0,0:0:0:33:LR3_GreatDrum.wav
402,192,62779,1,0,0:0:0:50:LR_Clap hollow echo.wav
36,192,62779,1,0,0:0:0:50:LR_Snare Fast.wav
256,192,62779,1,0,0:0:0:33:LR_Clap hollow echo.wav
182,192,62904,1,0,0:0:0:33:LR3_GreatDrum.wav
329,192,62904,1,0,0:0:0:33:LR3_GreatDrum.wav
36,192,63029,1,0,0:0:0:78:LR_Kick Drum Fast.wav
475,192,63029,1,0,0:0:0:22:LR_Drum Barrel Finish.wav
402,192,63029,1,0,0:0:0:22:LR_Drum Rim Fast.wav
109,192,63154,1,0,0:0:0:26:LR_Kick Loud Bass Drop.wav
256,192,63216,1,0,0:0:0:55:LR_Kick Drum Fast.wav
182,192,63216,1,0,0:0:0:24:LR_Drum J Hit Med Bass.wav
402,192,63279,1,0,0:0:0:33:LR_Drum Barrel Finish.wav
329,192,63279,1,0,0:0:0:25:LR_Kick Loud Bass Drop.wav
182,192,63404,1,0,0:0:0:45:LR_Clap hollow echo.wav
109,192,63404,1,0,0:0:0:24:LR_Drum J Hit Med Bass.wav
36,192,63404,1,0,0:0:0:26:LR_Kick Loud Bass Drop.wav
329,192,63529,1,0,0:0:0:33:LR_Drum Barrel Finish.wav
256,192,63529,1,0,0:0:0:25:LR_Kick Loud Bass Drop.wav
109,192,63654,1,0,0:0:0:55:LR_Kick Drum Fast.wav
402,192,63779,1,0,0:0:0:45:LR_Clap hollow echo.wav
475,192,63779,1,0,0:0:0:33:LR_Clap hollow echo.wav
329,192,63779,1,0,0:0:0:33:LR_Clap hollow echo.wav
182,192,63904,1,0,0:0:0:55:LR_Kick Drum Fast.wav
36,192,64029,1,0,0:0:0:22:LR_Drum Barrel Finish.wav
402,192,64029,1,0,0:0:0:22:LR_Kick Loud Bass Drop.wav
256,192,64029,1,0,0:0:0:78:LR_Kick Drum Fast.wav
475,192,64029,1,0,0:0:0:22:LR_Drum Barrel Finish.wav
182,192,64279,1,0,0:0:0:24:LR_Snare Hat 2.wav
475,192,64279,1,0,0:0:0:24:LR_Snare Hat 2.wav
109,192,64404,1,0,0:0:0:33:LR_Clap hollow echo.wav
329,192,64404,1,0,0:0:0:50:LR_Clap hollow echo.wav
36,192,64404,1,0,0:0:0:50:LR_Snare Fast.wav
475,192,64529,1,0,0:0:0:26:LR_Kick Drum Fast.wav
402,192,64529,1,0,0:0:0:22:LR_Drum Barrel Finish.wav
256,192,64529,1,0,0:0:0:78:LR_Kick Drum Fast.wav
182,192,64529,1,0,0:0:0:26:LR_Kick Drum Fast.wav
109,192,64654,1,0,0:0:0:33:LR3_GreatDrum.wav
329,192,64654,1,0,0:0:0:33:LR3_GreatDrum.wav
475,192,64779,1,0,0:0:0:50:LR_Clap hollow echo.wav
36,192,64779,1,0,0:0:0:50:LR_Snare Fast.wav
256,192,64779,1,0,0:0:0:33:LR_Clap hollow echo.wav
182,192,64904,1,0,0:0:0:33:LR3_GreatDrum.wav
402,192,64904,1,0,0:0:0:33:LR3_GreatDrum.wav
475,192,65029,1,0,0:0:0:26:LR_Kick Drum Fast.wav
329,192,65029,1,0,0:0:0:22:LR_Drum Barrel Finish.wav
36,192,65029,1,0,0:0:0:26:LR_Kick Drum Fast.wav
109,192,65029,1,0,0:0:0:78:LR_Kick Drum Fast.wav
182,192,65154,1,0,0:0:0:33:LR3_GreatDrum.wav
402,192,65154,1,0,0:0:0:33:LR3_GreatDrum.wav
475,192,65279,1,0,0:0:0:24:LR_Snare Hat 2.wav
109,192,65279,1,0,0:0:0:24:LR_Snare Hat 2.wav
256,192,65404,1,0,0:0:0:50:LR_Clap hollow echo.wav
182,192,65404,1,0,0:0:0:50:LR_Snare Fast.wav
329,192,65404,1,0,0:0:0:50:LR_Clap hollow echo.wav
109,192,65529,1,0,0:0:0:39:LR_Kick Drum Fast.wav
475,192,65529,1,0,0:0:0:11:LR_Drum Barrel Finish.wav
402,192,65529,1,0,0:0:0:11:LR_Drum Barrel Finish.wav
36,192,65529,1,0,0:0:0:39:LR_Kick Drum Fast.wav
256,192,65654,1,0,0:0:0:33:LR3_GreatDrum.wav
109,192,65779,1,0,0:0:0:33:LR_Clap hollow echo.wav
329,192,65779,1,0,0:0:0:35:LR_Snare Fast.wav
182,192,65779,1,0,0:0:0:35:LR_Snare Fast.wav
402,192,65779,1,0,0:0:0:33:LR_Clap hollow echo.wav
256,192,65904,1,0,0:0:0:33:LR3_GreatDrum.wav
109,192,66029,1,0,0:0:0:39:LR_Kick Drum Fast.wav
402,192,66029,1,0,0:0:0:11:LR_Drum Barrel Finish.wav
36,192,66029,1,0,0:0:0:39:LR_Kick Drum Fast.wav
475,192,66029,1,0,0:0:0:11:LR_Drum Barrel Finish.wav
329,192,66154,1,0,0:0:0:33:LR3_GreatDrum.wav
182,192,66154,1,0,0:0:0:33:LR3_GreatDrum.wav
402,192,66279,1,0,0:0:0:24:LR_Snare Hat 2.wav
109,192,66279,1,0,0:0:0:24:LR_Snare Hat 2.wav
256,192,66404,1,0,0:0:0:50:LR_Clap hollow echo.wav
36,192,66404,1,0,0:0:0:50:LR_Snare Fast.wav
475,192,66404,1,0,0:0:0:50:LR_Clap hollow echo.wav
109,192,66529,1,0,0:0:0:78:LR_Kick Drum Fast.wav
182,192,66529,1,0,0:0:0:26:LR_Kick Drum Fast.wav
329,192,66529,1,0,0:0:0:22:LR_Drum Barrel Finish.wav
402,192,66529,1,0,0:0:0:26:LR_Kick Drum Fast.wav
36,192,66654,1,0,0:0:0:33:LR3_GreatDrum.wav
475,192,66654,1,0,0:0:0:33:LR3_GreatDrum.wav
256,192,66779,1,0,0:0:0:50:LR_Clap hollow echo.wav
109,192,66779,1,0,0:0:0:50:LR_Snare Fast.wav
402,192,66779,1,0,0:0:0:50:LR_Clap hollow echo.wav
182,192,66904,1,0,0:0:0:24:LR_Snare Hat 2.wav
329,192,66904,1,0,0:0:0:24:LR_Snare Hat 2.wav
36,192,67029,1,0,0:0:0:22:LR_Drum Barrel Finish.wav
475,192,67029,1,0,0:0:0:26:LR_Kick Drum Fast.wav
109,192,67029,1,0,0:0:0:78:LR_Kick Drum Fast.wav
402,192,67029,1,0,0:0:0:26:LR_Kick Drum Fast.wav
329,192,67154,1,0,0:0:0:50:LR_Clap hollow echo.wav
182,192,67154,1,0,0:0:0:50:LR_Snare Fast.wav
475,192,67279,128,0,67529:0:0:0:33:LR3_GreatDrum.wav
36,192,67279,128,0,67529:0:0:0:33:LR3_GreatDrum.wav
256,192,67279,128,0,67529:0:0:0:44:LR_Hit Snare Soft.wav
182,192,67529,1,0,0:0:0:39:LR_Kick Drum Fast.wav
402,192,67529,1,0,0:0:0:22:LR_Drum Barrel Finish.wav
109,192,67529,1,0,0:0:0:39:LR_Kick Drum Fast.wav
329,192,67529,1,0,0:0:0:44:LR3_GreatDrum.wav
182,192,67904,1,0,0:0:0:14:LR3_GreatDrum.wav
109,192,67904,1,0,0:0:0:14:LR3_GreatDrum.wav
256,192,68029,1,0,0:0:0:14:LR3_GreatDrum.wav
329,192,68029,1,0,0:0:0:14:LR3_GreatDrum.wav
402,192,68029,1,0,0:0:0:22:LR_Drum Barrel Finish.wav
36,192,68029,1,0,0:0:0:78:LR_Kick Drum Fast.wav
182,192,68154,1,0,0:0:0:33:LR3_GreatDrum.wav
475,192,68154,1,0,0:0:0:33:LR3_GreatDrum.wav
109,192,68279,1,0,0:0:0:24:LR_Snare Hat 2.wav
402,192,68279,1,0,0:0:0:24:LR_Snare Hat 2.wav
182,192,68404,1,0,0:0:0:33:LR_Clap hollow echo.wav
329,192,68404,1,0,0:0:0:50:LR_Clap hollow echo.wav
36,192,68404,1,0,0:0:0:50:LR_Snare Fast.wav
109,192,68529,1,0,0:0:0:26:LR_Kick Drum Fast.wav
256,192,68529,1,0,0:0:0:78:LR_Kick Drum Fast.wav
475,192,68529,1,0,0:0:0:26:LR_Kick Drum Fast.wav
402,192,68529,1,0,0:0:0:22:LR_Drum Barrel Finish.wav
36,192,68654,1,0,0:0:0:33:LR3_GreatDrum.wav
329,192,68654,1,0,0:0:0:33:LR3_GreatDrum.wav
402,192,68779,1,0,0:0:0:33:LR_Clap hollow echo.wav
109,192,68779,1,0,0:0:0:50:LR_Snare Fast.wav
475,192,68779,1,0,0:0:0:50:LR_Clap hollow echo.wav
182,192,68904,1,0,0:0:0:33:LR3_GreatDrum.wav
329,192,68904,1,0,0:0:0:33:LR3_GreatDrum.wav
475,192,69029,1,0,0:0:0:26:LR_Kick Drum Fast.wav
109,192,69029,1,0,0:0:0:22:LR_Drum Barrel Finish.wav
36,192,69029,1,0,0:0:0:26:LR_Kick Drum Fast.wav
256,192,69029,1,0,0:0:0:78:LR_Kick Drum Fast.wav
182,192,69154,1,0,0:0:0:33:LR3_GreatDrum.wav
402,192,69154,1,0,0:0:0:33:LR3_GreatDrum.wav
36,192,69279,1,0,0:0:0:24:LR_Snare Hat 2.wav
475,192,69279,1,0,0:0:0:24:LR_Snare Hat 2.wav
182,192,69404,1,0,0:0:0:35:LR_Snare Fast.wav
402,192,69404,1,0,0:0:0:33:LR_Clap hollow echo.wav
109,192,69404,1,0,0:0:0:33:LR_Clap hollow echo.wav
329,192,69404,1,0,0:0:0:35:LR_Snare Fast.wav
182,192,69654,1,0,0:0:0:16:LR3_GreatDrum.wav
329,192,69654,1,0,0:0:0:16:LR3_GreatDrum.wav
109,192,69654,1,0,0:0:0:16:LR3_GreatDrum.wav
402,192,69654,1,0,0:0:0:16:LR3_GreatDrum.wav
182,192,69904,1,0,0:0:0:16:LR3_GreatDrum.wav
329,192,69904,1,0,0:0:0:16:LR3_GreatDrum.wav
109,192,69904,1,0,0:0:0:16:LR3_GreatDrum.wav
402,192,69904,1,0,0:0:0:16:LR3_GreatDrum.wav
36,192,70029,1,0,0:0:0:39:LR_Kick Drum Fast.wav
475,192,70029,1,0,0:0:0:22:LR_Drum Barrel Finish.wav
256,192,70029,1,0,0:0:0:39:LR_Kick Drum Fast.wav
329,192,70154,1,0,0:0:0:66:LR3_GreatDrum.wav
109,192,70279,1,0,0:0:0:22:LR_Snare Hat 2.wav
256,192,70279,1,0,0:0:0:22:LR_Snare Hat 2.wav
402,192,70279,1,0,0:0:0:22:LR_Snare Hat 2.wav
182,192,70404,1,0,0:0:0:50:LR_Clap hollow echo.wav
475,192,70529,1,0,0:0:0:22:LR_Drum Barrel Finish.wav
256,192,70529,1,0,0:0:0:39:LR_Kick Drum Fast.wav
36,192,70529,1,0,0:0:0:39:LR_Kick Drum Fast.wav
329,192,70654,1,0,0:0:0:66:LR3_GreatDrum.wav
109,192,70779,1,0,0:0:0:33:LR_Clap hollow echo.wav
256,192,70779,1,0,0:0:0:70:LR_Snare Fast.wav
402,192,70779,1,0,0:0:0:33:LR_Clap hollow echo.wav
182,192,70904,1,0,0:0:0:66:LR3_GreatDrum.wav
402,192,71029,1,0,0:0:0:39:LR_Kick Drum Fast.wav
256,192,71029,1,0,0:0:0:39:LR_Kick Drum Fast.wav
475,192,71029,1,0,0:0:0:22:LR_Drum Barrel Finish.wav
182,192,71154,1,0,0:0:0:24:LR_Drum J Hit Med Bass.wav
109,192,71154,1,0,0:0:0:26:LR_Kick Loud Bass Drop.wav
36,192,71154,1,0,0:0:0:55:LR_Kick Drum Fast.wav
402,192,71279,1,0,0:0:0:25:LR_Kick Loud Bass Drop.wav
329,192,71279,1,0,0:0:0:33:LR_Drum Barrel Finish.wav
182,192,71404,1,0,0:0:0:24:LR_Drum J Hit Med Bass.wav
109,192,71404,1,0,0:0:0:45:LR_Clap hollow echo.wav
36,192,71404,1,0,0:0:0:26:LR_Kick Loud Bass Drop.wav
402,192,71529,1,0,0:0:0:25:LR_Kick Loud Bass Drop.wav
475,192,71529,1,0,0:0:0:33:LR_Drum Barrel Finish.wav
182,192,71654,1,0,0:0:0:24:LR_Drum J Hit Med Bass.wav
256,192,71654,1,0,0:0:0:26:LR_Kick Loud Bass Drop.wav
109,192,71654,1,0,0:0:0:55:LR_Kick Drum Fast.wav
402,192,71779,1,0,0:0:0:45:LR_Clap hollow echo.wav
329,192,71779,1,0,0:0:0:25:LR_Kick Loud Bass Drop.wav
36,192,71904,1,0,0:0:0:24:LR_Drum J Hit Med Bass.wav
182,192,71904,1,0,0:0:0:55:LR_Kick Drum Fast.wav
109,192,71904,1,0,0:0:0:26:LR_Kick Loud Bass Drop.wav
329,192,72029,128,0,72279:0:0:0:45:LR3_BassFRT.wav
402,192,72029,128,0,72279:0:0:0:61:LR3_Kick LRBDS.wav
475,192,72029,128,0,72279:0:0:0:61:LR3_Kick LRBDS.wav
256,192,72029,1,0,0:0:0:45:LR3_BassFRT.wav
36,192,72279,128,0,72404:0:0:0:72:LR3_GreatDrum.wav
329,192,72404,128,0,72654:0:0:0:50:LR3_BassFRT FSQP.wav
475,192,72404,128,0,72654:0:0:0:61:LR3_Kick LRBDS.wav
109,192,72404,128,0,72529:0:0:0:72:LR3_GreatDrum.wav
182,192,72529,128,0,72654:0:0:0:72:LR3_GreatDrum.wav
329,192,72779,128,0,72904:0:0:0:50:LR3_BassFRT FSQP.wav
402,192,72779,128,0,72904:0:0:0:61:LR3_Kick LRBDS.wav
36,192,72779,128,0,72904:0:0:0:40:LR_Kick Loud Bass Drop.wav
256,192,73029,1,0,0:0:0:38:LR3_BassFRT.wav
329,192,73029,128,0,73779:0:0:0:38:LR3_BassFRT.wav
402,192,73029,128,0,73779:0:0:0:61:LR3_Kick LRBDS.wav
475,192,73029,128,0,73779:0:0:0:61:LR3_Kick LRBDS.wav
182,192,73029,128,0,73529:0:0:0:72:LR3_GreatDrum.wav
36,192,73529,128,0,74029:0:0:0:72:LR3_GreatDrum.wav
256,192,73779,1,0,0:0:0:61:LR3_Kick LRBDS.wav
329,192,74029,128,0,74279:0:0:0:52:LR3_BassFRT.wav
402,192,74029,128,0,74279:0:0:0:61:LR3_Kick LRBDS.wav
475,192,74029,128,0,74279:0:0:0:61:LR3_Kick LRBDS.wav
182,192,74029,128,0,74279:0:0:0:72:LR3_GreatDrum.wav
109,192,74279,128,0,74529:0:0:0:72:LR3_GreatDrum.wav
329,192,74404,128,0,74654:0:0:0:55:LR3_BassFRT FSQP.wav
402,192,74404,128,0,74654:0:0:0:61:LR3_Kick LRBDS.wav
36,192,74529,128,0,74966:0:0:0:72:LR3_GreatDrum.wav
329,192,74810,128,0,75654:0:0:0:46:LR3_BassFRT.wav
402,192,74810,128,0,75654:0:0:0:61:LR3_Kick LRBDS.wav
475,192,74810,128,0,75654:0:0:0:61:LR3_Kick LRBDS.wav
182,192,74810,1,0,0:0:0:100:LR_Snare Hat 2.wav
256,192,75060,128,0,75654:0:0:0:46:LR3_BassFRT.wav
182,192,75060,128,0,75279:0:0:0:100:LR_Snare Hat 2.wav
36,192,75279,128,0,75529:0:0:0:72:LR3_GreatDrum.wav
182,192,75529,128,0,75654:0:0:0:72:LR3_GreatDrum.wav
109,192,75779,1,0,0:0:0:22:LR_Snare Hat 2.wav
256,192,75779,1,0,0:0:0:22:LR_Snare Hat 2.wav
475,192,75779,1,0,0:0:0:61:LR3_Kick LRBDS.wav
402,192,75779,1,0,0:0:0:61:LR3_Kick LRBDS.wav
36,192,75779,128,0,76029:0:0:0:72:LR3_GreatDrum.wav
329,192,76029,128,0,76279:0:0:0:32:LR3_BassFRT FSQP.wav
402,192,76029,128,0,76279:0:0:0:61:LR3_Kick LRBDS.wav
475,192,76029,128,0,76279:0:0:0:61:LR3_Kick LRBDS.wav
182,192,76279,128,0,76529:0:0:0:72:LR3_GreatDrum.wav
329,192,76404,128,0,76654:0:0:0:32:LR3_BassFRT FSQP.wav
475,192,76404,128,0,76654:0:0:0:61:LR3_Kick LRBDS.wav
36,192,76529,1,0,0:0:0:72:LR3_GreatDrum.wav
329,192,76779,128,0,76904:0:0:0:48:LR3_BassFRT.wav
402,192,76779,128,0,76904:0:0:0:61:LR3_Kick LRBDS.wav
109,192,76779,1,0,0:0:0:72:LR3_GreatDrum.wav
256,192,77029,1,0,0:0:0:100:LR_Snare Hat 2.wav
329,192,77029,128,0,77529:0:0:0:44:LR3_BassFRT FSQP.wav
475,192,77029,128,0,77529:0:0:0:61:LR3_Kick LRBDS.wav
402,192,77029,128,0,77529:0:0:0:61:LR3_Kick LRBDS.wav
182,192,77029,128,0,77279:0:0:0:72:LR3_GreatDrum.wav
109,192,77279,128,0,77529:0:0:0:72:LR3_GreatDrum.wav
36,192,77529,128,0,77779:0:0:0:72:LR3_GreatDrum.wav
329,192,77779,128,0,77904:0:0:0:40:LR3_BassFRT.wav
402,192,77779,128,0,77904:0:0:0:61:LR3_Kick LRBDS.wav
475,192,77779,128,0,77904:0:0:0:61:LR3_Kick LRBDS.wav
182,192,77779,1,0,0:0:0:72:LR3_GreatDrum.wav
329,192,78029,128,0,78904:0:0:0:44:LR3_BassFRT FSQP.wav
402,192,78029,128,0,78904:0:0:0:61:LR3_Kick LRBDS.wav
475,192,78029,128,0,78904:0:0:0:61:LR3_Kick LRBDS.wav
109,192,78029,1,0,0:0:0:72:LR3_GreatDrum.wav
36,192,78279,128,0,78529:0:0:0:72:LR3_GreatDrum.wav
182,192,78529,128,0,78779:0:0:0:72:LR3_GreatDrum.wav
36,192,78779,128,0,79029:0:0:0:72:LR3_GreatDrum.wav
329,192,79029,1,0,0:0:0:40:LR_Kick Low Strong Beat.wav
402,192,79029,1,0,0:0:0:60:LR_Kick Drum Fast.wav
329,192,79154,1,0,0:0:0:50:LR_Snare Fast.wav
402,192,79154,1,0,0:0:0:50:LR_Snare Hat 2.wav
109,192,79279,1,0,0:0:0:50:LR_Snare Hat 2.wav
182,192,79279,1,0,0:0:0:50:LR_Snare Fast.wav
109,192,79404,1,0,0:0:0:60:LR_Kick Drum Fast.wav
182,192,79404,1,0,0:0:0:40:LR_Kick Low Strong Beat.wav
402,192,79529,1,0,0:0:0:36:LR_Kick Low Strong Beat.wav
329,192,79529,1,0,0:0:0:36:LR_Kick Low Strong Beat.wav
402,192,79654,1,0,0:0:0:36:LR_Kick Low Strong Beat.wav
329,192,79654,1,0,0:0:0:36:LR_Kick Low Strong Beat.wav
256,192,79779,1,0,0:0:0:36:LR_Kick Low Strong Beat.wav
182,192,79904,1,0,0:0:0:33:LR_Kick Low Strong Beat.wav
329,192,79904,1,0,0:0:0:50:LR_Hit Snare Soft.wav
182,192,80029,1,0,0:0:0:33:LR_Kick Low Strong Beat.wav
329,192,80029,1,0,0:0:0:50:LR_Hit Snare Soft.wav
402,192,80154,1,0,0:0:0:50:LR_Hit Snare Soft.wav
109,192,80154,1,0,0:0:0:33:LR_Kick Low Strong Beat.wav
402,192,80279,1,0,0:0:0:50:LR_Hit Snare Soft.wav
109,192,80279,1,0,0:0:0:33:LR_Kick Low Strong Beat.wav
36,192,80404,1,0,0:0:0:33:LR_Kick Low Strong Beat.wav
475,192,80404,1,0,0:0:0:50:LR_Hit Snare Soft.wav
109,192,80529,128,0,80904:0:0:0:33:LR_Hit Snare Soft.wav
402,192,80529,128,0,80904:0:0:0:50:LR_Hit Snare Soft.wav
256,192,81029,1,0,0:0:0:100:LR_Snare Hat 2.wav
329,192,81029,128,0,81529:0:0:0:58:LR3_BassFRT.wav
402,192,81029,128,0,81529:0:0:0:61:LR3_Kick LRBDS.wav
475,192,81029,128,0,81529:0:0:0:61:LR3_Kick LRBDS.wav
182,192,81029,128,0,81279:0:0:0:55:LR_Snare Hat 2.wav
36,192,81279,128,0,81529:0:0:0:72:LR3_GreatDrum.wav
182,192,81529,128,0,81779:0:0:0:72:LR3_GreatDrum.wav
329,192,81779,128,0,81904:0:0:0:50:LR3_BassFRT.wav
402,192,81779,128,0,81904:0:0:0:61:LR3_Kick LRBDS.wav
475,192,81779,128,0,81904:0:0:0:61:LR3_Kick LRBDS.wav
109,192,81779,1,0,0:0:0:72:LR3_GreatDrum.wav
329,192,82029,128,0,82279:0:0:0:50:LR3_BassFRT FSQP.wav
402,192,82029,128,0,82279:0:0:0:61:LR3_Kick LRBDS.wav
36,192,82029,1,0,0:0:0:72:LR3_GreatDrum.wav
182,192,82279,1,0,0:0:0:72:LR3_GreatDrum.wav
475,192,82404,128,0,82654:0:0:0:61:LR3_Kick LRBDS.wav
329,192,82404,128,0,82654:0:0:0:66:LR3_BassFRT FSQP.wav
36,192,82529,1,0,0:0:0:72:LR3_GreatDrum.wav
402,192,82779,128,0,82904:0:0:0:61:LR3_Kick LRBDS.wav
475,192,82779,128,0,82904:0:0:0:61:LR3_Kick LRBDS.wav
182,192,82779,1,0,0:0:0:55:LR_Snare Hat 2.wav
329,192,83029,128,0,83154:0:0:0:40:LR3_BassFRT.wav
475,192,83029,128,0,83154:0:0:0:61:LR3_Kick LRBDS.wav
109,192,83029,1,0,0:0:0:55:LR_Snare Hat 2.wav
329,192,83279,128,0,83654:0:0:0:55:LR3_BassFRT FSQP.wav
402,192,83279,128,0,83654:0:0:0:61:LR3_Kick LRBDS.wav
475,192,83279,128,0,83654:0:0:0:61:LR3_Kick LRBDS.wav
109,192,83279,1,0,0:0:0:72:LR3_GreatDrum.wav
182,192,83529,128,0,83779:0:0:0:72:LR3_GreatDrum.wav
329,192,83779,128,0,83904:0:0:0:40:LR3_BassFRT.wav
402,192,83779,128,0,83904:0:0:0:61:LR3_Kick LRBDS.wav
329,192,84029,128,0,84279:0:0:0:50:LR3_BassFRT FSQP.wav
402,192,84029,128,0,84279:0:0:0:61:LR3_Kick LRBDS.wav
475,192,84029,128,0,84279:0:0:0:61:LR3_Kick LRBDS.wav
36,192,84279,128,0,84529:0:0:0:72:LR3_GreatDrum.wav
475,192,84404,128,0,84654:0:0:0:61:LR3_Kick LRBDS.wav
402,192,84404,128,0,84654:0:0:0:61:LR3_Kick LRBDS.wav
109,192,84529,1,0,0:0:0:72:LR3_GreatDrum.wav
329,192,84779,128,0,84904:0:0:0:40:LR3_BassFRT.wav
475,192,84779,128,0,84904:0:0:0:61:LR3_Kick LRBDS.wav
182,192,84779,1,0,0:0:0:40:LR_Kick Loud Bass Drop.wav
329,192,85029,128,0,85529:0:0:0:60:LR3_BassFRT FSQP.wav
402,192,85029,128,0,85529:0:0:0:61:LR3_Kick LRBDS.wav
475,192,85029,128,0,86029:0:0:0:61:LR3_Kick LRBDS.wav
109,192,85029,128,0,85529:0:0:0:40:LR_Snare Hat 2.wav
256,192,85029,1,0,0:0:0:100:LR_Snare Hat 2.wav
182,192,85529,128,0,86029:0:0:0:72:LR3_GreatDrum.wav
329,192,86029,1,0,0:0:0:40:LR_Kick Low Strong Beat.wav
109,192,86029,128,0,87529:0:0:0:61:LR3_Kick LRBDS.wav
36,192,86029,128,0,87529:0:0:0:61:LR3_Kick LRBDS.wav
329,192,86154,1,0,0:0:0:40:LR_Kick Low Strong Beat.wav
329,192,86279,1,0,0:0:0:58:LR_Kick Low Strong Beat.wav
329,192,86779,1,0,0:0:0:38:LR_Kick Low Strong Beat.wav
329,192,86904,1,0,0:0:0:58:LR_Kick Low Strong Beat.wav
329,192,87154,1,0,0:0:0:38:LR_Kick Low Strong Beat.wav
329,192,87279,1,0,0:0:0:58:LR_Kick Low Strong Beat.wav
402,192,87529,1,0,0:0:0:50:LR_Kick Drum Fast.wav
329,192,87529,1,0,0:0:0:50:LR_Kick Low Strong Beat.wav
402,192,87654,1,0,0:0:0:50:LR_Kick Drum Fast.wav
329,192,87654,1,0,0:0:0:50:LR_Kick Low Strong Beat.wav
182,192,87779,1,0,0:0:0:50:LR_Kick Low Strong Beat.wav
109,192,87779,1,0,0:0:0:50:LR_Kick Drum Fast.wav
182,192,87904,1,0,0:0:0:33:LR_Kick Drum Fast.wav
109,192,87904,1,0,0:0:0:33:LR_Kick Drum Fast.wav
402,192,88029,1,0,0:0:0:40:LR_Drum Barrel Finish.wav
329,192,88029,1,0,0:0:0:35:LR_Drum J Hit Med Bass.wav
256,192,88029,1,0,0:0:0:60:LR_Kick Loud Bass Drop.wav
36,192,88029,1,0,0:0:0:40:LR_Drum Rim Fast.wav
182,192,88154,1,0,0:0:0:40:LR_Kick Drum Fast.wav
475,192,88279,1,0,0:0:0:40:LR_Snare Hat 2.wav
182,192,88404,1,0,0:0:0:30:LR_Snare Fast.wav
329,192,88404,1,0,0:0:0:50:LR_Kick Drum Fast.wav
36,192,88404,1,0,0:0:0:30:LR_Clap hollow echo.wav
475,192,88529,1,0,0:0:0:40:LR_Kick Loud Bass Drop.wav
402,192,88654,1,0,0:0:0:40:LR_Snare Hat 2.wav
182,192,88779,1,0,0:0:0:30:LR_Snare Fast.wav
329,192,88779,1,0,0:0:0:50:LR_Kick Drum Fast.wav
36,192,88779,1,0,0:0:0:30:LR_Clap hollow echo.wav
475,192,88904,1,0,0:0:0:40:LR_Snare Hat 2.wav
402,192,89029,1,0,0:0:0:40:LR_Kick Drum Fast.wav
329,192,89029,1,0,0:0:0:40:LR_Kick Drum Fast.wav
182,192,89029,1,0,0:0:0:40:LR_Drum Rim Fast.wav
109,192,89029,1,0,0:0:0:40:LR_Drum Rim Fast.wav
256,192,89154,1,0,0:0:0:40:LR3_GreatDrum.wav
402,192,89279,1,0,0:0:0:70:LR_Snare Hat 2.wav
36,192,89404,1,0,0:0:0:30:LR_Clap hollow echo.wav
475,192,89404,1,0,0:0:0:50:LR_Kick Drum Fast.wav
256,192,89404,1,0,0:0:0:30:LR_Snare Fast.wav
329,192,89529,1,0,0:0:0:40:LR_Kick Loud Bass Drop.wav
402,192,89654,1,0,0:0:0:40:LR3_GreatDrum.wav
182,192,89779,1,0,0:0:0:30:LR_Snare Fast.wav
329,192,89779,1,0,0:0:0:50:LR_Kick Drum Fast.wav
36,192,89779,1,0,0:0:0:30:LR_Clap hollow echo.wav
402,192,89904,1,0,0:0:0:40:LR_Snare Hat 2.wav
256,192,90029,1,0,0:0:0:24:LR_Kick Loud Bass Drop.wav
475,192,90029,1,0,0:0:0:33:LR_Kick Drum Fast.wav
109,192,90029,1,0,0:0:0:24:LR_Kick Loud Bass Drop.wav
182,192,90154,1,0,0:0:0:40:LR3_GreatDrum.wav
36,192,90279,1,0,0:0:0:70:LR_Snare Hat 2.wav
475,192,90404,1,0,0:0:0:50:LR_Kick Drum Fast.wav
182,192,90404,1,0,0:0:0:30:LR_Snare Fast.wav
329,192,90404,1,0,0:0:0:30:LR_Clap hollow echo.wav
36,192,90529,1,0,0:0:0:40:LR_Kick Loud Bass Drop.wav
109,192,90654,1,0,0:0:0:40:LR_Snare Hat 2.wav
182,192,90779,1,0,0:0:0:30:LR_Snare Fast.wav
329,192,90779,1,0,0:0:0:30:LR_Clap hollow echo.wav
475,192,90779,1,0,0:0:0:50:LR_Kick Drum Fast.wav
36,192,90904,1,0,0:0:0:40:LR_Snare Hat 2.wav
182,192,91029,1,0,0:0:0:30:LR_Kick Loud Bass Drop.wav
109,192,91029,1,0,0:0:0:60:LR_Kick Drum Fast.wav
475,192,91154,1,0,0:0:0:40:LR_Kick Drum Fast.wav
402,192,91154,1,0,0:0:0:60:LR_Snare Fast.wav
329,192,91154,1,0,0:0:0:60:LR_Clap hollow echo.wav
36,192,91279,1,0,0:0:0:15:LR_Snare Hat 2.wav
109,192,91279,1,0,0:0:0:15:LR_Snare Hat 2.wav
475,192,91404,1,0,0:0:0:40:LR_Kick Drum Fast.wav
402,192,91404,1,0,0:0:0:60:LR_Snare Fast.wav
329,192,91404,1,0,0:0:0:60:LR_Clap hollow echo.wav
182,192,91529,1,0,0:0:0:23:LR_Kick Loud Bass Drop.wav
109,192,91529,1,0,0:0:0:40:LR_Kick Drum Fast.wav
256,192,91654,1,0,0:0:0:30:LR_Kick Drum Fast.wav
475,192,91779,1,0,0:0:0:40:LR_Kick Drum Fast.wav
402,192,91779,1,0,0:0:0:60:LR_Snare Fast.wav
329,192,91779,1,0,0:0:0:60:LR_Clap hollow echo.wav
36,192,91779,1,0,0:0:0:45:LR_Snare Hat 2.wav
109,192,91841,1,0,0:0:0:45:LR_Snare Hat 2.wav
182,192,91904,1,0,0:0:0:45:LR_Snare Hat 2.wav
256,192,91966,1,0,0:0:0:45:LR_Snare Hat 2.wav
329,192,92029,128,0,92279:0:0:0:35:LR_Kick Loud Bass Drop.wav
402,192,92279,128,0,92529:0:0:0:40:LR_Kick Drum Fast.wav
109,192,92279,1,0,0:0:0:60:LR_Snare Fast.wav
36,192,92279,1,0,0:0:0:60:LR_Clap hollow echo.wav
182,192,92404,1,0,0:0:0:40:LR_Snare Hat 2.wav
475,192,92529,128,0,92779:0:0:0:35:LR_Kick Loud Bass Drop.wav
182,192,92654,1,0,0:0:0:40:LR_Snare Hat 2.wav
402,192,92779,128,0,93029:0:0:0:40:LR_Kick Drum Fast.wav
109,192,92779,1,0,0:0:0:60:LR_Snare Fast.wav
36,192,92779,1,0,0:0:0:60:LR_Clap hollow echo.wav
329,192,93029,128,0,93279:0:0:0:30:LR_Kick Loud Bass Drop.wav
256,192,93029,1,0,0:0:0:30:LR_Kick Drum Fast.wav
402,192,93279,128,0,93404:0:0:0:25:LR_Snare Hat 2.wav
182,192,93279,1,0,0:0:0:25:LR_Snare Hat 2.wav
109,192,93404,1,0,0:0:0:60:LR_Snare Fast.wav
36,192,93404,1,0,0:0:0:60:LR_Clap hollow echo.wav
329,192,93404,128,0,93466:0:0:0:40:LR_Kick Drum Fast.wav
256,192,93466,128,0,93529:0:0:0:50:LR_Hit Snare Soft.wav
182,192,93529,128,0,93904:0:0:0:35:LR_Kick Loud Bass Drop.wav
402,192,93654,1,0,0:0:0:30:LR3_GreatDrum.wav
329,192,93654,1,0,0:0:0:30:LR3_GreatDrum.wav
402,192,93779,5,0,0:0:0:30:LR3_GreatDrum.wav
329,192,93779,1,0,0:0:0:30:LR3_GreatDrum.wav
109,192,93779,1,0,0:0:0:30:LR_Snare Hat 2.wav
36,192,93779,1,0,0:0:0:30:LR_Snare Hat 2.wav
402,192,93904,1,0,0:0:0:45:LR3_GreatDrum.wav
329,192,93904,1,0,0:0:0:45:LR3_GreatDrum.wav
109,192,94029,1,0,0:0:0:45:LR3_GreatDrum.wav
182,192,94029,1,0,0:0:0:45:LR3_GreatDrum.wav
109,192,94154,1,0,0:0:0:45:LR3_GreatDrum.wav
182,192,94154,1,0,0:0:0:45:LR3_GreatDrum.wav
329,192,94279,1,0,0:0:0:45:LR3_GreatDrum.wav
402,192,94279,1,0,0:0:0:45:LR3_GreatDrum.wav
329,192,94404,1,0,0:0:0:45:LR3_GreatDrum.wav
402,192,94404,1,0,0:0:0:45:LR3_GreatDrum.wav
36,192,94529,1,0,0:0:0:45:LR3_GreatDrum.wav
109,192,94529,1,0,0:0:0:45:LR3_GreatDrum.wav
36,192,94654,1,0,0:0:0:45:LR3_GreatDrum.wav
109,192,94654,1,0,0:0:0:45:LR3_GreatDrum.wav
329,192,94779,1,0,0:0:0:45:LR3_GreatDrum.wav
256,192,94779,1,0,0:0:0:45:LR3_GreatDrum.wav
329,192,94904,1,0,0:0:0:45:LR3_GreatDrum.wav
256,192,94904,1,0,0:0:0:45:LR3_GreatDrum.wav
109,192,95029,1,0,0:0:0:30:LR3_GreatDrum.wav
36,192,95029,1,0,0:0:0:30:LR3_GreatDrum.wav
182,192,95029,1,0,0:0:0:30:LR3_GreatDrum.wav
182,192,95154,1,0,0:0:0:30:LR3_GreatDrum.wav
36,192,95154,1,0,0:0:0:30:LR3_GreatDrum.wav
109,192,95154,1,0,0:0:0:30:LR3_GreatDrum.wav
402,192,95279,1,0,0:0:0:30:LR3_GreatDrum.wav
329,192,95279,1,0,0:0:0:30:LR3_GreatDrum.wav
475,192,95279,1,0,0:0:0:30:LR3_GreatDrum.wav
402,192,95404,1,0,0:0:0:30:LR3_GreatDrum.wav
475,192,95404,1,0,0:0:0:30:LR3_GreatDrum.wav
329,192,95404,1,0,0:0:0:30:LR3_GreatDrum.wav
182,192,95529,1,0,0:0:0:30:LR3_GreatDrum.wav
36,192,95529,1,0,0:0:0:30:LR3_GreatDrum.wav
109,192,95529,1,0,0:0:0:30:LR3_GreatDrum.wav
36,192,95654,1,0,0:0:0:30:LR3_GreatDrum.wav
109,192,95654,1,0,0:0:0:30:LR3_GreatDrum.wav
182,192,95654,1,0,0:0:0:30:LR3_GreatDrum.wav
329,192,95779,1,0,0:0:0:30:LR3_GreatDrum.wav
475,192,95779,1,0,0:0:0:30:LR3_GreatDrum.wav
402,192,95779,1,0,0:0:0:30:LR3_GreatDrum.wav
402,192,95904,1,0,0:0:0:30:LR3_GreatDrum.wav
475,192,95904,1,0,0:0:0:30:LR3_GreatDrum.wav
329,192,95904,1,0,0:0:0:30:LR3_GreatDrum.wav
182,192,96029,1,0,0:0:0:35:LR_Drum J Hit Med Bass.wav
256,192,96029,1,0,0:0:0:60:LR_Kick Loud Bass Drop.wav
109,192,96029,1,0,0:0:0:40:LR_Drum Barrel Finish.wav
36,192,96029,1,0,0:0:0:40:LR_Kick Drum Fast.wav
475,192,96154,1,0,0:0:0:40:LR_Kick Drum Fast.wav
329,192,96279,1,0,0:0:0:40:LR_Snare Hat 2.wav
182,192,96404,1,0,0:0:0:30:LR_Snare Fast.wav
475,192,96404,1,0,0:0:0:50:LR_Kick Drum Fast.wav
36,192,96404,1,0,0:0:0:30:LR_Clap hollow echo.wav
402,192,96529,1,0,0:0:0:40:LR_Kick Loud Bass Drop.wav
329,192,96654,1,0,0:0:0:40:LR_Snare Hat 2.wav
36,192,96779,1,0,0:0:0:30:LR_Clap hollow echo.wav
475,192,96779,1,0,0:0:0:50:LR_Kick Drum Fast.wav
182,192,96779,1,0,0:0:0:30:LR_Snare Fast.wav
329,192,96904,1,0,0:0:0:40:LR_Kick Loud Bass Drop.wav
256,192,97029,1,0,0:0:0:40:LR_Kick Loud Bass Drop.wav
109,192,97029,1,0,0:0:0:66:LR_Drum Rim Fast.wav
402,192,97154,1,0,0:0:0:40:LR_Kick Drum Fast.wav
329,192,97279,1,0,0:0:0:40:LR_Snare Hat 2.wav
182,192,97404,1,0,0:0:0:60:LR_Snare Fast.wav
36,192,97404,1,0,0:0:0:30:LR_Clap hollow echo.wav
402,192,97404,1,0,0:0:0:50:LR_Kick Drum Fast.wav
475,192,97529,1,0,0:0:0:22:LR_Kick Loud Bass Drop.wav
256,192,97529,1,0,0:0:0:22:LR_Kick Loud Bass Drop.wav
182,192,97654,1,0,0:0:0:22:LR_Snare Hat 2.wav
329,192,97654,1,0,0:0:0:22:LR_Snare Hat 2.wav
109,192,97779,1,0,0:0:0:30:LR_Clap hollow echo.wav
402,192,97779,1,0,0:0:0:50:LR_Kick Drum Fast.wav
475,192,97779,1,0,0:0:0:60:LR_Snare Fast.wav
36,192,97779,1,0,0:0:0:30:LR_Clap hollow echo.wav
182,192,97904,1,0,0:0:0:22:LR_Snare Hat 2.wav
329,192,97904,1,0,0:0:0:22:LR_Snare Hat 2.wav
36,192,98029,1,0,0:0:0:22:LR_Kick Loud Bass Drop.wav
475,192,98029,1,0,0:0:0:40:LR_Kick Drum Fast.wav
329,192,98154,1,0,0:0:0:22:LR_Kick Loud Bass Drop.wav
182,192,98279,1,0,0:0:0:22:LR_Snare Hat 2.wav
329,192,98404,1,0,0:0:0:60:LR_Snare Fast.wav
475,192,98404,1,0,0:0:0:30:LR_Clap hollow echo.wav
36,192,98404,1,0,0:0:0:40:LR_Kick Loud Bass Drop.wav
182,192,98529,1,0,0:0:0:22:LR_Snare Hat 2.wav
109,192,98654,1,0,0:0:0:22:LR_Snare Hat 2.wav
182,192,98779,1,0,0:0:0:22:LR_Snare Hat 2.wav
475,192,98779,1,0,0:0:0:30:LR_Clap hollow echo.wav
329,192,98779,1,0,0:0:0:60:LR_Snare Fast.wav
36,192,98904,1,0,0:0:0:40:LR_Snare Hat 2.wav
182,192,99029,1,0,0:0:0:40:LR_Kick Loud Bass Drop.wav
109,192,99029,1,0,0:0:0:66:LR_Drum Rim Fast.wav
329,192,99154,1,0,0:0:0:50:LR_Kick Drum Fast.wav
402,192,99154,1,0,0:0:0:30:LR_Clap hollow echo.wav
475,192,99154,1,0,0:0:0:30:LR_Clap hollow echo.wav
109,192,99279,1,0,0:0:0:20:LR_Kick Drum Fast.wav
36,192,99279,1,0,0:0:0:20:LR_Kick Drum Fast.wav
402,192,99404,1,0,0:0:0:30:LR_Clap hollow echo.wav
475,192,99404,1,0,0:0:0:30:LR_Clap hollow echo.wav
256,192,99404,1,0,0:0:0:50:LR_Kick Drum Fast.wav
182,192,99529,1,0,0:0:0:40:LR_Kick Loud Bass Drop.wav
109,192,99529,1,0,0:0:0:30:LR_Clap hollow echo.wav
256,192,99654,1,0,0:0:0:30:LR_Kick Drum Fast.wav
36,192,99779,1,0,0:0:0:45:LR_Snare Hat 2.wav
475,192,99779,1,0,0:0:0:40:LR_Kick Drum Fast.wav
402,192,99779,1,0,0:0:0:60:LR_Snare Fast.wav
329,192,99779,1,0,0:0:0:60:LR_Clap hollow echo.wav
109,192,99841,1,0,0:0:0:45:LR_Snare Hat 2.wav
182,192,99904,1,0,0:0:0:45:LR_Snare Hat 2.wav
256,192,99966,1,0,0:0:0:45:LR_Snare Hat 2.wav
329,192,100029,128,0,100279:0:0:0:55:LR_Kick Loud Bass Drop.wav
402,192,100279,128,0,100529:0:0:0:33:LR_Snare Hat 2.wav
182,192,100279,1,0,0:0:0:33:LR_Snare Hat 2.wav
109,192,100404,1,0,0:0:0:60:LR_Snare Fast.wav
36,192,100404,1,0,0:0:0:60:LR_Clap hollow echo.wav
475,192,100529,128,0,100779:0:0:0:25:LR_Kick Loud Bass Drop.wav
182,192,100529,1,0,0:0:0:25:LR_Kick Loud Bass Drop.wav
256,192,100654,1,0,0:0:0:40:LR_Snare Hat 2.wav
402,192,100779,128,0,101029:0:0:0:40:LR_Kick Drum Fast.wav
109,192,100779,1,0,0:0:0:60:LR_Snare Fast.wav
36,192,100779,1,0,0:0:0:60:LR_Clap hollow echo.wav
329,192,101029,128,0,101279:0:0:0:40:LR_Kick Loud Bass Drop.wav
256,192,101029,1,0,0:0:0:66:LR_Drum Rim Fast.wav
109,192,101154,1,0,0:0:0:35:LR3_GreatDrum.wav
402,192,101279,128,0,101404:0:0:0:25:LR_Snare Hat 2.wav
182,192,101279,1,0,0:0:0:25:LR_Snare Hat 2.wav
36,192,101404,1,0,0:0:0:60:LR_Clap hollow echo.wav
109,192,101404,1,0,0:0:0:60:LR_Snare Fast.wav
475,192,101404,128,0,101466:0:0:0:40:LR_Kick Drum Fast.wav
402,192,101466,128,0,101529:0:0:0:50:LR_Hit Snare Soft.wav
329,192,101529,128,0,101904:0:0:0:0:
182,192,101654,1,0,0:0:0:30:LR3_GreatDrum.wav
109,192,101654,1,0,0:0:0:30:LR3_GreatDrum.wav
182,192,101779,1,0,0:0:0:30:LR3_GreatDrum.wav
109,192,101779,1,0,0:0:0:30:LR3_GreatDrum.wav
402,192,101779,1,0,0:0:0:0:
475,192,101779,1,0,0:0:0:0:
182,192,101904,1,0,0:0:0:45:LR3_GreatDrum.wav
109,192,101904,1,0,0:0:0:45:LR3_GreatDrum.wav
475,192,102029,1,0,0:0:0:45:LR3_GreatDrum.wav
329,192,102029,1,0,0:0:0:45:LR3_GreatDrum.wav
475,192,102154,1,0,0:0:0:45:LR3_GreatDrum.wav
329,192,102154,1,0,0:0:0:45:LR3_GreatDrum.wav
182,192,102279,1,0,0:0:0:45:LR3_GreatDrum.wav
36,192,102279,1,0,0:0:0:45:LR3_GreatDrum.wav
182,192,102404,1,0,0:0:0:45:LR3_GreatDrum.wav
36,192,102404,1,0,0:0:0:45:LR3_GreatDrum.wav
402,192,102529,1,0,0:0:0:45:LR3_GreatDrum.wav
329,192,102529,1,0,0:0:0:45:LR3_GreatDrum.wav
402,192,102654,1,0,0:0:0:45:LR3_GreatDrum.wav
329,192,102654,1,0,0:0:0:45:LR3_GreatDrum.wav
182,192,102779,1,0,0:0:0:45:LR3_GreatDrum.wav
109,192,102779,1,0,0:0:0:45:LR3_GreatDrum.wav
182,192,102904,1,0,0:0:0:45:LR3_GreatDrum.wav
109,192,102904,1,0,0:0:0:45:LR3_GreatDrum.wav
475,192,103029,1,0,0:0:0:30:LR3_GreatDrum.wav
402,192,103029,1,0,0:0:0:30:LR3_GreatDrum.wav
329,192,103029,1,0,0:0:0:30:LR3_GreatDrum.wav
329,192,103154,1,0,0:0:0:30:LR3_GreatDrum.wav
402,192,103154,1,0,0:0:0:30:LR3_GreatDrum.wav
475,192,103154,1,0,0:0:0:30:LR3_GreatDrum.wav
36,192,103279,1,0,0:0:0:30:LR3_GreatDrum.wav
182,192,103279,1,0,0:0:0:30:LR3_GreatDrum.wav
109,192,103279,1,0,0:0:0:30:LR3_GreatDrum.wav
182,192,103404,1,0,0:0:0:30:LR3_GreatDrum.wav
36,192,103404,1,0,0:0:0:30:LR3_GreatDrum.wav
109,192,103404,1,0,0:0:0:30:LR3_GreatDrum.wav
256,192,103529,1,0,0:0:0:28:LR_Kick Loud Bass Drop.wav
109,192,103654,1,0,0:0:0:28:LR_Snare Hat 2.wav
329,192,103654,1,0,0:0:0:28:LR_Snare Hat 2.wav
36,192,103779,1,0,0:0:0:66:LR_Clap Kick Fast Low Beat.wav
256,192,103779,1,0,0:0:0:66:LR_Clap hollow echo.wav
109,192,103904,1,0,0:0:0:28:LR_Snare Hat 2.wav
329,192,103904,1,0,0:0:0:28:LR_Snare Hat 2.wav
402,192,104029,1,2,2:0:0:33:
182,192,104029,128,2,104279:2:0:0:23:
109,192,104279,128,2,104529:2:0:0:23:
182,192,104529,128,2,104779:2:0:0:23:
36,192,104779,128,2,105029:2:0:0:23:
182,192,105029,128,2,105279:2:0:0:23:
329,192,105529,128,2,105779:2:0:0:23:
475,192,105779,128,2,106029:2:0:0:23:
329,192,106029,128,2,106279:2:0:0:23:
402,192,106279,128,2,106529:2:0:0:23:
475,192,106529,128,2,106779:2:0:0:23:
182,192,106779,128,2,107029:2:0:0:23:
329,192,107029,128,2,107529:2:0:0:23:
329,192,108029,1,0,0:0:0:100:LR_Kick Beat 2.wav
182,192,108029,128,0,108279:0:0:0:92:LR3_BassFRT.wav
109,192,108029,128,0,108654:0:0:0:78:LR3_Kick LRBDS.wav
36,192,108029,128,0,108904:0:0:0:78:LR3_Kick LRBDS.wav
475,192,108029,1,0,0:0:0:35:LR3_GrowlLRVD.wav
256,192,108404,1,0,0:0:0:50:LR3_BassFRT.wav
402,192,108404,1,0,0:0:0:100:LR_Kick Beat 2.wav
475,192,108404,1,0,0:0:0:35:LR_Kick Loud Bass Drop.wav
182,192,108779,1,0,0:0:0:80:LR3_BassFRT FSQP.wav
329,192,108779,1,0,0:0:0:100:LR_Kick Beat 2.wav
475,192,108779,1,0,0:0:0:35:LR_Kick Loud Bass Drop.wav
475,192,109029,1,0,0:0:0:60:LR_Snare Fast.wav
402,183,109029,1,0,0:0:0:60:LR_Snare Hat 2.wav
36,183,109029,128,0,109779:0:0:0:70:LR3_BassFRT FSQP.wav
329,192,109029,128,0,109779:0:0:0:0:
182,192,109779,1,0,0:0:0:40:LR_Kick Loud Bass Drop.wav
475,192,109779,1,0,0:0:0:50:LR_Snare Fast.wav
402,192,109779,128,0,110029:0:0:0:61:LR3_BassFRT FSQP.wav
36,192,110029,1,0,0:0:0:40:LR_Kick Loud Bass Drop.wav
109,192,110029,128,0,110279:0:0:0:38:LR3_BassFRT.wav
256,192,110029,1,0,0:0:0:40:LR_Kick Drum Fast.wav
329,192,110279,128,0,111529:0:0:0:40:LR_Snare Hat 2.wav
475,192,110279,1,0,0:0:0:0:
402,192,110279,1,0,0:0:0:0:
36,192,110529,1,0,0:0:0:20:LR_Snare Hat 2.wav
182,192,110529,128,0,111529:0:0:0:20:LR_Snare Hat 2.wav
109,192,110529,1,0,0:0:0:20:LR_Snare Hat 2.wav
36,192,110810,1,0,0:0:0:50:LR_Snare Fast.wav
475,192,110810,1,0,0:0:0:50:LR_Snare Fast.wav
475,192,111060,1,0,0:0:0:33:LR_Kick Drum Fast.wav
36,192,111060,1,0,0:0:0:40:LR_Kick Loud Bass Drop.wav
402,192,111154,1,0,0:0:0:33:LR_Kick Drum Fast.wav
109,192,111154,1,0,0:0:0:40:LR_Kick Loud Bass Drop.wav
109,192,111279,1,0,0:0:0:25:LR_Kick Loud Bass Drop.wav
402,192,111279,1,0,0:0:0:25:LR_Kick Loud Bass Drop.wav
256,192,111529,1,0,0:0:0:30:LR_Snare Hat 2.wav
475,192,111529,128,0,112029:0:0:0:30:LR_Snare Hat 2.wav
36,192,111779,1,0,0:0:0:50:LR_Kick Drum Fast.wav
182,192,111779,1,0,0:0:0:30:LR_Drum Barrel Finish.wav
182,192,112029,1,0,0:0:0:30:LR_Drum Barrel Finish.wav
36,192,112029,1,0,0:0:0:50:LR_Kick Drum Fast.wav
256,192,112029,128,0,112404:0:0:0:30:LR_J Hit.wav
36,192,112279,1,0,0:0:0:50:LR_Snare Hat 2.wav
402,192,112404,1,0,0:0:0:35:LR_Kick Beat 2.wav
109,192,112404,1,0,0:0:0:33:LR_Kick Loud Bass Drop.wav
329,192,112404,128,0,112779:0:0:0:45:LR_Kick Drum Fast.wav
182,192,112529,1,0,0:0:0:30:LR_Snare Hat 2.wav
475,192,112779,1,0,0:0:0:40:LR_Kick Drum Fast.wav
36,192,112779,1,0,0:0:0:35:LR_Kick Loud Bass Drop.wav
182,192,112779,128,0,113029:0:0:0:30:LR_Drum J Hit Med Bass.wav
329,192,113029,1,0,0:0:0:50:LR_Snare Fast.wav
256,192,113029,128,0,114029:0:0:0:58:LR3_GrowlLRFOFF.wav
109,192,113029,1,0,0:0:0:70:LR_Snare Hat 2.wav
475,192,113779,128,0,114279:0:0:0:40:LR_Kick Beat 2.wav
36,192,113779,1,0,0:0:0:70:LR_Snare Hat 2.wav
402,192,113904,1,0,0:0:0:66:LR_Kick Drum Fast.wav
182,192,114029,128,0,114529:0:0:0:30:LR_Drum J Hit Med Bass.wav
329,192,114029,1,0,0:0:0:30:LR_Clap Drum hit.wav
402,192,114279,128,0,114779:0:0:0:45:LR_Kick Drum Fast.wav
36,192,114279,1,0,0:0:0:30:LR_Kick Loud Bass Drop.wav
256,192,114404,1,0,0:0:0:35:LR_Snare Hat 2.wav
109,192,114529,128,0,115029:0:0:0:50:LR_Hit Snare Soft.wav
475,192,114529,1,0,0:0:0:50:LR_Kick Drum Fast.wav
329,192,114779,128,0,115279:0:0:0:25:LR_Snare Hat 2.wav
36,192,114779,1,0,0:0:0:25:LR_Snare Hat 2.wav
182,192,115029,1,0,0:0:0:25:LR_Snare Hat 2.wav
36,192,115029,128,0,115279:0:0:0:25:LR_Snare Hat 2.wav
475,192,115154,1,0,0:0:0:66:LR_Snare Hat 2.wav
402,192,115154,1,0,0:0:0:33:LR_Hit Snare Soft.wav
402,192,115279,1,0,0:0:0:33:LR_Hit Snare Soft.wav
475,192,115279,1,0,0:0:0:66:LR_Snare Hat 2.wav
36,192,115404,1,0,0:0:0:45:LR_Kick Loud Bass Drop.wav
109,192,115529,1,0,0:0:0:15:LR_Kick Low Strong Beat.wav
329,192,115529,1,0,0:0:0:33:LR_Hit Snare Soft.wav
475,192,115529,128,0,116029:0:0:0:50:LR3_GrowlWSL.wav
256,192,115779,1,0,0:0:0:50:LR_Kick Drum Fast.wav
402,192,115779,1,0,0:0:0:33:LR_Hit Snare Soft.wav
36,192,115779,1,0,0:0:0:33:LR_Hit Snare Soft.wav
36,192,115904,1,0,0:0:0:38:LR_Kick Low Strong Beat.wav
182,192,115904,1,0,0:0:0:55:LR_Kick Drum Fast.wav
329,192,115904,1,0,0:0:0:33:LR_Hit Snare Soft.wav
256,192,116029,1,2,3:0:0:42:LR3_DS FXWa Left.wav
109,192,116029,1,0,0:0:0:42:LR3_DS FXWa Left.wav
402,192,116185,1,2,3:0:0:42:LR3_DS FXWa Left.wav
329,192,116185,1,0,0:0:0:42:LR3_DS FXWa Left.wav
36,192,116341,1,2,3:0:0:42:LR3_DS FXWa Left.wav
109,192,116341,1,0,0:0:0:42:LR3_DS FXWa Left.wav
256,192,116497,1,2,3:0:0:42:LR3_DS FXWa Left.wav
329,192,116497,1,0,0:0:0:42:LR3_DS FXWa Left.wav
182,192,116654,1,0,0:0:0:42:LR3_DS FXWa Left.wav
109,192,116654,1,2,3:0:0:42:LR3_DS FXWa Left.wav
402,192,116810,1,2,3:0:0:42:LR3_DS FXWa Left.wav
475,192,116810,1,0,0:0:0:42:LR3_DS FXWa Left.wav
329,192,116966,1,0,0:0:0:42:LR3_DS FXWa Left.wav
182,192,116966,1,2,3:0:0:42:LR3_DS FXWa Left.wav
402,192,117029,1,0,0:0:0:55:LR_Snare Fast.wav
475,192,117029,128,0,117404:0:0:0:34:LR3_GrowlRRL.wav
109,192,117029,1,2,0:0:0:75:LR_Snare Hat 2.wav
36,192,117029,128,0,117404:0:0:0:34:LR3_GrowlRRL.wav
256,192,117404,1,0,0:0:0:40:LR_Snare Hat 2.wav
402,192,117404,1,0,0:0:0:50:LR_Snare Fast.wav
109,192,117404,1,0,0:0:0:40:LR_Snare Hat 2.wav
329,192,117529,1,0,0:0:0:46:LR3_DS FXWi Right.wav
182,192,117622,1,0,0:0:0:46:LR3_DS FXWi Right.wav
402,192,117747,1,0,0:0:0:46:LR3_DS FXWi Right.wav
256,192,117841,1,0,0:0:0:46:LR3_DS FXWi Right.wav
109,192,117935,1,0,0:0:0:40:LR_Kick Drum Fast.wav
256,192,118029,1,0,0:0:0:66:LR_Kick Drum Fast.wav
475,192,118029,128,0,118404:0:0:0:34:LR3_GrowlRRL.wav
36,192,118029,128,0,118404:0:0:0:34:LR3_GrowlRRL.wav
109,192,118404,1,0,0:0:0:66:LR_Kick Drum Fast.wav
402,192,118404,1,0,0:0:0:30:LR_Kick Loud Bass Drop.wav
402,192,118529,1,0,0:0:0:46:LR3_DS FXWi Right.wav
182,192,118622,1,0,0:0:0:46:LR3_DS FXWi Right.wav
329,192,118747,1,0,0:0:0:46:LR3_DS FXWi Right.wav
109,192,118841,1,0,0:0:0:46:LR3_DS FXWi Right.wav
256,192,118945,1,0,0:0:0:46:LR3_DS FXWi Right.wav
109,192,119029,1,0,0:0:0:80:LR_Snare Hat 2.wav
36,192,119029,128,0,119529:0:0:0:44:LR3_GrowlRRL.wav
402,192,119029,1,0,0:0:0:66:LR_Kick Drum Fast.wav
475,192,119029,128,0,119529:0:0:0:44:LR3_GrowlRRL.wav
256,192,119279,1,0,0:0:0:45:LR_Snare Hat 2.wav
256,192,119404,1,0,0:0:0:45:LR_Kick Drum Fast.wav
182,192,119529,1,0,0:0:0:66:LR_Drum Rim Fast.wav
329,192,119529,1,0,0:0:0:66:LR_Snare Hat 2.wav
402,192,119779,1,0,0:0:0:40:LR_Kick Loud Bass Drop.wav
109,192,119779,1,0,0:0:0:40:LR_Kick Beat 2.wav
256,192,119779,1,0,0:0:0:66:LR_Kick Drum Fast.wav
329,192,120029,128,0,120529:0:0:0:50:LR3_GrowlWSL.wav
182,192,120029,128,0,120529:0:0:0:50:LR3_FX LRGP.wav
402,192,120029,128,0,121029:0:0:0:25:LR_Kick Loud Bass Drop.wav
109,192,120029,128,0,121029:0:0:0:25:LR_Kick Loud Bass Drop.wav
256,192,120279,1,0,0:0:0:50:LR_Kick Beat 2.wav
256,192,120404,1,0,0:0:0:50:LR_Kick Beat 2.wav
256,192,120654,1,0,0:0:0:50:LR_Kick Beat 2.wav
256,192,120779,1,0,0:0:0:50:LR_Kick Beat 2.wav
36,192,121029,128,0,121185:0:0:0:100:LR3_DS FXWa Left.wav
475,192,121185,128,0,121372:0:0:0:100:LR3_DS FXWa Left.wav
109,192,121372,128,0,121654:0:0:0:100:LR3_DS FXWa Left.wav
402,184,121529,128,0,121654:0:0:0:100:LR3_DS FXWa Left.wav
329,192,121529,1,0,0:0:0:45:LR_Kick Loud Bass Drop.wav
329,192,121779,1,0,0:0:0:100:LR_Snare Hat 2.wav
182,192,121779,1,0,0:0:0:45:LR_Kick Loud Bass Drop.wav
475,192,121841,128,0,122029:0:0:0:42:LR3_DS FXWa Left.wav
36,192,121841,128,0,122029:0:0:0:42:LR3_DS FXWa Left.wav
109,192,122029,128,0,122529:0:0:0:50:LR3_GrowlMRFL.wav
329,192,122279,128,0,122529:0:0:0:45:LR3_BassFRT FSQP.wav
402,192,122279,128,0,122529:0:0:0:45:LR_Clap Drum hit.wav
182,192,122529,128,0,123029:0:0:0:42:LR3_GrowlMBVX.wav
36,192,122529,1,0,0:0:0:50:LR_Snare Fast.wav
256,192,122529,1,0,0:0:0:50:LR_Snare Hat 2.wav
109,192,122654,1,0,0:0:0:40:LR_Snare Hat 2.wav
402,192,122779,128,0,123029:0:0:0:66:LR3_Kick LRBDS.wav
475,192,122779,128,0,123029:0:0:0:33:LR3_BassFRT.wav
36,192,122779,1,0,0:0:0:40:LR_Snare Hat 2.wav
109,192,122904,1,0,0:0:0:40:LR_Snare Hat 2.wav
329,192,123029,1,0,0:0:0:40:LR_Kick Loud Bass Drop.wav
256,192,123029,128,0,123529:0:0:0:40:LR_Drum J Hit Med Bass.wav
36,192,123029,1,0,0:0:0:40:LR_Kick Loud Bass Drop.wav
182,192,123154,1,0,0:0:0:40:LR_Kick Loud Bass Drop.wav
475,192,123154,1,0,0:0:0:40:LR_Kick Loud Bass Drop.wav
36,192,123279,128,0,123404:0:0:0:40:LR_Snare Fast.wav
329,192,123279,128,0,123404:0:0:0:40:LR_Snare Fast.wav
109,192,123404,128,0,123529:0:0:0:66:LR_Kick Drum Fast.wav
402,192,123404,128,0,123529:0:0:0:66:LR_Kick Drum Fast.wav
182,192,123529,128,0,125029:0:0:0:18:LR3_FX LRGP.wav
475,192,123529,128,0,125029:0:0:0:18:LR3_FX LRGP.wav
36,192,123529,128,0,125029:0:0:0:30:LR3_GrowlBassDFM.wav
329,192,123529,128,0,125029:0:0:0:18:LR3_FX LRGP.wav
256,192,123779,1,0,0:0:0:68:LR_Kick Low Strong Beat.wav
256,192,123904,1,0,0:0:0:68:LR_Kick Low Strong Beat.wav
402,192,124029,1,0,0:0:0:68:LR_Kick Low Strong Beat.wav
109,192,124154,1,0,0:0:0:68:LR_Kick Low Strong Beat.wav
402,192,124279,1,0,0:0:0:68:LR_Kick Low Strong Beat.wav
109,192,124404,1,0,0:0:0:68:LR_Kick Low Strong Beat.wav
402,192,124529,1,0,0:0:0:68:LR_Kick Low Strong Beat.wav
109,192,124654,1,0,0:0:0:68:LR_Kick Low Strong Beat.wav
256,192,124779,128,0,125029:0:0:0:70:LR3_BassFRT.wav
109,192,125029,1,0,0:0:0:66:LR_Kick Loud Bass Drop.wav
402,192,125029,1,0,0:0:0:61:LR3_BassFRT.wav
36,192,125279,1,0,0:0:0:26:LR_Snare Fast.wav
182,192,125279,1,0,0:0:0:26:LR_Snare Fast.wav
329,192,125404,1,0,0:0:0:33:LR_Snare Hat 2.wav
475,192,125404,1,0,0:0:0:33:LR_Snare Hat 2.wav
109,192,125529,1,0,0:0:0:26:LR_Snare Fast.wav
256,192,125529,1,0,0:0:0:26:LR_Snare Fast.wav
329,192,125779,1,0,0:0:0:40:LR3_Kick LRBDS.wav
475,192,125779,128,0,126779:0:0:0:51:LR3_BassFRT.wav
182,192,125779,1,0,0:0:0:40:LR_Kick Loud Bass Drop.wav
36,192,125779,1,0,0:0:0:40:LR_Kick Beat 2.wav
256,192,125904,1,0,0:0:0:35:LR_Snare Hat 2.wav
109,192,126029,1,0,0:0:0:40:LR3_Kick LRBDS.wav
36,192,126029,1,0,0:0:0:40:LR_Kick Beat 2.wav
402,192,126029,128,0,126779:0:0:0:51:LR3_BassFRT FSQP.wav
182,192,126029,1,0,0:0:0:40:LR_Kick Loud Bass Drop.wav
329,192,126279,128,0,126779:0:0:0:51:LR3_BassFRT FSQP.wav
109,192,126404,1,0,0:0:0:40:LR3_Kick LRBDS.wav
182,192,126404,1,0,0:0:0:40:LR_Kick Loud Bass Drop.wav
36,192,126404,1,0,0:0:0:40:LR_Kick Beat 2.wav
256,192,126529,128,0,126779:0:0:0:51:LR3_BassFRT FSQP.wav
182,192,126779,1,0,0:0:0:55:LR_Snare Hat 2.wav
36,192,126779,1,0,0:0:0:55:LR_Snare Fast.wav
109,192,126779,1,0,0:0:0:55:LR_Snare Fast.wav
36,192,127029,1,0,0:0:0:100:LR3_DS FXWa Left.wav
475,192,127029,1,0,0:0:0:50:LR_Kick Drum Fast.wav
329,192,127070,1,0,0:0:0:50:LR_Snare Hat 2.wav
182,192,127112,1,0,0:0:0:100:LR3_DS FXWa Left.wav
402,192,127154,1,0,0:0:0:55:LR_Kick Drum Fast.wav
109,192,127216,1,0,0:0:0:100:LR3_DS FXWa Left.wav
329,192,127279,1,0,0:0:0:30:LR_Kick Loud Bass Drop.wav
475,192,127279,1,0,0:0:0:55:LR_Kick Drum Fast.wav
182,192,127341,1,0,0:0:0:30:LR_Kick Loud Bass Drop.wav
36,192,127341,1,0,0:0:0:100:LR3_DS FXWa Left.wav
475,192,127529,128,0,127779:0:0:0:42:LR3_DS FXWa Left.wav
36,192,127529,128,0,127779:0:0:0:42:LR3_DS FXWa Left.wav
402,192,127779,1,0,0:0:0:45:LR_Kick Low Strong Beat.wav
109,192,127779,1,0,0:0:0:55:LR_Kick Beat 2.wav
256,192,127779,1,0,0:0:0:45:LR_Kick Loud Bass Drop.wav
329,192,128029,128,0,128404:0:0:0:45:LR3_GrowlMBVX.wav
182,192,128154,128,0,128529:0:0:0:23:LR_Kick Low Strong Beat.wav
36,192,128279,128,0,128654:0:0:0:23:LR_Kick Low Strong Beat.wav
402,192,128404,128,0,128654:0:0:0:23:LR_Kick Low Strong Beat.wav
256,192,128529,128,0,128779:0:0:0:23:LR_Kick Low Strong Beat.wav
475,192,128654,128,0,129029:0:0:0:23:LR_Kick Low Strong Beat.wav
109,192,128654,128,0,128904:0:0:0:23:LR_Kick Low Strong Beat.wav
329,192,128779,128,0,129154:0:0:0:23:LR_Kick Low Strong Beat.wav
182,192,128904,128,0,129279:0:0:0:79:LR3_GrowlMRFL.wav
36,192,129029,128,0,129404:0:0:0:23:LR_Kick Low Strong Beat.wav
402,192,129154,128,0,129529:0:0:0:23:LR_Kick Low Strong Beat.wav
256,192,129279,128,0,129654:0:0:0:23:LR_Kick Low Strong Beat.wav
109,192,129404,128,0,129779:0:0:0:23:LR_Kick Low Strong Beat.wav
475,192,129529,128,0,130029:0:0:0:77:LR3_DS FXWa Left.wav
329,192,129654,128,0,130029:0:0:0:23:LR_Kick Low Strong Beat.wav
182,192,129779,128,0,130029:0:0:0:23:LR_Kick Low Strong Beat.wav
36,192,129904,128,0,130029:0:0:0:23:LR_Kick Low Strong Beat.wav
109,192,130029,128,2,130154:2:0:0:38:
182,192,130154,128,2,130279:2:0:0:38:
36,192,130279,1,0,0:0:0:58:LR_Kick Loud Bass Drop.wav
475,192,130279,1,0,0:0:0:88:LR_Kick Drum Fast.wav
256,192,130279,128,2,130404:2:0:0:38:
329,192,130404,128,2,130529:2:0:0:38:
402,192,130529,128,2,130654:2:0:0:38:
475,192,130654,128,2,130779:2:0:0:38:
36,192,130654,1,0,0:0:0:58:LR_Kick Loud Bass Drop.wav
182,192,130654,1,0,0:0:0:70:LR_Kick Beat 2.wav
402,192,130779,128,2,130904:2:0:0:38:
256,192,130904,128,2,131029:2:0:0:38:
109,192,131029,128,2,131154:2:0:0:38:
402,192,131029,1,0,0:0:0:70:LR_Snare Hat 2.wav
36,192,131029,1,0,0:0:0:58:LR_Kick Loud Bass Drop.wav
475,192,131154,128,0,131279:0:0:0:55:LR_Snare Hat 2.wav
256,192,131154,1,0,0:0:0:55:LR_Snare Fast.wav
329,192,131279,128,0,131404:0:0:0:55:LR_Snare Hat 2.wav
109,192,131279,1,0,0:0:0:55:LR_Snare Fast.wav
402,192,131404,1,0,0:0:0:58:LR_Kick Loud Bass Drop.wav
182,192,131404,128,0,131529:0:0:0:55:LR_Snare Hat 2.wav
256,192,131529,1,0,0:0:0:55:LR_Snare Fast.wav
36,192,131529,128,0,131654:0:0:0:94:LR3_GrowlRRL.wav
109,192,131654,128,0,131779:0:0:0:55:LR_Snare Hat 2.wav
256,192,131779,128,0,131841:0:0:0:70:LR_Snare Fast.wav
329,192,131841,128,0,131904:0:0:0:70:LR_Snare Fast.wav
402,192,131904,128,0,131966:0:0:0:80:LR_Snare Fast.wav
475,192,131966,1,0,0:0:0:80:LR_Snare Fast.wav
109,192,132029,1,0,0:0:0:50:LR_Snare Fast.wav
36,192,132029,1,0,0:0:0:50:LR_Snare Fast.wav
256,192,132029,1,0,0:0:0:100:LR_Kick Beat 2.wav
329,192,132154,1,0,0:0:0:33:LR_Clap Drum hit.wav
402,192,132154,1,0,0:0:0:40:LR_Kick Beat 2.wav
182,192,132154,1,0,0:0:0:40:LR_Kick Beat 2.wav
36,192,132279,1,0,0:0:0:20:LR_Clap Hit P.wav
109,192,132279,1,0,0:0:0:33:LR_Snare Hat 2.wav
475,192,132279,1,0,0:0:0:44:LR_Hit Snare Soft.wav
402,192,132404,1,0,0:0:0:24:LR_Snare Fast.wav
256,192,132404,1,0,0:0:0:24:LR_Snare Fast.wav
182,192,132404,1,0,0:0:0:54:LR_Kick Beat 2.wav
475,192,132529,1,0,0:0:0:33:LR_Clap Drum hit.wav
329,192,132529,1,0,0:0:0:40:LR_Kick Beat 2.wav
109,192,132529,1,0,0:0:0:40:LR_Kick Beat 2.wav
402,192,132654,1,0,0:0:0:44:LR_Hit Snare Soft.wav
256,192,132654,1,0,0:0:0:20:LR_Clap Hit P.wav
36,192,132654,1,0,0:0:0:33:LR_Snare Hat 2.wav
182,192,132779,1,0,0:0:0:54:LR_Kick Beat 2.wav
475,192,132779,1,0,0:0:0:24:LR_Snare Fast.wav
329,192,132779,1,0,0:0:0:24:LR_Snare Fast.wav
402,192,132904,1,0,0:0:0:33:LR_Clap Drum hit.wav
256,192,132904,1,0,0:0:0:40:LR_Kick Beat 2.wav
109,192,132904,1,0,0:0:0:40:LR_Kick Beat 2.wav
36,192,133029,1,0,0:0:0:80:LR_Snare Fast.wav
182,192,133029,128,0,133716:0:0:0:33:LR3_GrowlLRFOFF.wav
329,192,133029,128,0,133560:0:0:0:33:LR3_GrowlLRFOFF.wav
475,192,133029,128,0,133404:0:0:0:82:LR3_GrowlRRL.wav
475,192,133529,128,0,133904:0:0:0:90:LR3_DS FXWa Left.wav
329,192,133685,128,0,133904:0:0:0:90:LR3_DS FXWa Left.wav
182,192,133841,128,0,134029:0:0:0:90:LR3_DS FXWa Left.wav
329,192,134029,1,0,0:0:0:22:LR_Kick Loud Bass Drop.wav
475,192,134029,1,0,0:0:0:22:LR_Kick Loud Bass Drop.wav
36,192,134029,128,0,135779:0:0:0:40:LR3_BassFRT.wav
109,192,134029,128,0,134779:0:0:0:40:LR3_BassFRT FSQP.wav
402,192,134279,1,0,0:0:0:22:LR_Snare Hat 2.wav
256,192,134279,1,0,0:0:0:22:LR_Snare Hat 2.wav
475,192,134404,1,0,0:0:0:40:LR_Kick Loud Bass Drop.wav
329,192,134404,1,0,0:0:0:55:LR_Kick Beat 2.wav
256,192,134529,1,0,0:0:0:22:LR_Snare Hat 2.wav
402,192,134529,1,0,0:0:0:22:LR_Snare Hat 2.wav
182,192,134779,1,0,0:0:0:50:LR_Kick Drum Fast.wav
329,192,134779,1,0,0:0:0:40:LR_Snare Hat 2.wav
475,192,134779,1,0,0:0:0:40:LR_Snare Fast.wav
475,192,135029,1,0,0:0:0:40:LR_Snare Fast.wav
182,192,135029,1,0,0:0:0:50:LR_Kick Drum Fast.wav
329,192,135029,1,0,0:0:0:40:LR_Snare Hat 2.wav
256,192,135154,1,0,0:0:0:55:LR_Kick Beat 2.wav
402,192,135154,1,0,0:0:0:40:LR_Kick Loud Bass Drop.wav
402,192,135279,1,0,0:0:0:40:LR_Kick Loud Bass Drop.wav
256,192,135279,1,0,0:0:0:55:LR_Kick Beat 2.wav
182,192,135404,1,0,0:0:0:35:LR_Snare Hat 2.wav
329,192,135529,1,0,0:0:0:35:LR_Snare Hat 2.wav
182,192,135779,1,0,0:0:0:60:LR_Hit Snare Soft.wav
109,192,135779,1,0,0:0:0:45:LR_Kick Beat 2.wav
475,192,135779,1,0,0:0:0:35:LR_Kick Loud Bass Drop.wav
256,192,135841,1,0,0:0:0:60:LR_Hit Snare Soft.wav
329,192,135904,1,0,0:0:0:60:LR_Hit Snare Soft.wav
402,192,135966,1,0,0:0:0:60:LR_Hit Snare Soft.wav
36,192,136029,1,0,0:0:0:35:LR_Kick Loud Bass Drop.wav
182,192,136029,1,0,0:0:0:45:LR_Kick Beat 2.wav
475,192,136029,1,0,0:0:0:60:LR_Hit Snare Soft.wav
256,192,136154,1,0,0:0:0:15:LR_Drum Rim Fast.wav
402,192,136154,1,0,0:0:0:10:LR_Kick Beat 2.wav
109,192,136154,1,0,0:0:0:12:LR_Snare Fast.wav
329,192,136279,1,0,0:0:0:60:LR_Drum EDge.wav
256,192,136279,1,0,0:0:0:50:LR_Drum Rim Fast.wav
475,192,136279,1,0,0:0:0:66:LR_Kick Drum Fast.wav
402,192,136404,1,0,0:0:0:70:LR_Hit Snare Soft.wav
182,192,136404,1,0,0:0:0:55:LR_Kick Beat 2.wav
36,192,136404,1,0,0:0:0:44:LR_Kick Loud Bass Drop.wav
256,192,136529,1,0,0:0:0:15:LR_Drum Rim Fast.wav
109,192,136529,1,0,0:0:0:12:LR_Snare Fast.wav
475,192,136529,1,0,0:0:0:10:LR_Kick Beat 2.wav
329,192,136654,1,0,0:0:0:60:LR_Drum EDge.wav
475,192,136654,1,0,0:0:0:50:LR_Drum Rim Fast.wav
182,192,136654,1,0,0:0:0:66:LR_Kick Drum Fast.wav
256,192,136779,1,0,0:0:0:55:LR_Kick Beat 2.wav
402,192,136779,1,0,0:0:0:44:LR_Kick Loud Bass Drop.wav
36,192,136779,1,0,0:0:0:70:LR_Hit Snare Soft.wav
109,192,136904,1,0,0:0:0:15:LR_Drum Rim Fast.wav
182,192,136904,1,0,0:0:0:12:LR_Snare Fast.wav
329,192,136904,1,0,0:0:0:10:LR_Kick Beat 2.wav
256,192,137029,1,0,0:0:0:75:LR_Snare Fast.wav
475,192,137029,1,0,0:0:0:40:LR_Snare Hat 2.wav
109,192,137029,1,0,0:0:0:40:LR_Snare Hat 2.wav
402,192,137029,128,0,137529:0:0:0:100:LR3_GrowlWSL.wav
36,192,137154,1,0,0:0:0:30:LR_Hit Snare Soft.wav
182,192,137279,1,0,0:0:0:44:LR_Snare Hat 2.wav
109,192,137404,1,0,0:0:0:30:LR_Hit Snare Soft.wav
36,192,137529,128,0,137591:0:0:0:100:LR3_DS FXWa Left.wav
329,192,137529,1,0,0:0:0:33:LR_Hit Snare Soft.wav
36,192,137685,128,0,137747:0:0:0:100:LR3_DS FXWa Left.wav
329,192,137685,1,0,0:0:0:33:LR_Hit Snare Soft.wav
36,192,137841,128,0,137904:0:0:0:100:LR3_DS FXWa Left.wav
329,192,137841,1,0,0:0:0:33:LR_Hit Snare Soft.wav
182,192,138029,128,0,138091:0:0:0:0:
329,192,138029,128,0,138091:0:0:0:0:
109,192,138279,128,0,138341:0:0:0:0:
402,192,138279,128,0,138341:0:0:0:0:
256,192,138529,128,0,138654:0:0:0:0:
182,192,138654,128,0,138779:0:0:0:0:
329,192,138654,128,0,138779:0:0:0:0:
475,192,138779,128,0,138904:0:0:0:0:
36,192,138779,128,0,138904:0:0:0:0:
256,192,139029,128,0,140029:0:0:0:40:LR_Kick Low Strong Beat.wav
109,192,139029,128,0,140029:0:0:0:22:LR_Kick Loud Bass Drop.wav
402,192,139029,128,0,139279:0:0:0:22:LR_Kick Loud Bass Drop.wav
329,192,139279,1,0,0:0:0:40:LR_Snare Hat 2.wav
475,192,139279,1,0,0:0:0:40:LR_Snare Fast.wav
182,192,139404,1,0,0:0:0:45:LR_Kick Drum Fast.wav
36,192,139404,1,0,0:0:0:30:LR_Kick Loud Bass Drop.wav
402,192,139529,1,0,0:0:0:33:LR_Kick Low Strong Beat.wav
402,192,139654,1,0,0:0:0:33:LR_Kick Low Strong Beat.wav
402,192,139779,1,0,0:0:0:33:LR_Kick Low Strong Beat.wav
402,192,139904,1,0,0:0:0:33:LR_Kick Low Strong Beat.wav
475,192,140029,1,0,0:0:0:11:LR_J Hit Pong.wav
182,192,140029,1,0,0:0:0:11:LR_J Hit Pong.wav
36,192,140029,1,0,0:0:0:25:LR_Kick Loud Bass Drop.wav
329,192,140029,1,0,0:0:0:25:LR_Kick Loud Bass Drop.wav
402,192,140154,1,0,0:0:0:35:LR_Snare Hat 2.wav
182,192,140279,1,0,0:0:0:25:LR_J Hit Pong.wav
256,192,140279,1,0,0:0:0:25:LR_J Hit Pong.wav
109,192,140404,1,0,0:0:0:40:LR_Hit Snare Soft.wav
329,192,140404,1,0,0:0:0:30:LR_Kick Drum Fast.wav
36,192,140404,1,0,0:0:0:55:LR_Clap hollow echo.wav
402,192,140529,1,0,0:0:0:44:LR_Kick Loud Bass Drop.wav
475,192,140529,1,0,0:0:0:29:LR_Kick Beat 2.wav
182,192,140529,1,0,0:0:0:44:LR_Kick Drum Fast.wav
182,192,140779,1,0,0:0:0:25:LR_J Hit Pong.wav
256,192,140779,1,0,0:0:0:25:LR_J Hit Pong.wav
36,192,140779,1,0,0:0:0:55:LR_Clap hollow echo.wav
109,192,141029,1,0,0:0:0:44:LR_Kick Drum Fast.wav
402,192,141029,1,0,0:0:0:29:LR_Kick Beat 2.wav
329,192,141029,1,0,0:0:0:44:LR_Kick Loud Bass Drop.wav
182,192,141154,1,0,0:0:0:50:LR_Hit Snare Soft.wav
256,192,141279,1,0,0:0:0:25:LR_J Hit Pong.wav
109,192,141279,1,0,0:0:0:25:LR_J Hit Pong.wav
475,192,141404,1,0,0:0:0:30:LR_Kick Drum Fast.wav
329,192,141404,1,0,0:0:0:55:LR_Hit Snare Soft.wav
36,192,141404,1,0,0:0:0:55:LR_Clap hollow echo.wav
182,192,141529,1,0,0:0:0:44:LR_Kick Loud Bass Drop.wav
402,192,141529,1,0,0:0:0:29:LR_Kick Beat 2.wav
109,192,141529,1,0,0:0:0:44:LR_Kick Drum Fast.wav
402,192,141779,1,0,0:0:0:25:LR_J Hit Pong.wav
36,192,141779,1,0,0:0:0:55:LR_Clap hollow echo.wav
256,192,141779,1,0,0:0:0:25:LR_J Hit Pong.wav
109,192,142029,1,0,0:0:0:44:LR_Kick Drum Fast.wav
475,192,142029,1,0,0:0:0:29:LR_Kick Beat 2.wav
329,192,142029,1,0,0:0:0:44:LR_Kick Loud Bass Drop.wav
36,192,142154,1,0,0:0:0:33:LR_Hit Snare Soft.wav
182,192,142279,1,0,0:0:0:40:LR_Snare Hat 2.wav
256,192,142279,1,0,0:0:0:40:LR_Snare Hat 2.wav
475,192,142404,1,0,0:0:0:30:LR_Kick Drum Fast.wav
329,192,142404,1,0,0:0:0:55:LR_Hit Snare Soft.wav
36,192,142404,1,0,0:0:0:55:LR_Clap hollow echo.wav
182,192,142529,1,0,0:0:0:44:LR_Kick Loud Bass Drop.wav
402,192,142529,1,0,0:0:0:29:LR_Kick Beat 2.wav
109,192,142529,1,0,0:0:0:44:LR_Kick Drum Fast.wav
329,192,142779,1,0,0:0:0:25:LR_J Hit Pong.wav
36,192,142779,1,0,0:0:0:55:LR_Clap hollow echo.wav
256,192,142779,1,0,0:0:0:25:LR_J Hit Pong.wav
329,192,143029,1,0,0:0:0:44:LR_Kick Drum Fast.wav
475,192,143029,1,0,0:0:0:29:LR_Kick Beat 2.wav
402,192,143029,1,0,0:0:0:44:LR_Kick Loud Bass Drop.wav
182,192,143154,1,0,0:0:0:55:LR_Hit Snare Soft.wav
109,192,143154,1,0,0:0:0:55:LR_Clap hollow echo.wav
256,192,143279,1,0,0:0:0:40:LR_Snare Hat 2.wav
402,192,143279,1,0,0:0:0:30:LR_Snare Fast.wav
36,192,143404,1,0,0:0:0:55:LR_Clap hollow echo.wav
109,192,143404,1,0,0:0:0:55:LR_Hit Snare Soft.wav
256,192,143529,1,0,0:0:0:44:LR_Kick Loud Bass Drop.wav
329,192,143529,1,0,0:0:0:29:LR_Kick Beat 2.wav
182,192,143529,1,0,0:0:0:44:LR_Kick Drum Fast.wav
475,192,143779,1,0,0:0:0:30:LR_Kick Drum Fast.wav
256,192,143779,1,0,0:0:0:55:LR_Hit Snare Soft.wav
36,192,143779,1,0,0:0:0:55:LR_Clap hollow echo.wav
109,192,144029,1,0,0:0:0:44:LR_Kick Drum Fast.wav
402,192,144029,1,0,0:0:0:29:LR_Kick Beat 2.wav
329,192,144029,1,0,0:0:0:44:LR_Kick Loud Bass Drop.wav
36,192,144154,1,0,0:0:0:33:LR_Hit Snare Soft.wav
109,192,144279,1,0,0:0:0:25:LR_J Hit Pong.wav
329,192,144279,1,0,0:0:0:25:LR_J Hit Pong.wav
182,192,144404,1,0,0:0:0:55:LR_Clap hollow echo.wav
402,192,144404,1,0,0:0:0:55:LR_Hit Snare Soft.wav
475,192,144404,1,0,0:0:0:30:LR_Kick Drum Fast.wav
109,192,144529,1,0,0:0:0:44:LR_Kick Loud Bass Drop.wav
36,192,144529,1,0,0:0:0:29:LR_Kick Beat 2.wav
329,192,144529,1,0,0:0:0:44:LR_Kick Drum Fast.wav
256,192,144779,1,0,0:0:0:25:LR_J Hit Pong.wav
109,192,144779,1,0,0:0:0:55:LR_Clap hollow echo.wav
402,192,144779,1,0,0:0:0:25:LR_J Hit Pong.wav
182,192,145029,1,0,0:0:0:44:LR_Kick Drum Fast.wav
475,192,145029,1,0,0:0:0:29:LR_Kick Beat 2.wav
402,192,145029,1,0,0:0:0:44:LR_Kick Loud Bass Drop.wav
36,192,145154,1,0,0:0:0:33:LR_Hit Snare Soft.wav
475,192,145279,1,0,0:0:0:25:LR_J Hit Pong.wav
182,192,145279,1,0,0:0:0:25:LR_J Hit Pong.wav
109,192,145404,1,0,0:0:0:55:LR_Clap hollow echo.wav
36,192,145404,1,0,0:0:0:55:LR_Hit Snare Soft.wav
329,192,145404,1,0,0:0:0:30:LR_Kick Drum Fast.wav
402,192,145529,1,0,0:0:0:44:LR_Kick Loud Bass Drop.wav
475,192,145529,1,0,0:0:0:29:LR_Kick Beat 2.wav
182,192,145529,1,0,0:0:0:44:LR_Kick Drum Fast.wav
402,192,145779,1,0,0:0:0:25:LR_J Hit Pong.wav
109,192,145779,1,0,0:0:0:55:LR_Clap hollow echo.wav
256,192,145779,1,0,0:0:0:25:LR_J Hit Pong.wav
109,192,146029,1,0,0:0:0:44:LR_Kick Drum Fast.wav
402,192,146029,1,0,0:0:0:29:LR_Kick Beat 2.wav
329,192,146029,1,0,0:0:0:44:LR_Kick Loud Bass Drop.wav
36,192,146154,1,0,0:0:0:33:LR_Hit Snare Soft.wav
475,192,146279,1,0,0:0:0:40:LR_Snare Hat 2.wav
109,192,146404,1,0,0:0:0:55:LR_Clap hollow echo.wav
182,192,146404,1,0,0:0:0:55:LR_Hit Snare Soft.wav
402,192,146404,1,0,0:0:0:30:LR_Kick Drum Fast.wav
36,192,146529,1,0,0:0:0:44:LR_Kick Loud Bass Drop.wav
329,192,146529,1,0,0:0:0:29:LR_Kick Beat 2.wav
256,192,146529,1,0,0:0:0:44:LR_Kick Drum Fast.wav
256,192,146779,1,0,0:0:0:25:LR_J Hit Pong.wav
182,192,146779,1,0,0:0:0:55:LR_Clap hollow echo.wav
475,192,146779,1,0,0:0:0:25:LR_J Hit Pong.wav
475,192,147029,128,2,148029:2:0:0:18:LR_Kick Beat 2.wav
256,192,147029,1,0,0:0:0:44:LR_Kick Drum Fast.wav
36,192,147029,1,0,0:0:0:29:LR_Kick Beat 2.wav
182,192,147029,1,0,0:0:0:44:LR_Kick Loud Bass Drop.wav
109,192,147154,1,0,0:0:0:55:LR_Clap hollow echo.wav
329,192,147154,1,0,0:0:0:55:LR_Hit Snare Soft.wav
402,192,147154,1,0,0:0:0:55:LR_Clap hollow echo.wav
36,192,147279,1,0,0:0:0:33:LR_Snare Hat 2.wav
256,192,147279,1,0,0:0:0:33:LR_Hit Snare Soft.wav
109,192,147404,1,0,0:0:0:55:LR_Clap hollow echo.wav
329,192,147404,1,0,0:0:0:55:LR_Hit Snare Soft.wav
402,192,147404,1,0,0:0:0:55:LR_Clap hollow echo.wav
36,192,147529,1,0,0:0:0:29:LR_Kick Beat 2.wav
182,192,147529,1,0,0:0:0:44:LR_Kick Loud Bass Drop.wav
256,192,147529,1,0,0:0:0:44:LR_Kick Drum Fast.wav
36,192,147654,1,0,0:0:0:0:
256,192,147779,1,0,0:0:0:40:LR_Kick Loud Bass Drop.wav
182,192,147779,1,0,0:0:0:55:LR_Clap hollow echo.wav
329,192,147779,1,0,0:0:0:55:LR_Hit Snare Soft.wav
182,192,147904,1,0,0:0:0:0:
109,192,148029,1,0,0:0:0:44:LR_Kick Drum Fast.wav
329,192,148029,1,0,0:0:0:44:LR_Kick Loud Bass Drop.wav
402,192,148029,1,0,0:0:0:29:LR_Kick Beat 2.wav
36,192,148154,1,0,0:0:0:33:LR_Hit Snare Soft.wav
109,192,148279,1,0,0:0:0:25:LR_J Hit Pong.wav
402,192,148279,1,0,0:0:0:25:LR_J Hit Pong.wav
329,192,148404,1,0,0:0:0:55:LR_Hit Snare Soft.wav
182,192,148404,1,0,0:0:0:55:LR_Clap hollow echo.wav
475,192,148404,1,0,0:0:0:30:LR_Kick Drum Fast.wav
36,192,148529,1,0,0:0:0:29:LR_Kick Beat 2.wav
109,192,148529,1,0,0:0:0:44:LR_Kick Loud Bass Drop.wav
402,192,148529,1,0,0:0:0:44:LR_Kick Drum Fast.wav
475,192,148654,1,0,0:0:0:40:LR_Snare Hat 2.wav
329,192,148779,1,0,0:0:0:25:LR_J Hit Pong.wav
109,192,148779,1,0,0:0:0:55:LR_Clap hollow echo.wav
182,192,148779,1,0,0:0:0:25:LR_J Hit Pong.wav
329,192,149029,1,0,0:0:0:44:LR_Kick Drum Fast.wav
475,192,149029,1,0,0:0:0:44:LR_Kick Loud Bass Drop.wav
109,192,149029,1,0,0:0:0:29:LR_Kick Beat 2.wav
402,192,149154,1,0,0:0:0:40:LR_Snare Hat 2.wav
475,192,149279,1,0,0:0:0:25:LR_J Hit Pong.wav
329,192,149279,1,0,0:0:0:25:LR_J Hit Pong.wav
182,192,149404,1,0,0:0:0:55:LR_Hit Snare Soft.wav
36,192,149404,1,0,0:0:0:55:LR_Clap hollow echo.wav
256,192,149404,1,0,0:0:0:30:LR_Kick Drum Fast.wav
109,192,149529,1,0,0:0:0:29:LR_Kick Beat 2.wav
402,192,149529,1,0,0:0:0:44:LR_Kick Loud Bass Drop.wav
329,192,149529,1,0,0:0:0:44:LR_Kick Drum Fast.wav
475,192,149654,1,0,0:0:0:33:LR_Hit Snare Soft.wav
182,192,149779,1,0,0:0:0:25:LR_J Hit Pong.wav
36,192,149779,1,0,0:0:0:55:LR_Clap hollow echo.wav
402,192,149779,1,0,0:0:0:25:LR_J Hit Pong.wav
329,192,150029,1,0,0:0:0:44:LR_Kick Drum Fast.wav
182,192,150029,1,0,0:0:0:44:LR_Kick Loud Bass Drop.wav
475,192,150029,1,0,0:0:0:29:LR_Kick Beat 2.wav
256,192,150154,1,0,0:0:0:50:LR_Hit Snare Soft.wav
109,192,150279,1,0,0:0:0:25:LR_J Hit Pong.wav
402,192,150279,1,0,0:0:0:25:LR_J Hit Pong.wav
182,192,150404,1,0,0:0:0:55:LR_Hit Snare Soft.wav
36,192,150404,1,0,0:0:0:55:LR_Clap hollow echo.wav
256,192,150404,1,0,0:0:0:30:LR_Kick Drum Fast.wav
475,192,150529,1,0,0:0:0:29:LR_Kick Beat 2.wav
329,192,150529,1,0,0:0:0:44:LR_Kick Loud Bass Drop.wav
109,192,150529,1,0,0:0:0:44:LR_Kick Drum Fast.wav
475,192,150779,1,0,0:0:0:25:LR_J Hit Pong.wav
36,192,150779,1,0,0:0:0:55:LR_Clap hollow echo.wav
256,192,150779,1,0,0:0:0:25:LR_J Hit Pong.wav
109,192,151029,1,0,0:0:0:44:LR_Kick Drum Fast.wav
182,192,151029,1,0,0:0:0:44:LR_Kick Loud Bass Drop.wav
36,192,151029,1,0,0:0:0:29:LR_Kick Beat 2.wav
329,192,151154,1,0,0:0:0:55:LR_Hit Snare Soft.wav
475,192,151154,1,0,0:0:0:55:LR_Clap hollow echo.wav
402,192,151154,1,0,0:0:0:30:LR_Kick Drum Fast.wav
109,192,151279,1,0,0:0:0:30:LR_Snare Fast.wav
182,192,151279,1,0,0:0:0:40:LR_Snare Hat 2.wav
402,192,151404,1,0,0:0:0:30:LR_Kick Drum Fast.wav
256,192,151404,1,0,0:0:0:55:LR_Clap hollow echo.wav
329,192,151404,1,0,0:0:0:55:LR_Hit Snare Soft.wav
36,192,151529,1,0,0:0:0:29:LR_Kick Beat 2.wav
182,192,151529,1,0,0:0:0:44:LR_Kick Loud Bass Drop.wav
475,192,151529,1,0,0:0:0:44:LR_Kick Drum Fast.wav
256,192,151779,1,0,0:0:0:55:LR_Hit Snare Soft.wav
109,192,151779,1,0,0:0:0:55:LR_Clap hollow echo.wav
402,192,151779,1,0,0:0:0:30:LR_Kick Drum Fast.wav
182,192,152029,1,0,0:0:0:44:LR_Kick Loud Bass Drop.wav
475,192,152029,1,0,0:0:0:44:LR_Kick Drum Fast.wav
36,192,152029,128,0,154029:0:0:0:29:LR_Kick Beat 2.wav
402,192,152154,1,0,0:0:0:33:LR_Hit Snare Soft.wav
109,192,152279,1,0,0:0:0:33:LR_Hit Snare Soft.wav
329,192,152279,1,0,0:0:0:23:LR_J Hit Pong.wav
182,192,152404,1,0,0:0:0:55:LR_Clap hollow echo.wav
402,192,152404,1,0,0:0:0:55:LR_Hit Snare Soft.wav
256,192,152529,1,0,0:0:0:44:LR_Kick Drum Fast.wav
109,192,152529,1,0,0:0:0:29:LR_Kick Beat 2.wav
475,192,152529,1,0,0:0:0:44:LR_Kick Loud Bass Drop.wav
475,192,152779,1,0,0:0:0:55:LR_Clap hollow echo.wav
182,192,152779,1,0,0:0:0:25:LR_J Hit Pong.wav
329,192,152779,1,0,0:0:0:25:LR_J Hit Pong.wav
256,192,153029,1,0,0:0:0:44:LR_Kick Drum Fast.wav
109,192,153029,1,0,0:0:0:29:LR_Kick Beat 2.wav
402,192,153029,1,0,0:0:0:44:LR_Kick Loud Bass Drop.wav
329,192,153154,1,0,0:0:0:33:LR_Hit Snare Soft.wav
402,192,153279,1,0,0:0:0:40:LR_Snare Hat 2.wav
475,192,153404,1,0,0:0:0:30:LR_Kick Drum Fast.wav
182,192,153404,1,0,0:0:0:55:LR_Clap hollow echo.wav
329,192,153404,1,0,0:0:0:55:LR_Hit Snare Soft.wav
402,192,153529,1,0,0:0:0:44:LR_Kick Loud Bass Drop.wav
109,192,153529,1,0,0:0:0:29:LR_Kick Beat 2.wav
256,192,153529,1,0,0:0:0:44:LR_Kick Drum Fast.wav
329,192,153779,1,0,0:0:0:25:LR_J Hit Pong.wav
182,192,153779,1,0,0:0:0:25:LR_J Hit Pong.wav
475,192,153779,1,0,0:0:0:55:LR_Clap hollow echo.wav
109,192,154029,1,0,0:0:0:29:LR_Kick Beat 2.wav
402,192,154029,1,0,0:0:0:44:LR_Kick Loud Bass Drop.wav
256,192,154029,128,0,154529:0:0:0:44:LR_Kick Drum Fast.wav
109,192,154279,128,0,155029:0:0:0:55:LR_Chm loong.wav
402,192,154279,128,0,154529:0:0:0:66:LR_Kick Beat 2.wav
475,192,154279,128,0,154529:0:0:0:35:LR_Kick Low Strong Beat.wav
36,192,154779,128,0,155029:0:0:0:35:LR_Kick Low Strong Beat.wav
329,192,154779,128,0,155529:0:0:0:55:LR_Chm loong.wav
402,192,154779,128,0,155029:0:0:0:66:LR_Kick Beat 2.wav
36,192,155279,128,0,155529:0:0:0:35:LR_Kick Low Strong Beat.wav
256,192,155279,128,0,155529:0:0:0:66:LR_Kick Beat 2.wav
402,192,155279,128,0,156029:0:0:0:55:LR_Chm loong.wav
109,192,155779,128,0,156029:0:0:0:35:LR_Kick Low Strong Beat.wav
182,192,155779,128,0,156029:0:0:0:66:LR_Kick Beat 2.wav
329,192,155779,128,0,156029:0:0:0:55:LR_Chm loong.wav
36,192,156029,1,0,0:0:0:33:LR_Clap Hit P.wav
475,192,156029,1,0,0:0:0:44:LR_Kick Loud Bass Drop.wav
256,192,156029,1,0,0:0:0:33:LR_Chm loong.wav
109,192,156279,1,0,0:0:0:18:LR_Snare Hat 2.wav
402,192,156279,1,0,0:0:0:18:LR_Snare Hat 2.wav
36,192,156404,1,0,0:0:0:50:LR_Clap Kick Fast Low Beat.wav
182,192,156404,1,0,0:0:0:40:LR_Clap hollow echo.wav
475,192,156404,1,0,0:0:0:40:LR_Clap kick.wav
109,192,156529,1,0,0:0:0:40:LR_Kick Beat 2.wav
329,192,156529,1,0,0:0:0:60:LR_Kick Drum Fast.wav
402,192,156529,1,0,0:0:0:38:LR_Kick Loud Bass Drop.wav
36,192,156654,1,0,0:0:0:18:LR_Snare Hat 2.wav
182,192,156779,1,0,0:0:0:50:LR_Clap Kick Fast Low Beat.wav
475,192,156779,1,0,0:0:0:40:LR_Clap kick.wav
329,192,156779,1,0,0:0:0:40:LR_Clap hollow echo.wav
256,192,156779,1,0,0:0:0:40:LR3_SSXFG.wav
401,192,156904,1,0,0:0:0:30:LR3_Kick LRBDS.wav
108,192,156904,1,0,0:0:0:30:LR3_Kick LRBDS.wav
36,192,157029,1,0,0:0:0:40:LR_Kick Beat 2.wav
182,192,157029,1,0,0:0:0:60:LR_Kick Drum Fast.wav
475,192,157029,1,0,0:0:0:38:LR_Kick Loud Bass Drop.wav
109,192,157154,1,0,0:0:0:18:LR_Hit Snare Soft.wav
329,192,157154,1,0,0:0:0:30:LR3_Kick LRBDS.wav
402,192,157279,1,0,0:0:0:30:LR3_Kick LRBDS.wav
256,192,157279,1,0,0:0:0:40:LR3_SSXFG.wav
182,192,157404,1,0,0:0:0:40:LR_Clap hollow echo.wav
475,192,157404,1,0,0:0:0:40:LR_Clap kick.wav
36,192,157404,1,0,0:0:0:50:LR_Clap Kick Fast Low Beat.wav
402,192,157529,1,0,0:0:0:38:LR_Kick Loud Bass Drop.wav
329,192,157529,1,0,0:0:0:60:LR_Kick Drum Fast.wav
109,192,157529,1,0,0:0:0:40:LR_Kick Beat 2.wav
36,192,157779,1,0,0:0:0:50:LR_Clap Kick Fast Low Beat.wav
475,192,157779,1,0,0:0:0:40:LR_Clap kick.wav
182,192,157779,1,0,0:0:0:40:LR_Clap hollow echo.wav
256,192,157779,1,0,0:0:0:40:LR3_SSXFG.wav
109,192,157904,1,0,0:0:0:30:LR3_Kick LRBDS.wav
402,192,157904,1,0,0:0:0:30:LR3_Kick LRBDS.wav
36,192,158029,1,0,0:0:0:40:LR_Kick Beat 2.wav
329,192,158029,1,0,0:0:0:60:LR_Kick Drum Fast.wav
475,192,158029,1,0,0:0:0:38:LR_Kick Loud Bass Drop.wav
109,192,158154,1,0,0:0:0:30:LR3_Kick LRBDS.wav
402,192,158154,1,0,0:0:0:30:LR3_Kick LRBDS.wav
182,192,158279,1,0,0:0:0:18:LR_Snare Hat 2.wav
475,192,158279,1,0,0:0:0:18:LR_Snare Hat 2.wav
256,192,158404,1,0,0:0:0:40:LR_Clap hollow echo.wav
402,192,158404,1,0,0:0:0:40:LR_Clap kick.wav
109,192,158404,1,0,0:0:0:50:LR_Clap Kick Fast Low Beat.wav
329,192,158529,1,0,0:0:0:38:LR_Kick Loud Bass Drop.wav
182,192,158529,1,0,0:0:0:60:LR_Kick Drum Fast.wav
36,192,158529,1,0,0:0:0:40:LR_Kick Beat 2.wav
256,192,158654,1,0,0:0:0:18:LR_Hit Snare Soft.wav
402,192,158654,1,0,0:0:0:30:LR3_Kick LRBDS.wav
329,192,158779,1,0,0:0:0:50:LR_Clap Kick Fast Low Beat.wav
475,192,158779,1,0,0:0:0:40:LR_Clap kick.wav
182,192,158779,1,0,0:0:0:40:LR_Clap hollow echo.wav
109,192,158779,1,0,0:0:0:40:LR3_SSXFG.wav
256,192,158904,1,0,0:0:0:18:LR_Hit Snare Soft.wav
329,192,159029,1,0,0:0:0:60:LR_Kick Drum Fast.wav
402,192,159029,1,0,0:0:0:38:LR_Kick Loud Bass Drop.wav
182,192,159029,1,0,0:0:0:40:LR_Kick Beat 2.wav
256,192,159154,1,0,0:0:0:40:LR_Clap hollow echo.wav
475,192,159154,1,0,0:0:0:40:LR_Clap kick.wav
36,192,159154,1,0,0:0:0:50:LR_Clap Kick Fast Low Beat.wav
402,192,159279,1,0,0:0:0:18:LR_Snare Hat 2.wav
109,192,159279,1,0,0:0:0:40:LR3_SSXFG.wav
329,192,159404,1,0,0:0:0:50:LR_Clap Kick Fast Low Beat.wav
475,192,159404,1,0,0:0:0:40:LR_Clap kick.wav
182,192,159404,1,0,0:0:0:40:LR_Clap hollow echo.wav
256,192,159529,1,0,0:0:0:60:LR_Kick Drum Fast.wav
402,192,159529,1,0,0:0:0:38:LR_Kick Loud Bass Drop.wav
36,192,159529,1,0,0:0:0:40:LR_Kick Beat 2.wav
329,192,159779,1,0,0:0:0:40:LR_Clap hollow echo.wav
475,192,159779,1,0,0:0:0:40:LR_Clap kick.wav
402,192,159779,1,0,0:0:0:50:LR_Clap Kick Fast Low Beat.wav
109,192,159779,1,0,0:0:0:40:LR3_SSXFG.wav
256,192,160029,1,0,0:0:0:60:LR_Kick Drum Fast.wav
402,192,160029,1,0,0:0:0:38:LR_Kick Loud Bass Drop.wav
36,192,160029,1,0,0:0:0:40:LR_Kick Beat 2.wav
109,192,160154,1,0,0:0:0:44:LR3_GreatDrum.wav
329,192,160154,1,0,0:0:0:18:LR_Hit Snare Soft.wav
402,192,160279,1,0,0:0:0:18:LR_Snare Hat 2.wav
182,192,160279,1,0,0:0:0:18:LR_Snare Hat 2.wav
36,192,160404,1,0,0:0:0:50:LR_Clap Kick Fast Low Beat.wav
475,192,160404,1,0,0:0:0:40:LR_Clap kick.wav
256,192,160404,1,0,0:0:0:40:LR_Clap hollow echo.wav
182,192,160529,1,0,0:0:0:38:LR_Kick Loud Bass Drop.wav
329,192,160529,1,0,0:0:0:60:LR_Kick Drum Fast.wav
109,192,160529,1,0,0:0:0:40:LR_Kick Beat 2.wav
402,192,160654,1,0,0:0:0:18:LR_Hit Snare Soft.wav
256,192,160779,1,0,0:0:0:50:LR_Clap Kick Fast Low Beat.wav
475,192,160779,1,0,0:0:0:40:LR_Clap kick.wav
182,192,160779,1,0,0:0:0:40:LR_Clap hollow echo.wav
109,192,160904,1,0,0:0:0:18:LR_Snare Hat 2.wav
36,192,160904,1,0,0:0:0:18:LR_Snare Hat 2.wav
475,192,161029,1,0,0:0:0:44:LR_Drum J Hit Med Bass.wav
329,192,161029,1,0,0:0:0:60:LR_Kick Drum Fast.wav
256,192,161029,1,0,0:0:0:38:LR_Kick Loud Bass Drop.wav
182,192,161154,1,0,0:0:0:18:LR_Snare Hat 2.wav
109,192,161154,1,0,0:0:0:18:LR_Snare Hat 2.wav
329,192,161279,1,0,0:0:0:44:LR_Drum J Hit Med Bass.wav
402,192,161279,1,0,0:0:0:44:LR_J Hit Pong.wav
182,192,161404,1,0,0:0:0:40:LR_Clap hollow echo.wav
36,192,161404,1,0,0:0:0:40:LR_Clap kick.wav
256,192,161404,1,0,0:0:0:50:LR_Clap Kick Fast Low Beat.wav
402,192,161529,1,0,0:0:0:38:LR_Kick Loud Bass Drop.wav
475,192,161529,1,0,0:0:0:60:LR_Kick Drum Fast.wav
109,192,161529,1,0,0:0:0:40:LR_Kick Beat 2.wav
329,192,161654,1,0,0:0:0:18:LR_Chm loong.wav
182,192,161654,1,0,0:0:0:18:LR_Hit Snare Soft.wav
36,192,161779,1,0,0:0:0:50:LR_Clap Kick Fast Low Beat.wav
475,192,161779,1,0,0:0:0:40:LR_Clap kick.wav
256,192,161779,1,0,0:0:0:40:LR_Clap hollow echo.wav
182,192,161904,1,0,0:0:0:18:LR_Snare Hat 2.wav
109,192,161966,1,0,0:0:0:92:LR3_AGG F5.wav
36,192,162029,128,0,162529:0:0:0:70:LR3_AGG F6.wav
256,192,162029,1,0,0:0:0:60:LR_Kick Drum Fast.wav
402,192,162029,1,0,0:0:0:38:LR_Kick Loud Bass Drop.wav
475,192,162154,1,0,0:0:0:44:LR3_GreatDrum.wav
329,192,162154,1,0,0:0:0:18:LR_Hit Snare Soft.wav
402,192,162279,1,0,0:0:0:18:LR_Snare Hat 2.wav
256,192,162279,1,0,0:0:0:18:LR_Snare Hat 2.wav
475,192,162404,1,0,0:0:0:40:LR_Clap kick.wav
329,192,162404,1,0,0:0:0:50:LR_Clap Kick Fast Low Beat.wav
109,192,162404,1,0,0:0:0:40:LR_Clap hollow echo.wav
256,192,162529,128,0,163029:0:0:0:70:LR3_AGG C6.wav
402,192,162529,1,0,0:0:0:38:LR_Kick Loud Bass Drop.wav
182,192,162529,1,0,0:0:0:60:LR_Kick Drum Fast.wav
109,192,162654,1,0,0:0:0:18:LR_Hit Snare Soft.wav
329,192,162654,1,0,0:0:0:18:LR_Hit Snare Soft.wav
36,192,162779,1,0,0:0:0:50:LR_Clap Kick Fast Low Beat.wav
475,192,162779,1,0,0:0:0:40:LR_Clap kick.wav
182,192,162779,1,0,0:0:0:40:LR_Clap hollow echo.wav
109,192,162904,1,0,0:0:0:18:LR_Hit Snare Soft.wav
36,192,163029,1,0,0:0:0:40:LR_Kick Beat 2.wav
475,192,163029,1,0,0:0:0:60:LR_Kick Drum Fast.wav
402,192,163029,1,0,0:0:0:38:LR_Kick Loud Bass Drop.wav
256,192,163154,1,0,0:0:0:34:LR_Drum J Hit Med Bass.wav
109,192,163154,1,0,0:0:0:38:LR_Drum Barrel Finish.wav
329,192,163154,1,0,0:0:0:35:LR_Kick Loud Bass Drop.wav
182,192,163279,1,0,0:0:0:38:LR_Drum Barrel Finish.wav
402,192,163279,1,0,0:0:0:34:LR_Drum J Hit Med Bass.wav
475,192,163279,1,0,0:0:0:35:LR_Kick Loud Bass Drop.wav
36,192,163404,1,0,0:0:0:38:LR_Drum Barrel Finish.wav
256,192,163404,1,0,0:0:0:34:LR_Drum J Hit Med Bass.wav
329,192,163404,1,0,0:0:0:50:LR_Clap kick.wav
109,192,163529,1,0,0:0:0:38:LR_Drum Barrel Finish.wav
182,192,163529,1,0,0:0:0:34:LR_Drum J Hit Med Bass.wav
402,192,163529,1,0,0:0:0:35:LR_Kick Loud Bass Drop.wav
36,192,163654,1,2,2:0:0:18:LR_Chm loong.wav
475,192,163654,1,0,0:0:0:35:LR_Kick Drum Fast.wav
329,192,163654,1,0,0:0:0:35:LR_Hit Snare Soft.wav
109,192,163779,1,0,0:0:0:38:LR_Drum Barrel Finish.wav
402,192,163779,1,0,0:0:0:50:LR_Clap kick.wav
182,192,163779,1,0,0:0:0:34:LR_Drum J Hit Med Bass.wav
36,192,163904,1,2,2:0:0:18:LR_Chm loong.wav
256,192,163904,1,0,0:0:0:35:LR_Hit Snare Soft.wav
329,192,163904,1,0,0:0:0:35:LR_Kick Drum Fast.wav
402,192,164029,1,0,0:0:0:38:LR_Kick Loud Bass Drop.wav
475,192,164029,1,0,0:0:0:60:LR_Kick Drum Fast.wav
182,192,164029,1,0,0:0:0:40:LR_Kick Beat 2.wav
109,192,164029,1,0,0:0:0:50:LR_Clap Kick Fast Low Beat.wav
36,192,164279,1,0,0:0:0:18:LR_Snare Hat 2.wav
475,192,164279,1,0,0:0:0:18:LR_Snare Hat 2.wav
109,192,164404,1,0,0:0:0:40:LR_Clap hollow echo.wav
329,192,164404,1,0,0:0:0:40:LR_Clap kick.wav
256,192,164404,1,0,0:0:0:50:LR_Clap Kick Fast Low Beat.wav
36,192,164529,1,0,0:0:0:40:LR_Kick Beat 2.wav
182,192,164529,1,0,0:0:0:60:LR_Kick Drum Fast.wav
402,192,164529,1,0,0:0:0:38:LR_Kick Loud Bass Drop.wav
109,192,164654,1,0,0:0:0:18:LR_Hit Snare Soft.wav
329,192,164779,1,0,0:0:0:40:LR_Clap hollow echo.wav
182,192,164779,1,0,0:0:0:40:LR_Clap kick.wav
475,192,164779,128,0,165154:0:0:0:50:LR3_SSXFG.wav
256,192,164904,1,0,0:0:0:44:LR3_GreatDrum.wav
109,192,164904,1,0,0:0:0:18:LR_Hit Snare Soft.wav
329,192,165029,1,0,0:0:0:38:LR_Kick Loud Bass Drop.wav
36,192,165029,1,0,0:0:0:60:LR_Kick Drum Fast.wav
402,192,165154,128,0,165529:0:0:0:50:LR_Kick Low Strong Beat.wav
256,192,165154,1,0,0:0:0:18:LR_Hit Snare Soft.wav
182,192,165279,1,0,0:0:0:18:LR_Snare Hat 2.wav
36,192,165279,1,0,0:0:0:18:LR_Snare Hat 2.wav
109,192,165404,1,0,0:0:0:40:LR_Clap hollow echo.wav
256,192,165404,1,0,0:0:0:40:LR_Clap kick.wav
329,192,165529,128,0,165779:0:0:0:50:LR_Kick Low Strong Beat.wav
182,192,165529,1,0,0:0:0:60:LR_Kick Drum Fast.wav
36,192,165529,1,0,0:0:0:38:LR_Kick Loud Bass Drop.wav
475,192,165654,1,0,0:0:0:18:LR_Snare Hat 2.wav
109,192,165654,1,0,0:0:0:18:LR_Snare Hat 2.wav
402,192,165779,1,0,0:0:0:40:LR_Clap kick.wav
182,192,165779,1,0,0:0:0:40:LR_Clap hollow echo.wav
36,192,165779,128,0,166029:0:0:0:50:LR_Kick Low Strong Beat.wav
256,192,166029,128,0,166154:0:0:0:50:LR3_SSXFG.wav
475,192,166029,1,0,0:0:0:38:LR_Kick Loud Bass Drop.wav
182,192,166029,1,0,0:0:0:60:LR_Kick Drum Fast.wav
109,192,166154,1,0,0:0:0:18:LR_Hit Snare Soft.wav
402,192,166154,1,0,0:0:0:44:LR3_GreatDrum.wav
182,192,166279,1,0,0:0:0:18:LR_Snare Hat 2.wav
475,192,166279,1,0,0:0:0:18:LR_Snare Hat 2.wav
36,192,166404,1,0,0:0:0:40:LR_Clap kick.wav
256,192,166404,1,0,0:0:0:40:LR_Clap hollow echo.wav
402,192,166404,128,0,166529:0:0:0:50:LR_Kick Low Strong Beat.wav
182,192,166529,1,0,0:0:0:60:LR_Kick Drum Fast.wav
475,192,166529,1,0,0:0:0:38:LR_Kick Loud Bass Drop.wav
109,192,166654,1,0,0:0:0:18:LR_Hit Snare Soft.wav
36,192,166779,1,0,0:0:0:40:LR_Clap hollow echo.wav
182,192,166779,1,0,0:0:0:40:LR_Clap kick.wav
329,192,166779,128,0,167154:0:0:0:50:LR3_SSXFG.wav
109,192,166904,1,0,0:0:0:18:LR_Hit Snare Soft.wav
475,192,167029,1,0,0:0:0:38:LR_Kick Loud Bass Drop.wav
182,192,167029,1,0,0:0:0:60:LR_Kick Drum Fast.wav
36,192,167154,128,0,167529:0:0:0:50:LR_Kick Low Strong Beat.wav
256,192,167154,1,0,0:0:0:40:LR_Clap hollow echo.wav
402,192,167154,1,0,0:0:0:40:LR_Clap kick.wav
475,192,167279,1,0,0:0:0:18:LR_Snare Hat 2.wav
182,192,167279,1,0,0:0:0:18:LR_Snare Hat 2.wav
402,192,167404,1,0,0:0:0:40:LR_Clap kick.wav
329,192,167404,1,0,0:0:0:40:LR_Clap hollow echo.wav
256,192,167404,1,0,0:0:0:50:LR_Clap Kick Fast Low Beat.wav
475,192,167529,128,0,167779:0:0:0:50:LR_Kick Low Strong Beat.wav
109,192,167529,1,0,0:0:0:60:LR_Kick Drum Fast.wav
182,192,167529,1,0,0:0:0:38:LR_Kick Loud Bass Drop.wav
256,192,167779,1,0,0:0:0:40:LR_Clap kick.wav
329,192,167779,1,0,0:0:0:40:LR_Clap hollow echo.wav
109,192,167779,128,0,168029:0:0:0:50:LR_Kick Low Strong Beat.wav
402,192,167904,1,0,0:0:0:18:LR_Hit Snare Soft.wav
182,192,168029,128,0,168154:0:0:0:50:LR3_SSXFG.wav
329,192,168029,1,0,0:0:0:60:LR_Kick Drum Fast.wav
475,192,168029,1,0,0:0:0:38:LR_Kick Loud Bass Drop.wav
402,192,168154,1,0,0:0:0:44:LR3_GreatDrum.wav
256,192,168154,1,0,0:0:0:18:LR_Hit Snare Soft.wav
182,192,168279,1,0,0:0:0:18:LR_Snare Hat 2.wav
329,192,168279,1,0,0:0:0:18:LR_Snare Hat 2.wav
256,192,168404,128,0,168529:0:0:0:50:LR_Kick Low Strong Beat.wav
475,192,168404,1,0,0:0:0:40:LR_Clap kick.wav
109,192,168404,1,0,0:0:0:40:LR_Clap hollow echo.wav
329,192,168529,1,0,0:0:0:60:LR_Kick Drum Fast.wav
36,192,168529,1,0,0:0:0:38:LR_Kick Loud Bass Drop.wav
109,192,168654,1,0,0:0:0:18:LR_Hit Snare Soft.wav
475,192,168654,1,0,0:0:0:44:LR3_GreatDrum.wav
402,192,168779,1,0,0:0:0:40:LR_Clap kick.wav
36,192,168779,1,0,0:0:0:40:LR_Clap hollow echo.wav
182,192,168779,128,0,169154:0:0:0:50:LR3_SSXFG.wav
475,192,168904,1,0,0:0:0:18:LR_Hit Snare Soft.wav
36,192,169029,1,0,0:0:0:38:LR_Kick Loud Bass Drop.wav
329,192,169029,1,0,0:0:0:60:LR_Kick Drum Fast.wav
402,192,169154,128,0,169529:0:0:0:50:LR_Kick Low Strong Beat.wav
109,192,169154,1,0,0:0:0:18:LR_Hit Snare Soft.wav
329,192,169279,1,0,0:0:0:18:LR_Snare Hat 2.wav
36,192,169279,1,0,0:0:0:18:LR_Snare Hat 2.wav
256,192,169404,1,0,0:0:0:40:LR_Clap kick.wav
109,192,169404,1,0,0:0:0:40:LR_Clap hollow echo.wav
329,192,169529,128,0,169779:0:0:0:50:LR_Kick Low Strong Beat.wav
182,192,169529,1,0,0:0:0:60:LR_Kick Drum Fast.wav
475,192,169529,1,0,0:0:0:38:LR_Kick Loud Bass Drop.wav
256,192,169654,1,0,0:0:0:44:LR3_GreatDrum.wav
109,192,169654,1,0,0:0:0:18:LR_Hit Snare Soft.wav
36,192,169779,1,0,0:0:0:40:LR_Clap kick.wav
182,192,169779,1,0,0:0:0:40:LR_Clap hollow echo.wav
475,192,169779,128,0,170029:0:0:0:50:LR_Kick Low Strong Beat.wav
182,192,169966,1,0,0:0:0:92:LR3_AGG F5.wav
256,192,170029,128,0,170529:0:0:0:70:LR3_AGG F6.wav
402,192,170029,1,0,0:0:0:38:LR_Kick Loud Bass Drop.wav
36,192,170029,1,0,0:0:0:60:LR_Kick Drum Fast.wav
182,192,170279,1,0,0:0:0:18:LR_Snare Hat 2.wav
402,192,170279,1,0,0:0:0:18:LR_Snare Hat 2.wav
329,192,170404,1,0,0:0:0:40:LR_Clap hollow echo.wav
109,192,170404,1,0,0:0:0:40:LR_Clap kick.wav
36,192,170529,128,0,171029:0:0:0:70:LR3_AGG C6.wav
182,192,170529,1,0,0:0:0:60:LR_Kick Drum Fast.wav
402,192,170529,1,0,0:0:0:38:LR_Kick Loud Bass Drop.wav
329,192,170654,1,0,0:0:0:18:LR_Hit Snare Soft.wav
475,192,170779,1,0,0:0:0:40:LR_Clap kick.wav
182,192,170779,1,0,0:0:0:40:LR_Clap hollow echo.wav
402,192,170904,1,0,0:0:0:18:LR_Hit Snare Soft.wav
475,192,171029,1,0,0:0:0:38:LR_Kick Loud Bass Drop.wav
329,192,171029,1,0,0:0:0:60:LR_Kick Drum Fast.wav
109,192,171029,1,0,0:0:0:40:LR_Kick Beat 2.wav
36,192,171154,1,0,0:0:0:34:LR_Drum J Hit Med Bass.wav
182,192,171154,1,0,0:0:0:38:LR_Drum Barrel Finish.wav
402,192,171154,1,0,0:0:0:35:LR_Kick Loud Bass Drop.wav
475,192,171279,1,0,0:0:0:35:LR_Kick Loud Bass Drop.wav
109,192,171279,1,0,0:0:0:34:LR_Drum J Hit Med Bass.wav
256,192,171279,1,0,0:0:0:38:LR_Drum Barrel Finish.wav
182,192,171404,1,0,0:0:0:34:LR_Drum J Hit Med Bass.wav
402,192,171404,1,0,0:0:0:50:LR_Clap kick.wav
36,192,171404,1,0,0:0:0:38:LR_Drum Barrel Finish.wav
475,192,171529,1,0,0:0:0:35:LR_Kick Loud Bass Drop.wav
109,192,171529,1,0,0:0:0:38:LR_Drum Barrel Finish.wav
256,192,171529,1,0,0:0:0:34:LR_Drum J Hit Med Bass.wav
329,192,171654,1,0,0:0:0:35:LR_Hit Snare Soft.wav
182,192,171654,1,0,0:0:0:35:LR_Kick Drum Fast.wav
36,192,171654,1,2,2:0:0:18:LR_Chm loong.wav
256,192,171779,1,0,0:0:0:34:LR_Drum J Hit Med Bass.wav
402,192,171779,1,0,0:0:0:50:LR_Clap kick.wav
109,192,171779,1,0,0:0:0:38:LR_Drum Barrel Finish.wav
182,192,171904,1,2,2:0:0:18:LR_Chm loong.wav
475,192,171904,1,0,0:0:0:35:LR_Kick Drum Fast.wav
329,192,171904,1,0,0:0:0:35:LR_Hit Snare Soft.wav
256,192,172029,1,0,0:0:0:56:LR_Kick Beat 2.wav
402,192,172029,1,0,0:0:0:56:LR_Kick Drum Fast.wav
109,192,172029,128,0,173529:0:0:0:66:LR_Kick Loud Bass Drop.wav
475,192,172279,1,0,0:0:0:35:LR_Snare Fast.wav
329,192,172279,1,0,0:0:0:78:LR_Snare Hat 2.wav
256,192,172404,1,0,0:0:0:61:LR_Clap kick.wav
402,192,172404,1,0,0:0:0:80:LR_Clap Kick Fast Low Beat.wav
182,192,172529,1,0,0:0:0:45:LR_Kick Loud Bass Drop.wav
329,192,172529,1,0,0:0:0:50:LR_Kick Drum Fast.wav
256,192,172654,1,0,0:0:0:22:LR_Hit Snare Soft.wav
329,192,172779,1,0,0:0:0:78:LR_Snare Hat 2.wav
475,192,172779,1,0,0:0:0:35:LR_Snare Fast.wav
256,192,172904,1,0,0:0:0:22:LR_Hit Snare Soft.wav
402,192,173029,128,0,174529:0:0:0:75:LR_Drum Rim Fast.wav
36,192,173029,1,0,0:0:0:50:LR_Kick Drum Fast.wav
182,192,173029,1,0,0:0:0:45:LR_Kick Loud Bass Drop.wav
182,192,173279,1,0,0:0:0:35:LR_Snare Fast.wav
256,192,173279,1,0,0:0:0:78:LR_Snare Hat 2.wav
329,192,173404,1,0,0:0:0:80:LR_Clap Kick Fast Low Beat.wav
36,192,173404,1,0,0:0:0:61:LR_Clap kick.wav
182,192,173529,1,0,0:0:0:45:LR_Kick Loud Bass Drop.wav
475,192,173529,1,0,0:0:0:50:LR_Kick Drum Fast.wav
256,192,173779,1,0,0:0:0:61:LR_Clap kick.wav
475,192,173779,1,0,0:0:0:55:LR_Snare Hat 2.wav
109,192,173904,1,0,0:0:0:22:LR_Hit Snare Soft.wav
36,192,174029,128,0,175529:0:0:0:30:LR_Kick Beat 2.wav
329,192,174029,1,0,0:0:0:50:LR_Kick Drum Fast.wav
182,192,174029,1,0,0:0:0:45:LR_Kick Loud Bass Drop.wav
182,192,174279,1,0,0:0:0:78:LR_Snare Hat 2.wav
475,192,174279,1,0,0:0:0:35:LR_Snare Fast.wav
109,192,174404,1,0,0:0:0:80:LR_Clap Kick Fast Low Beat.wav
256,192,174404,1,0,0:0:0:61:LR_Clap kick.wav
475,192,174529,1,0,0:0:0:45:LR_Kick Loud Bass Drop.wav
329,192,174529,1,0,0:0:0:50:LR_Kick Drum Fast.wav
256,192,174654,1,0,0:0:0:22:LR_Hit Snare Soft.wav
109,192,174779,1,0,0:0:0:33:LR_Clap kick.wav
329,192,174779,1,0,0:0:0:78:LR_Snare Hat 2.wav
402,192,174904,1,0,0:0:0:22:LR_Hit Snare Soft.wav
475,192,175029,128,0,176029:0:0:0:75:LR_Drum Rim Fast.wav
109,192,175029,1,0,0:0:0:50:LR_Kick Drum Fast.wav
182,192,175029,1,0,0:0:0:45:LR_Kick Loud Bass Drop.wav
329,192,175154,1,0,0:0:0:55:LR_Snare Hat 2.wav
402,192,175154,1,0,0:0:0:61:LR_Clap kick.wav
256,192,175154,1,0,0:0:0:55:LR_Snare Hat 2.wav
109,192,175279,1,0,0:0:0:22:LR_Hit Snare Soft.wav
182,192,175279,1,0,0:0:0:22:LR_Hit Snare Soft.wav
402,192,175404,1,0,0:0:0:80:LR_Clap Kick Fast Low Beat.wav
256,192,175404,1,0,0:0:0:61:LR_Clap kick.wav
329,192,175404,1,0,0:0:0:75:LR_Drum Rim Fast.wav
182,192,175529,1,0,0:0:0:45:LR_Kick Loud Bass Drop.wav
109,192,175529,1,0,0:0:0:50:LR_Kick Drum Fast.wav
329,192,175779,1,0,0:0:0:61:LR_Clap kick.wav
36,192,175779,1,0,0:0:0:55:LR_Snare Hat 2.wav
256,192,175841,1,0,0:0:0:45:LR_Snare Hat 2.wav
182,192,175904,1,0,0:0:0:45:LR_Snare Hat 2.wav
109,192,175966,1,0,0:0:0:45:LR_Snare Hat 2.wav
329,192,176029,1,0,0:0:0:50:LR_Kick Drum Fast.wav
36,192,176029,1,0,0:0:0:45:LR_Kick Loud Bass Drop.wav
402,192,176029,1,0,0:0:0:35:LR_Kick Beat 2.wav
329,192,176279,1,0,0:0:0:78:LR_Snare Hat 2.wav
475,192,176279,1,0,0:0:0:35:LR_Snare Fast.wav
402,192,176404,1,0,0:0:0:80:LR_Clap Kick Fast Low Beat.wav
109,192,176404,1,0,0:0:0:55:LR_Snare Hat 2.wav
182,192,176404,1,0,0:0:0:61:LR_Clap kick.wav
36,192,176529,1,0,0:0:0:45:LR_Kick Loud Bass Drop.wav
329,192,176529,1,0,0:0:0:50:LR_Kick Drum Fast.wav
109,192,176654,1,0,0:0:0:22:LR_Hit Snare Soft.wav
402,192,176654,1,0,0:0:0:22:LR_Hit Snare Soft.wav
36,192,176779,1,0,0:0:0:55:LR_Snare Hat 2.wav
475,192,176779,1,0,0:0:0:61:LR_Clap kick.wav
256,192,176779,1,0,0:0:0:75:LR_Drum Rim Fast.wav
182,192,176904,1,0,0:0:0:22:LR_Hit Snare Soft.wav
402,192,176904,1,0,0:0:0:22:LR_Hit Snare Soft.wav
329,192,177029,1,0,0:0:0:50:LR_Kick Drum Fast.wav
109,192,177029,1,0,0:0:0:45:LR_Kick Loud Bass Drop.wav
402,192,177154,1,0,0:0:0:22:LR_Hit Snare Soft.wav
36,192,177154,1,0,0:0:0:22:LR_Hit Snare Soft.wav
256,192,177279,1,0,0:0:0:35:LR_Snare Fast.wav
109,192,177279,1,0,0:0:0:78:LR_Snare Hat 2.wav
329,192,177404,1,0,0:0:0:80:LR_Clap Kick Fast Low Beat.wav
182,192,177404,1,0,0:0:0:61:LR_Clap kick.wav
475,192,177404,1,0,0:0:0:45:LR_Drum Rim Fast.wav
256,192,177529,1,0,0:0:0:45:LR_Kick Loud Bass Drop.wav
402,192,177529,1,0,0:0:0:50:LR_Kick Drum Fast.wav
182,192,177654,1,0,0:0:0:22:LR_Hit Snare Soft.wav
475,192,177654,128,0,177779:0:0:0:22:LR_Hit Snare Soft.wav
109,192,177779,1,0,0:0:0:78:LR_Snare Hat 2.wav
329,192,177779,128,0,177904:0:0:0:35:LR_Snare Fast.wav
182,192,177904,128,0,178029:0:0:0:22:LR_Hit Snare Soft.wav
402,192,178029,128,0,178154:0:0:0:35:LR_Kick Beat 2.wav
36,192,178029,1,0,0:0:0:50:LR_Kick Drum Fast.wav
109,192,178029,1,0,0:0:0:45:LR_Kick Loud Bass Drop.wav
256,192,178154,128,0,178279:0:0:0:22:LR_Hit Snare Soft.wav
475,192,178279,128,0,178404:0:0:0:78:LR_Snare Hat 2.wav
36,192,178404,1,0,0:0:0:61:LR_Clap kick.wav
329,192,178404,128,0,178529:0:0:0:80:LR_Clap Kick Fast Low Beat.wav
182,192,178529,128,0,178654:0:0:0:75:LR_Drum Rim Fast.wav
475,192,178529,1,0,0:0:0:45:LR_Kick Loud Bass Drop.wav
402,192,178529,1,0,0:0:0:50:LR_Kick Drum Fast.wav
36,192,178654,128,0,178779:0:0:0:22:LR_J Hit.wav
256,192,178779,128,0,178904:0:0:0:55:LR_Snare Hat 2.wav
329,192,178779,1,0,0:0:0:61:LR_Clap kick.wav
109,192,178904,128,0,179029:0:0:0:22:LR_J Hit.wav
475,192,179029,1,0,0:0:0:50:LR_Kick Drum Fast.wav
402,192,179029,1,0,0:0:0:45:LR_Kick Loud Bass Drop.wav
256,192,179029,128,0,179154:0:0:0:80:LR_Clap Kick Fast Low Beat.wav
182,192,179154,1,0,0:0:0:61:LR_Clap kick.wav
329,192,179154,128,0,179279:0:0:0:80:LR_Clap Kick Fast Low Beat.wav
402,192,179279,128,0,179404:0:0:0:22:LR_Hit Snare Soft.wav
36,192,179279,1,0,0:0:0:22:LR_J Hit.wav
109,192,179279,1,0,0:0:0:22:LR_J Hit.wav
329,192,179404,1,0,0:0:0:80:LR_Clap Kick Fast Low Beat.wav
182,192,179404,128,0,179529:0:0:0:61:LR_Clap kick.wav
36,192,179529,1,0,0:0:0:45:LR_Kick Loud Bass Drop.wav
256,192,179529,128,0,179654:0:0:0:50:LR_Kick Drum Fast.wav
329,192,179654,128,0,179779:0:0:0:22:LR_Hit Snare Soft.wav
109,192,179654,1,0,0:0:0:22:LR_J Hit.wav
182,192,179779,1,0,0:0:0:61:LR_Clap kick.wav
402,192,179779,128,0,179904:0:0:0:80:LR_Clap Kick Fast Low Beat.wav
256,192,179904,1,0,0:0:0:22:LR_Hit Snare Soft.wav
475,192,179904,128,0,180029:0:0:0:22:LR_J Hit.wav
182,192,180029,1,0,0:0:0:50:LR_Kick Drum Fast.wav
36,192,180029,1,0,0:0:0:45:LR_Kick Loud Bass Drop.wav
329,192,180029,128,0,181529:0:0:0:35:LR_Kick Beat 2.wav
182,192,180279,1,0,0:0:0:78:LR_Snare Hat 2.wav
36,192,180279,1,0,0:0:0:35:LR_Snare Fast.wav
475,192,180404,1,0,0:0:0:80:LR_Clap Kick Fast Low Beat.wav
256,192,180404,1,0,0:0:0:61:LR_Clap kick.wav
402,192,180529,1,0,0:0:0:50:LR_Kick Drum Fast.wav
109,192,180529,1,0,0:0:0:45:LR_Kick Loud Bass Drop.wav
182,192,180654,1,0,0:0:0:22:LR_Hit Snare Soft.wav
475,192,180779,1,0,0:0:0:61:LR_Clap kick.wav
109,192,180779,1,0,0:0:0:55:LR_Snare Hat 2.wav
402,192,180904,1,0,0:0:0:22:LR_Hit Snare Soft.wav
36,192,180904,1,0,0:0:0:22:LR_Hit Snare Soft.wav
109,192,181029,128,0,182029:0:0:0:35:LR_Kick Beat 2.wav
256,192,181029,1,0,0:0:0:45:LR_Kick Loud Bass Drop.wav
475,192,181029,1,0,0:0:0:50:LR_Kick Drum Fast.wav
182,192,181279,1,0,0:0:0:78:LR_Snare Hat 2.wav
402,192,181279,1,0,0:0:0:35:LR_Snare Fast.wav
256,192,181404,1,0,0:0:0:75:LR_Drum Rim Fast.wav
36,192,181404,1,0,0:0:0:61:LR_Clap kick.wav
475,192,181404,1,0,0:0:0:80:LR_Clap Kick Fast Low Beat.wav
182,192,181529,1,0,0:0:0:22:LR_Hit Snare Soft.wav
402,192,181529,1,0,0:0:0:22:LR_Hit Snare Soft.wav
475,192,181779,1,0,0:0:0:61:LR_Clap kick.wav
182,192,181779,1,0,0:0:0:55:LR_Snare Hat 2.wav
329,192,181904,1,0,0:0:0:22:LR_Hit Snare Soft.wav
475,192,182029,1,0,0:0:0:50:LR_Kick Drum Fast.wav
256,192,182029,128,0,183029:0:0:0:35:LR_Kick Beat 2.wav
36,192,182029,1,0,0:0:0:45:LR_Kick Loud Bass Drop.wav
329,192,182154,1,0,0:0:0:22:LR_Hit Snare Soft.wav
109,192,182279,1,0,0:0:0:78:LR_Snare Hat 2.wav
475,192,182279,1,0,0:0:0:35:LR_Snare Fast.wav
402,192,182404,1,0,0:0:0:80:LR_Clap Kick Fast Low Beat.wav
36,192,182404,1,0,0:0:0:61:LR_Clap kick.wav
329,192,182529,1,0,0:0:0:50:LR_Kick Drum Fast.wav
109,192,182529,1,0,0:0:0:45:LR_Kick Loud Bass Drop.wav
475,192,182654,1,0,0:0:0:22:LR_Hit Snare Soft.wav
36,192,182779,1,0,0:0:0:61:LR_Clap kick.wav
329,192,182779,1,0,0:0:0:80:LR_Clap Kick Fast Low Beat.wav
109,192,182904,1,0,0:0:0:22:LR_Hit Snare Soft.wav
182,192,183029,1,0,0:0:0:50:LR_Kick Drum Fast.wav
402,192,183029,128,0,184029:0:0:0:75:LR_Drum Rim Fast.wav
475,192,183154,1,0,0:0:0:80:LR_Clap Kick Fast Low Beat.wav
109,192,183154,1,0,0:0:0:61:LR_Clap kick.wav
182,192,183279,1,0,0:0:0:22:LR_Hit Snare Soft.wav
109,192,183404,1,0,0:0:0:61:LR_Clap kick.wav
475,192,183404,1,0,0:0:0:80:LR_Clap Kick Fast Low Beat.wav
256,192,183404,1,0,0:0:0:75:LR_Drum Rim Fast.wav
36,192,183529,1,0,0:0:0:45:LR_Kick Loud Bass Drop.wav
182,192,183529,128,0,183779:0:0:0:50:LR_Kick Drum Fast.wav
36,192,183779,1,0,0:0:0:61:LR_Clap kick.wav
329,192,183779,128,0,184029:0:0:0:80:LR_Clap Kick Fast Low Beat.wav
256,192,183841,1,0,0:0:0:44:LR_Snare Hat 2.wav
182,192,183904,1,0,0:0:0:44:LR_Snare Hat 2.wav
109,192,183966,1,0,0:0:0:44:LR_Snare Hat 2.wav
256,192,184029,1,0,0:0:0:50:LR_Kick Drum Fast.wav
36,192,184029,1,0,0:0:0:45:LR_Kick Loud Bass Drop.wav
475,192,184029,128,0,184279:0:0:0:75:LR_Drum Rim Fast.wav
402,192,184279,128,0,184529:0:0:0:22:LR_Hit Snare Soft.wav
36,192,184279,1,0,0:0:0:35:LR_Snare Fast.wav
182,192,184279,1,0,0:0:0:78:LR_Snare Hat 2.wav
109,192,184404,1,0,0:0:0:61:LR_Clap kick.wav
329,192,184404,1,0,0:0:0:80:LR_Clap Kick Fast Low Beat.wav
256,192,184529,1,0,0:0:0:50:LR_Kick Drum Fast.wav
36,192,184529,128,0,184779:0:0:0:45:LR_Kick Loud Bass Drop.wav
329,192,184654,1,0,0:0:0:22:LR_Hit Snare Soft.wav
256,192,184779,1,0,0:0:0:80:LR_Clap Kick Fast Low Beat.wav
182,192,184779,1,0,0:0:0:55:LR_Snare Hat 2.wav
475,192,184779,128,0,185029:0:0:0:61:LR_Clap kick.wav
402,192,184904,1,0,0:0:0:22:LR_Hit Snare Soft.wav
109,192,185029,128,0,185529:0:0:0:75:LR_Drum Rim Fast.wav
329,192,185029,1,0,0:0:0:50:LR_Kick Drum Fast.wav
36,192,185029,1,0,0:0:0:45:LR_Kick Loud Bass Drop.wav
402,192,185154,1,0,0:0:0:22:LR_Hit Snare Soft.wav
182,192,185154,1,0,0:0:0:22:LR_Hit Snare Soft.wav
256,192,185279,1,0,0:0:0:78:LR_Snare Hat 2.wav
475,192,185279,1,0,0:0:0:35:LR_Snare Fast.wav
329,192,185404,1,0,0:0:0:61:LR_Clap kick.wav
182,192,185404,1,0,0:0:0:80:LR_Clap Kick Fast Low Beat.wav
402,192,185529,1,0,0:0:0:50:LR_Kick Drum Fast.wav
36,192,185529,128,0,186029:0:0:0:45:LR_Kick Loud Bass Drop.wav
256,192,185529,1,0,0:0:0:75:LR_Drum Rim Fast.wav
475,192,185654,128,0,185779:0:0:0:22:LR_Hit Snare Soft.wav
402,192,185779,128,0,185904:0:0:0:78:LR_Snare Hat 2.wav
329,192,185904,128,0,186029:0:0:0:22:LR_J Hit.wav
182,192,186029,128,0,186154:0:0:0:45:LR_Kick Loud Bass Drop.wav
402,192,186029,1,0,0:0:0:50:LR_Kick Drum Fast.wav
475,192,186154,1,0,0:0:0:13:LR_J Hit.wav
256,192,186154,128,0,186279:0:0:0:13:LR_J Hit.wav
109,192,186279,128,0,186404:0:0:0:78:LR_Snare Hat 2.wav
329,189,186279,1,0,0:0:0:20:LR_Kick Drum Fast.wav
402,192,186404,1,0,0:0:0:61:LR_Clap kick.wav
182,192,186404,128,0,186529:0:0:0:80:LR_Clap Kick Fast Low Beat.wav
256,192,186529,1,0,0:0:0:75:LR_Drum Rim Fast.wav
475,192,186529,128,0,186654:0:0:0:50:LR_Kick Drum Fast.wav
36,192,186529,1,0,0:0:0:45:LR_Kick Loud Bass Drop.wav
402,192,186654,1,0,0:0:0:12:LR_J Hit.wav
182,192,186654,128,0,186779:0:0:0:12:LR_J Hit.wav
109,192,186779,1,0,0:0:0:55:LR_Snare Hat 2.wav
329,192,186779,128,0,186904:0:0:0:61:LR_Clap kick.wav
36,192,186904,128,0,187029:0:0:0:12:LR_J Hit.wav
256,192,186904,1,0,0:0:0:12:LR_J Hit.wav
109,192,187029,1,0,0:0:0:75:LR_Drum Rim Fast.wav
475,192,187029,1,0,0:0:0:45:LR_Kick Loud Bass Drop.wav
329,192,187029,128,0,187154:0:0:0:50:LR_Kick Drum Fast.wav
256,192,187154,128,0,187279:0:0:0:80:LR_Clap Kick Fast Low Beat.wav
36,192,187154,1,0,0:0:0:61:LR_Clap kick.wav
182,192,187279,1,0,0:0:0:22:LR_J Hit.wav
402,192,187279,128,0,187404:0:0:0:22:LR_Hit Snare Soft.wav
109,192,187404,1,0,0:0:0:61:LR_Clap kick.wav
329,192,187404,128,0,187529:0:0:0:80:LR_Clap Kick Fast Low Beat.wav
256,192,187529,1,0,0:0:0:30:LR_J Hit.wav
475,192,187529,1,0,0:0:0:35:LR_Kick Loud Bass Drop.wav
36,192,187529,128,0,187654:0:0:0:50:LR_Kick Drum Fast.wav
329,192,187654,128,0,187779:0:0:0:80:LR_Clap Kick Fast Low Beat.wav
109,192,187654,1,0,0:0:0:61:LR_Clap kick.wav
402,192,187779,1,0,0:0:0:30:LR_J Hit.wav
36,192,187779,1,0,0:0:0:35:LR_Kick Loud Bass Drop.wav
182,192,187779,128,0,187904:0:0:0:22:LR_Hit Snare Soft.wav
475,192,187904,128,0,188029:0:0:0:80:LR_Clap Kick Fast Low Beat.wav
256,192,187904,1,0,0:0:0:61:LR_Clap kick.wav
36,192,188029,1,0,0:0:0:40:LR_Kick Drum Fast.wav
182,192,188029,1,0,0:0:0:35:LR_Kick Loud Bass Drop.wav
329,192,188029,1,0,0:0:0:30:LR_J Hit.wav
475,192,188279,1,0,0:0:0:35:LR_Snare Fast.wav
36,192,188279,1,0,0:0:0:78:LR_Snare Hat 2.wav
402,192,188404,1,0,0:0:0:80:LR_Clap Kick Fast Low Beat.wav
109,192,188404,1,0,0:0:0:45:LR_Drum Rim Fast.wav
256,192,188404,1,0,0:0:0:61:LR_Clap kick.wav
329,192,188529,1,0,0:0:0:50:LR_Kick Drum Fast.wav
182,192,188529,1,0,0:0:0:45:LR_Kick Loud Bass Drop.wav
256,192,188654,1,0,0:0:0:22:LR_Hit Snare Soft.wav
402,192,188779,1,0,0:0:0:61:LR_Clap kick.wav
109,192,188779,1,0,0:0:0:55:LR_Snare Hat 2.wav
475,192,188779,1,0,0:0:0:80:LR_Clap Kick Fast Low Beat.wav
36,192,188779,1,0,0:0:0:45:LR_Drum Rim Fast.wav
329,192,188904,1,0,0:0:0:22:LR_Hit Snare Soft.wav
256,192,188904,1,0,0:0:0:22:LR_Hit Snare Soft.wav
109,192,189029,1,0,0:0:0:45:LR_Kick Loud Bass Drop.wav
182,192,189029,1,0,0:0:0:50:LR_Kick Drum Fast.wav
109,192,189279,1,0,0:0:0:78:LR_Snare Hat 2.wav
182,192,189279,1,0,0:0:0:35:LR_Snare Fast.wav
329,192,189404,1,0,0:0:0:80:LR_Clap Kick Fast Low Beat.wav
36,192,189404,1,0,0:0:0:45:LR_Drum Rim Fast.wav
475,192,189404,1,0,0:0:0:61:LR_Clap kick.wav
256,192,189529,1,0,0:0:0:50:LR_Kick Drum Fast.wav
182,192,189529,1,0,0:0:0:45:LR_Kick Loud Bass Drop.wav
475,192,189779,1,0,0:0:0:61:LR_Clap kick.wav
329,192,189779,1,0,0:0:0:80:LR_Clap Kick Fast Low Beat.wav
109,192,189779,1,0,0:0:0:45:LR_Drum Rim Fast.wav
256,192,189904,1,0,0:0:0:22:LR_Hit Snare Soft.wav
182,192,190029,1,0,0:0:0:45:LR_Kick Loud Bass Drop.wav
402,192,190029,1,0,0:0:0:50:LR_Kick Drum Fast.wav
329,192,190029,1,0,0:0:0:75:LR_Drum Rim Fast.wav
256,192,190279,1,0,0:0:0:78:LR_Snare Hat 2.wav
475,192,190279,1,0,0:0:0:35:LR_Snare Fast.wav
36,192,190404,1,0,0:0:0:45:LR_Drum Rim Fast.wav
182,192,190404,1,0,0:0:0:61:LR_Clap kick.wav
329,192,190404,1,0,0:0:0:80:LR_Clap Kick Fast Low Beat.wav
256,192,190529,1,0,0:0:0:75:LR_Drum Rim Fast.wav
475,192,190529,1,0,0:0:0:50:LR_Kick Drum Fast.wav
109,192,190529,1,0,0:0:0:45:LR_Kick Loud Bass Drop.wav
402,192,190654,1,0,0:0:0:22:LR_Hit Snare Soft.wav
109,192,190779,1,0,0:0:0:45:LR_Drum Rim Fast.wav
329,192,190779,1,0,0:0:0:80:LR_Clap Kick Fast Low Beat.wav
182,192,190779,1,0,0:0:0:55:LR_Snare Hat 2.wav
475,192,190904,1,0,0:0:0:22:LR_Hit Snare Soft.wav
256,192,191029,1,0,0:0:0:75:LR_Drum Rim Fast.wav
329,192,191029,1,0,0:0:0:50:LR_Kick Drum Fast.wav
182,192,191029,1,0,0:0:0:45:LR_Kick Loud Bass Drop.wav
36,192,191154,1,0,0:0:0:61:LR_Clap kick.wav
402,192,191154,1,0,0:0:0:80:LR_Clap Kick Fast Low Beat.wav
182,192,191279,1,0,0:0:0:22:LR_Hit Snare Soft.wav
329,192,191279,1,0,0:0:0:50:LR_Kick Drum Fast.wav
475,192,191404,1,0,0:0:0:80:LR_Clap Kick Fast Low Beat.wav
109,192,191404,1,0,0:0:0:61:LR_Clap kick.wav
182,192,191529,1,0,0:0:0:50:LR_Kick Drum Fast.wav
36,192,191529,128,0,191779:0:0:0:45:LR_Kick Loud Bass Drop.wav
256,192,191529,1,0,0:0:0:75:LR_Drum Rim Fast.wav
109,192,191779,1,0,0:0:0:55:LR_Snare Hat 2.wav
329,192,191779,1,0,0:0:0:80:LR_Clap Kick Fast Low Beat.wav
402,192,191779,128,0,192029:0:0:0:61:LR_Clap kick.wav
256,192,191841,1,0,0:0:0:45:LR_Snare Hat 2.wav
182,192,191904,1,0,0:0:0:45:LR_Snare Hat 2.wav
109,192,191966,1,0,0:0:0:45:LR_Snare Hat 2.wav
475,192,192029,128,0,192529:0:0:0:75:LR_Drum Rim Fast.wav
329,192,192029,1,0,0:0:0:50:LR_Kick Drum Fast.wav
36,192,192029,1,0,0:0:0:45:LR_Kick Loud Bass Drop.wav
182,192,192279,1,0,0:0:0:78:LR_Snare Hat 2.wav
329,192,192279,128,0,192529:0:0:0:35:LR_Snare Fast.wav
36,192,192404,1,0,0:0:0:61:LR_Clap kick.wav
256,192,192404,1,0,0:0:0:80:LR_Clap Kick Fast Low Beat.wav
109,192,192404,1,0,0:0:0:45:LR_Drum Rim Fast.wav
402,192,192529,1,0,0:0:0:45:LR_Kick Loud Bass Drop.wav
182,192,192529,128,0,193029:0:0:0:50:LR_Kick Drum Fast.wav
256,192,192654,1,0,0:0:0:78:LR_Snare Hat 2.wav
475,192,192779,1,0,0:0:0:80:LR_Clap Kick Fast Low Beat.wav
329,192,192779,1,0,0:0:0:61:LR_Clap kick.wav
36,192,192779,128,0,193029:0:0:0:55:LR_Snare Hat 2.wav
475,192,193029,128,0,193529:0:0:0:50:LR_Kick Drum Fast.wav
109,192,193029,1,0,0:0:0:45:LR_Kick Loud Bass Drop.wav
402,192,193029,1,0,0:0:0:50:LR_Kick Drum Fast.wav
182,192,193154,1,0,0:0:0:22:LR_Hit Snare Soft.wav
36,192,193279,1,0,0:0:0:78:LR_Snare Hat 2.wav
256,192,193279,1,0,0:0:0:35:LR_Snare Fast.wav
109,192,193404,1,0,0:0:0:45:LR_Drum Rim Fast.wav
329,192,193404,1,0,0:0:0:80:LR_Clap Kick Fast Low Beat.wav
182,192,193404,1,0,0:0:0:61:LR_Clap kick.wav
36,192,193529,1,0,0:0:0:45:LR_Kick Loud Bass Drop.wav
256,192,193529,1,0,0:0:0:50:LR_Kick Drum Fast.wav
402,192,193529,1,0,0:0:0:75:LR_Drum Rim Fast.wav
402,192,193779,1,0,0:0:0:61:LR_Clap kick.wav
109,192,193779,1,0,0:0:0:55:LR_Snare Hat 2.wav
256,192,193779,1,0,0:0:0:80:LR_Clap Kick Fast Low Beat.wav
36,192,193904,1,0,0:0:0:22:LR_Hit Snare Soft.wav
475,192,193904,1,0,0:0:0:22:LR_Hit Snare Soft.wav
329,192,194029,1,0,0:0:0:75:LR_Drum Rim Fast.wav
182,192,194029,1,0,0:0:0:50:LR_Kick Drum Fast.wav
109,192,194029,128,0,194154:0:0:0:45:LR_Kick Loud Bass Drop.wav
36,192,194154,1,0,0:0:0:22:LR_Hit Snare Soft.wav
402,192,194154,128,0,194279:0:0:0:22:LR_J Hit.wav
256,192,194279,1,0,0:0:0:35:LR_Snare Fast.wav
329,192,194279,1,0,0:0:0:78:LR_Snare Hat 2.wav
182,192,194279,128,0,194404:0:0:0:22:LR_J Hit.wav
109,192,194404,1,0,0:0:0:45:LR_Drum Rim Fast.wav
475,192,194404,128,0,194529:0:0:0:80:LR_Clap Kick Fast Low Beat.wav
36,192,194404,1,0,0:0:0:61:LR_Clap kick.wav
402,192,194529,1,0,0:0:0:75:LR_Drum Rim Fast.wav
329,192,194529,1,0,0:0:0:50:LR_Kick Drum Fast.wav
256,192,194529,128,0,194654:0:0:0:45:LR_Kick Loud Bass Drop.wav
182,192,194654,1,0,0:0:0:22:LR_Hit Snare Soft.wav
36,192,194654,128,0,194779:0:0:0:22:LR_Hit Snare Soft.wav
329,192,194779,128,0,194904:0:0:0:55:LR_Snare Hat 2.wav
475,192,194779,1,0,0:0:0:61:LR_Clap kick.wav
402,192,194779,1,0,0:0:0:80:LR_Clap Kick Fast Low Beat.wav
109,192,194904,128,0,195029:0:0:0:22:LR_Hit Snare Soft.wav
256,192,194904,1,0,0:0:0:22:LR_Hit Snare Soft.wav
475,192,195029,1,0,0:0:0:75:LR_Drum Rim Fast.wav
36,192,195029,1,0,0:0:0:45:LR_Kick Loud Bass Drop.wav
402,192,195029,128,0,195154:0:0:0:50:LR_Kick Drum Fast.wav
182,192,195154,1,0,0:0:0:45:LR_Drum Rim Fast.wav
256,192,195154,1,0,0:0:0:80:LR_Clap Kick Fast Low Beat.wav
329,192,195154,128,0,195279:0:0:0:61:LR_Clap kick.wav
36,192,195279,128,0,195404:0:0:0:22:LR_J Hit.wav
475,192,195279,1,0,0:0:0:78:LR_Snare Hat 2.wav
402,192,195279,1,0,0:0:0:35:LR_Snare Fast.wav
182,192,195404,1,0,0:0:0:45:LR_Drum Rim Fast.wav
109,192,195404,1,0,0:0:0:80:LR_Clap Kick Fast Low Beat.wav
256,192,195404,128,0,195529:0:0:0:61:LR_Clap kick.wav
402,192,195529,1,0,0:0:0:75:LR_Drum Rim Fast.wav
329,192,195529,1,0,0:0:0:50:LR_Kick Drum Fast.wav
475,192,195529,128,0,195654:0:0:0:45:LR_Kick Loud Bass Drop.wav
182,192,195654,128,0,195779:0:0:0:22:LR_J Hit.wav
36,192,195654,1,0,0:0:0:22:LR_Hit Snare Soft.wav
329,192,195779,1,0,0:0:0:40:LR_Drum J Hit Med Bass.wav
402,192,195779,128,0,195904:0:0:0:45:LR_Kick Loud Bass Drop.wav
256,192,195779,1,0,0:0:0:61:LR_Clap kick.wav
36,192,195904,128,0,196029:0:0:0:22:LR_J Hit.wav
182,192,195904,1,0,0:0:0:22:LR_Hit Snare Soft.wav
256,192,196029,1,0,0:0:0:40:LR_Drum J Hit Med Bass.wav
475,192,196029,1,0,0:0:0:50:LR_Kick Drum Fast.wav
402,192,196029,1,0,0:0:0:45:LR_Kick Loud Bass Drop.wav
475,192,196279,1,0,0:0:0:35:LR_Snare Fast.wav
36,192,196279,1,0,0:0:0:78:LR_Snare Hat 2.wav
402,192,196404,1,0,0:0:0:80:LR_Clap Kick Fast Low Beat.wav
109,192,196404,1,0,0:0:0:45:LR_Drum Rim Fast.wav
256,192,196404,1,0,0:0:0:61:LR_Clap kick.wav
475,192,196529,1,0,0:0:0:50:LR_Kick Drum Fast.wav
36,192,196529,1,0,0:0:0:45:LR_Kick Loud Bass Drop.wav
256,192,196654,1,0,0:0:0:22:LR_Hit Snare Soft.wav
402,192,196779,1,0,0:0:0:61:LR_Clap kick.wav
36,192,196779,1,0,0:0:0:55:LR_Snare Hat 2.wav
475,192,196779,1,0,0:0:0:80:LR_Clap Kick Fast Low Beat.wav
109,192,196779,1,0,0:0:0:45:LR_Drum Rim Fast.wav
182,192,196904,1,0,0:0:0:22:LR_Hit Snare Soft.wav
256,192,196904,1,0,0:0:0:22:LR_Hit Snare Soft.wav
36,192,197029,1,0,0:0:0:45:LR_Kick Loud Bass Drop.wav
329,192,197029,1,0,0:0:0:50:LR_Kick Drum Fast.wav
329,192,197279,1,0,0:0:0:78:LR_Snare Hat 2.wav
36,192,197279,1,0,0:0:0:35:LR_Snare Fast.wav
109,192,197404,1,0,0:0:0:45:LR_Drum Rim Fast.wav
475,192,197404,1,0,0:0:0:80:LR_Clap Kick Fast Low Beat.wav
256,192,197404,1,0,0:0:0:61:LR_Clap kick.wav
329,192,197529,1,0,0:0:0:50:LR_Kick Drum Fast.wav
36,192,197529,1,0,0:0:0:45:LR_Kick Loud Bass Drop.wav
475,192,197779,1,0,0:0:0:22:LR_Hit Snare Soft.wav
256,192,197779,1,0,0:0:0:61:LR_Clap kick.wav
182,192,197779,1,0,0:0:0:55:LR_Snare Hat 2.wav
109,192,197904,1,0,0:0:0:22:LR_Hit Snare Soft.wav
402,192,197904,1,0,0:0:0:22:LR_Hit Snare Soft.wav
329,192,198029,1,0,0:0:0:75:LR_Drum Rim Fast.wav
36,192,198029,1,0,0:0:0:45:LR_Kick Loud Bass Drop.wav
475,192,198029,1,0,0:0:0:50:LR_Kick Drum Fast.wav
402,192,198279,1,0,0:0:0:35:LR_Snare Fast.wav
109,192,198279,1,0,0:0:0:78:LR_Snare Hat 2.wav
36,192,198404,1,0,0:0:0:45:LR_Drum Rim Fast.wav
182,192,198404,1,0,0:0:0:80:LR_Clap Kick Fast Low Beat.wav
256,192,198404,1,0,0:0:0:61:LR_Clap kick.wav
475,192,198529,1,0,0:0:0:75:LR_Drum Rim Fast.wav
329,192,198529,1,0,0:0:0:50:LR_Kick Drum Fast.wav
402,192,198529,1,0,0:0:0:45:LR_Kick Loud Bass Drop.wav
36,192,198654,1,0,0:0:0:22:LR_Hit Snare Soft.wav
109,192,198654,1,0,0:0:0:22:LR_Hit Snare Soft.wav
256,192,198779,1,0,0:0:0:61:LR_Clap kick.wav
182,192,198779,1,0,0:0:0:55:LR_Snare Hat 2.wav
329,192,198779,1,0,0:0:0:45:LR_Drum Rim Fast.wav
474,192,198904,1,0,0:0:0:22:LR_Hit Snare Soft.wav
402,192,198904,1,0,0:0:0:22:LR_Hit Snare Soft.wav
109,192,199029,1,0,0:0:0:75:LR_Drum Rim Fast.wav
182,192,199029,1,0,0:0:0:45:LR_Kick Loud Bass Drop.wav
36,192,199029,1,0,0:0:0:50:LR_Kick Drum Fast.wav
329,192,199154,1,0,0:0:0:80:LR_Clap Kick Fast Low Beat.wav
475,192,199154,1,0,0:0:0:45:LR_Drum Rim Fast.wav
402,192,199154,1,0,0:0:0:61:LR_Clap kick.wav
109,192,199279,1,0,0:0:0:22:LR_Hit Snare Soft.wav
36,192,199279,1,0,0:0:0:45:LR_Drum Rim Fast.wav
182,192,199279,1,0,0:0:0:55:LR_Snare Hat 2.wav
475,192,199404,1,0,0:0:0:45:LR_Drum Rim Fast.wav
402,192,199404,1,0,0:0:0:61:LR_Clap kick.wav
329,192,199404,1,0,0:0:0:80:LR_Clap Kick Fast Low Beat.wav
182,192,199529,128,0,200029:0:0:0:75:LR_Drum Rim Fast.wav
109,192,199529,1,0,0:0:0:50:LR_Kick Drum Fast.wav
36,192,199529,1,0,0:0:0:45:LR_Kick Loud Bass Drop.wav
329,192,199779,1,0,0:0:0:61:LR_Clap kick.wav
109,192,199779,1,0,0:0:0:45:LR_Drum Rim Fast.wav
475,192,199779,128,0,200029:0:0:0:80:LR_Clap Kick Fast Low Beat.wav
36,192,199841,1,0,0:0:0:45:LR_Snare Hat 2.wav
402,192,199904,1,0,0:0:0:45:LR_Snare Hat 2.wav
329,192,199966,1,0,0:0:0:45:LR_Snare Hat 2.wav
256,192,200029,128,0,200529:0:0:0:75:LR_Drum Rim Fast.wav
36,192,200029,1,0,0:0:0:45:LR_Kick Loud Bass Drop.wav
109,192,200029,1,0,0:0:0:50:LR_Kick Drum Fast.wav
329,192,200279,1,0,0:0:0:78:LR_Snare Hat 2.wav
402,192,200279,128,0,200529:0:0:0:35:LR_Snare Fast.wav
36,192,200404,1,0,0:0:0:45:LR_Drum Rim Fast.wav
475,192,200404,1,0,0:0:0:80:LR_Clap Kick Fast Low Beat.wav
182,192,200404,1,0,0:0:0:61:LR_Clap kick.wav
329,192,200529,1,0,0:0:0:50:LR_Kick Drum Fast.wav
109,192,200529,128,0,201029:0:0:0:45:LR_Kick Loud Bass Drop.wav
475,192,200779,1,0,0:0:0:45:LR_Drum Rim Fast.wav
329,192,200779,1,0,0:0:0:61:LR_Clap kick.wav
256,192,200779,128,0,201029:0:0:0:55:LR_Snare Hat 2.wav
475,192,201029,1,0,0:0:0:35:LR_Drum Rim Fast.wav
329,192,201029,128,0,201529:0:0:0:35:LR_Drum Rim Fast.wav
36,192,201029,1,0,0:0:0:45:LR_Kick Loud Bass Drop.wav
182,192,201029,128,0,201529:0:0:0:50:LR_Kick Drum Fast.wav
256,192,201279,1,0,0:0:0:78:LR_Snare Hat 2.wav
109,192,201404,1,0,0:0:0:61:LR_Clap kick.wav
402,192,201404,1,0,0:0:0:80:LR_Clap Kick Fast Low Beat.wav
256,192,201529,1,0,0:0:0:75:LR_Drum Rim Fast.wav
475,192,201529,1,0,0:0:0:45:LR_Kick Loud Bass Drop.wav
36,192,201529,1,0,0:0:0:50:LR_Kick Drum Fast.wav
36,192,201779,1,0,0:0:0:55:LR_Snare Hat 2.wav
475,192,201779,1,0,0:0:0:61:LR_Clap kick.wav
256,192,201779,1,0,0:0:0:80:LR_Clap Kick Fast Low Beat.wav
475,191,202029,128,0,202154:0:0:0:75:LR_Drum Rim Fast.wav
36,191,202029,1,0,0:0:0:45:LR_Kick Loud Bass Drop.wav
329,191,202029,1,0,0:0:0:50:LR_Kick Drum Fast.wav
402,191,202154,128,0,202279:0:0:0:22:LR_J Hit.wav
256,191,202154,1,0,0:0:0:45:LR_Drum Rim Fast.wav
182,191,202279,1,0,0:0:0:22:LR_J Hit.wav
329,191,202279,128,0,202404:0:0:0:35:LR_Snare Fast.wav
36,191,202279,1,0,0:0:0:78:LR_Snare Hat 2.wav
109,191,202404,1,0,0:0:0:45:LR_Drum Rim Fast.wav
475,191,202404,1,0,0:0:0:80:LR_Clap Kick Fast Low Beat.wav
256,191,202404,128,0,202529:0:0:0:61:LR_Clap kick.wav
182,191,202529,1,0,0:0:0:75:LR_Drum Rim Fast.wav
36,191,202529,1,0,0:0:0:50:LR_Kick Drum Fast.wav
402,191,202529,128,0,202654:0:0:0:45:LR_Kick Loud Bass Drop.wav
329,191,202654,128,0,202779:0:0:0:22:LR_J Hit.wav
109,191,202654,1,0,0:0:0:22:LR_Hit Snare Soft.wav
402,191,202779,1,0,0:0:0:55:LR_Snare Hat 2.wav
256,191,202779,128,0,202904:0:0:0:61:LR_Clap kick.wav
36,191,202779,1,0,0:0:0:80:LR_Clap Kick Fast Low Beat.wav
182,191,202904,128,0,203029:0:0:0:22:LR_J Hit.wav
475,191,202904,1,0,0:0:0:22:LR_Hit Snare Soft.wav
36,191,203029,1,0,0:0:0:75:LR_Drum Rim Fast.wav
402,191,203029,1,0,0:0:0:45:LR_Kick Loud Bass Drop.wav
329,191,203029,128,0,203154:0:0:0:50:LR_Kick Drum Fast.wav
109,191,203154,1,0,0:0:0:80:LR_Clap Kick Fast Low Beat.wav
475,191,203154,1,0,0:0:0:61:LR_Clap kick.wav
256,191,203154,128,0,203279:0:0:0:45:LR_Drum Rim Fast.wav
36,191,203279,1,0,0:0:0:50:LR_Kick Drum Fast.wav
182,191,203279,128,0,203404:0:0:0:35:LR_Snare Fast.wav
402,191,203279,1,0,0:0:0:78:LR_Snare Hat 2.wav
329,191,203404,1,0,0:0:0:45:LR_Drum Rim Fast.wav
475,191,203404,1,0,0:0:0:80:LR_Clap Kick Fast Low Beat.wav
109,191,203404,128,0,203529:0:0:0:61:LR_Clap kick.wav
36,191,203529,1,0,0:0:0:50:LR_Kick Drum Fast.wav
256,191,203529,128,0,203654:0:0:0:45:LR_Kick Loud Bass Drop.wav
402,191,203529,1,0,0:0:0:75:LR_Drum Rim Fast.wav
475,191,203654,1,0,0:0:0:22:LR_J Hit.wav
182,191,203654,128,0,203779:0:0:0:22:LR_Hit Snare Soft.wav
329,191,203654,1,0,0:0:0:22:LR_Hit Snare Soft.wav
402,191,203779,1,0,0:0:0:50:LR_Kick Drum Fast.wav
109,191,203779,128,0,203904:0:0:0:61:LR_Clap kick.wav
256,191,203779,1,0,0:0:0:75:LR_Drum Rim Fast.wav
36,191,203904,128,0,204029:0:0:0:22:LR_J Hit.wav
182,191,203904,1,0,0:0:0:22:LR_Hit Snare Soft.wav
329,191,203904,1,0,0:0:0:22:LR_Hit Snare Soft.wav
256,192,204029,1,0,0:0:0:22:LR_J Hit.wav
475,192,204029,128,2,204279:2:0:0:25:LR_J Hit.wav
109,192,204029,1,0,0:0:0:0:
329,192,204279,1,2,2:0:0:25:LR_J Hit.wav
182,192,204529,1,2,2:0:0:25:LR_J Hit.wav
36,192,204779,1,2,2:0:0:25:LR_J Hit.wav
256,192,205029,128,2,205362:2:0:0:25:LR_J Hit.wav
475,192,205529,1,2,2:0:0:25:LR_J Hit.wav
36,192,205779,1,2,2:0:0:25:LR_J Hit.wav
402,192,206029,1,2,2:0:0:25:LR_J Hit.wav
109,192,206279,1,2,2:0:0:25:LR_J Hit.wav
329,192,206529,1,2,2:0:0:25:LR_J Hit.wav
182,192,206779,1,2,2:0:0:25:LR_J Hit.wav
256,192,207029,128,2,207279:2:0:0:11:
256,192,207529,128,2,207779:2:0:0:11:
256,192,208029,128,2,208279:2:0:0:8:
36,192,208029,1,2,2:0:0:8:
475,192,208279,1,2,2:0:0:8:
256,192,208529,128,2,208779:2:0:0:8:
109,192,208529,1,2,2:0:0:8:
402,192,208779,1,2,2:0:0:8:
256,192,209029,128,2,209529:2:0:0:8:
109,192,209529,128,0,210029:0:0:0:41:LR3_RevcyGXF.wav
402,192,210029,128,0,212029:0:0:0:100:LR3_AGG F6.wav
182,192,210029,128,4,212029:2:0:0:44:
256,192,211060,1,0,0:0:0:88:LR3_GreatDrum.wav
256,192,212029,128,0,214029:0:0:0:45:LR3_GreatDrum.wav
182,192,214029,128,0,215029:0:0:0:22:LR_Drum Barrel Finish.wav
402,192,214029,1,0,0:0:0:72:LR3_GreatDrum.wav
475,192,214029,1,0,0:0:0:72:LR3_GreatDrum.wav
475,192,215029,1,0,0:0:0:22:LR_Drum J Hit Med Bass.wav
329,192,215029,128,0,216029:0:0:0:22:LR_Drum Barrel Finish.wav
182,192,216029,1,0,0:0:0:33:LR_Drum Rim Fast.wav
109,192,216029,128,0,218029:0:0:0:82:LR3_GreatDrum.wav
475,192,216779,1,0,0:0:0:44:LR_Drum Rim Fast.wav
329,192,217029,1,0,0:0:0:80:LR_Kick Drum Fast.wav
182,192,218029,128,0,220029:0:0:0:100:LR3_AGG F5.wav
329,192,218029,128,4,220029:2:0:0:11:
256,192,218029,1,0,0:0:0:33:LR_J Hit.wav
36,192,218779,1,0,0:0:0:100:LR3_AGG C6.wav
475,192,219029,1,0,0:0:0:33:LR_Kick Drum Fast.wav
36,192,219279,1,0,0:0:0:84:LR3_AGG C6.wav
36,192,219654,1,0,0:0:0:68:LR3_AGG C6.wav
109,192,220029,1,0,0:0:0:24:LR_J Hit.wav
402,192,220029,128,0,222029:0:0:0:45:LR3_GreatDrum.wav
256,192,220029,128,0,222029:0:0:0:24:LR_J Hit.wav
36,192,220091,1,0,0:0:0:52:LR3_AGG C6.wav
36,192,220529,1,0,0:0:0:68:LR3_AGG C6.wav
36,192,221154,1,0,0:0:0:68:LR3_AGG C6.wav
36,192,222029,1,0,0:0:0:90:LR3_GreatDrum.wav
109,192,222029,128,0,223029:0:0:0:35:LR3_AGG F5.wav
329,192,222029,128,0,223029:0:0:0:66:LR3_Kick LRBDS.wav
402,192,222529,128,0,223029:0:0:0:40:LR3_GreatDrum.wav
36,192,223029,128,0,223529:0:0:0:33:LR_J Hit.wav
475,192,223029,128,0,224029:0:0:0:33:LR3_GreatDrum.wav
182,192,223529,128,0,224029:0:0:0:26:LR_J Hit.wav
109,192,223529,1,0,0:0:0:45:LR3_GreatDrum.wav
256,192,224029,128,0,226029:0:0:0:33:LR_J Hit.wav
36,192,224029,1,0,0:0:0:90:LR3_GreatDrum.wav
402,192,224779,1,0,0:0:0:44:LR_Drum Rim Fast.wav
109,192,225029,1,0,0:0:0:80:LR_Kick Drum Fast.wav
182,192,226029,128,4,226529:2:0:0:12:
475,192,226029,1,0,0:0:0:90:LR3_GreatDrum.wav
402,192,226029,1,4,2:0:0:11:
256,192,226529,128,0,227029:0:0:0:33:LR_J Hit.wav
329,192,227029,128,0,227529:0:0:0:33:LR_J Hit.wav
109,192,227029,1,0,0:0:0:90:LR3_GreatDrum.wav
402,192,227529,128,0,228029:0:0:0:28:LR_J Hit.wav
36,192,227529,1,0,0:0:0:18:LR3_AGG F6.wav
329,192,228029,128,0,228529:0:0:0:28:LR_J Hit.wav
36,192,228029,1,0,0:0:0:28:LR3_AGG C6.wav
182,192,228529,128,0,229029:0:0:0:22:LR_J Hit Drum.wav
109,192,228529,1,0,0:0:0:45:LR3_GreatDrum.wav
256,192,228779,1,0,0:0:0:45:LR3_GreatDrum.wav
329,192,229029,128,0,230029:0:0:0:33:LR_J Hit.wav
402,192,229029,1,0,0:0:0:45:LR3_GreatDrum.wav
475,192,229529,1,0,0:0:0:33:LR_J Hit.wav
402,192,229591,1,0,0:0:0:45:LR3_GreatDrum.wav
36,192,229779,1,0,0:0:0:33:LR_J Hit.wav
109,192,229841,128,0,230029:0:0:0:45:LR3_GreatDrum.wav
256,192,230029,128,0,230529:0:0:0:33:LR_J Hit.wav
182,192,230029,1,0,0:0:0:88:LR3_GreatDrum.wav
475,192,230529,128,0,231029:0:0:0:33:LR_J Hit.wav
36,192,230529,1,0,0:0:0:45:LR3_GreatDrum.wav
329,192,231029,128,0,231529:0:0:0:33:LR_J Hit.wav
109,192,231029,1,0,0:0:0:45:LR3_GreatDrum.wav
256,192,231529,128,0,234029:0:0:0:33:LR_J Hit.wav
182,192,231779,128,0,234029:0:0:0:22:LR_J Hit Drum.wav
109,192,232029,128,0,234029:0:0:0:33:LR_J Hit.wav
402,192,232779,1,0,0:0:0:44:LR_Drum Rim Fast.wav
475,192,233029,1,0,0:0:0:80:LR_Kick Drum Fast.wav
36,192,234029,128,0,234529:0:0:0:33:LR3_AGG F5.wav
475,192,234029,1,4,2:0:0:11:
402,192,234029,1,0,0:0:0:38:LR_Drum Barrel Finish.wav
109,192,234529,128,0,235029:0:0:0:33:LR_J Hit.wav
475,192,234529,1,0,0:0:0:45:LR3_GreatDrum.wav
182,192,235029,128,0,235529:0:0:0:22:LR_J Hit Drum.wav
475,192,235029,1,0,0:0:0:45:LR3_GreatDrum.wav
475,192,235529,1,0,0:0:0:45:LR3_GreatDrum.wav
256,192,235529,128,0,236029:0:0:0:33:LR_J Hit.wav
329,192,236029,128,0,236529:0:0:0:33:LR3_AGG C6.wav
475,192,236029,1,0,0:0:0:45:LR3_GreatDrum.wav
256,192,236529,128,0,236779:0:0:0:33:LR_J Hit.wav
182,192,236779,128,0,237029:0:0:0:33:LR_J Hit.wav
109,192,237029,128,0,237279:0:0:0:33:LR_J Hit.wav
256,192,237529,128,0,237779:0:0:0:33:LR_J Hit.wav
109,192,237779,128,0,238029:0:0:0:22:LR_J Hit Drum.wav
182,192,238029,128,0,238529:0:0:0:33:LR_J Hit.wav
329,192,238029,1,0,0:0:0:90:LR3_GreatDrum.wav
329,192,238529,128,0,239029:0:0:0:22:LR_J Hit Drum.wav
475,192,239029,128,0,239529:0:0:0:23:LR_J Hit Drum.wav
402,192,239529,1,0,0:0:0:33:LR3_AGG F6.wav
329,192,239695,128,0,240029:0:0:0:23:LR_J Hit Drum.wav
182,192,239862,128,0,240029:0:0:0:23:LR_J Hit Drum.wav
256,192,240029,128,0,241529:0:0:0:33:LR_J Hit.wav
36,192,240029,1,0,0:0:0:33:LR3_AGG F6.wav
109,192,240779,1,0,0:0:0:44:LR_Drum Rim Fast.wav
402,192,241029,1,0,0:0:0:80:LR_Kick Drum Fast.wav
329,192,241654,128,0,242029:0:0:0:40:LR3_AGG F5.wav
256,192,241779,128,0,242029:0:0:0:40:LR3_AGG C6.wav
182,192,241904,128,0,242029:0:0:0:40:LR3_AGG F6.wav
475,192,242029,1,4,2:0:0:15:
109,192,242029,128,0,246529:0:0:0:33:LR_Drum J Hit Med Bass.wav
402,192,242029,128,0,244029:0:0:0:33:LR_J Hit.wav
36,192,242029,1,4,2:0:0:15:
256,192,243029,1,0,0:0:0:100:LR3_Metal IGTF.wav
182,192,243529,1,0,0:0:0:75:LR3_GreatDrum.wav
329,192,243529,1,0,0:0:0:75:LR3_GreatDrum.wav
256,192,243904,1,0,0:0:0:23:LR_J Hit Drum.wav
329,192,244029,128,0,245029:0:0:0:33:LR_J Hit.wav
256,192,244529,1,0,0:0:0:65:LR_Kick Beat 2.wav
475,192,245029,128,0,246029:0:0:0:23:LR_J Hit Drum.wav
182,192,245029,1,0,0:0:0:55:LR3_Metal IGTF.wav
256,192,245529,1,0,0:0:0:65:LR_Kick Drum Fast.wav
402,192,246029,128,0,247029:0:0:0:33:LR_J Hit.wav
256,192,246029,1,0,0:0:0:45:LR3_GreatDrum.wav
256,192,247029,128,0,247529:0:0:0:33:LR_J Hit.wav
182,192,247029,1,0,0:0:0:65:LR3_Metal IGTF.wav
182,192,247529,128,0,248029:0:0:0:23:LR_J Hit Drum.wav
329,192,247529,128,0,248029:0:0:0:33:LR_J Hit.wav
109,192,248029,128,0,250029:0:0:0:23:LR_J Hit Drum.wav
402,192,248029,128,0,250029:0:0:0:33:LR_J Hit.wav
256,192,248529,1,0,0:0:0:44:LR_Drum Rim Fast.wav
329,192,248779,1,0,0:0:0:80:LR_Kick Drum Fast.wav
182,192,249029,1,0,0:0:0:65:LR3_Metal IGTF.wav
36,192,250029,128,4,252029:2:0:0:15:
256,192,250029,128,0,252029:0:0:0:33:LR3_AGG F5.wav
475,192,250029,128,4,252029:2:0:0:15:
329,192,251029,1,0,0:0:0:33:LR3_Metal IGTF.wav
182,192,251029,1,0,0:0:0:33:LR3_Metal IGTF.wav
109,192,251529,1,0,0:0:0:38:LR_Kick Beat 2.wav
402,192,251529,1,0,0:0:0:38:LR_Kick Beat 2.wav
109,192,252029,128,0,254029:0:0:0:23:LR_J Hit Drum.wav
402,192,252029,128,0,254029:0:0:0:33:LR_J Hit.wav
182,192,252529,1,0,0:0:0:38:LR_Kick Beat 2.wav
329,192,252529,1,0,0:0:0:38:LR_Kick Beat 2.wav
256,192,253029,1,0,0:0:0:55:LR3_Metal IGTF.wav
256,192,253529,1,0,0:0:0:50:LR_Kick Drum Fast.wav
182,192,253529,1,0,0:0:0:50:LR_Kick Beat 2.wav
36,192,254029,1,0,0:0:0:33:LR_J Hit.wav
475,192,254029,1,0,0:0:0:23:LR_Drum Barrel Finish.wav
182,192,254029,128,0,254529:0:0:0:25:LR3_AGG F5.wav
256,192,254529,128,0,255029:0:0:0:23:LR_J Hit Drum.wav
329,192,255029,128,0,255529:0:0:0:23:LR_J Hit.wav
109,192,255029,1,0,0:0:0:70:LR3_GrowlBassDFM.wav
182,192,255154,1,0,0:0:0:38:LR_Drum J Hit Med Bass.wav
109,192,255279,1,0,0:0:0:33:LR_Kick Loud Bass Drop.wav
182,192,255404,1,0,0:0:0:38:LR_Drum J Hit Med Bass.wav
402,192,255529,128,0,256029:0:0:0:23:LR_J Hit Drum.wav
109,192,255529,1,0,0:0:0:33:LR_Kick Loud Bass Drop.wav
256,192,255529,128,0,259029:0:0:0:33:LR_J Hit.wav
182,192,255654,1,0,0:0:0:38:LR_Drum J Hit Med Bass.wav
109,192,255779,1,0,0:0:0:33:LR_Kick Loud Bass Drop.wav
182,192,255904,1,0,0:0:0:38:LR_Drum J Hit Med Bass.wav
475,192,256029,1,0,0:0:0:43:LR_Drum Barrel Finish.wav
109,192,256029,1,0,0:0:0:33:LR_Kick Loud Bass Drop.wav
36,192,256029,1,0,0:0:0:40:LR3_GreatDrum.wav
402,192,256529,1,0,0:0:0:40:LR3_GreatDrum.wav
329,192,256529,1,0,0:0:0:40:LR_Snare Hat 2.wav
36,192,256779,1,0,0:0:0:21:LR_J Hit Pong.wav
475,192,256779,1,0,0:0:0:21:LR_J Hit Pong.wav
109,192,256904,1,0,0:0:0:40:LR3_GreatDrum.wav
182,192,257029,1,0,0:0:0:40:LR3_GreatDrum.wav
402,192,257029,1,0,0:0:0:60:LR_Drum Rim Fast.wav
182,192,257279,1,0,0:0:0:21:LR_J Hit Pong.wav
329,192,257279,1,0,0:0:0:21:LR_J Hit Pong.wav
109,192,257404,1,0,0:0:0:50:LR_Drum Rim Fast.wav
402,192,257529,1,0,0:0:0:40:LR3_GreatDrum.wav
182,192,257779,1,0,0:0:0:21:LR_J Hit Pong.wav
329,192,257779,1,0,0:0:0:21:LR_J Hit Pong.wav
475,192,258029,1,0,0:0:0:35:LR_Kick Loud Bass Drop.wav
402,192,258029,1,0,0:0:0:35:LR_Kick Loud Bass Drop.wav
109,192,258029,1,0,0:0:0:35:LR_Drum J Hit Med Bass.wav
36,192,258529,1,0,0:0:0:45:LR3_GreatDrum.wav
475,192,258779,1,0,0:0:0:21:LR_J Hit Pong.wav
182,192,258779,1,0,0:0:0:21:LR_J Hit Pong.wav
402,192,258904,1,0,0:0:0:45:LR3_GreatDrum.wav
329,192,259029,1,0,0:0:0:45:LR_Drum Rim Fast.wav
182,192,259404,1,0,0:0:0:45:LR_Drum Rim Fast.wav
109,192,259529,1,0,0:0:0:21:LR_J Hit Pong.wav
36,192,260029,1,0,0:0:0:28:LR_Drum Barrel Finish.wav
475,192,260029,1,0,0:0:0:33:LR_Drum J Hit Med Bass.wav
256,192,260029,128,0,262029:0:0:0:38:LR_Kick Loud Bass Drop.wav
182,192,260279,1,0,0:0:0:21:LR_J Hit Pong.wav
329,192,260279,1,0,0:0:0:21:LR_J Hit Pong.wav
182,192,260779,1,0,0:0:0:21:LR_J Hit Pong.wav
329,192,260779,1,0,0:0:0:21:LR_J Hit Pong.wav
329,192,261310,1,0,0:0:0:21:LR_J Hit Pong.wav
182,192,261310,1,0,0:0:0:21:LR_J Hit Pong.wav
329,192,261810,1,0,0:0:0:21:LR_J Hit Pong.wav
182,192,261810,1,0,0:0:0:21:LR_J Hit Pong.wav
109,192,262029,128,0,264029:0:0:0:38:LR_Drum J Hit Med Bass.wav
402,192,262029,128,0,264029:0:0:0:38:LR_Kick Loud Bass Drop.wav
36,192,262029,1,0,0:0:0:28:LR_Drum Barrel Finish.wav
475,192,262029,1,4,2:0:0:21:
182,192,262779,1,0,0:0:0:21:LR_J Hit Pong.wav
329,192,262779,1,0,0:0:0:21:LR_J Hit Pong.wav
182,192,263279,1,0,0:0:0:28:LR_Drum Barrel Finish.wav
329,192,263404,1,0,0:0:0:33:LR_Drum J Hit Med Bass.wav
256,192,263529,1,0,0:0:0:28:LR_Drum Barrel Finish.wav
182,192,263654,1,0,0:0:0:33:LR_Drum J Hit Med Bass.wav
329,192,263779,1,0,0:0:0:28:LR_Drum Barrel Finish.wav
182,192,263904,1,0,0:0:0:33:LR_Drum J Hit Med Bass.wav
256,192,264029,1,0,0:0:0:30:LR_Kick Beat 2.wav
475,192,264029,1,0,0:0:0:40:LR_Clap kick.wav
36,192,264029,1,0,0:0:0:40:LR_Clap Kick Fast Low Beat.wav
329,192,264154,1,0,0:0:0:35:LR_Hit Snare Soft.wav
182,192,264279,1,0,0:0:0:35:LR_Snare Hat 2.wav
36,192,264404,1,0,0:0:0:35:LR_Snare Fast.wav
109,192,264529,1,0,0:0:0:40:LR_Clap Kick Fast Low Beat.wav
256,192,264529,1,0,0:0:0:45:LR_Kick Beat 2.wav
329,192,264529,1,0,0:0:0:40:LR_Clap kick.wav
182,192,264654,1,0,0:0:0:20:LR_Snare Hat 2.wav
475,192,264654,1,0,0:0:0:20:LR_Snare Hat 2.wav
329,192,264779,1,0,0:0:0:20:LR_Hit Snare Soft.wav
36,192,264779,1,0,0:0:0:20:LR_Hit Snare Soft.wav
256,192,264904,1,0,0:0:0:20:LR_Snare Fast.wav
402,192,264904,1,0,0:0:0:20:LR_Snare Fast.wav
182,192,265029,1,0,0:0:0:40:LR_Clap kick.wav
329,192,265029,1,0,0:0:0:60:LR_Kick Beat 2.wav
475,192,265029,1,0,0:0:0:40:LR_Clap Kick Fast Low Beat.wav
36,192,265154,1,0,0:0:0:20:LR_Hit Snare Soft.wav
109,192,265154,1,0,0:0:0:20:LR_Hit Snare Soft.wav
182,192,265279,1,0,0:0:0:20:LR_Snare Hat 2.wav
256,192,265279,1,0,0:0:0:20:LR_Snare Hat 2.wav
329,192,265404,1,0,0:0:0:20:LR_Snare Fast.wav
402,192,265404,1,0,0:0:0:20:LR_Snare Fast.wav
36,192,265529,1,0,0:0:0:40:LR_Clap Kick Fast Low Beat.wav
109,192,265529,1,0,0:0:0:40:LR_Clap kick.wav
256,192,265529,1,0,0:0:0:80:LR_Kick Beat 2.wav
182,192,265654,1,0,0:0:0:20:LR_Hit Snare Soft.wav
402,192,265654,1,0,0:0:0:20:LR_Hit Snare Soft.wav
475,192,265779,1,0,0:0:0:20:LR_Snare Hat 2.wav
109,192,265779,1,0,0:0:0:20:LR_Snare Hat 2.wav
256,192,265904,1,0,0:0:0:20:LR_Snare Fast.wav
36,192,265904,1,0,0:0:0:20:LR_Snare Fast.wav
329,192,266029,1,0,0:0:0:40:LR_Clap Kick Fast Low Beat.wav
182,192,266029,1,0,0:0:0:40:LR_Clap kick.wav
109,192,266029,1,0,0:0:0:100:LR_Kick Beat 2.wav
402,192,266154,1,0,0:0:0:40:LR_Clap Kick Fast Low Beat.wav
256,192,266154,1,0,0:0:0:35:LR_Hit Snare Soft.wav
109,192,266279,1,0,0:0:0:40:LR_Clap kick.wav
475,192,266279,1,0,0:0:0:35:LR_Snare Hat 2.wav
182,192,266404,1,0,0:0:0:40:LR_Clap Kick Fast Low Beat.wav
256,192,266404,1,0,0:0:0:35:LR_Snare Fast.wav
475,192,266529,1,0,0:0:0:100:LR_Kick Beat 2.wav
109,192,266529,1,0,0:0:0:51:LR_Clap Kick Fast Low Beat.wav
402,192,266529,1,0,0:0:0:51:LR_Clap kick.wav
182,192,266654,1,0,0:0:0:35:LR_Hit Snare Soft.wav
36,192,266654,1,0,0:0:0:40:LR_Clap Kick Fast Low Beat.wav
256,192,266779,1,0,0:0:0:35:LR_Snare Hat 2.wav
475,192,266779,1,0,0:0:0:40:LR_Clap kick.wav
109,192,266904,1,0,0:0:0:35:LR_Snare Fast.wav
329,192,266904,1,0,0:0:0:40:LR_Clap Kick Fast Low Beat.wav
182,192,267029,1,0,0:0:0:50:LR_Kick Beat 2.wav
402,192,267029,1,0,0:0:0:51:LR_Clap Kick Fast Low Beat.wav
36,192,267029,1,0,0:0:0:51:LR_Clap kick.wav
329,192,267154,1,0,0:0:0:35:LR_Hit Snare Soft.wav
109,192,267154,1,0,0:0:0:40:LR_Clap Kick Fast Low Beat.wav
182,192,267279,1,0,0:0:0:40:LR_Clap kick.wav
475,192,267279,1,0,0:0:0:35:LR_Snare Hat 2.wav
256,192,267404,1,0,0:0:0:20:LR_Clap Kick Fast Low Beat.wav
329,192,267404,1,0,0:0:0:35:LR_Snare Fast.wav
109,192,267404,1,0,0:0:0:20:LR_Clap Kick Fast Low Beat.wav
36,192,267529,1,0,0:0:0:51:LR_Clap kick.wav
182,192,267529,1,0,0:0:0:100:LR_Kick Beat 2.wav
475,192,267529,1,0,0:0:0:51:LR_Clap Kick Fast Low Beat.wav
329,192,267654,1,0,0:0:0:40:LR_Clap Kick Fast Low Beat.wav
109,192,267654,1,0,0:0:0:35:LR_Hit Snare Soft.wav
182,192,267779,1,0,0:0:0:35:LR_Snare Hat 2.wav
475,192,267779,1,0,0:0:0:40:LR_Clap kick.wav
36,192,267904,1,0,0:0:0:35:LR_Snare Fast.wav
402,192,267904,1,0,0:0:0:40:LR_Clap Kick Fast Low Beat.wav
256,192,268029,1,0,0:0:0:100:LR_Kick Beat 2.wav
329,192,268029,1,0,0:0:0:62:LR_Clap Kick Fast Low Beat.wav
182,192,268029,1,0,0:0:0:62:LR_Clap kick.wav
109,192,268154,1,0,0:0:0:40:LR_Clap kick.wav
402,192,268154,1,0,0:0:0:40:LR_Snare Fast.wav
36,192,268279,1,0,0:0:0:40:LR_Clap kick.wav
256,192,268279,1,0,0:0:0:100:LR_Kick Beat 2.wav
475,192,268279,1,0,0:0:0:62:LR_Clap Kick Fast Low Beat.wav
182,192,268404,1,0,0:0:0:40:LR_Clap kick.wav
329,192,268404,1,0,0:0:0:40:LR_Snare Fast.wav
36,192,268529,1,0,0:0:0:62:LR_Clap kick.wav
109,192,268529,1,0,0:0:0:62:LR_Clap Kick Fast Low Beat.wav
402,192,268529,1,0,0:0:0:100:LR_Kick Beat 2.wav
256,192,268529,1,0,0:0:0:62:LR_Clap Kick Fast Low Beat.wav
182,192,268654,1,0,0:0:0:40:LR_Snare Fast.wav
329,192,268654,1,0,0:0:0:40:LR_Clap kick.wav
475,192,268779,1,0,0:0:0:40:LR_Clap kick.wav
109,192,268779,1,0,0:0:0:100:LR_Kick Beat 2.wav
256,192,268779,1,0,0:0:0:62:LR_Clap Kick Fast Low Beat.wav
402,192,268904,1,0,0:0:0:40:LR_Clap kick.wav
36,192,268904,1,0,0:0:0:40:LR_Snare Fast.wav
256,192,269029,1,0,0:0:0:100:LR_Kick Beat 2.wav
329,192,269029,1,0,0:0:0:62:LR_Clap Kick Fast Low Beat.wav
475,192,269029,1,0,0:0:0:62:LR_Clap kick.wav
109,192,269029,1,0,0:0:0:62:LR_Clap kick.wav
36,192,269154,1,0,0:0:0:40:LR_Clap kick.wav
182,192,269154,1,0,0:0:0:40:LR_Snare Fast.wav
475,192,269279,1,0,0:0:0:100:LR_Kick Beat 2.wav
109,192,269279,1,0,0:0:0:40:LR_Clap kick.wav
329,192,269279,1,0,0:0:0:62:LR_Clap Kick Fast Low Beat.wav
256,192,269404,1,0,0:0:0:40:LR_Clap kick.wav
402,192,269404,1,0,0:0:0:40:LR_Snare Fast.wav
182,192,269529,1,0,0:0:0:100:LR_Kick Beat 2.wav
329,192,269529,1,0,0:0:0:62:LR_Clap kick.wav
475,192,269529,1,0,0:0:0:62:LR_Clap Kick Fast Low Beat.wav
36,192,269529,1,0,0:0:0:62:LR_Clap Kick Fast Low Beat.wav
329,192,269654,1,0,0:0:0:62:LR_Clap kick.wav
109,192,269654,1,0,0:0:0:100:LR_Snare Hat 2.wav
475,192,269654,1,0,0:0:0:100:LR_Kick Beat 2.wav
36,192,269779,1,0,0:0:0:62:LR_Clap kick.wav
182,192,269779,1,0,0:0:0:100:LR_Snare Hat 2.wav
402,192,269779,1,0,0:0:0:100:LR_Kick Beat 2.wav
182,192,269904,1,0,0:0:0:62:LR_Clap kick.wav
36,192,269904,1,0,0:0:0:100:LR_Snare Hat 2.wav
475,192,269904,1,0,0:0:0:100:LR_Kick Beat 2.wav
329,192,270029,128,0,270154:0:0:0:33:LR_Kick Low Strong Beat.wav
182,192,270029,128,0,270154:0:0:0:33:LR_Kick Low Strong Beat.wav
36,192,270279,128,0,270341:0:0:0:28:LR_Kick Low Strong Beat.wav
475,192,270279,128,0,270341:0:0:0:28:LR_Kick Low Strong Beat.wav
36,192,270404,128,0,270591:0:0:0:28:LR_Kick Low Strong Beat.wav
475,192,270404,128,0,270591:0:0:0:28:LR_Kick Low Strong Beat.wav
329,192,270654,128,0,270779:0:0:0:22:LR_Kick Low Strong Beat.wav
182,192,270654,128,0,270779:0:0:0:22:LR_Kick Low Strong Beat.wav
36,192,270779,128,0,271029:0:0:0:22:LR_Kick Low Strong Beat.wav
475,192,270779,128,0,271029:0:0:0:22:LR_Kick Low Strong Beat.wav
402,192,271029,128,0,271154:0:0:0:22:LR_Kick Low Strong Beat.wav
329,192,271029,128,0,271154:0:0:0:22:LR_Kick Low Strong Beat.wav
109,192,271154,128,0,271320:0:0:0:22:LR_Kick Low Strong Beat.wav
182,192,271154,128,0,271320:0:0:0:22:LR_Kick Low Strong Beat.wav
256,192,271404,128,0,271529:0:0:0:30:LR_Kick Low Strong Beat.wav
329,192,271529,128,0,271654:0:0:0:44:LR_Kick Low Strong Beat.wav
402,192,271779,128,0,272029:0:0:0:70:LR_Kick Low Strong Beat.wav
109,192,272029,1,0,0:0:0:40:LR_Kick Loud Bass Drop.wav
256,192,272029,1,0,0:0:0:60:LR_Drum J Hit Med Bass.wav
329,192,272029,128,0,272279:0:0:0:0:
36,192,272154,1,0,0:0:0:35:LR_Hit Snare Soft.wav
182,192,272279,1,0,0:0:0:10:LR_Snare Hat 2.wav
109,192,272279,1,0,0:0:0:40:LR_Snare Hat 2.wav
475,192,272279,1,0,0:0:0:21:LR_Hit Snare Soft.wav
256,192,272404,1,0,0:0:0:44:LR_Clap hollow echo.wav
36,192,272404,1,0,0:0:0:53:LR_Clap kick.wav
475,192,272529,1,0,0:0:0:40:LR_Kick Loud Bass Drop.wav
109,192,272529,1,0,0:0:0:30:LR_Kick Beat 2.wav
182,192,272529,128,0,273029:0:0:0:50:LR_Kick Drum Fast.wav
402,192,272654,1,0,0:0:0:35:LR_Hit Snare Soft.wav
36,192,272779,1,0,0:0:0:53:LR_Clap kick.wav
329,192,272779,1,0,0:0:0:44:LR_Clap hollow echo.wav
402,192,272904,1,0,0:0:0:35:LR_Hit Snare Soft.wav
475,192,273029,1,0,0:0:0:40:LR_Kick Loud Bass Drop.wav
109,192,273029,128,0,273529:0:0:0:50:LR_Kick Drum Fast.wav
256,192,273029,128,0,273529:0:0:0:30:LR_Kick Beat 2.wav
402,192,273279,1,0,0:0:0:40:LR_Snare Hat 2.wav
329,192,273404,1,0,0:0:0:44:LR_Clap hollow echo.wav
475,192,273529,1,0,0:0:0:40:LR_Kick Loud Bass Drop.wav
402,192,273529,128,0,274029:0:0:0:50:LR_Kick Drum Fast.wav
182,192,273529,1,0,0:0:0:30:LR_Kick Beat 2.wav
36,192,273654,1,0,0:0:0:17:LR_Hit Snare Soft.wav
256,192,273654,1,0,0:0:0:17:LR_Hit Snare Soft.wav
109,192,273779,1,0,0:0:0:40:LR_Snare Hat 2.wav
329,192,273779,1,0,0:0:0:21:LR_Hit Snare Soft.wav
475,192,273904,1,0,0:0:0:17:LR_Hit Snare Soft.wav
182,192,273904,1,0,0:0:0:17:LR_Hit Snare Soft.wav
256,192,274029,128,0,274529:0:0:0:50:LR_Kick Drum Fast.wav
329,192,274029,1,0,0:0:0:40:LR_Kick Loud Bass Drop.wav
36,192,274029,1,0,0:0:0:30:LR_Kick Beat 2.wav
329,192,274279,1,0,0:0:0:21:LR_Hit Snare Soft.wav
109,192,274279,1,0,0:0:0:40:LR_Snare Hat 2.wav
182,192,274404,1,0,0:0:0:53:LR_Clap kick.wav
402,192,274404,1,0,0:0:0:44:LR_Clap hollow echo.wav
36,192,274529,1,0,0:0:0:30:LR_Kick Beat 2.wav
329,192,274529,128,0,275029:0:0:0:50:LR_Kick Drum Fast.wav
475,192,274529,1,0,0:0:0:40:LR_Kick Loud Bass Drop.wav
109,192,274779,1,0,0:0:0:53:LR_Clap kick.wav
182,192,274779,1,0,0:0:0:44:LR_Clap hollow echo.wav
402,192,274904,1,0,0:0:0:17:LR_Hit Snare Soft.wav
475,192,274904,1,0,0:0:0:17:LR_Hit Snare Soft.wav
36,192,275029,1,0,0:0:0:40:LR_Kick Loud Bass Drop.wav
256,192,275029,128,0,275529:0:0:0:50:LR_Kick Drum Fast.wav
402,192,275154,1,0,0:0:0:44:LR_Clap hollow echo.wav
182,192,275154,1,0,0:0:0:53:LR_Clap kick.wav
109,192,275279,1,0,0:0:0:40:LR_Snare Hat 2.wav
182,192,275404,1,0,0:0:0:53:LR_Clap kick.wav
402,192,275404,1,0,0:0:0:44:LR_Clap hollow echo.wav
36,192,275529,1,0,0:0:0:30:LR_Kick Beat 2.wav
329,192,275529,128,0,275779:0:0:0:50:LR_Kick Drum Fast.wav
475,192,275529,1,0,0:0:0:40:LR_Kick Loud Bass Drop.wav
182,192,275779,1,0,0:0:0:40:LR_Snare Hat 2.wav
402,192,275779,128,0,276029:0:0:0:44:LR_Clap hollow echo.wav
109,192,275841,1,0,0:0:0:40:LR_Snare Hat 2.wav
36,192,275904,1,0,0:0:0:40:LR_Snare Hat 2.wav
109,192,275966,1,0,0:0:0:40:LR_Snare Hat 2.wav
182,192,276029,1,0,0:0:0:40:LR_Kick Loud Bass Drop.wav
329,192,276029,128,0,276279:0:0:0:50:LR_Kick Drum Fast.wav
256,192,276279,128,0,276529:0:0:0:10:LR_Snare Hat 2.wav
36,192,276279,1,0,0:0:0:21:LR_Hit Snare Soft.wav
109,192,276279,1,0,0:0:0:40:LR_Snare Hat 2.wav
475,192,276404,1,0,0:0:0:53:LR_Clap kick.wav
402,192,276404,1,0,0:0:0:44:LR_Clap hollow echo.wav
182,192,276529,128,0,276779:0:0:0:50:LR_Kick Drum Fast.wav
329,192,276529,1,0,0:0:0:40:LR_Kick Loud Bass Drop.wav
402,192,276654,1,0,0:0:0:35:LR_Hit Snare Soft.wav
109,192,276779,128,0,277029:0:0:0:50:LR_Drum Rim Fast.wav
475,192,276779,1,0,0:0:0:53:LR_Clap kick.wav
329,192,276779,1,0,0:0:0:44:LR_Clap hollow echo.wav
402,192,276904,1,0,0:0:0:35:LR_Hit Snare Soft.wav
329,192,277029,1,0,0:0:0:52:LR_Kick Low Strong Beat.wav
36,192,277029,128,0,277529:0:0:0:40:LR_Kick Loud Bass Drop.wav
475,192,277154,128,0,277779:0:0:0:52:LR_Kick Low Strong Beat.wav
182,192,277279,1,0,0:0:0:17:LR_Snare Hat 2.wav
402,192,277279,128,0,277779:0:0:0:52:LR_Kick Low Strong Beat.wav
256,192,277404,1,0,0:0:0:44:LR_Clap hollow echo.wav
329,192,277404,128,0,277779:0:0:0:52:LR_Kick Low Strong Beat.wav
109,192,277529,128,0,278029:0:0:0:70:LR_Kick Low Strong Beat.wav
182,192,277529,1,0,0:0:0:40:LR_Kick Loud Bass Drop.wav
182,192,277779,1,0,0:0:0:40:LR_Snare Hat 2.wav
329,192,277904,1,0,0:0:0:44:LR_Clap hollow echo.wav
475,192,278029,1,0,0:0:0:40:LR_Kick Loud Bass Drop.wav
182,192,278029,128,0,278154:0:0:0:50:LR_Kick Drum Fast.wav
329,192,278154,128,0,278279:0:0:0:33:LR_J Hit.wav
402,192,278154,1,0,0:0:0:17:LR_Hit Snare Soft.wav
256,192,278279,1,0,0:0:0:40:LR_Snare Hat 2.wav
109,192,278279,128,0,278404:0:0:0:33:LR_J Hit.wav
402,192,278404,128,0,278529:0:0:0:33:LR_J Hit.wav
182,192,278404,1,0,0:0:0:44:LR_Clap hollow echo.wav
36,192,278529,128,0,278654:0:0:0:50:LR_Kick Drum Fast.wav
329,192,278529,1,0,0:0:0:40:LR_Kick Loud Bass Drop.wav
475,192,278654,128,0,278779:0:0:0:33:LR_J Hit.wav
256,192,278654,1,0,0:0:0:17:LR_Hit Snare Soft.wav
329,192,278779,1,0,0:0:0:40:LR_Snare Hat 2.wav
109,192,278779,128,0,278904:0:0:0:33:LR_J Hit.wav
36,192,278904,1,0,0:0:0:35:LR_Hit Snare Soft.wav
402,192,278904,128,0,279029:0:0:0:33:LR_J Hit.wav
475,192,279029,1,0,0:0:0:40:LR_Kick Loud Bass Drop.wav
182,192,279029,128,0,279154:0:0:0:50:LR_Kick Drum Fast.wav
329,192,279154,128,0,279279:0:0:0:33:LR_J Hit.wav
109,192,279154,1,0,0:0:0:40:LR_Snare Hat 2.wav
256,192,279279,128,0,279404:0:0:0:33:LR_J Hit.wav
402,192,279279,1,0,0:0:0:35:LR_Hit Snare Soft.wav
36,192,279404,1,0,0:0:0:40:LR_Snare Hat 2.wav
329,192,279529,1,0,0:0:0:33:LR_J Hit.wav
182,192,279529,1,0,0:0:0:40:LR_Kick Loud Bass Drop.wav
109,192,279654,1,0,0:0:0:17:LR_Hit Snare Soft.wav
402,192,279654,1,0,0:0:0:17:LR_Hit Snare Soft.wav
475,192,279779,1,0,0:0:0:33:LR_J Hit.wav
36,192,279779,1,0,0:0:0:40:LR_Snare Hat 2.wav
402,192,279904,1,0,0:0:0:17:LR_Hit Snare Soft.wav
109,192,279904,1,0,0:0:0:17:LR_Hit Snare Soft.wav
182,192,280029,1,0,0:0:0:30:LR_Kick Beat 2.wav
329,192,280029,1,0,0:0:0:40:LR_Kick Loud Bass Drop.wav
256,192,280029,128,0,281029:0:0:0:50:LR_Kick Drum Fast.wav
402,192,280154,1,0,0:0:0:35:LR_Hit Snare Soft.wav
329,192,280279,1,0,0:0:0:21:LR_Hit Snare Soft.wav
182,192,280279,1,0,0:0:0:40:LR_Snare Hat 2.wav
36,192,280404,1,0,0:0:0:53:LR_Clap kick.wav
475,192,280404,1,0,0:0:0:44:LR_Clap hollow echo.wav
109,192,280529,1,0,0:0:0:50:LR_Kick Drum Fast.wav
182,192,280654,1,0,0:0:0:35:LR_Hit Snare Soft.wav
329,192,280779,1,0,0:0:0:53:LR_Clap kick.wav
475,192,280779,1,0,0:0:0:44:LR_Clap hollow echo.wav
36,192,280779,1,0,0:0:0:40:LR_Snare Hat 2.wav
402,192,280904,1,0,0:0:0:35:LR_Hit Snare Soft.wav
475,192,281029,1,0,0:0:0:40:LR_Kick Loud Bass Drop.wav
109,192,281029,128,0,281529:0:0:0:50:LR_Kick Drum Fast.wav
182,192,281029,1,0,0:0:0:30:LR_Kick Beat 2.wav
402,192,281279,1,0,0:0:0:40:LR_Snare Hat 2.wav
256,192,281404,1,0,0:0:0:53:LR_Clap kick.wav
329,192,281404,1,0,0:0:0:44:LR_Clap hollow echo.wav
182,192,281529,128,0,282029:0:0:0:50:LR_Kick Drum Fast.wav
475,192,281529,1,0,0:0:0:40:LR_Kick Loud Bass Drop.wav
402,192,281529,1,0,0:0:0:30:LR_Kick Beat 2.wav
36,192,281654,1,0,0:0:0:35:LR_Hit Snare Soft.wav
329,192,281779,1,0,0:0:0:44:LR_Clap hollow echo.wav
475,192,281779,1,0,0:0:0:53:LR_Clap kick.wav
36,192,281904,1,0,0:0:0:17:LR_Hit Snare Soft.wav
402,192,281904,1,0,0:0:0:17:LR_Hit Snare Soft.wav
256,192,282029,1,0,0:0:0:40:LR_Kick Loud Bass Drop.wav
109,192,282029,128,0,282529:0:0:0:50:LR_Kick Drum Fast.wav
475,192,282154,1,0,0:0:0:17:LR_Hit Snare Soft.wav
182,192,282154,1,0,0:0:0:17:LR_Hit Snare Soft.wav
402,192,282279,1,0,0:0:0:21:LR_Hit Snare Soft.wav
36,192,282279,1,0,0:0:0:40:LR_Snare Hat 2.wav
475,192,282404,1,0,0:0:0:53:LR_Clap kick.wav
329,192,282404,1,0,0:0:0:44:LR_Clap hollow echo.wav
36,192,282529,1,0,0:0:0:30:LR_Kick Beat 2.wav
402,192,282529,128,0,283029:0:0:0:50:LR_Kick Drum Fast.wav
256,192,282529,1,0,0:0:0:40:LR_Kick Loud Bass Drop.wav
329,192,282779,1,0,0:0:0:44:LR_Clap hollow echo.wav
109,192,282779,1,0,0:0:0:53:LR_Clap kick.wav
36,192,282904,1,0,0:0:0:17:LR_Hit Snare Soft.wav
256,192,282904,1,0,0:0:0:17:LR_Hit Snare Soft.wav
475,192,283029,1,0,0:0:0:40:LR_Kick Loud Bass Drop.wav
329,192,283029,128,0,283529:0:0:0:50:LR_Kick Drum Fast.wav
109,192,283154,1,0,0:0:0:53:LR_Clap kick.wav
36,192,283279,1,0,0:0:0:40:LR_Snare Hat 2.wav
182,192,283404,1,0,0:0:0:53:LR_Clap kick.wav
109,192,283529,1,0,0:0:0:30:LR_Kick Beat 2.wav
402,192,283529,128,0,283779:0:0:0:60:LR_Drum Rim Fast.wav
256,192,283529,128,0,284029:0:0:0:50:LR_Kick Drum Fast.wav
475,192,283529,1,0,0:0:0:40:LR_Kick Loud Bass Drop.wav
36,192,283779,1,0,0:0:0:40:LR_Snare Hat 2.wav
475,192,283779,128,0,284029:0:0:0:44:LR_Clap hollow echo.wav
182,192,283841,1,0,0:0:0:40:LR_Snare Hat 2.wav
329,192,283904,1,0,0:0:0:40:LR_Snare Hat 2.wav
182,192,283966,1,0,0:0:0:40:LR_Snare Hat 2.wav
329,192,284029,1,0,0:0:0:30:LR_Kick Drum Fast.wav
36,192,284029,128,0,284529:0:0:0:50:LR_Kick Drum Fast.wav
402,192,284029,128,0,284279:0:0:0:40:LR_Kick Loud Bass Drop.wav
182,192,284279,1,0,0:0:0:40:LR_Snare Hat 2.wav
329,192,284279,128,0,284529:0:0:0:21:LR_Hit Snare Soft.wav
475,192,284404,1,0,0:0:0:53:LR_Clap kick.wav
109,192,284404,1,0,0:0:0:53:LR_Clap kick.wav
256,192,284529,128,0,284779:0:0:0:30:LR_Kick Beat 2.wav
182,192,284529,1,0,0:0:0:40:LR_Kick Loud Bass Drop.wav
402,192,284529,128,0,285029:0:0:0:50:LR_Kick Drum Fast.wav
182,192,284779,1,0,0:0:0:44:LR_Clap hollow echo.wav
109,192,284779,128,0,285029:0:0:0:53:LR_Clap kick.wav
36,192,285029,1,0,0:0:0:40:LR_Kick Loud Bass Drop.wav
182,192,285029,128,0,285529:0:0:0:50:LR_Kick Drum Fast.wav
475,192,285279,1,0,0:0:0:40:LR_Snare Hat 2.wav
36,192,285404,1,0,0:0:0:53:LR_Clap kick.wav
329,192,285404,128,0,285654:0:0:0:44:LR_Clap hollow echo.wav
109,192,285529,1,0,0:0:0:40:LR_Kick Loud Bass Drop.wav
475,192,285654,1,0,0:0:0:17:LR_Hit Snare Soft.wav
182,192,285654,128,0,285779:0:0:0:17:LR_Hit Snare Soft.wav
402,192,285779,1,0,0:0:0:21:LR_Hit Snare Soft.wav
329,192,285779,128,0,285904:0:0:0:40:LR_Snare Hat 2.wav
109,192,285904,128,0,286029:0:0:0:17:LR_Hit Snare Soft.wav
256,192,285904,1,0,0:0:0:17:LR_Hit Snare Soft.wav
402,192,286029,128,0,286154:0:0:0:33:LR_J Hit.wav
182,192,286029,1,0,0:0:0:40:LR_Kick Loud Bass Drop.wav
36,192,286154,128,0,286279:0:0:0:33:LR_J Hit.wav
329,192,286154,1,0,0:0:0:35:LR_Hit Snare Soft.wav
475,192,286279,128,0,286404:0:0:0:33:LR_J Hit.wav
256,192,286279,1,0,0:0:0:40:LR_Snare Hat 2.wav
109,192,286404,128,0,286529:0:0:0:33:LR_J Hit.wav
329,192,286404,1,0,0:0:0:44:LR_Clap hollow echo.wav
402,192,286529,128,0,286654:0:0:0:33:LR_J Hit.wav
36,192,286529,1,0,0:0:0:40:LR_Kick Loud Bass Drop.wav
182,192,286654,128,0,286779:0:0:0:33:LR_J Hit.wav
475,192,286654,1,0,0:0:0:35:LR_Hit Snare Soft.wav
329,192,286779,128,0,286904:0:0:0:33:LR_J Hit.wav
109,192,286779,1,0,0:0:0:40:LR_Snare Hat 2.wav
256,192,286904,128,0,287029:0:0:0:33:LR_J Hit.wav
402,192,286904,1,0,0:0:0:35:LR_Hit Snare Soft.wav
109,192,287029,1,0,0:0:0:40:LR_Kick Loud Bass Drop.wav
182,192,287029,128,0,287154:0:0:0:33:LR_J Hit.wav
36,192,287154,128,0,287279:0:0:0:33:LR_J Hit.wav
475,192,287154,1,0,0:0:0:21:LR_Hit Snare Soft.wav
329,192,287154,1,0,0:0:0:40:LR_Snare Hat 2.wav
182,192,287279,128,0,287404:0:0:0:33:LR_J Hit.wav
402,192,287279,1,0,0:0:0:17:LR_Hit Snare Soft.wav
256,192,287279,1,0,0:0:0:17:LR_Hit Snare Soft.wav
109,192,287404,1,0,0:0:0:40:LR_Snare Hat 2.wav
329,192,287404,128,0,287529:0:0:0:33:LR_J Hit.wav
256,192,287529,128,0,288029:0:0:0:33:LR_J Hit.wav
36,192,287529,1,0,0:0:0:40:LR_Kick Loud Bass Drop.wav
329,192,287779,128,0,288279:0:0:0:33:LR_J Hit.wav
475,192,287779,1,0,0:0:0:40:LR_Kick Loud Bass Drop.wav
182,192,287779,1,0,0:0:0:50:LR_Kick Drum Fast.wav
182,192,288029,128,0,288529:0:0:0:50:LR_Kick Drum Fast.wav
109,192,288029,1,0,0:0:0:40:LR_Kick Loud Bass Drop.wav
402,192,288279,1,0,0:0:0:40:LR_Snare Hat 2.wav
475,192,288279,128,0,288779:0:0:0:21:LR_Hit Snare Soft.wav
256,192,288404,1,0,0:0:0:50:LR3_GreatDrum.wav
109,192,288529,128,0,289029:0:0:0:50:LR_Kick Drum Fast.wav
36,192,288529,1,0,0:0:0:40:LR_Kick Loud Bass Drop.wav
402,192,288779,128,0,289529:0:0:0:34:LR_Drum Rim Fast.wav
36,192,289029,128,0,289279:0:0:0:32:LR3_KFDF.wav
256,192,289029,1,0,0:0:0:40:LR_Kick Loud Bass Drop.wav
256,192,289404,1,0,0:0:0:50:LR_Drum Rim Fast.wav
109,192,289529,128,0,290029:0:0:0:24:LR3_SWDSH.wav
182,192,289529,1,0,0:0:0:50:LR_Kick Drum Fast.wav
329,192,289529,1,0,0:0:0:40:LR_Kick Loud Bass Drop.wav
256,192,289779,128,0,290279:0:0:0:50:LR_Clap Kick Fast Low Beat.wav
329,192,289779,1,0,0:0:0:44:LR_Clap hollow echo.wav
475,192,289779,1,0,0:0:0:53:LR_Clap kick.wav
329,192,290029,1,0,0:0:0:40:LR_Kick Loud Bass Drop.wav
402,192,290029,128,0,290529:0:0:0:50:LR_Kick Drum Fast.wav
182,192,290279,128,0,290779:0:0:0:40:LR_Snare Hat 2.wav
109,192,290279,1,0,0:0:0:21:LR_Hit Snare Soft.wav
36,192,290404,1,0,0:0:0:53:LR_Clap kick.wav
475,192,290529,1,0,0:0:0:50:LR_Kick Drum Fast.wav
109,192,290529,1,0,0:0:0:30:LR_Kick Beat 2.wav
329,192,290529,128,0,291029:0:0:0:40:LR_Kick Loud Bass Drop.wav
475,192,290779,1,0,0:0:0:44:LR_Clap hollow echo.wav
402,192,290779,1,0,0:0:0:40:LR_Snare Hat 2.wav
256,192,290779,128,0,291404:0:0:0:53:LR_Clap kick.wav
109,192,291029,128,0,291404:0:0:0:50:LR_Kick Drum Fast.wav
36,192,291029,1,0,0:0:0:40:LR_Kick Loud Bass Drop.wav
475,192,291154,1,0,0:0:0:21:LR_Hit Snare Soft.wav
402,192,291154,1,0,0:0:0:53:LR_Clap kick.wav
329,192,291279,1,0,0:0:0:40:LR_Kick Loud Bass Drop.wav
402,192,291404,1,0,0:0:0:21:LR_Hit Snare Soft.wav
36,192,291404,1,0,0:0:0:40:LR_Snare Hat 2.wav
475,192,291404,1,0,0:0:0:44:LR_Clap hollow echo.wav
182,192,291404,1,0,0:0:0:53:LR_Clap kick.wav
256,192,291529,1,0,0:0:0:40:LR_Kick Loud Bass Drop.wav
475,192,291779,1,0,0:0:0:53:LR_Clap kick.wav
36,192,291779,1,0,0:0:0:44:LR_Clap hollow echo.wav
182,192,291779,1,0,0:0:0:50:LR_Clap Kick Fast Low Beat.wav
402,192,291841,1,0,0:0:0:28:LR_Snare Hat 2.wav
329,192,291904,1,0,0:0:0:28:LR_Snare Hat 2.wav
256,192,291966,1,0,0:0:0:28:LR_Snare Hat 2.wav
182,192,292029,128,0,292529:0:0:0:30:LR_Kick Beat 2.wav
109,192,292029,1,0,0:0:0:40:LR_Kick Loud Bass Drop.wav
402,192,292029,1,0,0:0:0:50:LR_Kick Drum Fast.wav
36,192,292279,1,0,0:0:0:40:LR_Snare Hat 2.wav
329,192,292279,128,0,292779:0:0:0:21:LR_Hit Snare Soft.wav
109,192,292404,1,0,0:0:0:53:LR_Clap kick.wav
36,192,292529,1,0,0:0:0:50:LR_Kick Drum Fast.wav
256,192,292529,1,0,0:0:0:40:LR_Kick Loud Bass Drop.wav
402,192,292529,128,0,293029:0:0:0:30:LR_Kick Beat 2.wav
475,192,292779,128,0,293279:0:0:0:53:LR_Clap kick.wav
36,192,292779,1,0,0:0:0:44:LR_Clap hollow echo.wav
109,192,292779,1,0,0:0:0:40:LR_Kick Loud Bass Drop.wav
329,192,293029,128,0,293154:0:0:0:52:LR_Kick Low Strong Beat.wav
256,192,293154,128,0,293279:0:0:0:52:LR_Kick Low Strong Beat.wav
182,192,293279,128,0,293404:0:0:0:52:LR_Kick Low Strong Beat.wav
109,192,293404,128,0,293529:0:0:0:52:LR_Kick Low Strong Beat.wav
402,192,293404,1,0,0:0:0:50:LR_Kick Drum Fast.wav
36,192,293529,128,0,296029:0:0:0:17:LR_Kick Drum Fast.wav
475,192,293529,1,0,0:0:0:17:LR_Snare Hat 2.wav
329,192,293529,1,0,0:0:0:17:LR_Hit Snare Soft.wav
475,192,293779,1,0,0:0:0:17:LR_Snare Hat 2.wav
402,192,293779,1,0,0:0:0:17:LR_Hit Snare Soft.wav
256,192,294029,1,0,0:0:0:40:LR_Kick Loud Bass Drop.wav
402,192,294029,1,0,0:0:0:50:LR_Kick Drum Fast.wav
475,192,294029,1,0,0:0:0:30:LR_Kick Beat 2.wav
182,192,294154,1,0,0:0:0:17:LR_Hit Snare Soft.wav
329,192,294154,1,0,0:0:0:17:LR_Hit Snare Soft.wav
109,192,294279,1,0,0:0:0:21:LR_Hit Snare Soft.wav
256,192,294279,1,0,0:0:0:40:LR_Snare Hat 2.wav
182,192,294404,1,0,0:0:0:44:LR_Clap hollow echo.wav
475,192,294404,1,0,0:0:0:53:LR_Clap kick.wav
109,192,294529,1,0,0:0:0:30:LR_Kick Beat 2.wav
402,192,294529,1,0,0:0:0:50:LR_Kick Drum Fast.wav
256,192,294529,1,0,0:0:0:40:LR_Kick Loud Bass Drop.wav
329,192,294654,1,0,0:0:0:17:LR_Hit Snare Soft.wav
475,192,294654,1,0,0:0:0:17:LR_Hit Snare Soft.wav
402,192,294779,1,0,0:0:0:40:LR_Snare Hat 2.wav
256,192,294779,1,0,0:0:0:21:LR_Hit Snare Soft.wav
182,192,294904,1,0,0:0:0:17:LR_Hit Snare Soft.wav
329,192,294904,1,0,0:0:0:17:LR_Hit Snare Soft.wav
109,192,295029,1,0,0:0:0:30:LR_Kick Beat 2.wav
256,192,295029,1,0,0:0:0:40:LR_Kick Loud Bass Drop.wav
402,192,295029,1,0,0:0:0:50:LR_Kick Drum Fast.wav
182,192,295154,1,0,0:0:0:51:LR_Drum Rim Fast.wav
329,192,295154,1,0,0:0:0:21:LR_Hit Snare Soft.wav
475,192,295154,1,0,0:0:0:40:LR_Snare Hat 2.wav
402,192,295279,1,0,0:0:0:17:LR_Hit Snare Soft.wav
256,192,295279,1,0,0:0:0:17:LR_Hit Snare Soft.wav
182,192,295404,1,0,0:0:0:51:LR_Drum Rim Fast.wav
475,192,295404,1,0,0:0:0:40:LR_Snare Hat 2.wav
329,192,295404,1,0,0:0:0:21:LR_Hit Snare Soft.wav
256,192,295529,1,0,0:0:0:50:LR_Kick Drum Fast.wav
109,192,295529,1,0,0:0:0:40:LR_Kick Loud Bass Drop.wav
182,192,295654,1,0,0:0:0:17:LR_Hit Snare Soft.wav
475,192,295654,1,0,0:0:0:17:LR_Hit Snare Soft.wav
402,192,295779,1,0,0:0:0:17:LR_Snare Hat 2.wav
109,192,295779,1,0,0:0:0:40:LR_Kick Loud Bass Drop.wav
329,192,295904,1,0,0:0:0:17:LR_Hit Snare Soft.wav
475,192,295904,1,0,0:0:0:17:LR_Hit Snare Soft.wav
402,192,296029,128,0,297029:0:0:0:30:LR_Kick Beat 2.wav
256,192,296029,1,0,0:0:0:50:LR_Kick Drum Fast.wav
109,192,296029,1,0,0:0:0:40:LR_Kick Loud Bass Drop.wav
182,192,296154,1,0,0:0:0:35:LR_Hit Snare Soft.wav
256,192,296279,1,0,0:0:0:21:LR_Hit Snare Soft.wav
36,192,296279,1,0,0:0:0:40:LR_Snare Hat 2.wav
475,192,296404,1,0,0:0:0:44:LR_Clap hollow echo.wav
109,192,296445,1,0,0:0:0:50:LR3_GreatDrum.wav
36,192,296529,1,0,0:0:0:30:LR_Kick Beat 2.wav
329,192,296529,1,0,0:0:0:40:LR_Kick Loud Bass Drop.wav
182,192,296529,1,0,0:0:0:50:LR_Kick Drum Fast.wav
475,192,296654,1,0,0:0:0:35:LR_Hit Snare Soft.wav
256,192,296779,1,0,0:0:0:44:LR_Clap hollow echo.wav
109,192,296779,1,0,0:0:0:53:LR_Clap kick.wav
329,192,296904,1,0,0:0:0:35:LR_Hit Snare Soft.wav
109,192,297029,128,0,297529:0:0:0:32:LR3_KFDF.wav
36,192,297029,1,0,0:0:0:50:LR_Kick Drum Fast.wav
182,192,297029,1,0,0:0:0:40:LR_Kick Loud Bass Drop.wav
256,192,297154,1,0,0:0:0:35:LR_Hit Snare Soft.wav
182,192,297279,1,0,0:0:0:40:LR_Snare Hat 2.wav
329,192,297279,1,0,0:0:0:21:LR_Hit Snare Soft.wav
402,192,297404,1,0,0:0:0:44:LR_Clap hollow echo.wav
36,192,297529,128,0,298029:0:0:0:23:LR3_SWDSH.wav
329,192,297529,1,0,0:0:0:40:LR_Kick Loud Bass Drop.wav
475,192,297529,1,0,0:0:0:50:LR_Kick Drum Fast.wav
256,192,297654,1,0,0:0:0:35:LR_Hit Snare Soft.wav
182,192,297779,1,0,0:0:0:53:LR_Clap kick.wav
109,192,297904,1,0,0:0:0:35:LR_Hit Snare Soft.wav
256,192,298029,128,0,298529:0:0:0:30:LR_Kick Beat 2.wav
182,192,298029,1,0,0:0:0:50:LR_Kick Drum Fast.wav
402,192,298029,1,0,0:0:0:40:LR_Kick Loud Bass Drop.wav
329,192,298154,1,0,0:0:0:35:LR_Hit Snare Soft.wav
402,192,298279,1,0,0:0:0:21:LR_Hit Snare Soft.wav
329,192,298404,1,0,0:0:0:44:LR_Clap hollow echo.wav
475,192,298529,128,0,299029:0:0:0:30:LR_Kick Beat 2.wav
402,192,298529,1,0,0:0:0:40:LR_Kick Loud Bass Drop.wav
109,192,298529,1,0,0:0:0:50:LR_Kick Drum Fast.wav
329,192,298654,1,0,0:0:0:35:LR_Hit Snare Soft.wav
256,192,298779,1,0,0:0:0:44:LR_Clap hollow echo.wav
182,192,298904,1,0,0:0:0:35:LR_Hit Snare Soft.wav
402,192,299029,1,0,0:0:0:60:LR_Drum Rim Fast.wav
256,192,299029,1,0,0:0:0:40:LR_Kick Loud Bass Drop.wav
109,192,299029,128,0,299529:0:0:0:50:LR_Kick Drum Fast.wav
329,192,299154,1,0,0:0:0:44:LR_Clap hollow echo.wav
402,192,299279,1,0,0:0:0:40:LR_Snare Hat 2.wav
329,192,299404,1,0,0:0:0:44:LR_Clap hollow echo.wav
36,192,299529,1,0,0:0:0:40:LR_Kick Loud Bass Drop.wav
256,192,299529,1,0,0:0:0:50:LR_Kick Drum Fast.wav
182,192,299529,128,0,300029:0:0:0:60:LR_Drum Rim Fast.wav
329,192,299654,1,0,0:0:0:35:LR_Hit Snare Soft.wav
402,192,299779,1,0,0:0:0:40:LR_Snare Hat 2.wav
475,192,299841,1,0,0:0:0:40:LR_Snare Hat 2.wav
402,192,299904,1,0,0:0:0:40:LR_Snare Hat 2.wav
329,192,299966,1,0,0:0:0:40:LR_Snare Hat 2.wav
256,192,300029,128,0,300529:0:0:0:40:LR_Kick Loud Bass Drop.wav
36,192,300029,1,0,0:0:0:50:LR_Kick Drum Fast.wav
109,192,300154,1,0,0:0:0:35:LR_Hit Snare Soft.wav
402,192,300279,1,0,0:0:0:21:LR_Hit Snare Soft.wav
475,192,300279,1,0,0:0:0:40:LR_Snare Hat 2.wav
109,192,300404,1,0,0:0:0:53:LR_Clap kick.wav
36,192,300529,128,0,301029:0:0:0:30:LR_Kick Beat 2.wav
329,192,300529,1,0,0:0:0:40:LR_Kick Loud Bass Drop.wav
182,192,300529,1,0,0:0:0:50:LR_Kick Drum Fast.wav
402,192,300654,1,0,0:0:0:35:LR_Hit Snare Soft.wav
475,192,300779,1,0,0:0:0:44:LR_Clap hollow echo.wav
109,192,300779,1,0,0:0:0:53:LR_Clap kick.wav
256,192,300904,1,0,0:0:0:35:LR_Hit Snare Soft.wav
475,192,301029,128,0,301154:0:0:0:52:LR_Kick Low Strong Beat.wav
182,192,301029,1,0,0:0:0:50:LR_Kick Loud Bass Drop.wav
402,192,301154,128,0,301279:0:0:0:52:LR_Kick Low Strong Beat.wav
329,192,301279,128,0,301404:0:0:0:52:LR_Kick Low Strong Beat.wav
256,192,301404,128,0,301529:0:0:0:52:LR_Kick Low Strong Beat.wav
36,192,301529,1,0,0:0:0:40:LR_Kick Loud Bass Drop.wav
182,192,301529,128,0,304029:0:0:0:60:LR_Kick Low Strong Beat.wav
475,192,301779,1,0,0:0:0:17:LR_Snare Hat 2.wav
402,192,301779,1,0,0:0:0:17:LR_Hit Snare Soft.wav
475,192,302029,1,0,0:0:0:40:LR_Kick Loud Bass Drop.wav
36,192,302029,1,0,0:0:0:50:LR_Kick Drum Fast.wav
256,192,302029,1,0,0:0:0:30:LR_Kick Beat 2.wav
109,192,302154,1,0,0:0:0:17:LR_Hit Snare Soft.wav
329,192,302154,1,0,0:0:0:17:LR_Hit Snare Soft.wav
256,192,302279,1,0,0:0:0:40:LR_Snare Hat 2.wav
402,192,302279,1,0,0:0:0:21:LR_Hit Snare Soft.wav
475,192,302404,1,0,0:0:0:53:LR_Clap kick.wav
329,192,302404,1,0,0:0:0:44:LR_Clap hollow echo.wav
256,192,302529,1,0,0:0:0:30:LR_Kick Beat 2.wav
36,192,302529,1,0,0:0:0:50:LR_Kick Drum Fast.wav
402,192,302529,1,0,0:0:0:40:LR_Kick Loud Bass Drop.wav
475,192,302654,1,0,0:0:0:17:LR_Hit Snare Soft.wav
109,192,302654,1,0,0:0:0:17:LR_Hit Snare Soft.wav
256,192,302779,1,0,0:0:0:44:LR_Clap hollow echo.wav
36,192,302779,1,0,0:0:0:53:LR_Clap kick.wav
329,192,302904,1,0,0:0:0:17:LR_Hit Snare Soft.wav
109,192,302904,1,0,0:0:0:17:LR_Hit Snare Soft.wav
402,192,303029,1,0,0:0:0:40:LR_Kick Loud Bass Drop.wav
36,192,303029,1,0,0:0:0:50:LR_Kick Drum Fast.wav
256,192,303029,1,0,0:0:0:30:LR_Kick Beat 2.wav
475,192,303154,1,0,0:0:0:53:LR_Clap kick.wav
329,192,303154,1,0,0:0:0:44:LR_Clap hollow echo.wav
402,192,303279,1,0,0:0:0:21:LR_Hit Snare Soft.wav
36,192,303279,1,0,0:0:0:40:LR_Snare Hat 2.wav
475,192,303404,1,0,0:0:0:44:LR_Clap hollow echo.wav
109,192,303404,1,0,0:0:0:53:LR_Clap kick.wav
256,192,303529,1,0,0:0:0:30:LR_Kick Beat 2.wav
36,192,303529,1,0,0:0:0:50:LR_Kick Drum Fast.wav
402,192,303529,1,0,0:0:0:40:LR_Kick Loud Bass Drop.wav
109,192,303654,1,0,0:0:0:17:LR_Hit Snare Soft.wav
329,192,303654,1,0,0:0:0:17:LR_Hit Snare Soft.wav
256,192,303779,1,0,0:0:0:33:LR_Kick Loud Bass Drop.wav
402,192,303779,1,0,0:0:0:44:LR_Clap hollow echo.wav
475,192,303904,1,0,0:0:0:17:LR_Hit Snare Soft.wav
329,192,303904,1,0,0:0:0:17:LR_Hit Snare Soft.wav
402,192,304029,1,0,0:0:0:40:LR_Kick Loud Bass Drop.wav
36,192,304029,1,0,0:0:0:50:LR_Kick Drum Fast.wav
256,192,304029,1,0,0:0:0:60:LR_Drum J Hit Med Bass.wav
256,192,304279,1,0,0:0:0:40:LR_Snare Hat 2.wav
182,192,304404,1,0,0:0:0:40:LR_Clap kick.wav
329,192,304404,1,8,0:0:0:40:LR_Clap Kick Fast Low Beat.wav
256,192,304529,1,0,0:0:0:25:LR_Kick Loud Bass Drop.wav
109,192,304529,1,0,0:0:0:40:LR_Kick Drum Fast.wav
402,192,304529,1,8,0:0:0:25:LR_Kick Loud Bass Drop.wav
329,192,304654,1,0,0:0:0:31:LR_Snare Hat 2.wav
182,192,304779,1,0,0:0:0:40:LR_Clap kick.wav
36,192,304779,1,8,0:0:0:40:LR_Clap Kick Fast Low Beat.wav
402,192,304904,1,0,0:0:0:31:LR_Snare Hat 2.wav
109,192,305029,1,0,0:0:0:40:LR_Kick Drum Fast.wav
256,192,305029,1,8,0:0:0:50:LR_Kick Loud Bass Drop.wav
182,192,305279,1,0,0:0:0:40:LR_Snare Hat 2.wav
109,192,305404,1,0,0:0:0:40:LR_Clap kick.wav
256,192,305404,1,8,0:0:0:40:LR_Clap Kick Fast Low Beat.wav
329,192,305529,1,8,0:0:0:50:LR_Kick Loud Bass Drop.wav
36,192,305529,1,0,0:0:0:18:LR_Chm loong.wav
182,192,305529,1,0,0:0:0:40:LR_Kick Drum Fast.wav
402,192,305779,1,8,0:0:0:60:LR_Snare Hat 2.wav
109,192,305779,1,0,0:0:0:40:LR_Clap kick.wav
256,192,305904,1,0,0:0:0:31:LR_Snare Hat 2.wav
329,192,306029,1,8,0:0:0:25:LR_Kick Loud Bass Drop.wav
182,192,306029,1,0,0:0:0:25:LR_Kick Loud Bass Drop.wav
475,192,306029,1,0,0:0:0:40:LR_Kick Drum Fast.wav
182,192,306279,1,0,0:0:0:40:LR_Snare Hat 2.wav
256,192,306404,1,8,0:0:0:40:LR_Clap Kick Fast Low Beat.wav
109,192,306404,1,0,0:0:0:40:LR_Clap kick.wav
182,192,306529,1,0,0:0:0:25:LR_Kick Loud Bass Drop.wav
36,192,306529,1,0,0:0:0:40:LR_Kick Drum Fast.wav
329,192,306529,1,8,0:0:0:25:LR_Kick Loud Bass Drop.wav
402,192,306654,1,0,0:0:0:31:LR_Snare Hat 2.wav
182,192,306779,1,0,0:0:0:40:LR_Clap kick.wav
329,192,306779,1,8,0:0:0:40:LR_Clap Kick Fast Low Beat.wav
475,192,306904,1,0,0:0:0:31:LR_Snare Hat 2.wav
329,192,307029,1,8,0:0:0:25:LR_Kick Loud Bass Drop.wav
182,192,307029,1,0,0:0:0:25:LR_Kick Loud Bass Drop.wav
36,192,307029,1,0,0:0:0:40:LR_Kick Drum Fast.wav
256,192,307154,1,0,0:0:0:30:LR_Snare Hat 2.wav
109,192,307154,1,0,0:0:0:20:LR_Clap Hit P.wav
256,192,307404,1,0,0:0:0:30:LR_Snare Hat 2.wav
402,192,307404,1,0,0:0:0:20:LR_Clap Hit P.wav
475,192,307529,1,0,0:0:0:40:LR_Kick Drum Fast.wav
182,192,307529,1,0,0:0:0:25:LR_Kick Loud Bass Drop.wav
329,192,307529,1,8,0:0:0:25:LR_Kick Loud Bass Drop.wav
36,192,307779,1,0,0:0:0:40:LR_Clap kick.wav
182,192,307779,1,0,0:0:0:46:LR_Snare Hat 2.wav
256,192,307841,1,0,0:0:0:46:LR_Snare Hat 2.wav
329,192,307904,1,0,0:0:0:46:LR_Snare Hat 2.wav
402,192,307966,1,0,0:0:0:46:LR_Snare Hat 2.wav
109,192,308029,1,0,0:0:0:40:LR_Kick Drum Fast.wav
475,192,308029,1,8,0:0:0:50:LR_Kick Loud Bass Drop.wav
256,192,308279,1,0,0:0:0:40:LR_Snare Hat 2.wav
182,192,308404,1,0,0:0:0:40:LR_Clap kick.wav
329,192,308404,1,8,0:0:0:40:LR_Clap Kick Fast Low Beat.wav
402,192,308529,1,8,0:0:0:25:LR_Kick Loud Bass Drop.wav
109,192,308529,1,0,0:0:0:40:LR_Kick Drum Fast.wav
256,192,308529,1,0,0:0:0:25:LR_Kick Loud Bass Drop.wav
36,192,308654,1,0,0:0:0:31:LR_Snare Hat 2.wav
256,192,308779,1,0,0:0:0:40:LR_Snare Hat 2.wav
329,192,308904,1,0,0:0:0:33:LR_Hit Snare Soft.wav
402,192,309029,1,8,0:0:0:50:LR_Kick Loud Bass Drop.wav
475,192,309029,1,0,0:0:0:40:LR_Kick Drum Fast.wav
256,192,309279,1,0,0:0:0:40:LR_Snare Hat 2.wav
329,192,309404,1,8,0:0:0:40:LR_Clap Kick Fast Low Beat.wav
182,192,309404,1,0,0:0:0:40:LR_Clap kick.wav
109,192,309529,1,0,0:0:0:40:LR_Kick Drum Fast.wav
36,192,309529,1,8,0:0:0:50:LR_Kick Loud Bass Drop.wav
182,192,309779,1,0,0:0:0:44:LR_Clap kick.wav
329,192,309779,1,0,0:0:0:30:LR_Snare Fast.wav
256,192,309904,1,0,0:0:0:35:LR_Snare Hat 2.wav
109,192,310029,1,0,0:0:0:40:LR_Kick Drum Fast.wav
402,192,310029,1,8,0:0:0:50:LR_Kick Loud Bass Drop.wav
36,192,310279,1,0,0:0:0:40:LR_Snare Hat 2.wav
109,192,310404,1,0,0:0:0:40:LR_Clap kick.wav
402,192,310404,1,8,0:0:0:40:LR_Clap Kick Fast Low Beat.wav
182,192,310529,1,0,0:0:0:40:LR_Kick Drum Fast.wav
329,192,310529,1,8,0:0:0:50:LR_Kick Loud Bass Drop.wav
402,192,310654,1,0,0:0:0:31:LR_Snare Hat 2.wav
109,192,310779,1,0,0:0:0:40:LR_Clap kick.wav
256,192,310779,1,8,0:0:0:46:LR_Snare Hat 2.wav
475,192,310904,1,0,0:0:0:33:LR_Hit Snare Soft.wav
36,192,310904,1,0,0:0:0:31:LR_Snare Hat 2.wav
402,192,311029,1,8,0:0:0:50:LR_Kick Loud Bass Drop.wav
182,192,311029,1,0,0:0:0:40:LR_Kick Drum Fast.wav
329,192,311154,1,0,0:0:0:46:LR_Snare Hat 2.wav
256,192,311216,1,0,0:0:0:44:LR_Drum EDge.wav
182,192,311404,1,0,0:0:0:40:LR_Clap kick.wav
329,192,311404,1,8,0:0:0:40:LR_Clap Kick Fast Low Beat.wav
109,192,311529,1,0,0:0:0:40:LR_Kick Drum Fast.wav
256,192,311529,1,8,0:0:0:50:LR_Kick Loud Bass Drop.wav
36,192,311654,1,0,0:0:0:46:LR_Snare Hat 2.wav
402,192,311654,1,0,0:0:0:31:LR_Snare Hat 2.wav
329,192,311779,1,8,0:0:0:50:LR_Kick Loud Bass Drop.wav
182,192,311779,1,0,0:0:0:55:LR_Clap Kick Fast Low Beat.wav
256,192,311904,1,0,0:0:0:46:LR_Snare Hat 2.wav
109,192,312029,1,0,0:0:0:40:LR_Kick Drum Fast.wav
402,192,312029,1,8,0:0:0:50:LR_Kick Loud Bass Drop.wav
182,192,312279,1,0,0:0:0:40:LR_Snare Hat 2.wav
256,192,312404,1,0,0:0:0:40:LR_Clap kick.wav
329,192,312529,1,8,0:0:0:50:LR_Kick Loud Bass Drop.wav
182,192,312529,1,0,0:0:0:40:LR_Kick Drum Fast.wav
256,192,312654,1,0,0:0:0:44:LR_Drum EDge.wav
109,192,312779,1,0,0:0:0:40:LR_Clap kick.wav
402,192,312779,1,8,0:0:0:66:LR_Snare Hat 2.wav
256,192,312904,1,0,0:0:0:46:LR_Snare Fast.wav
36,192,313029,1,0,0:0:0:40:LR_Kick Drum Fast.wav
475,192,313029,1,8,0:0:0:50:LR_Kick Loud Bass Drop.wav
256,192,313279,1,0,0:0:0:40:LR_Snare Hat 2.wav
329,192,313404,1,8,0:0:0:40:LR_Clap Kick Fast Low Beat.wav
182,192,313404,1,0,0:0:0:40:LR_Clap kick.wav
256,192,313529,1,8,0:0:0:50:LR_Kick Loud Bass Drop.wav
109,192,313529,1,0,0:0:0:40:LR_Kick Drum Fast.wav
256,192,313779,1,0,0:0:0:40:LR_Clap kick.wav
402,192,313779,1,8,0:0:0:40:LR_Clap Kick Fast Low Beat.wav
329,192,313904,1,0,0:0:0:46:LR_Snare Hat 2.wav
109,192,314029,1,0,0:0:0:40:LR_Kick Drum Fast.wav
256,192,314029,1,8,0:0:0:50:LR_Kick Loud Bass Drop.wav
182,192,314279,1,0,0:0:0:40:LR_Snare Hat 2.wav
256,192,314404,1,0,0:0:0:40:LR_Clap kick.wav
329,192,314529,1,8,0:0:0:50:LR_Kick Loud Bass Drop.wav
182,192,314529,1,0,0:0:0:40:LR_Kick Drum Fast.wav
475,192,314654,1,0,0:0:0:31:LR_Snare Hat 2.wav
109,192,314779,1,0,0:0:0:40:LR_Clap kick.wav
256,192,314779,1,8,0:0:0:40:LR_Clap Kick Fast Low Beat.wav
402,192,314904,1,0,0:0:0:31:LR_Snare Hat 2.wav
109,192,315029,1,8,0:0:0:50:LR_Kick Loud Bass Drop.wav
182,192,315154,1,0,0:0:0:40:LR_Snare Hat 2.wav
36,192,315154,1,0,0:0:0:40:LR_Clap kick.wav
402,192,315279,1,8,0:0:0:50:LR_Kick Loud Bass Drop.wav
475,192,315404,1,0,0:0:0:40:LR_Clap kick.wav
329,192,315404,1,0,0:0:0:40:LR_Snare Hat 2.wav
256,192,315529,1,8,0:0:0:50:LR_Kick Loud Bass Drop.wav
182,192,315779,1,0,0:0:0:40:LR_Clap kick.wav
475,192,315779,1,8,0:0:0:40:LR_Clap Kick Fast Low Beat.wav
329,192,315841,1,0,0:0:0:46:LR_Snare Hat 2.wav
182,192,315904,1,0,0:0:0:46:LR_Snare Hat 2.wav
329,192,315966,1,0,0:0:0:46:LR_Snare Hat 2.wav
182,192,316029,1,0,0:0:0:40:LR_Kick Drum Fast.wav
36,192,316029,1,8,0:0:0:50:LR_Kick Loud Bass Drop.wav
256,192,316279,1,0,0:0:0:40:LR_Snare Hat 2.wav
329,192,316404,1,0,0:0:0:40:LR_Clap kick.wav
182,192,316404,1,8,0:0:0:40:LR_Clap Kick Fast Low Beat.wav
402,192,316529,1,8,0:0:0:50:LR_Kick Loud Bass Drop.wav
109,192,316529,1,0,0:0:0:40:LR_Kick Drum Fast.wav
329,192,316654,1,0,0:0:0:31:LR_Snare Hat 2.wav
182,192,316779,1,0,0:0:0:40:LR_Clap kick.wav
256,192,316904,1,0,0:0:0:31:LR_Snare Hat 2.wav
109,192,317029,1,0,0:0:0:40:LR_Kick Drum Fast.wav
402,192,317029,1,8,0:0:0:50:LR_Kick Loud Bass Drop.wav
36,192,317279,1,0,0:0:0:40:LR_Snare Hat 2.wav
182,192,317404,1,0,0:0:0:40:LR_Clap kick.wav
402,192,317404,1,8,0:0:0:40:LR_Clap Kick Fast Low Beat.wav
329,192,317529,1,8,0:0:0:50:LR_Kick Loud Bass Drop.wav
475,192,317529,1,0,0:0:0:40:LR_Kick Drum Fast.wav
36,192,317779,1,8,0:0:0:40:LR_Clap Kick Fast Low Beat.wav
182,192,317779,1,0,0:0:0:40:LR_Clap kick.wav
402,192,317904,1,0,0:0:0:31:LR_Snare Hat 2.wav
109,192,318029,1,0,0:0:0:40:LR_Kick Drum Fast.wav
256,192,318029,1,8,0:0:0:50:LR_Kick Loud Bass Drop.wav
475,192,318279,1,0,0:0:0:40:LR_Snare Hat 2.wav
329,192,318404,1,0,0:0:0:40:LR_Clap kick.wav
109,192,318404,1,8,0:0:0:40:LR_Clap Kick Fast Low Beat.wav
36,192,318529,1,8,0:0:0:50:LR_Kick Loud Bass Drop.wav
182,192,318529,1,0,0:0:0:40:LR_Kick Drum Fast.wav
256,192,318654,1,0,0:0:0:31:LR_Snare Hat 2.wav
402,192,318779,1,0,0:0:0:40:LR_Clap kick.wav
329,192,318779,1,8,0:0:0:40:LR_Clap Kick Fast Low Beat.wav
182,192,318904,1,0,0:0:0:31:LR_Snare Hat 2.wav
256,192,319029,1,8,0:0:0:50:LR_Kick Loud Bass Drop.wav
109,192,319154,1,0,0:0:0:44:LR_Clap Kick Fast Low Beat.wav
402,192,319154,1,0,0:0:0:29:LR_Clap kick.wav
182,192,319216,1,0,0:0:0:44:LR_Drum EDge.wav
329,192,319216,1,0,0:0:0:40:LR_Snare Hat 2.wav
182,192,319404,1,0,0:0:0:44:LR_Clap Kick Fast Low Beat.wav
329,192,319404,1,0,0:0:0:29:LR_Clap kick.wav
36,192,319529,1,8,0:0:0:50:LR_Kick Loud Bass Drop.wav
256,192,319654,1,0,0:0:0:31:LR_Snare Hat 2.wav
36,192,319779,1,0,0:0:0:77:LR_Kick Drum Fast.wav
475,192,319779,1,8,0:0:0:40:LR_Clap Kick Fast Low Beat.wav
329,192,319904,1,0,0:0:0:31:LR_Snare Hat 2.wav
36,192,320029,1,0,0:0:0:40:LR_Kick Drum Fast.wav
182,192,320029,128,0,320279:0:0:0:88:LR3_GreatDrum.wav
256,192,320279,128,2,320529:2:0:0:33:
109,192,320404,1,8,0:0:0:80:LR_Clap Kick Fast Low Beat.wav
36,192,320404,1,0,0:0:0:41:LR_Clap kick.wav
329,192,320529,128,2,320779:2:0:0:33:
402,192,320779,128,0,321029:0:0:0:41:LR_Clap kick.wav
36,192,320779,1,0,0:0:0:41:LR_Clap Kick Fast Low Beat.wav
109,192,320779,1,8,0:0:0:40:LR_Clap Kick Fast Low Beat.wav
475,192,321029,128,0,321404:0:0:0:66:LR_Drum Rim Fast.wav
182,192,321029,1,0,0:0:0:28:LR3_KFDF.wav
256,192,321404,1,8,0:0:0:80:LR_Clap Kick Fast Low Beat.wav
329,192,321404,1,0,0:0:0:41:LR_Clap kick.wav
182,192,321529,128,2,321779:2:0:0:21:
402,192,321779,1,8,0:0:0:40:LR_Clap Kick Fast Low Beat.wav
256,192,321779,128,0,322029:0:0:0:41:LR_Clap Kick Fast Low Beat.wav
475,192,321779,1,0,0:0:0:41:LR_Clap kick.wav
109,192,321904,1,0,0:0:0:31:LR_Snare Hat 2.wav
36,192,322029,1,0,0:0:0:31:LR_Snare Hat 2.wav
329,192,322029,128,2,322279:2:0:0:21:
402,192,322279,128,2,322529:2:0:0:21:
256,192,322404,1,8,0:0:0:80:LR_Clap Kick Fast Low Beat.wav
36,192,322404,1,0,0:0:0:41:LR_Clap kick.wav
182,192,322529,128,2,322779:2:0:0:21:
109,192,322779,128,0,323029:0:0:0:41:LR_Clap Kick Fast Low Beat.wav
329,192,322779,1,0,0:0:0:41:LR_Clap kick.wav
475,192,322779,1,8,0:0:0:40:LR_Clap Kick Fast Low Beat.wav
36,192,323029,128,2,323279:2:0:0:21:
329,192,323029,1,0,0:0:0:30:LR3_GreatDrum.wav
256,192,323154,1,0,0:0:0:41:LR_Clap kick.wav
402,192,323154,1,8,0:0:0:40:LR_Clap Kick Fast Low Beat.wav
329,192,323404,1,0,0:0:0:41:LR_Clap kick.wav
182,192,323404,1,8,0:0:0:40:LR_Clap Kick Fast Low Beat.wav
256,192,323529,128,2,323779:2:0:0:21:
182,192,323779,128,0,324029:0:0:0:41:LR_Clap kick.wav
36,192,323779,1,8,0:0:0:40:LR_Clap kick.wav
109,192,323779,1,8,0:0:0:40:LR_Clap Kick Fast Low Beat.wav
329,192,324029,128,0,324279:0:0:0:88:LR3_GreatDrum.wav
256,192,324029,1,0,0:0:0:40:LR_Kick Drum Fast.wav
109,192,324279,128,2,324529:2:0:0:21:
475,192,324404,1,8,0:0:0:40:LR_Clap Kick Fast Low Beat.wav
329,192,324404,1,0,0:0:0:41:LR_Clap Kick Fast Low Beat.wav
256,192,324466,1,0,0:0:0:25:LR_Hit Snare Soft.wav
182,192,324529,1,0,0:0:0:40:LR3_GreatDrum.wav
36,192,324529,1,0,0:0:0:40:LR3_GreatDrum.wav
402,192,324529,128,2,324779:2:0:0:21:
36,192,324779,128,0,325029:0:0:0:41:LR_Clap kick.wav
182,192,324779,1,0,0:0:0:40:LR_Drum Rim Fast.wav
329,192,324779,1,0,0:0:0:41:LR_Clap Kick Fast Low Beat.wav
256,192,324904,1,0,0:0:0:0:
475,192,325029,128,2,325404:2:0:0:41:
329,192,325029,1,2,2:0:0:28:LR3_KFDF.wav
256,192,325404,1,0,0:0:0:41:LR_Clap kick.wav
109,192,325404,1,0,0:0:0:41:LR_Clap Kick Fast Low Beat.wav
182,192,325529,128,2,325779:2:0:0:21:
329,192,325654,1,0,0:0:0:31:LR_Snare Hat 2.wav
402,192,325779,1,0,0:0:0:41:LR_Clap Kick Fast Low Beat.wav
475,192,325779,1,0,0:0:0:41:LR_Clap kick.wav
109,192,325779,128,2,326029:2:0:0:21:
329,192,325904,1,0,0:0:0:31:LR_Snare Hat 2.wav
36,192,326029,128,0,326279:0:0:0:40:LR_Kick Drum Fast.wav
256,192,326029,1,0,0:0:0:80:LR3_GreatDrum.wav
329,192,326279,128,2,326529:2:0:0:21:
109,192,326404,1,8,0:0:0:40:LR_Clap Kick Fast Low Beat.wav
182,192,326404,1,0,0:0:0:41:LR_Clap Kick Fast Low Beat.wav
256,192,326529,1,0,0:0:0:31:LR_Snare Hat 2.wav
402,192,326529,128,2,326779:2:0:0:21:
475,192,326779,128,0,327029:0:0:0:41:LR_Clap Kick Fast Low Beat.wav
182,192,326779,1,0,0:0:0:41:LR_Clap kick.wav
36,192,326779,1,8,0:0:0:40:LR_Clap Kick Fast Low Beat.wav
256,192,327029,128,0,327404:0:0:0:70:LR_Drum Rim Fast.wav
329,192,327154,1,8,0:0:0:40:LR_Clap Kick Fast Low Beat.wav
109,192,327216,1,0,0:0:0:30:LR_Snare Fast.wav
36,192,327404,1,0,0:0:0:41:LR_Clap Kick Fast Low Beat.wav
475,192,327404,1,0,0:0:0:41:LR_Clap kick.wav
402,192,327529,128,2,327779:2:0:0:21:
182,192,327779,1,8,0:0:0:40:LR_Clap Kick Fast Low Beat.wav
256,192,327779,128,0,328029:0:0:0:41:LR_Clap Kick Fast Low Beat.wav
36,192,327779,1,0,0:0:0:41:LR_Clap kick.wav
475,192,327841,1,0,0:0:0:44:LR3_GreatDrum.wav
402,192,327904,1,0,0:0:0:44:LR3_GreatDrum.wav
329,192,327966,1,0,0:0:0:44:LR3_GreatDrum.wav
109,192,328029,128,0,328279:0:0:0:30:LR_Kick Loud Bass Drop.wav
182,192,328029,1,0,0:0:0:77:LR3_GreatDrum.wav
182,192,328279,128,2,328529:2:0:0:21:
475,192,328404,1,8,0:0:0:40:LR_Clap Kick Fast Low Beat.wav
256,192,328404,1,0,0:0:0:41:LR_Clap kick.wav
329,192,328529,128,2,328779:2:0:0:21:
402,192,328779,128,0,329029:0:0:0:41:LR_Clap Kick Fast Low Beat.wav
109,192,328779,1,0,0:0:0:41:LR_Clap kick.wav
36,192,328779,1,8,0:0:0:40:LR_Clap Kick Fast Low Beat.wav
256,192,329029,128,0,329404:0:0:0:28:LR3_KFDF.wav
182,192,329404,1,0,0:0:0:41:LR_Clap Kick Fast Low Beat.wav
329,192,329404,1,0,0:0:0:41:LR_Clap kick.wav
109,192,329529,128,2,329779:2:0:0:21:
475,192,329529,1,0,0:0:0:31:LR_Snare Hat 2.wav
402,192,329654,1,0,0:0:0:31:LR_Snare Hat 2.wav
182,192,329779,1,0,0:0:0:41:LR_Clap Kick Fast Low Beat.wav
256,192,329779,1,0,0:0:0:41:LR_Clap kick.wav
36,192,329779,128,2,330029:2:0:0:21:
329,192,329904,1,0,0:0:0:31:LR_Snare Hat 2.wav
402,192,330029,128,2,330279:2:0:0:21:
475,192,330279,128,2,330529:2:0:0:21:
182,192,330404,1,0,0:0:0:41:LR_Clap kick.wav
329,192,330404,1,0,0:0:0:41:LR_Clap Kick Fast Low Beat.wav
402,192,330529,128,2,330779:2:0:0:80:LR3_GreatDrum.wav
109,192,330529,1,0,0:0:0:31:LR_Snare Hat 2.wav
256,192,330654,1,0,0:0:0:31:LR_Snare Hat 2.wav
329,192,330779,128,0,331029:0:0:0:41:LR_Clap Kick Fast Low Beat.wav
182,192,330779,1,0,0:0:0:41:LR_Clap kick.wav
36,192,330779,1,8,0:0:0:40:LR_Clap Kick Fast Low Beat.wav
256,192,331029,128,0,331404:0:0:0:33:LR_Chm Whistle Short.wav
402,192,331154,1,0,0:0:0:41:LR_Clap Kick Fast Low Beat.wav
109,192,331154,1,0,0:0:0:41:LR_Clap kick.wav
36,192,331404,1,0,0:0:0:41:LR_Clap kick.wav
475,192,331404,1,0,0:0:0:41:LR_Clap Kick Fast Low Beat.wav
109,192,331529,128,0,331779:0:0:0:18:LR_Chm loong.wav
36,192,331779,1,0,0:0:0:41:LR_Clap kick.wav
475,192,331779,1,0,0:0:0:41:LR_Clap Kick Fast Low Beat.wav
182,192,331779,128,2,332029:2:0:0:21:
402,192,331904,1,0,0:0:0:31:LR_Snare Hat 2.wav
256,192,332029,128,0,332279:0:0:0:80:LR3_GreatDrum.wav
109,192,332279,1,0,0:0:0:45:LR3_GreatDrum.wav
329,192,332279,128,2,332529:2:0:0:21:
182,192,332404,1,0,0:0:0:41:LR_Clap kick.wav
36,192,332404,1,8,0:0:0:40:LR_Clap Kick Fast Low Beat.wav
256,192,332529,1,0,0:0:0:45:LR3_GreatDrum.wav
109,192,332529,1,0,0:0:0:45:LR3_GreatDrum.wav
402,192,332529,128,2,332779:2:0:0:21:
109,192,332779,1,0,0:0:0:41:LR_Clap kick.wav
256,192,332779,1,0,0:0:0:41:LR_Clap Kick Fast Low Beat.wav
475,192,332779,128,0,333029:0:0:0:43:LR_Drum Rim Fast.wav
329,192,332904,1,0,0:0:0:77:LR3_GreatDrum.wav
182,192,333029,1,0,0:0:0:43:LR_Drum Rim Fast.wav
256,192,333029,128,0,333404:0:0:0:28:LR3_KFDF.wav
329,192,333279,1,0,0:0:0:31:LR_Snare Hat 2.wav
109,192,333404,1,0,0:0:0:41:LR_Clap Kick Fast Low Beat.wav
475,192,333404,1,0,0:0:0:41:LR_Clap kick.wav
182,192,333529,128,0,333779:0:0:0:18:LR_Chm loong.wav
329,192,333529,1,0,0:0:0:31:LR_Snare Hat 2.wav
402,192,333654,1,0,0:0:0:31:LR_Snare Hat 2.wav
36,192,333779,1,0,0:0:0:41:LR_Clap kick.wav
475,192,333779,1,0,0:0:0:41:LR_Clap Kick Fast Low Beat.wav
329,192,333779,128,2,334029:2:0:0:21:
256,192,333904,1,0,0:0:0:31:LR_Snare Hat 2.wav
182,192,334029,1,0,0:0:0:100:LR3_GreatDrum.wav
109,192,334029,128,2,334529:2:0:0:21:
256,192,334279,1,0,0:0:0:31:LR_Snare Hat 2.wav
475,192,334404,1,0,0:0:0:41:LR_Clap Kick Fast Low Beat.wav
329,192,334404,1,8,0:0:0:40:LR_Clap Kick Fast Low Beat.wav
256,192,334529,128,2,335029:2:0:0:21:
402,192,334654,1,0,0:0:0:31:LR_Snare Hat 2.wav
475,192,334779,1,8,0:0:0:40:LR_Clap Kick Fast Low Beat.wav
36,192,334779,1,0,0:0:0:41:LR_Clap kick.wav
109,192,335029,1,0,0:0:0:85:LR_Drum Rim Fast.wav
329,192,335154,1,0,0:0:0:30:LR_Kick Loud Bass Drop.wav
402,192,335154,1,0,0:0:0:38:LR_Drum Barrel Finish.wav
475,192,335154,1,0,0:0:0:38:LR_Drum J Hit Med Bass.wav
109,192,335216,1,0,0:0:0:50:LR_Drum Barrel Finish.wav
182,192,335216,1,0,0:0:0:30:LR_Kick Loud Bass Drop.wav
36,192,335216,1,0,0:0:0:66:LR_Clap Kick Fast Low Beat.wav
329,192,335279,1,0,0:0:0:30:LR_Kick Loud Bass Drop.wav
402,192,335279,1,0,0:0:0:38:LR_Drum Barrel Finish.wav
475,192,335279,1,0,0:0:0:38:LR_Drum J Hit Med Bass.wav
109,192,335404,1,0,0:0:0:50:LR_Drum Barrel Finish.wav
182,192,335404,1,0,0:0:0:30:LR_Kick Loud Bass Drop.wav
36,192,335404,1,0,0:0:0:66:LR_Clap Kick Fast Low Beat.wav
475,192,335466,1,0,0:0:0:66:LR_Clap Kick Fast Low Beat.wav
329,192,335466,1,0,0:0:0:30:LR_Kick Loud Bass Drop.wav
402,192,335466,1,0,0:0:0:50:LR_Drum Barrel Finish.wav
109,192,335529,1,0,0:0:0:38:LR_Drum Barrel Finish.wav
182,192,335529,1,0,0:0:0:30:LR_Kick Loud Bass Drop.wav
36,192,335529,1,0,0:0:0:38:LR_Drum J Hit Med Bass.wav
402,192,335654,1,0,0:0:0:38:LR_Drum Barrel Finish.wav
329,192,335654,1,0,0:0:0:30:LR_Kick Loud Bass Drop.wav
475,192,335654,1,0,0:0:0:38:LR_Drum J Hit Med Bass.wav
36,192,335779,1,0,0:0:0:30:LR_Kick Loud Bass Drop.wav
182,192,335779,1,0,0:0:0:50:LR_Drum Barrel Finish.wav
109,192,335779,1,0,0:0:0:66:LR_Clap Kick Fast Low Beat.wav
402,192,335904,1,0,0:0:0:20:LR_Drum Barrel Finish.wav
329,192,335904,1,0,0:0:0:30:LR_Kick Loud Bass Drop.wav
475,192,335904,1,0,0:0:0:38:LR_Drum J Hit Med Bass.wav
