osu file format v14

[General]
AudioFilename: audio.mp3
AudioLeadIn: 0
PreviewTime: -1
Countdown: 1
SampleSet: None
StackLeniency: 0.7
Mode: 0
LetterboxInBreaks: 0
WidescreenStoryboard: 0

[Editor]
DistanceSpacing: 0.8
BeatDivisor: 4
GridSize: 32
TimelineZoom: 1

[Metadata]
Title:Without Warning - LISA The Pointless
TitleUnicode:Without Warning - LISA The Pointless
Artist:taitoki
ArtistUnicode:taitoki
Creator:KrisPlayzYT
Version:Normal
Source:LISA : The Pointless
Tags:Steve Harvey
BeatmapID:1969300
BeatmapSetID:943013

[Difficulty]
HPDrainRate:5
CircleSize:5
OverallDifficulty:5
ApproachRate:5
SliderMultiplier:1.4
SliderTickRate:1

[Events]
//Background and Video events
Video,0,"Without Warning - LISA The Pointless.mp4"
//Break Periods
//Storyboard Layer 0 (Background)
//Storyboard Layer 1 (Fail)
//Storyboard Layer 2 (Pass)
//Storyboard Layer 3 (Foreground)
//Storyboard Sound Samples

[TimingPoints]
28976.4764340178,179.640718562874,4,1,0,100,1,0

[HitObjects]
168,172,99,5,0,0:0:0:0:
211,287,368,2,0,L|394:127,1,210
256,192,907,12,0,1581,0:0:0:0:
133,135,1805,5,0,0:0:0:0:
297,288,2120,1,0,0:0:0:0:
256,192,2479,12,0,3063,0:0:0:0:
81,304,3422,6,0,B|448:86|97:95|48:192|47:192,1,420
245,106,4275,1,0,0:0:0:0:
92,326,4635,1,0,0:0:0:0:
486,47,5084,2,0,B|-158:344|566:250|139:360|141:357,1,525
168,182,6476,2,0,B|426:41|462:112|462:112,1,455
293,208,7419,1,0,0:0:0:0:
58,227,7778,2,0,L|292:21,2,280
256,192,8856,12,0,9934,0:0:0:0:
127,270,10293,6,0,B|613:-50|580:224|577:37|158:53|158:53,1,805
256,192,11641,12,0,13033,0:0:0:0:
88,88,13482,5,0,0:0:0:0:
229,142,13751,1,0,0:0:0:0:
190,382,14156,1,0,0:0:0:0:
65,173,14560,1,0,0:0:0:0:
386,364,15144,1,0,0:0:0:0:
40,280,15458,2,0,B|623:-4|568:304|-80:342|141:2|424:197|420:192,1,770
256,192,17389,12,0,18063,0:0:0:0:
210,211,18467,6,0,P|579:53|596:223,1,735
268,206,19949,2,0,B|-109:63|483:68|464:355|235:361|74:305|-32:232|-16:133|80:58|232:20|315:4|488:32|540:138|449:328|337:354|149:320|147:330|31:296|8:185|118:62|205:43|354:21|412:62|431:159|431:163|440:273|352:351|264:360|102:378|53:349|34:300|61:150|116:68|195:34|366:52|442:103|477:163|279:401|214:379|117:331|101:306|138:223,1,1715
344,68,22599,1,0,0:0:0:0:
148,175,22958,1,0,0:0:0:0:
384,351,23452,1,0,0:0:0:0:
19,34,24215,1,0,0:0:0:0:
37,45,24665,2,0,L|521:176|521:176,1,490
256,192,25563,12,0,25607,0:0:0:0:
160,149,26012,5,0,0:0:0:0:
400,155,26596,1,0,0:0:0:0:
309,256,27225,1,0,0:0:0:0:
256,192,28123,12,0,28302,0:0:0:0:
261,231,28886,5,0,0:0:0:0:
388,255,29111,1,0,0:0:0:0:
289,228,29290,1,0,0:0:0:0:
387,256,29470,1,0,0:0:0:0:
381,253,29515,1,0,0:0:0:0:
257,211,29739,1,0,0:0:0:0:
216,199,29874,1,0,0:0:0:0:
295,321,30009,1,0,0:0:0:0:
284,307,30054,1,0,0:0:0:0:
220,240,30189,1,0,0:0:0:0:
221,215,30638,2,0,B|494:137|297:181|263:269|125:196|121:172|116:146|442:130|451:130|273:202|221:207|157:194|444:152|175:164|-144:155|394:247|613:102|417:96|264:177|-117:184|-154:168|-144:162,3,875
213,113,33827,1,0,0:0:0:0:
297,123,33962,1,0,0:0:0:0:
294,152,34052,1,0,0:0:0:0:
114,68,34680,1,0,0:0:0:0:
137,89,34769,1,0,0:0:0:0:
164,109,34814,1,0,0:0:0:0:
285,136,34994,1,0,0:0:0:0:
34,31,35039,1,0,0:0:0:0:
130,31,35174,1,0,0:0:0:0:
164,46,35263,1,0,0:0:0:0:
204,116,35398,1,0,0:0:0:0:
161,79,35488,1,0,0:0:0:0:
262,246,36566,2,0,B|359:95|150:77|171:182|25:139|309:231|271:183|373:189|240:131|155:75|165:166|77:188|88:182|98:168,3,455
311,195,39036,1,0,0:0:0:0:
256,192,39710,12,0,39844,0:0:0:0:
128,178,40518,5,0,0:0:0:0:
199,170,40653,1,0,0:0:0:0:
239,179,40742,1,0,0:0:0:0:
201,189,40787,1,0,0:0:0:0:
289,121,40967,1,0,0:0:0:0:
272,286,41236,1,0,0:0:0:0:
239,193,41416,1,0,0:0:0:0:
164,89,41641,1,0,0:0:0:0:
13,143,42000,2,0,B|145:96|299:212|409:138|426:249,1,455
256,192,42988,12,0,43527,0:0:0:0:
317,195,43527,5,0,0:0:0:0:
299,190,43617,1,0,0:0:0:0:
115,155,43707,1,0,0:0:0:0:
96,151,43751,1,0,0:0:0:0:
191,184,43796,1,0,0:0:0:0:
137,163,43931,1,0,0:0:0:0:
121,157,43976,1,0,0:0:0:0:
4,113,44201,1,0,0:0:0:0:
96,151,44245,1,0,0:0:0:0:
259,193,44515,1,0,0:0:0:0:
208,187,44605,1,0,0:0:0:0:
346,127,44695,1,0,0:0:0:0:
346,234,44874,1,0,0:0:0:0:
264,227,45009,1,0,0:0:0:0:
177,195,45144,1,0,0:0:0:0:
224,159,45278,1,0,0:0:0:0:
288,196,45413,1,0,0:0:0:0:
309,196,45458,1,0,0:0:0:0:
201,204,45638,1,0,0:0:0:0:
67,213,46626,2,0,L|427:38,2,385
277,311,47973,1,0,0:0:0:0:
218,226,48153,1,0,0:0:0:0:
240,165,48242,1,0,0:0:0:0:
240,165,48377,1,0,0:0:0:0:
250,97,48467,1,0,0:0:0:0:
179,105,48602,1,0,0:0:0:0:
137,155,48692,1,0,0:0:0:0:
137,155,48916,1,0,0:0:0:0:
137,155,48961,1,0,0:0:0:0:
