osu file format v14

[General]
AudioFilename: audio.mp3
AudioLeadIn: 0
PreviewTime: 42194
Countdown: 0
SampleSet: Soft
StackLeniency: 0.7
Mode: 0
LetterboxInBreaks: 0
WidescreenStoryboard: 0

[Editor]
Bookmarks: 20811
DistanceSpacing: 0.5
BeatDivisor: 4
GridSize: 4
TimelineZoom: 1.5

[Metadata]
Title:Hatsunetsu
TitleUnicode:発熱
Artist:tacica
ArtistUnicode:tacica
Creator:Agent_James
Version:33:31
Source:ハイキュー!! セカンドシーズン
Tags:haikyuu season 2 2nd season ending ed karasuno kageyama tobio hinata shoyou oikawa tooru
BeatmapID:1582244
BeatmapSetID:751590

[Difficulty]
HPDrainRate:5
CircleSize:4
OverallDifficulty:8
ApproachRate:9.2
SliderMultiplier:1.75
SliderTickRate:1

[Events]
//Background and Video events
0,0,"maxresdefault (1).jpg",0,0
Video,0,"tacica.mp4"
//Break Periods
//Storyboard Layer 0 (Background)
//Storyboard Layer 1 (Fail)
//Storyboard Layer 2 (Pass)
//Storyboard Layer 3 (Foreground)
//Storyboard Sound Samples

[TimingPoints]
705,319.148936170213,4,2,1,100,1,0
705,-100,4,2,1,100,0,0
1662,-90.9090909090909,4,2,1,100,0,0
1981,-133.333333333333,4,2,1,100,0,0
12034,-111.111111111111,4,2,1,100,0,0
22247,-100,4,2,1,100,0,0
32619,-133.333333333333,4,2,1,100,0,0
42513,-83.3333333333333,4,2,1,100,0,0
42832,-90.9090909090909,4,2,1,100,0,1
62619,-200,4,2,1,100,0,0
63258,-90.9090909090909,4,2,1,100,0,1
73470,-133.333333333333,4,2,1,100,0,0
74747,-100,4,2,1,100,0,0
76024,-133.333333333333,4,2,1,100,0,0
76662,-142.857142857143,4,2,1,100,0,0
77300,-166.666666666667,4,2,1,100,0,0
77939,-200,4,2,1,100,0,0
78577,-100,4,2,1,100,0,0
82087,-133.333333333333,4,2,1,100,0,0
82407,-200,4,2,1,100,0,0
84002,-133.333333333333,4,2,1,100,0,0

[Colours]
Combo1 : 160,239,221
Combo2 : 192,192,192
Combo3 : 192,192,192
Combo4 : 255,153,51
SliderBorder : 255,255,255
SliderTrackOverride : 0,0,0

[HitObjects]
70,227,705,5,8,0:0:0:0:
102,228,784,1,8,0:0:0:0:
135,230,864,1,2,0:0:0:0:
168,232,944,1,2,0:0:0:0:
201,234,1024,2,0,L|197:298,1,43.75,2|0,0:0|0:0,0:0:0:0:
240,336,1183,5,8,0:0:0:0:
272,337,1262,1,8,0:0:0:0:
305,339,1342,1,0,0:0:0:0:
338,341,1422,1,0,0:0:0:0:
368,344,1502,2,0,L|367:270,1,43.75
368,152,1662,1,8,0:0:0:0:
199,278,1981,21,8,0:0:0:0:
368,152,2141,1,8,0:0:0:0:
300,88,2300,6,0,L|228:84,1,65.6250025033952
168,36,2619,1,0,0:0:0:0:
96,132,2779,2,0,L|161:135,1,65.6250025033952
234,84,3098,1,0,0:0:0:0:
288,200,3258,2,0,L|223:197,1,65.6250025033952
161,135,3577,1,0,0:0:0:0:
234,84,3736,1,0,0:0:0:0:
139,220,3896,1,0,0:0:0:0:
68,69,4056,1,0,0:0:0:0:
161,135,4215,1,0,0:0:0:0:
53,246,4374,1,0,0:0:0:0:
73,158,4534,21,8,0:0:0:0:
201,330,4694,1,8,0:0:0:0:
216,248,4853,22,0,P|260:264|284:296,1,65.6250025033952
201,330,5173,1,0,0:0:0:0:
120,372,5332,2,0,P|111:325|127:289,1,65.6250025033952
201,330,5651,1,0,0:0:0:0:
280,364,5811,2,0,P|324:348|348:316,1,65.6250025033952
283,189,6130,1,0,0:0:0:0:
268,276,6290,1,0,0:0:0:0:
417,301,6449,1,0,0:0:0:0:
351,246,6609,1,0,0:0:0:0:
336,336,6768,1,0,0:0:0:0:
431,216,6928,1,0,0:0:0:0:
268,276,7087,21,8,0:0:0:0:
140,104,7247,1,8,0:0:0:0:
232,100,7407,22,0,B|232:136|232:136|200:168,1,65.6250025033952
140,104,7726,1,0,0:0:0:0:
183,23,7885,2,0,B|214:5|214:5|242:12,1,65.6250025033952
232,100,8205,1,0,0:0:0:0:
140,104,8364,2,0,B|108:86|108:86|97:42,1,65.6250025033952
183,23,8683,1,0,0:0:0:0:
282,182,8843,1,0,0:0:0:0:
95,188,9002,1,0,0:0:0:0:
232,100,9162,1,0,0:0:0:0:
143,265,9322,1,0,0:0:0:0:
140,104,9481,1,0,0:0:0:0:
320,12,9641,21,8,0:0:0:0:
192,184,9801,1,8,0:0:0:0:
372,180,9960,22,0,L|368:84,1,65.6250025033952
282,182,10279,1,0,0:0:0:0:
194,249,10439,2,0,L|190:153,1,65.6250025033952
282,182,10758,1,0,0:0:0:0:
369,245,10918,2,0,L|373:149,1,65.6250025033952
328,100,11236,1,0,0:0:0:0:
328,100,11396,1,0,0:0:0:0:
418,103,11556,1,0,0:0:0:0:
464,185,11716,1,0,0:0:0:0:
371,179,11875,1,0,0:0:0:0:
376,24,12034,6,0,P|288:24|236:84,1,157.499995193482,2|0,0:1|0:0,0:0:0:0:
328,100,12513,1,8,0:1:0:0:
328,100,12673,1,0,0:0:0:0:
282,182,12832,1,0,0:0:0:0:
282,182,12992,1,0,0:0:0:0:
196,152,13151,1,8,0:1:0:0:
196,152,13311,1,0,0:0:0:0:
163,66,13470,38,0,P|208:64|263:70,1,78.7499975967408
196,152,13790,1,8,0:1:0:0:
104,140,13949,2,0,P|73:57|112:-12,1,157.499995193482,0|0,0:1|0:0,0:0:0:0:
241,66,14428,1,8,0:1:0:0:
104,140,14587,1,0,0:0:0:0:
282,182,14747,6,0,P|284:227|278:282,1,78.7499975967408,2|0,0:1|0:0,0:0:0:0:
208,304,15066,1,8,0:1:0:0:
65,301,15226,2,0,P|102:276|153:254,1,78.7499975967408
208,304,15545,1,0,0:0:0:0:
288,368,15705,2,0,P|332:371|387:364,1,78.7499975967408,8|0,0:1|0:0,0:0:0:0:
359,261,16024,38,0,P|314:257|259:264,1,78.7499975967408
440,312,16343,2,0,P|452:268|440:224,1,78.7499975967408,8|0,0:1|0:0,0:0:0:0:
451,160,16662,2,0,P|439:204|451:248,1,78.7499975967408
445,235,16981,1,8,0:1:0:0:
340,80,17141,1,8,0:0:0:0:
280,160,17300,6,0,P|216:150|241:82,1,157.499995193482,2|8,0:1|0:1,0:0:0:0:
340,80,17779,1,0,0:0:0:0:
360,200,17939,2,0,P|336:231|302:249,1,78.7499975967408
208,216,18258,2,0,P|206:255|221:290,1,78.7499975967408,8|0,0:1|0:0,0:0:0:0:
344,352,18577,38,0,B|268:336|268:396|188:368,1,157.499995193482,0|8,0:0|0:1,0:0:0:0:
112,308,19056,1,0,0:0:0:0:
32,224,19215,2,0,L|112:220,1,78.7499975967408
208,216,19534,1,8,0:1:0:0:
304,120,19694,1,0,0:0:0:0:
304,120,19774,1,0,0:0:0:0:
304,120,19853,6,0,B|248:120|248:120|192:96|136:136,1,157.499995193482,2|8,0:1|0:1,0:0:0:0:
208,216,20332,1,0,0:0:0:0:
328,216,20492,2,0,P|364:201|390:172,1,78.7499975967408
384,97,20811,2,0,P|378:135|389:172,1,78.7499975967408,8|0,0:1|0:0,0:0:0:0:
480,216,21130,38,0,P|485:177|474:140,1,78.7499975967408
384,96,21449,1,8,0:1:0:0:
400,292,21609,1,2,0:0:0:0:
400,292,21689,1,2,0:0:0:0:
400,292,21768,1,0,0:0:0:0:
473,139,21928,1,2,0:0:0:0:
307,245,22087,1,8,0:0:0:0:
368,384,22247,6,0,P|451:371|488:296,1,175
403,204,22726,2,0,L|399:312,1,87.5,8|0,0:0|0:0,0:0:0:0:
488,297,23045,1,2,0:0:0:0:
307,245,23205,1,2,0:0:0:0:
473,139,23364,2,0,P|441:115|388:108,1,87.5,8|0,0:0|0:0,0:0:0:0:
320,141,23683,37,2,0:0:0:0:
404,204,23843,1,2,0:0:0:0:
332,39,24002,2,0,P|288:34|244:34,1,87.5,8|0,0:0|0:0,0:0:0:0:
140,144,24322,1,2,0:0:0:0:
228,112,24481,1,2,0:0:0:0:
123,235,24641,1,8,0:0:0:0:
51,174,24800,1,0,0:0:0:0:
211,204,24960,6,0,P|216:256|211:323,1,87.5,2|2,0:0|0:0,0:0:0:0:
123,235,25279,1,8,0:0:0:0:
228,112,25439,2,0,P|271:111|315:116,1,87.5,0|2,0:0|0:0,0:0:0:0:
288,204,25758,1,2,0:0:0:0:
188,32,25917,2,0,L|36:40,1,131.25,8|0,0:0|0:0,0:0:0:0:
38,90,26236,38,0,P|32:129|53:178,1,87.5,2|0,0:0|0:0,0:0:0:0:
123,235,26556,2,0,P|139:194|135:151,1,87.5,8|0,0:0|0:0,0:0:0:0:
48,172,26875,1,2,0:0:0:0:
216,200,27034,1,2,0:0:0:0:
40,344,27194,2,0,P|23:303|27:260,1,87.5,8|0,0:0|0:0,0:0:0:0:
128,324,27513,6,0,P|200:332|288:328,1,131.25,2|0,0:0|0:0,0:0:0:0:
312,272,27832,2,0,P|316:228|316:184,1,87.5,8|0,0:0|0:0,0:0:0:0:
216,200,28151,1,2,0:0:0:0:
312,272,28311,1,2,0:0:0:0:
384,116,28470,2,0,P|352:92|299:85,1,87.5,8|0,0:0|0:0,0:0:0:0:
224,112,28790,37,2,0:0:0:0:
316,184,28949,1,2,0:0:0:0:
468,160,29109,2,0,P|472:116|472:72,1,87.5,8|0,0:0|0:0,0:0:0:0:
400,232,29428,1,2,0:0:0:0:
492,256,29587,1,2,0:0:0:0:
307,359,29747,2,0,P|306:315|311:271,1,87.5,8|0,0:0|0:0,0:0:0:0:
224,224,30066,6,0,P|148:248|88:216,1,131.25,2|0,0:0|0:0,0:0:0:0:
88,184,30385,2,0,P|45:189|9:215,1,87.5,8|0,0:0|0:0,0:0:0:0:
80,296,30705,1,2,0:0:0:0:
224,224,30864,1,2,0:0:0:0:
88,96,31024,2,0,P|131:91|175:91,1,87.5,8|0,0:0|0:0,0:0:0:0:
280,100,31343,37,2,0:0:0:0:
136,216,31502,1,2,0:0:0:0:
280,328,31662,2,0,P|323:328|367:323,1,87.5,8|0,0:0|0:0,0:0:0:0:
396,308,31901,1,2,0:0:0:0:
396,308,31981,5,10,0:0:0:0:
437,236,32141,1,10,0:0:0:0:
396,164,32300,1,0,0:0:0:0:
312,164,32460,1,2,0:0:0:0:
280,244,32619,38,0,L|215:241,1,65.6250025033952,2|0,0:0|0:0,0:0:0:0:
128,155,32939,2,0,L|193:158,1,65.6250025033952,8|0,0:1|0:0,0:0:0:0:
288,84,33258,2,0,L|223:81,1,65.6250025033952,2|0,0:0|0:0,0:0:0:0:
144,120,33577,2,0,P|165:144|194:158,1,65.6250025033952,8|0,0:1|0:0,0:0:0:0:
312,164,33896,2,0,P|352:140|370:104,1,65.6250025033952,2|0,0:0|0:0,0:0:0:0:
280,20,34215,2,0,P|279:66|301:100,1,65.6250025033952,8|0,0:1|0:0,0:0:0:0:
428,64,34534,2,0,P|387:40|347:42,1,65.6250025033952,2|0,0:0|0:0,0:0:0:0:
445,309,34853,1,8,0:0:0:0:
364,128,35013,1,0,0:0:0:0:
380,304,35173,6,0,L|472:312,1,65.6250025033952,2|0,0:0|0:0,0:0:0:0:
296,256,35492,2,0,P|285:286|288:319,1,65.6250025033952,8|0,0:1|0:0,0:0:0:0:
280,382,35811,2,0,P|290:351|287:318,1,65.6250025033952,2|0,0:0|0:0,0:0:0:0:
200,256,36130,2,0,P|168:262|141:281,1,65.6250025033952,8|0,0:1|0:0,0:0:0:0:
72,344,36449,2,0,P|98:362|130:369,1,65.6250025033952,2|0,0:0|0:0,0:0:0:0:
200,256,36768,2,0,P|202:223|192:192,1,65.6250025033952,8|0,0:1|0:0,0:0:0:0:
112,143,37087,2,0,P|100:174|104:207,1,65.6250025033952,2|0,0:0|0:0,0:0:0:0:
364,128,37407,1,8,0:0:0:0:
200,96,37566,1,8,0:0:0:0:
384,40,37726,38,0,P|456:112|448:160,1,131.25000500679,2|0,0:0|0:0,0:0:0:0:
304,244,38364,2,0,L|363:127,1,131.25000500679,8|0,0:0|0:0,0:0:0:0:
406,210,38843,1,2,0:0:0:0:
272,144,39002,5,8,0:0:0:0:
363,126,39162,1,2,0:0:0:0:
216,216,39322,2,0,P|193:192|181:162,1,65.6250025033952,2|0,0:0|0:0,0:0:0:0:
306,90,39641,2,0,P|293:120|271:143,1,65.6250025033952,8|0,0:0|0:0,0:0:0:0:
200,64,39960,1,2,0:0:0:0:
456,136,40279,37,8,0:1:0:0:
370,299,40439,1,2,0:0:0:0:
306,90,40598,5,8,0:1:0:0:
488,264,40758,1,2,0:0:0:0:
276,224,40917,37,8,0:1:0:0:
456,136,41077,1,2,0:0:0:0:
184,264,41236,5,2,0:0:0:0:
152,271,41315,1,2,0:0:0:0:
119,267,41395,1,2,0:0:0:0:
91,252,41475,1,2,0:0:0:0:
69,227,41555,1,4,0:1:0:0:
360,64,42513,6,0,P|440:80|416:160,1,157.499995193482,2|0,0:0|0:0,0:0:0:0:
296,152,42832,6,0,P|224:128|128:168,1,144.375004405975,2|0,0:0|0:0,0:0:0:0:
104,200,43151,1,0,0:0:0:0:
336,256,43311,1,0,0:0:0:0:
252,56,43470,1,0,0:0:0:0:
220,232,43630,1,0,0:0:0:0:
436,148,43790,1,0,0:0:0:0:
296,152,43949,1,0,0:0:0:0:
444,344,44109,38,0,L|440:240,1,96.250002937317
432,44,44428,1,0,0:0:0:0:
296,152,44587,1,0,0:0:0:0:
440,247,44747,1,0,0:0:0:0:
336,64,44907,1,0,0:0:0:0:
336,256,45066,1,0,0:0:0:0:
508,112,45226,1,0,0:0:0:0:
219,255,45385,6,0,L|75:247,1,144.375004405975
36,152,45705,1,0,0:0:0:0:
112,352,45864,1,0,0:0:0:0:
296,152,46024,1,0,0:0:0:0:
74,246,46183,1,0,0:0:0:0:
336,256,46343,1,0,0:0:0:0:
148,100,46502,1,0,0:0:0:0:
280,340,46662,38,0,L|380:332,1,96.250002937317
356,140,46981,1,0,0:0:0:0:
220,256,47141,1,0,0:0:0:0:
432,220,47300,1,0,0:0:0:0:
256,160,47460,1,0,0:0:0:0:
280,340,47619,1,0,0:0:0:0:
432,220,47779,1,0,0:0:0:0:
158,133,47939,6,0,P|173:207|255:270,1,144.375004405975,2|0,0:0|0:0,0:0:0:0:
322,239,48258,1,0,0:0:0:0:
112,276,48417,1,0,0:0:0:0:
280,340,48577,1,0,0:0:0:0:
256,160,48736,1,0,0:0:0:0:
220,256,48896,1,0,0:0:0:0:
432,220,49056,1,0,0:0:0:0:
256,63,49215,38,0,L|256:159,1,96.250002937317
322,239,49534,1,0,0:0:0:0:
356,140,49694,1,0,0:0:0:0:
220,256,49853,1,0,0:0:0:0:
256,159,50013,1,0,0:0:0:0:
432,220,50173,1,0,0:0:0:0:
356,140,50332,1,0,0:0:0:0:
284,336,50492,5,0,0:0:0:0:
322,239,50651,1,0,0:0:0:0:
387,320,50811,1,0,0:0:0:0:
356,140,50970,1,0,0:0:0:0:
286,336,51130,1,0,0:0:0:0:
256,159,51290,1,0,0:0:0:0:
432,220,51449,1,0,0:0:0:0:
396,36,51609,1,0,0:0:0:0:
322,239,51768,37,0,0:0:0:0:
472,120,51928,1,0,0:0:0:0:
289,62,52087,1,0,0:0:0:0:
432,220,52247,1,0,0:0:0:0:
396,36,52407,1,0,0:0:0:0:
140,178,52566,5,8,0:0:0:0:
187,187,52645,1,8,0:0:0:0:
234,175,52725,1,8,0:0:0:0:
276,152,52805,1,8,0:0:0:0:
323,144,52885,1,8,0:0:0:0:
369,156,52964,1,8,0:0:0:0:
404,184,53045,38,0,P|413:254|377:314,1,144.375004405975,2|0,0:0|0:0,0:0:0:0:
288,336,53364,1,0,0:0:0:0:
276,152,53524,1,0,0:0:0:0:
377,314,53683,1,0,0:0:0:0:
179,314,53843,1,0,0:0:0:0:
326,233,54002,1,0,0:0:0:0:
288,336,54162,1,0,0:0:0:0:
187,151,54322,6,0,P|239:135|283:158,1,96.250002937317
326,233,54641,1,0,0:0:0:0:
128,236,54800,1,0,0:0:0:0:
236,52,54960,1,0,0:0:0:0:
275,151,55119,1,0,0:0:0:0:
16,148,55279,1,0,0:0:0:0:
55,49,55438,1,0,0:0:0:0:
280,156,55598,38,0,B|461:149,1,144.375004405975
472,72,55917,1,0,0:0:0:0:
280,156,56077,1,0,0:0:0:0:
424,292,56236,1,0,0:0:0:0:
328,32,56396,1,0,0:0:0:0:
326,233,56556,1,0,0:0:0:0:
488,204,56715,1,0,0:0:0:0:
184,112,56875,6,0,L|184:216,1,96.250002937317
184,304,57194,1,0,0:0:0:0:
260,260,57353,1,0,0:0:0:0:
104,60,57513,1,0,0:0:0:0:
97,147,57673,1,0,0:0:0:0:
272,152,57832,1,0,0:0:0:0:
276,68,57992,1,0,0:0:0:0:
4,148,58151,38,0,P|12:194|48:224,1,96.250002937317
272,152,58470,1,0,0:0:0:0:
97,147,58629,1,0,0:0:0:0:
184,304,58790,1,0,0:0:0:0:
184,204,58949,1,0,0:0:0:0:
98,254,59109,1,0,0:0:0:0:
272,344,59268,1,0,0:0:0:0:
272,152,59428,5,0,0:0:0:0:
184,304,59587,1,0,0:0:0:0:
360,204,59747,1,0,0:0:0:0:
186,102,59907,1,0,0:0:0:0:
268,248,60066,1,0,0:0:0:0:
272,52,60226,1,0,0:0:0:0:
97,147,60385,1,0,0:0:0:0:
272,152,60545,1,0,0:0:0:0:
76,24,60705,38,0,P|123:17|171:18,1,96.250002937317,2|0,0:0|0:0,0:0:0:0:
367,146,61024,2,0,P|319:152|271:151,1,96.250002937317,8|0,0:0|0:0,0:0:0:0:
98,254,61343,2,0,P|145:247|193:248,1,96.250002937317,2|0,0:0|0:0,0:0:0:0:
372,348,61662,2,0,P|324:354|276:353,1,96.250002937317,8|0,0:0|0:0,0:0:0:0:
136,104,61981,6,0,L|200:104,1,48.1250014686585,8|0,0:0|0:0,0:0:0:0:
352,104,62141,1,10,0:0:0:0:
184,304,62300,1,0,0:0:0:0:
256,104,62460,1,8,0:0:0:0:
372,184,62619,6,0,B|364:208|376:240|376:240|364:252|364:252|380:280|372:328,1,131.25,2|0,0:0|0:0,0:0:0:0:
288,304,63258,22,0,P|241:315|195:304,1,96.250002937317,8|0,0:0|0:0,0:0:0:0:
56,64,63577,5,8,0:0:0:0:
104,296,63736,1,2,0:0:0:0:
214,78,63896,37,8,0:0:0:0:
195,304,64055,1,2,0:0:0:0:
331,80,64216,5,8,0:0:0:0:
288,304,64375,1,2,0:0:0:0:
416,48,64534,37,8,0:0:0:0:
440,288,64693,1,2,0:0:0:0:
331,104,64853,5,8,0:0:0:0:
512,216,65013,1,2,0:0:0:0:
336,224,65173,37,8,0:0:0:0:
512,104,65333,1,2,0:0:0:0:
408,296,65492,5,8,0:0:0:0:
443,54,65651,1,2,0:0:0:0:
328,344,65811,37,8,0:0:0:0:
288,104,65970,1,2,0:0:0:0:
176,296,66130,5,8,0:0:0:0:
200,64,66289,1,2,0:0:0:0:
48,344,66449,37,8,0:0:0:0:
96,104,66608,1,2,0:0:0:0:
328,344,66768,5,8,0:0:0:0:
288,104,66927,1,2,0:0:0:0:
232,343,67087,38,0,P|280:347|328:344,1,96.250002937317,8|0,0:0|0:0,0:0:0:0:
191,103,67406,2,0,P|143:98|96:103,1,96.250002937317,8|0,0:0|0:0,0:0:0:0:
327,343,67725,2,0,P|375:347|422:344,1,96.250002937317,8|0,0:0|0:0,0:0:0:0:
383,104,68044,2,0,P|335:99|288:103,1,96.250002937317,8|0,0:0|0:0,0:0:0:0:
224,184,68364,5,8,0:0:0:0:
464,64,68524,1,2,0:0:0:0:
232,64,68683,37,8,0:0:0:0:
472,184,68843,1,2,0:0:0:0:
112,184,69002,5,8,0:0:0:0:
352,64,69162,1,2,0:0:0:0:
120,64,69321,37,8,0:0:0:0:
360,184,69481,1,2,0:0:0:0:
88,280,69641,5,8,0:0:0:0:
120,64,69801,1,2,0:0:0:0:
232,304,69960,37,8,0:0:0:0:
200,31,70120,1,2,0:0:0:0:
312,297,70279,5,8,0:0:0:0:
344,24,70439,1,2,0:0:0:0:
448,288,70598,37,8,0:0:0:0:
416,72,70758,1,2,0:0:0:0:
88,280,70917,6,0,P|83:232|88:184,1,96.250002937317,8|0,0:0|0:0,0:0:0:0:
200,31,71236,2,0,P|204:78|199:126,1,96.250002937317,8|0,0:0|0:0,0:0:0:0:
312,297,71556,2,0,P|307:249|312:201,1,96.250002937317,8|0,0:0|0:0,0:0:0:0:
416,72,71875,2,0,P|420:119|416:167,1,96.250002937317,8|0,0:0|0:0,0:0:0:0:
400,320,72194,38,0,B|392:360|368:376|368:376|296:384,1,128.333337249756,8|0,0:0|0:0,0:0:0:0:
200,360,72513,1,8,0:0:0:0:
176,352,72619,2,0,L|112:344,1,64.166668624878
248,289,72832,2,0,L|312:297,2,64.166668624878,8|8|8,0:0|0:0|0:0,0:0:0:0:
132,228,73151,5,2,0:0:0:0:
100,173,73257,1,2,0:0:0:0:
111,111,73363,1,2,0:0:0:0:
160,72,73470,38,0,L|296:88,1,131.25000500679,2|0,0:0|0:0,0:0:0:0:
464,96,74109,2,0,P|447:34|392:2,1,131.25000500679,8|0,0:0|0:0,0:0:0:0:
392,144,74747,2,0,L|384:248,1,58.3333333333333,8|8,0:0|0:0,0:0:0:0:
296,120,74960,1,0,0:0:0:0:
290,87,75066,2,0,L|282:-17,2,58.3333333333333,8|8|8,0:0|0:0|0:0,0:0:0:0:
264,192,75385,5,8,0:0:0:0:
208,208,75491,1,8,0:0:0:0:
150,204,75597,1,8,0:0:0:0:
96,182,75705,37,2,0:0:0:0:
44,203,75811,1,2,0:0:0:0:
23,256,75917,1,2,0:0:0:0:
48,304,76024,38,0,B|152:360|152:272|240:312,1,196.875007510186,2|0,0:0|0:0,0:0:0:0:
236,310,76662,2,0,P|352:336|360:280,1,183.749994392395,2|0,0:0|0:0,0:0:0:0:
362,305,77300,2,0,P|440:248|416:208,1,157.499995193482,2|0,0:0|0:0,0:0:0:0:
421,212,77939,2,0,P|404:141|464:128,1,131.25,2|0,0:0|0:0,0:0:0:0:
447,122,78577,37,2,0:0:0:0:
447,122,78736,1,2,0:0:0:0:
328,240,78896,2,0,P|311:199|315:156,1,87.5,8|0,0:0|0:0,0:0:0:0:
376,48,79215,1,2,0:0:0:0:
312,160,79375,1,2,0:0:0:0:
160,48,79534,2,0,P|203:47|247:52,1,87.5,8|0,0:0|0:0,0:0:0:0:
80,128,79853,5,2,0:0:0:0:
80,0,80013,1,2,0:0:0:0:
177,170,80173,2,0,P|151:205|112:224,1,87.5,8|0,0:0|0:0,0:0:0:0:
0,64,80492,1,2,0:0:0:0:
80,128,80651,1,2,0:0:0:0:
8,224,80811,2,0,P|22:286|73:325,1,131.25,8|0,0:0|0:0,0:0:0:0:
120,304,81130,38,0,P|208:280|264:304,1,131.25,2|0,0:0|0:0,0:0:0:0:
280,312,81449,1,8,0:0:0:0:
192,368,81609,1,2,0:0:0:0:
216,208,81768,5,2,0:0:0:0:
254,187,81847,1,2,0:0:0:0:
297,185,81927,1,2,0:0:0:0:
337,201,82007,1,2,0:0:0:0:
368,224,82087,1,2,0:0:0:0:
399,233,82166,1,2,0:0:0:0:
431,227,82246,1,2,0:0:0:0:
457,207,82326,1,2,0:0:0:0:
471,178,82407,38,0,P|456:56|320:112,1,306.25,2|0,0:0|0:0,0:0:0:0:
404,124,83683,21,8,0:0:0:0:
320,344,83843,1,8,0:0:0:0:
150,204,84002,38,0,L|215:207,1,65.6250025033952,2|0,0:0|0:0,0:0:0:0:
212,296,84242,1,2,0:0:0:0:
212,296,84322,1,10,0:0:0:0:
44,228,84481,2,0,P|43:195|57:165,1,65.6250025033952,8|8,0:0|0:0,0:0:0:0:
128,116,84800,1,2,0:0:0:0:
212,296,84960,38,0,P|244:293|272:277,1,65.6250025033952,2|2,0:0|0:0,0:0:0:0:
352,184,85279,1,8,0:0:0:0:
208,200,85439,1,2,0:0:0:0:
128,116,85598,1,8,0:0:0:0:
128,116,85678,1,8,0:0:0:0:
128,116,85758,1,8,0:0:0:0:
252,92,85918,1,8,0:0:0:0:
212,296,86077,6,0,B|166:298|166:298|134:278|134:278|86:278,1,131.25000500679,2|0,0:0|0:0,0:0:0:0:
348,360,86556,2,0,P|380:360|410:346,1,65.6250025033952,8|0,0:0|0:0,0:0:0:0:
440,236,86875,1,8,0:0:0:0:
336,264,87034,2,0,P|304:264|274:250,1,65.6250025033952,0|8,0:0|0:0,0:0:0:0:
244,140,87353,1,2,0:0:0:0:
348,168,87513,2,0,P|380:168|410:154,1,65.6250025033952,8|0,0:0|0:0,0:0:0:0:
384,20,87832,2,0,P|368:47|365:80,1,65.6250025033952,8|0,2:0|2:0,2:0:0:0:
492,124,88151,2,0,P|476:96|448:77,1,65.6250025033952,8|0,2:0|2:0,2:0:0:0:
244,140,88470,21,8,0:0:0:0:
492,124,88630,1,8,0:0:0:0:
