osu file format v14

[General]
AudioFilename: audio.mp3
AudioLeadIn: 0
PreviewTime: 90509
Countdown: 0
SampleSet: Soft
StackLeniency: 0.5
Mode: 0
LetterboxInBreaks: 0
WidescreenStoryboard: 1

[Editor]
Bookmarks: 21918,101326,142830
DistanceSpacing: 1.2
BeatDivisor: 4
GridSize: 16
TimelineZoom: 1

[Metadata]
Title:Malchik Gay
TitleUnicode:Malchik Gay
Artist:t.A.T.u.
ArtistUnicode:t.A.T.u.
Creator:Spayyce
Version:Heartbroken
Source:
Tags:200 по встречной km/h in the Wrong Lane tatu Тату русский russian english Юля Волкова Лена Катина Мальчик-гей pop dance-pop 2002 Мальчик Гей boy -Space-
BeatmapID:2416996
BeatmapSetID:1158162

[Difficulty]
HPDrainRate:6
CircleSize:4
OverallDifficulty:7.5
ApproachRate:8.3
SliderMultiplier:2
SliderTickRate:1

[Events]
//Background and Video events
0,0,"bg23.jpg",0,0
//Break Periods
2,105145,118677
//Storyboard Layer 0 (Background)
//Storyboard Layer 1 (Fail)
//Storyboard Layer 2 (Pass)
//Storyboard Layer 3 (Foreground)
//Storyboard Layer 4 (Overlay)
//Storyboard Sound Samples

[TimingPoints]
284,451.127819548872,4,2,1,30,1,0
21938,-125,4,2,1,30,0,0
29156,-111.111111111111,4,2,1,40,0,0
32765,-100,4,2,1,60,0,0
39983,-100,4,2,1,40,0,0
41787,-142.857142857143,4,2,1,40,0,0
45396,-90.9090909090909,4,2,1,60,0,1
45735,-90.9090909090909,4,2,1,5,0,1
45847,-90.9090909090909,4,2,1,60,0,1
46637,-90.9090909090909,4,2,1,5,0,1
46750,-90.9090909090909,4,2,1,60,0,1
51148,-90.9090909090909,4,2,1,5,0,1
51261,-90.9090909090909,4,2,1,60,0,1
52050,-90.9090909090909,4,2,1,5,0,1
52163,-90.9090909090909,4,2,1,60,0,1
54757,-90.9090909090909,4,2,1,5,0,1
54870,-90.9090909090909,4,2,1,60,0,1
55659,-90.9090909090909,4,2,1,5,0,1
55772,-90.9090909090909,4,2,1,60,0,1
59381,-125,4,2,1,60,0,1
59832,-125,4,2,1,40,0,0
67050,-125,4,2,1,30,0,0
74268,-111.111111111111,4,2,1,40,0,0
81487,-100,4,2,1,60,0,0
90509,-90.909090909091,4,2,1,60,0,1
90847,-90.909090909091,4,2,1,5,0,1
90960,-90.909090909091,4,2,1,60,0,1
91750,-90.909090909091,4,2,1,5,0,1
91862,-90.909090909091,4,2,1,60,0,1
96261,-90.909090909091,4,2,1,5,0,1
96374,-90.909090909091,4,2,1,60,0,1
97163,-90.909090909091,4,2,1,5,0,1
97276,-90.909090909091,4,2,1,60,0,1
99870,-90.909090909091,4,2,1,5,0,1
99983,-90.909090909091,4,2,1,60,0,1
100772,-90.909090909091,4,2,1,5,0,1
100885,-90.909090909091,4,2,1,60,0,1
104945,-100,4,2,1,50,0,0
119381,-100,4,2,1,20,0,0
121073,-100,4,2,1,5,0,0
121186,-90.9090909090909,4,2,1,60,0,1
121524,-90.9090909090909,4,2,1,5,0,1
121637,-90.9090909090909,4,2,1,60,0,1
122426,-90.9090909090909,4,2,1,5,0,1
122539,-90.9090909090909,4,2,1,60,0,1
126938,-90.9090909090909,4,2,1,5,0,1
127050,-90.9090909090909,4,2,1,60,0,1
127840,-90.9090909090909,4,2,1,5,0,1
127953,-90.9090909090909,4,2,1,60,0,1
130547,-90.9090909090909,4,2,1,5,0,1
130659,-90.9090909090909,4,2,1,60,0,1
131449,-90.9090909090909,4,2,1,5,0,1
131562,-90.9090909090909,4,2,1,60,0,1
135622,-125,4,2,1,30,0,0
142840,-166.666666666667,4,2,1,30,0,0
143855,-166.666666666667,4,2,1,5,0,0
143968,-166.666666666667,4,2,1,30,0,0
144080,-166.666666666667,4,2,1,5,0,0
144193,-166.666666666667,4,2,1,30,0,0
144757,-166.666666666667,4,2,1,5,0,0
144870,-166.666666666667,4,2,1,30,0,0
144983,-166.666666666667,4,2,1,5,0,0
145096,-166.666666666667,4,2,1,30,0,0
145659,-166.666666666667,4,2,1,5,0,0
145772,-166.666666666667,4,2,1,30,0,0
145885,-166.666666666667,4,2,1,5,0,0
145998,-166.666666666667,4,2,1,30,0,0
148366,-166.666666666667,4,2,1,5,0,0
148479,-166.666666666667,4,2,1,30,0,0
148592,-166.666666666667,4,2,1,5,0,0
148705,-166.666666666667,4,2,1,30,0,0
149268,-166.666666666667,4,2,1,5,0,0
149381,-166.666666666667,4,2,1,30,0,0
149494,-166.666666666667,4,2,1,5,0,0
149607,-166.666666666667,4,2,1,30,0,0
151073,-166.666666666667,4,2,1,5,0,0
151186,-166.666666666667,4,2,1,30,0,0
151299,-166.666666666667,4,2,1,5,0,0
151411,-166.666666666667,4,2,1,30,0,0
151862,-142.857142857143,4,2,1,30,0,0
151975,-142.857142857143,4,2,1,5,0,0
152088,-142.857142857143,4,2,1,30,0,0
152201,-142.857142857143,4,2,1,5,0,0
152314,-142.857142857143,4,2,1,30,0,0
152877,-142.857142857143,4,2,1,5,0,0
152990,-142.857142857143,4,2,1,30,0,0
153103,-142.857142857143,4,2,1,5,0,0
153216,-142.857142857143,4,2,1,30,0,0
153667,-125,4,2,1,30,0,0
153780,-125,4,2,1,5,0,0
153893,-125,4,2,1,30,0,0
154005,-125,4,2,1,5,0,0
154118,-125,4,2,1,30,0,0
154682,-125,4,2,1,5,0,0
154795,-125,4,2,1,30,0,0
154908,-125,4,2,1,5,0,0
155020,-125,4,2,1,30,0,0
155471,-111.111111111111,4,2,1,30,0,0
156374,-222.222222222222,4,2,1,30,0,0
156599,-111.111111111111,4,2,1,5,0,0
157276,-90.9090909090909,4,2,1,60,0,1
157614,-90.9090909090909,4,2,1,5,0,1
157727,-90.9090909090909,4,2,1,60,0,1
158517,-90.9090909090909,4,2,1,5,0,1
158629,-90.9090909090909,4,2,1,60,0,1
163028,-90.9090909090909,4,2,1,5,0,1
163141,-90.9090909090909,4,2,1,60,0,1
163930,-90.9090909090909,4,2,1,5,0,1
164043,-90.9090909090909,4,2,1,60,0,1
166637,-90.9090909090909,4,2,1,5,0,1
166750,-90.9090909090909,4,2,1,60,0,1
167539,-90.9090909090909,4,2,1,5,0,1
167652,-90.9090909090909,4,2,1,60,0,1
171712,-90.9090909090909,4,2,1,50,0,0

[Colours]
Combo1 : 193,17,17
Combo2 : 124,201,155
Combo3 : 109,56,91
Combo4 : 80,141,141
Combo5 : 192,109,109
Combo6 : 57,170,45
Combo7 : 179,26,136
Combo8 : 9,175,189

[HitObjects]
48,307,21938,6,0,L|152:322,1,80,4|0,0:3|0:0,0:0:0:0:
182,236,22389,2,0,P|236:256|269:258,1,80
402,175,22840,2,0,L|322:186,1,80,2|0,0:0|0:0,0:0:0:0:
264,59,23291,1,2,0:0:0:0:
261,78,23403,1,0,0:0:0:0:
258,98,23516,1,0,0:0:0:0:
255,118,23629,1,0,0:0:0:0:
252,138,23742,5,4,0:0:0:0:
429,211,24193,1,0,0:0:0:0:
382,293,24419,1,0,0:0:0:0:
286,304,24644,2,0,L|193:296,1,80,2|0,0:0|0:0,0:0:0:0:
78,222,25096,2,0,L|171:214,1,80,2|0,0:0|0:0,0:0:0:0:
297,140,25547,6,0,P|255:143|210:122,1,80,4|0,3:0|0:0,0:0:0:0:
76,62,25998,2,0,P|118:59|163:80,1,80
78,174,26449,2,0,B|48:152|48:152|6:158,1,80,2|0,0:0|0:0,0:0:0:0:
148,250,26900,1,2,0:0:0:0:
154,231,27012,1,0,0:0:0:0:
160,212,27125,1,0,0:0:0:0:
166,193,27238,1,0,0:0:0:0:
173,174,27351,5,4,0:0:0:0:
250,349,27802,1,0,0:0:0:0:
297,264,28028,1,0,0:0:0:0:
357,338,28253,2,0,L|444:333,1,80,2|0,0:0|0:0,0:0:0:0:
445,202,28705,2,0,L|358:197,1,80,2|0,0:0|0:0,0:0:0:0:
250,115,29156,70,0,B|297:113|297:113|317:70,1,89.9999972534181,4|0,3:0|0:0,0:0:0:0:
167,84,29607,2,0,L|180:184,1,89.9999972534181
173,274,30058,2,0,P|136:248|93:239,1,89.9999972534181,2|0,0:0|0:0,0:0:0:0:
130,356,30509,1,2,0:0:0:0:
151,362,30621,1,0,0:0:0:0:
173,365,30734,1,0,0:0:0:0:
196,363,30847,1,0,0:0:0:0:
217,356,30960,5,4,0:0:0:0:
184,143,31411,1,2,0:0:0:0:
288,114,31637,1,0,0:0:0:0:
210,32,31862,2,0,L|307:16,1,89.9999972534181,2|0,0:0|0:0,0:0:0:0:
470,93,32314,2,0,L|373:77,1,89.9999972534181,2|0,0:0|0:0,0:0:0:0:
434,224,32765,6,0,B|474:195|474:195|520:225,1,100,4|0,3:0|0:0,0:0:0:0:
368,290,33216,2,0,B|327:319|327:319|281:288,1,100
135,234,33667,2,0,B|175:205|175:205|218:233,1,100,2|0,0:0|0:0,0:0:0:0:
94,324,34118,1,2,0:0:0:0:
78,304,34230,1,0,0:0:0:0:
63,284,34343,1,0,0:0:0:0:
47,265,34456,1,0,0:0:0:0:
32,245,34569,5,4,0:0:0:0:
97,14,35020,1,2,0:0:0:0:
87,133,35246,1,0,0:0:0:0:
194,81,35471,2,0,L|302:76,1,100,2|0,0:0|0:0,0:0:0:0:
470,158,35923,2,0,P|421:146|364:157,1,100,2|0,1:2|0:1,0:1:0:0:
247,310,36374,70,0,L|268:213,1,100,4|0,0:0|0:0,0:0:0:0:
152,246,36825,2,0,L|173:149,1,100,0|0,1:0|0:0,0:0:0:0:
243,53,37276,1,2,0:0:0:0:
341,121,37502,1,0,0:0:0:0:
449,73,37727,2,0,L|438:172,1,100,0|0,1:0|0:0,0:0:0:0:
336,288,38178,6,0,P|411:250|417:335,1,200,4|0,0:0|1:0,0:0:0:0:
304,377,38855,1,0,0:0:0:0:
248,270,39080,2,0,P|273:209|311:173,1,100,2|0,0:0|0:0,0:0:0:0:
140,98,39532,2,0,P|171:136|187:183,1,100,0|0,1:0|0:0,0:0:0:0:
67,197,39983,5,2,0:2:0:0:
195,70,40208,1,0,0:0:0:0:
77,191,40434,1,2,0:0:0:0:
245,174,40659,1,0,0:0:0:0:
88,186,40885,1,2,0:0:0:0:
185,77,41111,1,0,0:0:0:0:
100,180,41336,1,2,0:0:0:0:
233,173,41562,1,0,0:0:0:0:
318,214,41787,6,0,L|325:287,1,69.9999978637696,2|0,0:0|0:0,0:0:0:0:
261,339,42238,1,2,0:0:0:0:
242,256,42464,1,0,0:0:0:0:
347,364,42690,2,0,L|426:356,1,69.9999978637696,2|0,0:0|0:0,0:0:0:0:
478,268,43141,2,0,L|399:276,1,69.9999978637696,2|0,0:0|0:0,0:0:0:0:
107,136,45396,6,0,P|142:172|167:90,1,165.000005035401,4|0,0:0|0:0,0:0:0:0:
127,213,45847,2,0,L|136:328,1,110.000003356934,8|0,0:0|0:0,0:0:0:0:
272,318,46299,2,0,P|307:282|332:364,1,165.000005035401,2|0,0:0|0:0,0:0:0:0:
296,238,46750,2,0,L|305:123,1,110.000003356934,8|0,0:0|0:0,0:0:0:0:
440,328,47201,5,4,0:0:0:0:
510,216,47426,1,0,0:0:0:0:
315,144,47652,2,0,P|364:139|416:106,1,110.000003356934,8|0,0:0|0:0,0:0:0:0:
322,12,48103,1,2,0:0:0:0:
207,169,48329,1,0,0:0:0:0:
213,148,48441,1,0,0:0:0:0:
210,126,48554,2,0,P|190:113|124:162,1,110.000003356934,8|0,0:0|0:0,0:0:0:0:
282,229,49005,5,4,0:0:0:0:
156,270,49231,1,0,0:0:0:0:
353,270,49456,2,0,B|396:192|309:186|359:100,1,165.000005035401,8|0,0:0|0:0,0:0:0:0:
394,41,49908,2,0,P|325:67|261:47,1,110.000003356934,2|0,0:0|0:0,0:0:0:0:
167,12,50359,1,8,0:0:0:0:
70,101,50584,1,0,0:0:0:0:
73,120,50697,1,0,0:0:0:0:
76,138,50810,6,0,B|160:113|147:194|239:158,1,165.000005035401,4|0,0:0|0:0,0:0:0:0:
345,105,51261,2,0,L|336:234,1,110.000003356934,8|0,0:0|0:0,0:0:0:0:
460,263,51712,2,0,B|376:238|389:319|297:283,1,165.000005035401,2|0,0:0|0:0,0:0:0:0:
187,235,52163,2,0,L|196:364,1,110.000003356934,8|0,0:0|0:0,0:0:0:0:
17,298,52614,70,0,L|24:188,1,110.000003356934,4|0,0:0|0:0,0:0:0:0:
82,128,52953,1,0,0:0:0:0:
78,108,53065,2,0,P|141:122|227:67,1,165.000005035401,8|0,0:0|0:0,0:0:0:0:
293,123,53517,2,0,L|289:181,1,55.0000016784668,2|0,0:0|0:0,0:0:0:0:
350,235,53742,2,0,L|354:293,1,55.0000016784668
427,327,53968,1,8,0:0:0:0:
443,339,54080,1,0,0:0:0:0:
463,346,54193,1,0,0:0:0:0:
484,343,54306,1,0,0:0:0:0:
503,335,54419,6,0,B|498:278|498:278|473:240|473:240|469:161,1,165.000005035401,4|0,0:0|0:0,0:0:0:0:
373,92,54870,2,0,L|368:217,1,110.000003356934,8|0,0:0|0:0,0:0:0:0:
281,375,55321,2,0,B|276:318|276:318|251:280|251:280|247:217,1,165.000005035401,2|0,0:0|0:0,0:0:0:0:
150,130,55772,2,0,L|145:255,1,110.000003356934,8|0,0:0|0:0,0:0:0:0:
283,92,56223,5,4,0:0:0:0:
402,267,56449,1,0,0:0:0:0:
414,249,56562,1,0,0:0:0:0:
419,229,56674,2,0,P|384:258|384:322,1,110.000003356934,8|0,0:0|0:0,0:0:0:0:
482,145,57126,1,2,0:0:0:0:
283,92,57351,1,0,0:0:0:0:
302,100,57464,1,0,0:0:0:0:
323,102,57576,2,0,P|288:72|225:83,1,110.000003356934,8|0,0:0|0:0,0:0:0:0:
242,275,58028,5,4,0:0:0:0:
170,164,58253,1,0,0:0:0:0:
147,359,58479,2,0,L|41:331,1,110.000003356934,8|0,0:0|0:0,0:0:0:0:
151,355,58930,2,0,L|45:327,1,110.000003356934,8|0,0:0|0:0,0:0:0:0:
242,275,59381,1,2,0:0:0:0:
379,384,59607,1,0,0:0:0:0:
451,208,59832,6,0,P|375:210|356:267,1,120,4|0,0:3|0:0,0:0:0:0:
404,298,60283,2,0,P|359:293|322:317,1,80,2|0,0:0|0:0,0:0:0:0:
245,358,60735,1,2,0:0:0:0:
246,262,60960,1,0,0:0:0:0:
153,236,61186,2,0,P|185:186|231:167,1,80
284,127,61637,5,2,0:0:0:0:
327,212,61862,1,0,0:0:0:0:
246,262,62088,1,2,0:0:0:0:
284,127,62314,1,2,0:0:0:0:
336,48,62539,1,0,0:0:0:0:
420,93,62765,1,2,0:0:0:0:
284,127,62990,1,2,0:0:0:0:
140,115,63215,1,0,0:0:0:0:
253,203,63441,6,0,P|314:204|362:137,1,120,4|0,3:0|0:0,0:0:0:0:
353,88,63893,2,0,P|326:58|273:45,1,80,2|0,0:0|0:0,0:0:0:0:
140,114,64344,2,0,L|220:118,1,80,2|0,0:0|0:0,0:0:0:0:
92,198,64795,2,0,L|171:201,1,80,2|0,0:0|0:0,0:0:0:0:
49,113,65246,5,2,0:0:0:0:
24,273,65471,1,0,0:0:0:0:
48,121,65697,1,2,0:0:0:0:
26,264,65922,1,0,0:0:0:0:
147,365,66148,1,0,0:0:0:0:
147,365,66599,1,0,1:0:0:0:
219,22,67050,70,0,P|178:12|137:13,1,80,4|0,3:0|0:0,0:0:0:0:
62,69,67502,1,0,0:0:0:0:
61,260,67953,1,2,0:0:0:0:
139,317,68178,2,0,P|178:317|217:307,1,80
283,238,68629,1,0,0:0:0:0:
282,218,68742,1,0,0:0:0:0:
278,200,68855,6,0,P|316:190|356:190,1,80,4|0,0:0|0:0,0:0:0:0:
453,146,69306,2,0,P|418:125|390:97,1,80,2|0,0:0|0:0,0:0:0:0:
333,20,69757,1,2,0:0:0:0:
150,75,69983,1,0,0:0:0:0:
301,119,70208,1,2,0:0:0:0:
240,46,70434,1,0,0:0:0:0:
210,149,70659,6,0,L|128:163,1,80,4|0,3:0|0:0,0:0:0:0:
36,181,71111,1,0,0:0:0:0:
100,252,71336,1,0,0:0:0:0:
170,316,71562,2,0,P|218:314|253:293,1,80,2|0,0:0|0:0,0:0:0:0:
330,253,72013,2,0,P|291:215|243:203,1,80,2|0,0:0|0:0,0:0:0:0:
245,203,72351,1,0,0:0:0:0:
223,207,72464,5,4,0:0:0:0:
454,40,72915,1,2,0:0:0:0:
365,78,73141,1,0,0:0:0:0:
281,31,73366,2,0,L|188:26,1,80,2|0,0:0|0:0,0:0:0:0:
122,86,73817,1,2,0:0:0:0:
298,151,74043,1,0,1:2:0:0:
154,273,74268,69,4,3:0:0:0:
237,341,74494,2,0,P|287:343|246:258,1,179.999994506836
154,273,75171,1,2,0:0:0:0:
47,288,75396,2,0,P|-2:228|70:201,1,179.999994506836
237,341,76073,6,0,P|300:369|407:304,1,179.999994506836,4|0,0:0|1:0,0:0:0:0:
409,219,76750,1,0,0:0:0:0:
309,260,76975,2,0,L|304:146,1,89.9999972534181,2|0,0:0|0:0,0:0:0:0:
181,271,77426,2,0,L|176:157,1,89.9999972534181,0|0,1:0|0:0,0:0:0:0:
171,71,77877,5,4,3:0:0:0:
278,83,78103,2,0,B|345:63|345:63|358:26|358:26|433:6,1,179.999994506836,2|0,0:0|0:0,0:0:0:0:
476,103,78780,1,2,0:0:0:0:
404,180,79005,2,0,P|381:233|449:347,1,179.999994506836,2|0,0:0|0:0,0:0:0:0:
494,248,79682,5,4,0:0:0:0:
402,100,79908,2,0,B|350:105|332:148|332:148|306:106|251:104,1,179.999994506836,2|0,0:0|0:0,0:0:0:0:
247,211,80584,1,0,0:0:0:0:
157,150,80810,1,0,0:0:0:0:
79,225,81035,2,0,L|52:137,1,89.9999972534181,0|0,1:0|0:0,0:0:0:0:
130,42,81487,69,4,0:0:0:0:
223,113,81712,2,0,B|269:146|316:115|316:115|364:84|410:114,1,200,2|0,0:0|0:0,0:0:0:0:
367,227,82389,1,2,0:0:0:0:
321,337,82614,2,0,P|420:333|483:246,1,200,2|0,0:0|0:0,0:0:0:0:
260,240,83291,5,4,0:0:0:0:
183,326,83517,2,0,B|140:322|124:289|124:289|111:292|101:307|101:307|99:288|89:280|89:280|48:302|-4:270,1,200,2|0,0:0|0:0,0:0:0:0:
89,109,84193,2,0,L|46:222,1,100,2|0,0:0|0:0,0:0:0:0:
177,28,84644,2,0,L|185:148,1,100,0|0,1:0|0:0,0:0:0:0:
192,248,85096,5,2,0:0:0:0:
298,319,85321,1,0,0:0:0:0:
180,254,85547,1,2,0:0:0:0:
195,123,85772,1,0,0:0:0:0:
170,260,85998,1,2,0:0:0:0:
309,314,86223,1,0,0:0:0:0:
158,265,86449,1,2,0:0:0:0:
205,117,86674,1,0,0:0:0:0:
358,163,86900,6,0,P|413:168|452:140,1,100,2|0,0:0|0:0,0:0:0:0:
279,141,87351,2,0,P|280:196|313:231,1,100,2|0,0:0|0:0,0:0:0:0:
286,59,87802,2,0,P|231:70|202:108,1,100,2|0,0:0|0:0,0:0:0:0:
364,38,88253,1,2,0:0:0:0:
279,141,88479,1,0,0:0:0:0:
446,66,90509,6,0,P|366:53|307:110,1,165.000005035401,4|0,0:0|0:0,0:0:0:0:
375,213,90960,2,0,L|247:224,1,110.000003356934,8|0,0:0|0:0,0:0:0:0:
197,336,91411,2,0,P|117:349|58:292,1,165.000005035401,2|0,0:0|0:0,0:0:0:0:
126,189,91862,2,0,L|16:179,1,110.000003356934,8|0,0:0|0:0,0:0:0:0:
227,98,92314,5,4,0:0:0:0:
265,222,92539,1,0,0:0:0:0:
394,64,92765,2,0,L|384:215,1,110.000003356934,8|0,0:0|0:0,0:0:0:0:
299,21,93216,1,2,0:0:0:0:
428,244,93441,1,0,0:0:0:0:
445,232,93554,1,0,0:0:0:0:
458,217,93667,2,0,L|465:334,1,110.000003356934,8|0,0:0|0:0,0:0:0:0:
315,166,94118,5,4,0:0:0:0:
194,219,94344,1,0,0:0:0:0:
271,51,94569,2,0,P|224:88|96:66,1,165.000005035401,8|0,0:0|0:0,0:0:0:0:
61,27,95020,2,0,P|38:78|78:158,1,110.000003356934,2|0,0:0|0:0,0:0:0:0:
107,247,95471,1,8,0:0:0:0:
246,330,95697,1,0,0:0:0:0:
266,336,95810,1,0,0:0:0:0:
286,342,95923,6,0,P|283:280|231:332,1,165.000005035401,4|0,0:0|0:0,0:0:0:0:
382,336,96374,2,0,P|379:273|335:212,1,110.000003356934,8|0,0:0|0:0,0:0:0:0:
263,96,96825,2,0,P|274:29|321:77,1,165.000005035401,2|0,0:0|0:0,0:0:0:0:
189,136,97276,2,0,P|167:79|175:15,1,110.000003356934,8|0,0:0|0:0,0:0:0:0:
149,205,97727,70,0,L|135:330,1,110.000003356934,4|0,0:0|0:0,0:0:0:0:
207,359,98065,1,0,0:0:0:0:
222,344,98178,2,0,P|293:329|388:335,1,165.000005035401,8|0,0:0|0:0,0:0:0:0:
465,358,98629,2,0,P|472:318|500:276,1,55.0000016784668,2|0,0:0|0:0,0:0:0:0:
425,241,98855,2,0,P|418:201|390:159,1,55.0000016784668
369,114,99080,1,8,0:0:0:0:
356,95,99193,1,0,0:0:0:0:
333,95,99306,1,0,0:0:0:0:
329,116,99419,1,0,0:0:0:0:
345,130,99532,6,0,P|316:67|214:37,1,165.000005035401,4|0,0:0|0:0,0:0:0:0:
119,95,99983,2,0,L|214:159,1,110.000003356934,8|0,0:0|0:0,0:0:0:0:
260,342,100434,2,0,P|231:279|129:249,1,165.000005035401,2|0,0:0|0:0,0:0:0:0:
34,307,100885,2,0,L|129:371,1,110.000003356934,8|0,0:0|0:0,0:0:0:0:
43,186,101336,5,4,0:0:0:0:
37,17,101562,1,0,0:0:0:0:
43,37,101674,1,0,0:0:0:0:
50,57,101787,2,0,L|178:48,1,110.000003356934,8|0,0:0|0:0,0:0:0:0:
381,33,102238,1,2,0:0:0:0:
219,158,102464,1,0,0:0:0:0:
231,176,102577,1,0,0:0:0:0:
242,194,102690,2,0,L|370:185,1,110.000003356934,8|0,0:0|0:0,0:0:0:0:
181,294,103141,5,4,0:0:0:0:
62,236,103366,1,0,0:0:0:0:
140,28,103592,2,0,P|158:79|142:131,1,110.000003356934,8|0,0:0|0:0,0:0:0:0:
146,28,104043,2,0,P|164:78|147:132,1,110.000003356934,8|0,0:0|0:0,0:0:0:0:
64,154,104381,1,8,0:0:0:0:
85,81,104494,1,8,0:0:0:0:
135,235,104720,1,0,0:0:0:0:
243,70,104945,5,4,0:0:0:0:
200,73,119381,118,0,B|165:157|43:183|43:183|113:254|202:211|202:211|131:280|174:370|174:370|239:264|345:268,1,750,2|0,0:0|0:0,0:0:0:0:
461,345,121186,54,0,B|483:236|483:236|449:184,1,165.000005035401,4|0,0:0|0:0,0:0:0:0:
376,90,121637,2,0,P|351:146|378:200,1,110.000003356934,8|0,0:0|0:0,0:0:0:0:
272,50,122088,2,0,B|163:28|163:28|111:62,1,165.000005035401,2|0,0:0|0:0,0:0:0:0:
23,142,122539,2,0,P|68:186|141:166,1,110.000003356934,8|0,0:0|0:0,0:0:0:0:
14,10,122990,5,4,0:0:0:0:
89,119,123216,1,0,0:0:0:0:
45,347,123441,2,0,P|106:303|173:301,1,110.000003356934,8|0,0:0|0:0,0:0:0:0:
262,346,123893,1,2,0:0:0:0:
462,321,124118,1,0,0:0:0:0:
465,299,124231,1,0,0:0:0:0:
468,277,124344,2,0,L|465:158,1,110.000003356934,8|0,0:0|0:0,0:0:0:0:
276,130,124795,5,4,0:0:0:0:
304,258,125020,1,0,0:0:0:0:
357,61,125246,2,0,P|288:23|196:59,1,165.000005035401,8|0,0:0|0:0,0:0:0:0:
151,108,125697,2,0,P|102:134|45:127,1,110.000003356934,2|0,0:0|0:0,0:0:0:0:
76,0,126148,1,8,0:0:0:0:
220,167,126374,1,0,0:0:0:0:
212,187,126487,1,0,0:0:0:0:
204,207,126599,6,0,B|184:265|214:316|214:316|261:299|260:249,1,165.000005035401,4|0,0:0|0:0,0:0:0:0:
119,213,127050,2,0,P|116:281|140:345,1,110.000003356934,8|0,0:0|0:0,0:0:0:0:
336,229,127502,2,0,B|356:171|326:120|326:120|279:137|280:187,1,165.000005035401,2|0,0:0|0:0,0:0:0:0:
421,223,127953,2,0,P|424:155|400:91,1,110.000003356934,8|0,0:0|0:0,0:0:0:0:
226,30,128404,70,0,L|96:20,1,110.000003356934,4|0,0:0|0:0,0:0:0:0:
69,94,128742,1,0,0:0:0:0:
69,94,128855,2,0,P|165:108|229:167,1,165.000005035401,8|0,0:0|0:0,0:0:0:0:
267,219,129306,2,0,P|279:250|279:284,1,55.0000016784668,2|0,0:0|0:0,0:0:0:0:
180,331,129532,2,0,P|189:305|189:277,1,55.0000016784668
158,200,129757,1,8,0:0:0:0:
141,184,129870,1,0,0:0:0:0:
120,176,129983,1,0,0:0:0:0:
98,173,130096,1,0,0:0:0:0:
76,174,130208,6,0,P|22:219|66:330,1,165.000005035401,4|0,0:0|0:0,0:0:0:0:
135,380,130659,2,0,L|268:354,1,110.000003356934,8|0,0:0|0:0,0:0:0:0:
410,253,131111,2,0,P|476:229|472:109,1,165.000005035401,2|0,0:0|0:0,0:0:0:0:
425,39,131562,2,0,L|291:17,1,110.000003356934,8|0,0:0|0:0,0:0:0:0:
378,138,132013,5,4,0:0:0:0:
254,294,132238,1,0,0:0:0:0:
272,281,132351,1,0,0:0:0:0:
290,268,132464,2,0,P|223:249|166:269,1,110.000003356934,8|0,0:0|0:0,0:0:0:0:
64,312,132915,1,2,0:0:0:0:
107,186,133141,1,0,0:0:0:0:
117,167,133253,1,0,0:0:0:0:
127,147,133366,2,0,P|140:93|110:21,1,110.000003356934,8|0,0:0|0:0,0:0:0:0:
4,95,133817,5,4,0:0:0:0:
24,225,134043,1,0,0:0:0:0:
255,261,134268,2,0,P|202:249|151:267,1,110.000003356934,8|0,0:0|0:0,0:0:0:0:
254,255,134720,2,0,P|201:243|150:261,1,110.000003356934,8|0,0:0|0:0,0:0:0:0:
207,380,135171,1,2,0:0:0:0:
383,278,135396,1,0,0:0:0:0:
487,67,135622,6,0,L|492:197,1,120,4|0,3:0|0:0,0:0:0:0:
468,258,136073,2,0,P|442:212|394:191,1,80,2|0,0:0|0:0,0:0:0:0:
324,205,136524,1,2,0:0:0:0:
383,278,136750,1,0,0:0:0:0:
288,292,136975,2,0,P|247:263|235:202,1,80
324,205,137426,5,2,0:0:0:0:
248,144,137652,1,0,0:0:0:0:
157,176,137877,1,2,0:0:0:0:
324,205,138103,1,2,0:0:0:0:
338,108,138329,1,0,0:0:0:0:
265,45,138554,1,2,0:0:0:0:
324,205,138780,1,2,0:0:0:0:
433,73,139005,1,2,0:0:0:0:
375,263,139231,6,0,L|257:240,1,120,4|0,3:0|0:0,0:0:0:0:
225,306,139682,2,0,P|263:294|303:299,1,80,2|0,0:0|0:0,0:0:0:0:
149,312,140133,2,0,P|156:276|190:239,1,80,2|0,0:0|0:0,0:0:0:0:
74,318,140584,2,0,P|78:272|102:218,1,80,2|0,0:0|0:0,0:0:0:0:
236,154,141035,5,2,0:0:0:0:
271,4,141261,1,0,0:0:0:0:
244,165,141487,1,2,0:0:0:0:
80,231,141712,1,0,0:0:0:0:
390,100,142840,70,0,B|397:110|410:110|418:98|411:83|395:74|376:79|362:93|362:93|346:108|321:110,1,119.999996337891,4|2,0:0|0:0,0:0:0:0:
250,163,143742,2,0,L|246:206,1,29.9999990844727,2|0,0:0|0:0,0:0:0:0:
244,169,143968,2,0,L|240:212,1,29.9999990844727
237,174,144193,2,0,P|233:198|237:248,1,59.9999981689454,2|0,0:0|0:0,0:0:0:0:
341,316,144644,2,0,L|386:314,1,29.9999990844727,2|0,0:0|0:0,0:0:0:0:
347,322,144870,2,0,L|392:320,1,29.9999990844727
355,327,145096,2,0,P|367:347|370:316,1,59.9999981689454,2|0,0:0|0:0,0:0:0:0:
185,307,145547,2,0,B|170:302|170:302|160:315,1,29.9999990844727,2|0,0:0|0:0,0:0:0:0:
155,319,145772,2,0,B|146:330|146:330|131:325,1,29.9999990844727
125,319,145998,2,0,L|59:320,1,59.9999981689454,2|0,0:0|0:0,0:0:0:0:
61,156,146449,6,0,P|65:144|62:158,1,59.9999981689454,4|0,0:0|0:0,0:0:0:0:
166,112,146900,2,0,P|147:104|165:113,1,59.9999981689454,2|0,0:0|0:0,0:0:0:0:
259,154,147351,2,0,B|265:154|269:148|270:141|267:136|267:136|271:137|277:135|277:135|274:141|275:148|279:154|287:154,2,59.9999981689454,2|0|2,0:0|0:0|0:0,0:0:0:0:
253,160,148028,1,0,0:0:0:0:
428,61,148253,2,0,L|435:103,1,29.9999990844727,2|0,0:0|0:0,0:0:0:0:
428,97,148479,2,0,L|425:138,1,29.9999990844727
431,133,148705,2,0,L|438:206,1,59.9999981689454,2|0,0:0|0:0,0:0:0:0:
341,343,149156,2,0,L|336:313,1,29.9999990844727,2|0,0:0|0:0,0:0:0:0:
341,307,149382,2,0,L|343:277,1,29.9999990844727
338,271,149608,2,0,L|332:211,1,59.9999981689454,2|0,0:0|0:0,0:0:0:0:
194,112,150058,6,0,B|181:119|184:92|184:92|174:118|164:103,1,59.9999981689454,4|0,0:0|0:0,0:0:0:0:
97,174,150509,2,0,B|87:189|77:163|77:163|80:190|67:183,1,59.9999981689454,2|0,0:0|0:0,0:0:0:0:
169,234,150960,2,0,P|189:237|204:249,1,29.9999990844727,2|0,0:0|0:0,0:0:0:0:
206,249,151186,2,0,P|228:246|244:228,1,29.9999990844727
243,237,151411,2,0,P|272:243|300:272,1,59.9999981689454,2|0,0:0|0:0,0:0:0:0:
35,346,151862,2,0,P|53:353|85:353,1,34.9999989318848,2|0,0:0|0:0,0:0:0:0:
33,355,152088,2,0,P|51:362|83:362,1,34.9999989318848
10,272,152314,2,0,P|50:264|88:263,1,69.9999978637696,2|0,0:0|0:0,0:0:0:0:
71,172,152765,2,0,P|89:179|121:179,1,34.9999989318848,2|0,0:0|0:0,0:0:0:0:
69,181,152991,2,0,P|87:188|119:188,1,34.9999989318848
46,98,153217,2,0,P|86:90|124:89,1,69.9999978637696,2|0,0:0|0:0,0:0:0:0:
265,210,153667,6,0,P|273:218|276:194,1,40,4|0,0:0|0:0,0:0:0:0:
282,222,153893,2,0,P|292:225|285:202,1,40
297,234,154118,2,0,P|323:232|310:186,1,80,2|0,0:0|0:0,0:0:0:0:
209,278,154569,2,0,L|213:321,1,40,2|0,0:0|0:0,0:0:0:0:
197,292,154795,2,0,L|201:335,1,40
187,304,155020,2,0,P|187:344|193:390,1,80,2|0,0:0|0:0,0:0:0:0:
76,202,155471,1,2,0:0:0:0:
107,136,155697,1,0,0:0:0:0:
105,63,155923,2,0,L|101:161,1,89.9999972534181,2|0,0:0|0:0,0:0:0:0:
96,48,156374,2,0,L|92:146,1,89.9999972534181,2|0,0:0|0:0,0:0:0:0:
478,122,157276,6,0,B|460:85|408:83|408:83|370:118|381:161,1,165.000005035401,4|0,0:0|0:0,0:0:0:0:
429,270,157727,2,0,P|352:277|292:244,1,110.000003356934,8|0,0:0|0:0,0:0:0:0:
255,152,158178,2,0,B|264:115|226:80|226:80|174:82|156:119,1,165.000005035401,2|0,0:0|0:0,0:0:0:0:
89,226,158629,2,0,P|134:276|182:283,1,110.000003356934,8|0,0:0|0:0,0:0:0:0:
58,127,159080,5,4,0:0:0:0:
170,196,159306,1,0,0:0:0:0:
102,35,159532,2,0,P|181:15|234:25,1,110.000003356934,8|0,0:0|0:0,0:0:0:0:
331,66,159983,1,2,0:0:0:0:
170,196,160208,1,0,0:0:0:0:
190,188,160321,1,0,0:0:0:0:
211,181,160434,2,0,P|208:245|238:301,1,110.000003356934,8|0,0:0|0:0,0:0:0:0:
380,90,160885,5,4,0:0:0:0:
337,215,161111,1,0,0:0:0:0:
266,17,161336,2,0,P|233:88|235:196,1,165.000005035401,8|0,0:0|0:0,0:0:0:0:
254,258,161787,2,0,P|190:252|154:216,1,110.000003356934,2|0,0:0|0:0,0:0:0:0:
103,101,162238,1,8,0:0:0:0:
0,184,162464,1,0,0:0:0:0:
7,204,162577,1,0,0:0:0:0:
17,223,162690,6,0,P|77:187|158:223,1,165.000005035401,4|0,0:0|0:0,0:0:0:0:
238,320,163141,2,0,P|301:348|351:330,1,110.000003356934,8|0,0:0|0:0,0:0:0:0:
448,252,163592,2,0,P|397:203|310:220,1,165.000005035401,2|0,0:0|0:0,0:0:0:0:
238,320,164043,2,0,P|175:348|125:330,1,110.000003356934,8|0,0:0|0:0,0:0:0:0:
238,107,164494,70,0,L|346:44,1,110.000003356934,4|0,0:0|0:0,0:0:0:0:
405,98,164832,1,0,0:0:0:0:
402,116,164945,2,0,P|467:151|462:76,1,165.000005035401,8|0,0:0|0:0,0:0:0:0:
319,159,165396,2,0,P|301:187|298:223,1,55.0000016784668,2|0,0:0|0:0,0:0:0:0:
323,288,165622,2,0,P|316:314|301:336,1,55.0000016784668,2|0,0:0|0:0,0:0:0:0:
225,377,165847,1,8,0:0:0:0:
203,382,165960,1,0,0:0:0:0:
180,380,166073,1,0,0:0:0:0:
160,370,166186,1,0,0:0:0:0:
144,354,166299,6,0,L|154:175,1,165.000005035401,4|0,0:0|0:0,0:0:0:0:
51,113,166750,2,0,L|61:231,1,110.000003356934,8|0,0:0|0:0,0:0:0:0:
235,276,167201,2,0,L|414:266,1,165.000005035401,2|0,0:0|0:0,0:0:0:0:
479,168,167652,2,0,L|345:157,1,110.000003356934,8|0,0:0|0:0,0:0:0:0:
486,339,168103,5,4,0:0:0:0:
289,187,168329,1,0,0:0:0:0:
271,173,168441,1,0,0:0:0:0:
253,159,168554,2,0,P|193:172|143:136,1,110.000003356934,8|0,0:0|0:0,0:0:0:0:
214,32,169005,1,2,0:0:0:0:
288,208,169231,1,0,0:0:0:0:
285,229,169344,1,0,0:0:0:0:
282,250,169456,2,0,P|333:281|398:265,1,110.000003356934,8|0,0:0|0:0,0:0:0:0:
364,143,169908,5,4,0:0:0:0:
310,22,170133,1,0,0:0:0:0:
445,221,170359,2,0,P|472:174|470:120,1,110.000003356934,8|0,0:0|0:0,0:0:0:0:
451,221,170810,2,0,P|478:174|477:120,1,110.000003356934,8|0,0:0|0:0,0:0:0:0:
261,264,171261,1,2,0:0:0:0:
109,147,171487,1,0,0:0:0:0:
256,283,171712,5,4,0:0:0:0:
