osu file format v14

[General]
AudioFilename: audio.mp3
AudioLeadIn: 0
PreviewTime: 58368
Countdown: 1
SampleSet: Normal
StackLeniency: 0.7
Mode: 0
LetterboxInBreaks: 0
WidescreenStoryboard: 0

[Editor]
Bookmarks: 13701,24368,35035,56368,59035,69701,80368,85701,107035,117701,128368,149701,160368,171035,181701,192368,203035
DistanceSpacing: 1.4
BeatDivisor: 4
GridSize: 4
TimelineZoom: 1.9

[Metadata]
Title:All The Things She Said
TitleUnicode:All The Things She Said
Artist:t.A.T.u
ArtistUnicode:t.A.T.u
Creator:[ Same ]
Version:Lie
Source:
Tags:
BeatmapID:1273660
BeatmapSetID:603013

[Difficulty]
HPDrainRate:8
CircleSize:4
OverallDifficulty:8
ApproachRate:9.5
SliderMultiplier:2
SliderTickRate:1

[Events]
//Background and Video events
0,0,"688465.jpg",0,0
//Break Periods
2,74901,79843
//Storyboard Layer 0 (Background)
//Storyboard Layer 1 (Fail)
//Storyboard Layer 2 (Pass)
//Storyboard Layer 3 (Foreground)
//Storyboard Sound Samples

[TimingPoints]
3035.21854304636,333.333333333333,4,1,0,100,1,0
24368,-133.333333333333,4,1,0,100,0,0
59035,-100,4,1,0,100,0,1
69701,-100,4,1,0,100,0,0

[HitObjects]
296,224,12201,6,0,L|320:204,4,25,0|0|0|0|0,1:0|1:0|1:0|1:0|1:0,1:0:0:0:
220,104,12535,1,0,1:0:0:0:
152,256,12701,2,0,P|128:204|136:148,1,100,0|0,1:0|1:0,1:0:0:0:
288,176,13035,1,0,1:0:0:0:
324,304,13201,1,0,1:0:0:0:
376,112,13368,1,0,1:0:0:0:
248,60,13701,5,0,1:0:0:0:
192,200,13868,1,0,1:0:0:0:
344,64,14035,1,0,1:0:0:0:
152,80,14201,1,0,1:0:0:0:
152,80,14285,1,0,1:0:0:0:
152,80,14368,2,0,P|113:55|136:120,1,150,0|0,1:0|1:0,1:0:0:0:
114,128,14701,1,0,1:0:0:0:
305,179,14868,1,0,1:0:0:0:
192,284,15035,6,0,L|160:176,1,100,0|0,1:0|1:0,1:0:0:0:
232,68,15368,1,0,1:0:0:0:
296,244,15535,1,0,1:0:0:0:
356,48,15701,2,0,P|284:56|224:80,1,100,0|0,1:0|1:0,1:0:0:0:
428,248,16035,2,0,P|396:172|392:132,1,100,0|0,1:0|1:0,1:0:0:0:
248,296,16368,6,0,P|184:272|96:304,1,150,0|0,1:0|1:0,1:0:0:0:
120,192,16701,2,0,P|100:124|128:76,1,100,0|0,1:0|1:0,1:0:0:0:
380,92,17035,1,0,1:0:0:0:
184,212,17201,1,0,1:0:0:0:
424,108,17368,2,0,P|416:192|384:232,1,100,0|0,1:0|1:0,1:0:0:0:
256,72,17701,5,0,1:0:0:0:
336,252,17868,1,0,1:0:0:0:
140,248,18035,1,0,1:0:0:0:
259,362,18201,1,0,1:0:0:0:
259,362,18285,1,0,1:0:0:0:
259,362,18368,2,0,P|331:314|378:218,1,150,0|0,1:0|1:0,1:0:0:0:
437,229,18701,1,0,1:0:0:0:
420,36,18868,1,0,1:0:0:0:
292,68,19035,5,0,1:0:0:0:
208,108,19201,1,0,1:0:0:0:
368,104,19368,1,0,1:0:0:0:
148,32,19535,1,0,1:0:0:0:
448,52,19701,2,0,B|428:88|444:140|444:140|428:164|424:200,1,150,0|0,1:0|1:0,1:0:0:0:
484,284,20035,2,0,P|400:292|376:308,1,100,0|0,1:0|1:0,1:0:0:0:
256,240,20368,6,0,P|180:260|160:296,2,100,0|0|0,1:0|1:0|1:0,1:0:0:0:
256,72,20868,1,0,1:0:0:0:
136,164,21035,1,0,1:0:0:0:
360,144,21201,1,0,1:0:0:0:
128,76,21368,1,0,1:0:0:0:
160,304,21535,1,0,1:0:0:0:
160,304,21618,1,0,1:0:0:0:
160,304,21701,6,0,P|216:257|300:278,1,150,0|0,1:0|1:0,1:0:0:0:
376,244,22035,1,0,1:0:0:0:
380,56,22201,1,0,1:0:0:0:
424,296,22368,1,0,1:0:0:0:
208,208,22535,1,0,1:0:0:0:
444,88,22701,2,0,B|368:112|368:112|296:80,1,150,0|0,1:0|1:0,1:0:0:0:
168,32,23035,5,0,1:0:0:0:
304,212,23201,1,0,1:0:0:0:
80,80,23368,1,0,1:0:0:0:
88,312,23535,1,0,1:0:0:0:
212,92,23701,2,0,P|256:56|224:120,1,200,0|0,1:0|1:0,1:0:0:0:
332,284,24368,6,0,P|260:268|192:296,1,150.000005722046,0|0,1:0|1:0,1:0:0:0:
184,256,25035,2,0,P|140:228|160:296,1,150.000005722046,0|0,1:0|1:0,1:0:0:0:
384,124,25701,6,0,P|404:208|376:268,1,150.000005722046,0|0,1:0|1:0,1:0:0:0:
324,84,26368,2,0,P|264:96|216:116,1,112.500004291535
148,180,26701,2,0,B|212:188|220:252|184:252|164:292|124:264|116:216|116:216|108:292|188:332|188:332|136:328|136:328|92:296|40:316|40:316|56:295|60:240|44:208,1,600.000022888185,0|0,1:0|1:0,1:0:0:0:
256,196,32368,5,0,1:0:0:0:
240,52,32701,2,0,P|192:80|168:88,1,75.0000028610231,0|0,1:0|1:0,1:0:0:0:
173,86,32951,1,0,1:0:0:0:
173,86,33035,1,0,1:0:0:0:
103,190,33201,1,0,1:0:0:0:
175,296,33368,2,0,P|240:280|270:283,1,75.0000028610231,0|0,1:0|1:0,1:0:0:0:
247,280,33618,1,0,1:0:0:0:
247,280,33701,6,0,P|293:286|340:274,1,75.0000028610231,0|0,1:0|1:0,1:0:0:0:
446,250,34035,1,0,1:0:0:0:
280,186,34201,1,0,1:0:0:0:
280,186,34285,1,0,1:0:0:0:
280,186,34368,1,0,1:0:0:0:
159,122,34535,1,0,1:0:0:0:
192,268,34701,2,0,P|248:276|288:288,1,75.0000028610231
367,79,35035,6,0,P|352:134|392:228,1,150.000005722046,0|0,1:1|1:1,1:1:0:0:
453,322,35535,1,0,1:1:0:0:
453,322,35701,2,0,P|370:323|352:323,1,75.0000028610231,0|0,1:1|1:1,1:1:0:0:
245,237,36035,2,0,L|343:246,1,75.0000028610231,0|0,1:1|1:1,1:1:0:0:
457,219,36368,1,0,1:1:0:0:
354,157,36535,1,0,1:1:0:0:
315,45,36701,1,0,1:1:0:0:
315,45,36868,2,0,B|266:40|248:66|238:95|165:95,1,150.000005722046,0|0,1:1|1:1,1:1:0:0:
129,220,37368,6,0,B|131:261|131:261|173:291,1,75.0000028610231,0|0,1:1|1:1,1:1:0:0:
272,220,37701,1,0,1:1:0:0:
246,136,37868,1,0,1:1:0:0:
185,196,38035,1,0,1:1:0:0:
185,196,38201,2,0,P|206:257|230:277,1,75.0000028610231,0|0,1:1|1:1,1:1:0:0:
266,152,38868,5,0,1:1:0:0:
330,73,39035,1,0,1:1:0:0:
266,152,39201,1,0,1:1:0:0:
408,140,39368,2,0,P|396:196|376:216,2,75.0000028610231
168,140,40035,6,0,L|144:248,1,75.0000028610231
272,328,40368,2,0,L|248:240,1,75.0000028610231
360,144,40701,1,0,0:0:0:0:
360,144,40868,2,0,L|336:236,1,75.0000028610231
208,108,41368,1,0,0:0:0:0:
256,252,41535,5,0,0:0:0:0:
256,252,41701,1,0,0:0:0:0:
324,160,41868,1,0,0:0:0:0:
324,328,42035,2,0,B|364:304|364:304|384:264,2,75.0000028610231
188,124,42701,6,0,P|252:100|288:100,1,75.0000028610231
392,104,43035,1,0,0:0:0:0:
296,176,43201,1,0,0:0:0:0:
172,168,43368,2,0,P|140:144|124:104,2,75.0000028610231
368,220,44035,5,0,0:0:0:0:
244,232,44201,1,0,0:0:0:0:
368,128,44368,1,0,0:0:0:0:
244,116,44534,1,0,0:0:0:0:
368,220,44701,2,0,B|376:168|376:168|364:128,2,75.0000028610231
156,96,45368,5,0,0:0:0:0:
152,200,45535,1,0,0:0:0:0:
256,140,45701,1,0,0:0:0:0:
256,140,45785,1,0,0:0:0:0:
256,140,45868,2,0,P|272:96|304:64,1,75.0000028610231
440,168,46201,1,0,0:0:0:0:
440,168,46368,2,0,P|428:232|420:252,1,75.0000028610231
324,280,46701,1,0,0:0:0:0:
288,80,47035,5,0,0:0:0:0:
288,80,47118,1,0,0:0:0:0:
288,80,47201,2,0,B|344:96|380:128,1,75.0000028610231
160,132,47535,1,0,0:0:0:0:
160,132,47701,2,0,P|108:160|68:192,1,75.0000028610231
80,312,48035,2,0,P|128:280|156:248,1,75.0000028610231
244,224,48368,5,0,0:0:0:0:
348,176,48535,1,0,0:0:0:0:
232,132,48701,1,0,0:0:0:0:
300,288,48868,1,0,0:0:0:0:
420,180,49035,2,0,P|432:236|420:308,1,112.500004291535
340,340,49368,1,0,0:0:0:0:
208,252,49535,1,0,0:0:0:0:
340,176,49701,5,0,0:0:0:0:
340,176,49785,1,0,0:0:0:0:
340,176,49868,2,0,L|312:96,1,75.0000028610231
240,24,50201,1,0,0:0:0:0:
248,160,50368,1,0,0:0:0:0:
112,88,50701,5,0,0:0:0:0:
112,88,50868,2,0,P|104:144|104:192,1,75.0000028610231
140,220,51118,1,0,0:0:0:0:
140,220,51201,1,0,0:0:0:0:
272,144,51368,1,0,0:0:0:0:
272,144,51535,2,0,L|376:176,1,75.0000028610231
200,300,52035,6,0,P|188:256|184:212,1,75.0000028610231
176,84,52368,1,0,1:0:0:0:
176,84,52451,1,0,1:0:0:0:
176,84,52535,1,0,1:0:0:0:
344,148,52701,1,0,1:0:0:0:
180,160,52868,2,0,P|124:188|88:216,1,75.0000028610231
332,320,53368,6,0,L|360:232,1,75.0000028610231
388,128,53701,1,0,1:0:0:0:
284,224,53868,1,0,1:0:0:0:
436,212,54035,2,0,L|460:316,2,75.0000028610231
312,92,54701,5,0,0:0:0:0:
188,204,54868,1,0,0:0:0:0:
332,172,55035,1,0,0:0:0:0:
332,172,55118,1,0,0:0:0:0:
332,172,55201,1,0,0:0:0:0:
168,84,55368,2,0,L|84:108,1,75.0000028610231
256,192,56368,5,0,0:0:0:0:
256,192,57035,1,0,0:0:0:0:
128,80,57201,2,0,L|120:144,1,37.5000014305115
184,216,57368,1,0,0:0:0:0:
184,216,57451,1,0,0:0:0:0:
184,216,57535,2,0,L|200:164,2,37.5000014305115
328,80,58201,5,0,0:0:0:0:
368,220,58368,1,0,0:0:0:0:
280,320,58535,1,0,0:0:0:0:
328,80,58701,1,0,0:0:0:0:
200,252,59035,5,0,0:0:0:0:
200,252,59118,1,0,0:0:0:0:
200,252,59201,2,0,L|312:240,1,100
436,144,59535,1,0,0:0:0:0:
296,64,59701,2,0,P|220:64|156:76,1,100
40,160,60035,1,0,0:0:0:0:
184,304,60201,1,0,0:0:0:0:
136,112,60368,6,0,P|200:112|264:120,1,100
316,248,60701,2,0,P|240:240|176:240,1,100
136,112,61035,1,0,0:0:0:0:
316,248,61201,1,0,0:0:0:0:
208,44,61368,2,0,P|204:116|192:176,1,100
100,284,61701,2,0,P|184:276|276:284,1,150
352,240,62035,5,0,0:0:0:0:
352,240,62118,1,0,0:0:0:0:
352,240,62201,1,0,0:0:0:0:
336,56,62368,1,0,0:0:0:0:
164,216,62535,1,0,0:0:0:0:
336,56,62701,2,0,P|376:108|424:196,1,150
448,316,63035,5,0,0:0:0:0:
308,176,63201,1,0,0:0:0:0:
392,336,63368,1,0,0:0:0:0:
152,196,63535,1,0,0:0:0:0:
344,368,63701,1,0,0:0:0:0:
312,116,63868,1,0,0:0:0:0:
172,308,64035,2,0,P|96:296|48:256,1,100
232,112,64368,5,0,0:0:0:0:
448,124,64535,1,0,0:0:0:0:
204,200,64701,1,0,0:0:0:0:
388,100,64868,1,0,0:0:0:0:
252,256,65035,2,0,P|252:180|220:108,1,150
136,52,65368,1,0,0:0:0:0:
164,260,65535,1,0,0:0:0:0:
276,80,65701,6,0,P|204:108|156:136,1,100
84,288,66035,2,0,P|80:220|68:176,1,100
60,44,66368,1,0,0:0:0:0:
184,148,66535,1,0,0:0:0:0:
320,48,66701,1,0,0:0:0:0:
220,224,66868,1,0,0:0:0:0:
128,48,67035,1,0,0:0:0:0:
128,48,67118,1,0,0:0:0:0:
128,48,67201,6,0,P|192:68|240:92,1,100
364,160,67535,1,0,0:0:0:0:
200,192,67701,1,0,0:0:0:0:
404,124,67868,1,0,0:0:0:0:
176,240,68035,1,0,0:0:0:0:
176,240,68118,1,0,0:0:0:0:
176,240,68201,2,0,P|140:188|128:136,1,100
272,248,68535,5,0,0:0:0:0:
384,68,68701,1,0,0:0:0:0:
140,116,68868,1,0,0:0:0:0:
328,264,69035,2,0,L|184:288,1,100
96,176,69368,1,0,0:0:0:0:
252,188,69535,1,0,0:0:0:0:
120,64,69701,6,0,P|192:40|292:100,1,200
116,76,70368,2,0,P|188:52|288:112,1,200
180,192,71035,2,0,P|148:192|196:204,1,200
356,104,71701,2,0,P|384:168|376:252,1,150
300,216,72035,6,0,B|308:160|308:160|328:208|348:260|336:304|336:304|280:256|208:256|152:304|152:304|176:260|176:260|124:272|80:232|80:232|112:204|192:200|192:200|160:164|136:104|196:52|240:56|240:56|224:96|264:144,1,950
248,68,73701,6,0,P|168:40|188:128,1,200
396,244,74368,2,0,P|420:296|316:284,1,200
256,192,80368,12,0,82701,0:0:0:0:
256,192,83035,5,0,0:0:0:0:
256,192,83701,1,0,0:0:0:0:
400,92,84035,1,0,0:0:0:0:
417,138,84118,1,0,0:0:0:0:
422,188,84201,1,0,0:0:0:0:
415,237,84284,1,0,0:0:0:0:
400,284,84368,2,0,P|348:288|272:300,1,100
148,312,84701,5,0,0:0:0:0:
214,104,84868,1,0,0:0:0:0:
247,249,85035,1,0,0:0:0:0:
351,356,85201,1,0,0:0:0:0:
336,176,85368,2,0,P|311:127|234:76,1,150
124,98,85701,6,0,P|201:40|294:48,1,150
375,64,86035,1,0,0:0:0:0:
236,115,86201,1,0,0:0:0:0:
122,217,86368,2,0,P|183:252|272:258,1,150
379,238,86701,1,0,0:0:0:0:
309,75,86868,1,0,0:0:0:0:
135,46,87035,6,0,P|215:38|314:40,1,150
465,68,87368,1,0,0:0:0:0:
455,252,87535,1,0,0:0:0:0:
289,305,87701,2,0,B|220:270|220:270|138:271,1,150
74,199,88035,1,0,0:0:0:0:
250,169,88201,1,0,0:0:0:0:
429,147,88368,6,0,L|272:92,1,150
129,124,88701,1,0,0:0:0:0:
264,26,88868,1,0,0:0:0:0:
113,48,89035,2,0,P|66:118|70:208,1,150
106,263,89368,1,0,0:0:0:0:
110,50,89535,1,0,0:0:0:0:
177,233,89701,6,0,P|253:229|364:265,1,150
426,269,90035,1,0,0:0:0:0:
452,105,90201,1,0,0:0:0:0:
177,233,90368,2,0,P|253:229|364:265,1,150
246,320,90701,1,0,0:0:0:0:
254,139,90868,1,0,0:0:0:0:
409,237,91035,2,0,P|357:266|238:288,1,150
156,246,91368,1,0,0:0:0:0:
108,84,91535,1,0,0:0:0:0:
44,192,91701,6,0,P|50:264|99:352,1,150
172,269,92035,1,0,0:0:0:0:
335,329,92201,1,0,0:0:0:0:
451,180,92368,2,0,P|423:234|346:301,1,150
294,229,92701,1,0,0:0:0:0:
130,306,92868,1,0,0:0:0:0:
135,138,93035,2,0,P|223:119|300:126,1,150
423,171,93368,1,0,0:0:0:0:
246,37,93535,1,0,0:0:0:0:
68,139,93701,6,0,L|250:171,1,150
346,169,94035,1,0,0:0:0:0:
426,318,94201,1,0,0:0:0:0:
446,134,94368,2,0,P|378:53|327:51,1,150
224,57,94701,1,0,0:0:0:0:
114,180,94868,1,0,0:0:0:0:
224,57,95035,2,0,P|297:44|404:54,1,150
232,106,95368,2,0,P|287:100|372:102,2,100
81,115,95868,1,0,0:0:0:0:
149,237,96035,1,0,0:0:0:0:
85,36,96201,1,0,0:0:0:0:
62,208,96368,6,0,B|65:284|65:284|139:324,1,150
249,302,96701,1,0,0:0:0:0:
350,162,96868,2,0,P|365:233|422:304,1,150
450,204,97201,1,0,0:0:0:0:
348,68,97368,1,0,0:0:0:0:
212,157,97535,1,0,0:0:0:0:
395,42,97701,6,0,P|286:39|234:54,1,150
147,92,98035,1,0,0:0:0:0:
410,90,98201,2,0,P|308:83|241:106,1,150
147,92,98535,1,0,0:0:0:0:
306,157,98701,1,0,0:0:0:0:
94,120,98868,1,0,0:0:0:0:
229,260,99035,2,0,P|223:175|186:97,1,150
130,44,99368,1,0,0:0:0:0:
330,80,99535,1,0,0:0:0:0:
392,251,99701,6,0,B|404:186|404:185|404:185|348:246|299:246,1,150
248,275,100035,1,0,0:0:0:0:
331,168,100201,1,0,0:0:0:0:
146,286,100368,1,0,0:0:0:0:
269,128,100535,1,0,0:0:0:0:
221,320,100701,1,0,0:0:0:0:
119,224,100868,2,0,P|99:169|145:78,1,150
189,154,101201,1,0,0:0:0:0:
330,62,101368,5,0,0:0:0:0:
415,192,101535,1,0,0:0:0:0:
306,301,101701,2,0,P|371:286|472:299,1,150
366,236,102035,1,0,0:0:0:0:
218,292,102201,1,0,0:0:0:0:
243,171,102368,2,0,L|212:67,1,100
92,200,102701,1,0,0:0:0:0:
177,55,102868,1,0,0:0:0:0:
368,69,103035,6,0,P|307:80|248:152,1,150
217,236,103368,1,0,0:0:0:0:
208,89,103535,1,0,0:0:0:0:
139,268,103701,2,0,L|108:99,1,150
179,42,104035,1,0,0:0:0:0:
359,44,104201,1,0,0:0:0:0:
221,117,104368,6,0,P|318:118|374:137,1,150
348,241,104701,2,0,P|359:302|354:329,1,50
279,342,104868,2,0,P|268:280|274:260,1,50
254,200,105035,2,0,P|230:114|196:82,1,100
110,49,105368,1,0,0:0:0:0:
173,212,105535,1,0,0:0:0:0:
191,102,105701,6,0,P|243:68|337:65,1,150
430,103,106035,2,0,P|401:159|405:188,1,50
453,239,106201,2,0,P|487:194|481:69,1,150
495,103,106535,1,0,0:0:0:0:
345,108,106701,1,0,0:0:0:0:
