osu file format v14

[General]
AudioFilename: audio.mp3
AudioLeadIn: 0
PreviewTime: 7572
Countdown: 0
SampleSet: Normal
StackLeniency: 0.7
Mode: 2
LetterboxInBreaks: 0
EpilepsyWarning: 1
WidescreenStoryboard: 1

[Editor]
Bookmarks: 38107,157910,270840,376900,503420
DistanceSpacing: 0.5
BeatDivisor: 4
GridSize: 4
TimelineZoom: 2.799999

[Metadata]
Title:Four Seasons
TitleUnicode:Four Seasons
Artist:t=NODE
ArtistUnicode:t=NODE
Creator:-wwwww
Version:Last Judgement
Source:東方花映塚 ~ Phantasmagoria of Flower View.
Tags:Project Touhou yuy arrangement remix shikieiki yamaxanadu th09 pofv 四季-春- Dream of Wonder 六十年目の東方裁判 Fate of Sixty Years Shiki -Haru- 上海アリス幻樂団 Team Shanghai Alice fii kaitlin
BeatmapID:1262822
BeatmapSetID:597325

[Difficulty]
HPDrainRate:5
CircleSize:4
OverallDifficulty:9.2
ApproachRate:9.2
SliderMultiplier:1.6
SliderTickRate:2

[Events]
//Background and Video events
0,0,"good-for-osu.png",0,0
//Break Periods
//Storyboard Layer 0 (Background)
//Storyboard Layer 1 (Fail)
//Storyboard Layer 2 (Pass)
//Storyboard Layer 3 (Foreground)
//Storyboard Sound Samples

[TimingPoints]
7879,613,3,2,2,20,1,0
11557,642.08892931671,3,2,2,20,1,0
13483,606.060606060606,3,2,2,20,1,0
14998,705.882352941176,3,2,2,20,1,0
15174,1034.48275862069,3,2,2,20,1,0
15432,612.244897959184,3,2,2,20,1,0
18493,666.666666666667,3,2,2,20,1,0
19159,631.578947368421,3,2,2,20,1,0
22316,721.153846153846,3,2,2,20,1,0
23037,612.244897959184,3,2,2,20,1,0
26098,750,3,2,2,20,1,0
26848,588.235294117647,3,2,2,20,1,0
28612,689.655172413793,3,2,2,20,1,0
30680,666.666666666667,3,2,2,20,1,0
34680,697.674418604651,3,2,2,20,1,0
37470,666.666666666667,3,2,2,20,1,0
38107,631.578947368423,3,2,2,20,1,0
68422,-90.9090909090909,3,2,2,25,0,0
97475,650.406504065041,3,2,2,25,1,0
98125,-100,3,2,2,35,0,0
98775,625,3,2,2,35,1,0
100650,606.060606060606,3,2,2,35,1,0
101532,609.137055837563,3,2,2,35,1,0
102168,612.244897959184,3,2,2,35,1,0
102474,618.556701030928,3,2,2,35,1,0
103401,622.116232049355,3,2,2,35,1,0
104023,626.631853785901,3,2,2,35,1,0
104336,612.244897959184,3,2,2,35,1,0
105560,571.428571428571,3,2,2,35,1,0
105845,666.666666666667,3,2,2,35,1,0
106178,618.556701030928,3,2,2,35,1,0
113600,629.92125984252,3,2,2,35,1,0
115489,613.81074168798,3,2,2,35,1,0
117330,615.384615384615,3,2,2,35,1,0
119176,631.578947368421,3,2,2,35,1,0
121070,618.556701030928,3,2,2,35,1,0
122925,588.235294117647,3,2,2,35,1,0
123807,612.244897959184,3,2,2,35,1,0
124724,628.634292000629,3,2,2,35,1,0
126609,615.384615384615,3,2,2,35,1,0
128455,-90.9090909090909,3,2,2,40,0,0
130301,609.137055837563,3,2,2,40,1,0
130301,-90.9090909090909,3,2,2,40,0,0
135174,625,3,2,2,40,1,0
135174,-90.9090909090909,3,2,2,40,0,0
135799,610.687022900763,3,2,2,40,1,0
135799,-90.9090909090909,3,2,2,40,0,0
138547,621.761658031088,3,2,2,40,1,0
138547,-90.9090909090909,3,2,2,40,0,0
139479,610.687022900763,3,2,2,40,1,0
139479,-90.9090909090909,3,2,2,40,0,0
144975,616.966580976864,3,2,2,40,1,0
144975,-90.9090909090909,3,2,2,40,0,0
146517,631.578947368421,3,2,2,40,1,0
146517,-90.9090909090909,3,2,2,40,0,0
146832,606.060606060606,3,2,2,40,1,0
146832,-90.9090909090909,3,2,2,40,0,0
148347,638.297872340426,3,2,2,40,1,0
148347,-90.9090909090909,3,2,2,40,0,0
148666,618.556701030928,3,2,2,40,1,0
148666,-90.9090909090909,3,2,2,40,0,0
150212,645.161290322581,3,2,2,40,1,0
150212,-90.9090909090909,3,2,2,40,0,0
150534,612.244897959184,3,2,2,40,1,0
150534,-90.9090909090909,3,2,2,40,0,0
152370,582.52427184466,3,2,2,40,1,0
152370,-90.9090909090909,3,2,2,40,0,0
153243,638.297872340426,3,2,2,40,1,0
153243,-90.9090909090909,3,2,2,40,0,0
154200,606.060606060606,3,2,2,40,1,0
154200,-90.9090909090909,3,2,2,40,0,0
155412,625,3,2,2,40,1,0
155412,-90.9090909090909,3,2,2,40,0,0
156037,624.67464862051,3,2,2,50,1,0
156037,-200,3,2,2,50,0,0
157598,623.376623376623,3,2,2,50,1,0
157910,600,3,2,2,50,1,0
158810,-83.3333333333333,3,2,2,50,0,0
159110,-100,3,2,2,50,0,0
161210,-83.3333333333333,3,2,2,50,0,0
161360,-100,3,2,2,50,0,0
167210,-83.3333333333333,3,2,2,50,0,0
167510,-100,3,2,2,50,0,0
169010,-83.3333333333333,3,2,2,50,0,0
169460,-100,3,2,2,50,0,0
170510,-100,3,2,2,70,0,0
170660,-100,3,2,2,50,0,0
170810,-83.3333333333333,3,2,2,50,0,0
171260,-100,3,2,2,50,0,0
175610,-83.3333333333333,3,2,2,50,0,0
175760,-100,3,2,2,50,0,0
177710,-83.3333333333333,3,2,2,50,0,0
178010,-100,3,2,2,50,0,0
179210,-100,3,2,2,30,0,0
179360,-100,3,2,2,50,0,0
179514,600.06,3,2,2,50,1,0
184914,-100,3,2,3,30,0,0
185064,-100,3,2,2,50,0,0
186714,-90.9090909090909,3,2,2,55,0,0
191215,-90.9090909090909,3,2,2,40,0,0
191365,-90.9090909090909,3,2,2,55,0,0
192115,-90.9090909090909,3,2,3,55,0,0
192265,-90.9090909090909,3,2,2,55,0,0
193315,-90.9090909090909,3,2,3,55,0,0
193465,-90.9090909090909,3,2,2,55,0,0
199390,-90.9090909090909,3,2,2,5,0,0
199465,-90.9090909090909,3,2,2,55,0,0
199691,-90.9090909090909,3,2,2,5,0,0
199766,-90.9090909090909,3,2,2,55,0,0
199991,-90.9090909090909,3,2,2,5,0,0
200066,-66.6666666666667,3,2,2,55,0,0
200291,-66.6666666666667,3,2,2,5,0,0
200366,-66.6666666666667,3,2,2,55,0,0
200591,-66.6666666666667,3,2,2,5,0,0
200666,-66.6666666666667,3,2,2,55,0,0
200891,-66.6666666666667,3,2,2,5,0,0
201116,-90.9090909090909,3,2,2,55,0,0
206516,-90.9090909090909,3,2,2,70,0,0
206666,-90.9090909090909,3,2,2,55,0,0
208316,600.6,3,2,2,55,1,0
208316,-90.9090909090909,3,2,2,55,0,0
213721,597.341828861566,3,2,2,55,1,0
213721,-90.9090909090909,3,2,2,55,0,0
215513,600,3,2,2,55,1,0
215513,-90.9090909090909,3,2,2,55,0,0
219113,599.101347978033,3,2,2,55,1,0
219113,-90.9090909090909,3,2,2,55,0,0
220910,600,3,2,2,55,1,0
220910,-90.9090909090909,3,2,2,55,0,0
229910,600,3,2,2,55,1,0
229910,-90.9090909090909,3,2,2,55,0,0
238010,-90.9090909090909,3,2,2,80,0,0
238160,-90.9090909090909,3,2,2,55,0,0
242510,-133.333333333333,3,2,2,55,0,0
242960,-133.333333333333,3,2,2,30,0,0
243260,-133.333333333333,3,2,3,40,0,0
244010,-133.333333333333,3,2,2,60,0,0
244160,-133.333333333333,3,2,2,55,0,0
244310,631.578947368421,3,2,3,45,1,0
244310,-133.333333333333,3,2,3,45,0,0
255362,-133.333333333333,3,2,4,45,0,0
255520,-133.333333333333,3,2,3,45,0,0
257099,-133.333333333333,3,2,3,80,0,0
257257,-80,3,2,3,45,0,0
257415,-133.333333333333,3,2,3,45,0,0
257573,-133.333333333333,3,2,2,45,0,0
257731,-133.333333333333,3,2,3,45,0,0
259467,-133.333333333333,3,2,3,55,0,0
260731,-133.333333333333,3,2,2,55,0,0
260888,-133.333333333333,3,2,3,55,0,0
262625,-133.333333333333,3,2,2,40,0,0
262783,-133.333333333333,3,2,3,55,0,0
265152,-133.333333333333,3,2,2,40,0,0
265467,-133.333333333333,3,2,3,55,0,0
266020,-133.333333333333,3,2,3,80,0,0
266099,-133.333333333333,3,2,3,55,0,0
266415,-133.333333333333,3,2,4,55,0,0
266731,-133.333333333333,3,2,3,70,0,0
267204,-133.333333333333,3,2,3,55,0,0
268941,633.245382585752,3,2,3,55,1,0
269890,-80,3,2,3,55,0,0
270840,428.571428571429,4,2,3,70,1,0
270840,-200,4,2,3,70,0,0
270947,-200,4,2,2,70,0,0
271161,-200,4,2,3,40,0,0
271697,-181.818181818182,4,2,4,40,0,0
273411,-166.666666666667,4,2,4,40,0,0
274054,-166.666666666667,4,2,4,40,0,0
274268,-166.666666666667,4,2,4,30,0,0
274482,-166.666666666667,4,2,4,40,0,0
275125,-153.846153846154,4,2,4,40,0,0
275447,-153.846153846154,4,2,4,40,0,0
275768,-153.846153846154,4,2,4,40,0,0
276840,-142.857142857143,4,2,4,40,0,0
278554,-133.333333333333,4,2,4,40,0,0
280268,-125,4,2,4,40,0,0
281982,-117.647058823529,4,2,4,40,0,0
283697,-111.111111111111,4,2,4,40,0,0
289697,-111.111111111111,4,2,4,20,0,0
289804,-111.111111111111,4,2,4,40,0,0
298268,-100,4,2,4,40,0,0
303411,-100,4,2,3,39,0,0
303518,-100,4,2,4,40,0,0
311982,-80,4,2,4,40,0,0
312197,-100,4,2,4,40,0,0
313697,-100,4,2,3,40,0,0
313804,-100,4,2,4,40,0,0
314554,-100,4,2,2,40,0,0
315304,-100,4,2,4,40,0,0
316027,-86.9565217391304,4,2,4,40,0,0
316268,-100,4,2,4,40,0,0
316643,-100,4,2,3,40,0,0
317125,-100,4,2,4,40,0,0
318518,-100,4,2,2,40,0,0
318840,-100,4,2,3,40,0,0
319268,-100,4,2,4,40,0,0
319482,-100,4,2,3,40,0,0
323125,-100,4,2,2,40,0,0
323982,-100,4,2,3,40,0,0
325697,400.026668444563,4,1,5,80,1,1
325697,-90.9090909090909,4,1,5,80,0,1
325797,-90.9090909090909,4,1,5,70,0,0
334897,-133.333333333333,4,1,5,70,0,0
335197,-90.9090909090909,4,1,5,70,0,0
335397,-90.9090909090909,4,1,5,60,0,0
335697,-90.9090909090909,4,1,5,50,0,0
336197,-90.9090909090909,4,1,5,70,0,0
337297,-90.9090909090909,4,1,5,60,0,0
337797,-90.9090909090909,4,1,5,70,0,0
338097,-90.9090909090909,4,1,5,50,0,0
338397,-90.9090909090909,4,1,5,70,0,0
346298,-90.9090909090909,4,1,5,50,0,0
346798,-90.9090909090909,4,1,5,70,0,0
350098,-66.6666666666667,4,1,5,70,0,0
350198,-90.9090909090909,4,1,5,70,0,0
351298,-83.3333333333333,4,1,5,70,0,0
352498,-83.3333333333333,4,1,5,50,0,0
352698,-66.6666666666667,4,1,5,70,0,0
352798,-83.3333333333333,4,1,5,70,0,0
353298,-66.6666666666667,4,1,5,70,0,0
353498,-83.3333333333333,4,1,5,50,0,0
353698,-133.333333333333,4,1,5,70,0,0
353998,-83.3333333333333,4,1,5,70,0,0
354298,-83.3333333333333,4,1,5,50,0,0
354598,-83.3333333333333,4,1,5,70,0,0
354698,-100,4,1,5,60,0,0
355098,-83.3333333333333,4,1,5,70,0,0
355498,-76.9230769230769,4,1,5,60,0,0
355799,-83.3333333333333,4,1,5,70,0,0
356099,-83.3333333333333,4,1,5,50,0,0
356299,-76.9230769230769,4,1,5,70,0,0
356699,-83.3333333333333,4,1,5,70,0,0
356799,-83.3333333333333,4,1,5,50,0,0
357199,-83.3333333333333,4,1,5,70,0,0
357699,-83.3333333333333,4,1,5,100,0,0
357799,-83.3333333333333,4,1,5,70,0,0
359699,-66.6666666666667,4,1,5,70,0,0
359799,-83.3333333333333,4,1,5,70,0,0
360099,-66.6666666666667,4,1,5,70,0,0
360299,-66.6666666666667,4,1,5,65,0,0
360399,-83.3333333333333,4,1,5,70,0,0
360499,-83.3333333333333,4,1,5,50,0,0
360699,-66.6666666666667,4,1,5,60,0,0
360799,-66.6666666666667,4,1,5,70,0,0
360999,-83.3333333333333,4,1,5,70,0,0
361499,-66.6666666666667,4,1,5,70,0,0
361599,-83.3333333333333,4,1,5,70,0,0
362499,-66.6666666666667,4,1,5,70,0,0
362699,-83.3333333333333,4,1,5,70,0,0
362899,-50,4,1,3,70,0,0
362999,-83.3333333333333,4,1,5,70,0,0
363499,-50,4,1,3,70,0,0
363599,-83.3333333333333,4,1,5,70,0,0
364699,-83.3333333333333,4,1,3,50,0,0
365599,-83.3333333333333,4,1,5,70,0,0
365699,-83.3333333333333,4,1,5,50,0,0
365799,-83.3333333333333,4,1,5,70,0,0
365899,-100,4,1,5,70,0,0
366199,-83.3333333333333,4,1,5,70,0,0
367299,-83.3333333333333,4,1,5,40,0,0
367799,-83.3333333333333,4,1,5,70,0,0
370499,-83.3333333333333,4,1,5,60,0,0
370599,-83.3333333333333,4,1,5,70,0,0
372700,-83.3333333333333,4,1,3,70,0,0
373600,-83.3333333333333,4,1,5,70,0,0
376900,-66.6666666666667,4,1,5,70,0,1
382900,-57.1428571428571,4,1,5,70,0,1
383200,-66.6666666666667,4,1,5,70,0,1
383300,-66.6666666666667,4,1,5,70,0,0
384700,-57.1428571428571,4,1,5,70,0,0
384900,-54.054054054054,4,1,5,70,0,0
385100,-66.6666666666667,4,1,5,70,0,0
386501,-66.6666666666667,4,1,5,60,0,0
386601,-66.6666666666667,4,1,5,70,0,0
387901,-57.1428571428571,4,1,5,70,0,0
388101,-66.6666666666667,4,1,5,70,0,0
389301,-66.6666666666667,4,1,5,60,0,0
389701,-66.6666666666667,4,1,5,70,0,1
393901,-57.1428571428571,4,1,5,60,0,1
394201,-66.6666666666667,4,1,5,70,0,1
395701,-100,4,1,5,70,0,1
396001,-66.6666666666667,4,1,5,70,0,1
396101,-66.6666666666667,4,1,5,50,0,1
396301,-66.6666666666667,4,1,5,70,0,1
399301,-66.6666666666667,4,1,5,45,0,1
399401,-66.6666666666667,4,1,5,70,0,1
400501,-57.1428571428571,4,1,5,60,0,1
400802,-66.6666666666667,4,1,5,70,0,1
401402,-66.6666666666667,4,1,5,5,0,1
401452,-66.6666666666667,4,1,5,80,0,1
402202,-66.6666666666667,4,1,5,70,0,1
405702,-66.6666666666667,4,1,5,50,0,1
405902,-66.6666666666667,4,1,5,70,0,1
408902,-66.6666666666667,4,1,5,60,0,1
409002,-66.6666666666667,4,1,5,70,0,1
412102,-62.5,4,1,5,70,0,1
416703,-57.1428571428571,4,1,5,70,0,1
416803,-62.5,4,1,5,70,0,1
417003,-62.5,4,1,5,60,0,1
417203,-62.5,4,1,5,70,0,1
421703,-62.5,4,1,5,55,0,1
421753,-62.5,4,1,5,70,0,1
423703,-100,4,1,5,70,0,1
424003,-62.5,4,1,5,70,0,1
426903,-55.5555555555556,4,1,3,70,0,1
428103,-50,4,1,5,70,0,0
429703,-58.8235294117647,4,1,5,70,0,0
432904,-58.8235294117647,4,1,5,40,0,0
433104,-58.8235294117647,4,1,5,70,0,0
435304,-83.3333333333333,4,1,5,60,0,0
435504,-58.8235294117647,4,1,5,70,0,0
442404,400.026668444563,4,1,5,70,1,0
442404,-58.8235294117647,4,1,5,70,0,0
450505,400.026668444563,4,1,5,45,1,0
450505,-58.8235294117647,4,1,5,45,0,0
450605,-58.8235294117647,4,1,5,70,0,0
453705,393.44262295082,4,1,5,60,1,0
453705,-55.5555555555556,4,1,5,60,0,0
453803,-55.5555555555556,4,1,5,70,0,0
456852,391.517128874388,4,1,5,70,1,0
456852,-55.5555555555556,4,1,5,70,0,0
460082,-55.5555555555556,4,1,5,50,0,0
460179,-55.5555555555556,4,1,5,70,0,0
463116,393.44262295082,4,1,5,55,1,0
463116,-55.5555555555556,4,1,5,55,0,0
463214,-55.5555555555556,4,1,5,70,0,0
466263,400,4,2,3,60,1,0
469433,387.847446670976,4,2,3,60,1,0
472535,391.90181936746,4,1,5,70,1,0
472535,-52.6315789473684,4,1,5,70,0,0
472926,-52.6315789473684,4,1,5,40,0,0
473710,-52.6315789473684,4,1,5,45,0,0
474102,-52.6315789473684,4,1,5,50,0,0
474494,-52.6315789473684,4,1,5,55,0,0
475082,-52.6315789473684,4,1,5,60,0,0
475474,-52.6315789473684,4,1,5,40,0,0
475572,-52.6315789473684,4,1,5,60,0,0
476454,-52.6315789473684,4,1,5,70,0,0
477531,-52.6315789473684,4,1,5,60,0,0
478413,-133.333333333333,4,1,5,100,0,0
478805,384.615384615385,4,1,5,80,1,1
478805,-50,4,1,5,80,0,1
479333,-50,4,1,5,70,0,1
481497,-50,4,1,5,60,0,1
481881,-50,4,1,5,70,0,1
484189,-50,4,1,5,60,0,1
484670,-50,4,1,5,70,0,1
484958,-50,4,1,5,60,0,1
486112,-50,4,1,5,70,0,1
488035,-50,4,1,5,60,0,1
488420,-50,4,1,5,70,0,1
489093,-50,4,1,5,60,0,1
489478,-50,4,1,5,70,0,1
491112,-50,4,1,5,60,0,1
491497,-50,4,1,5,70,0,1
492266,-50,4,1,5,60,0,1
492555,-50,4,1,5,70,0,1
494189,-50,4,1,5,60,0,1
494670,-50,4,1,5,70,0,1
494958,-50,4,1,5,60,0,1
495343,-50,4,1,5,70,0,1
496305,-50,4,1,5,60,0,1
496593,-50,4,1,5,70,0,1
500343,-50,4,1,5,60,0,1
500728,-50,4,1,5,70,0,1
501497,-50,4,1,5,60,0,1
502074,-50,4,1,5,70,0,1
503420,400,4,1,5,70,1,0
503470,-100,4,2,2,5,0,0
511946,563.380281690141,4,2,2,5,1,0
512227,439.56043956044,4,2,2,5,1,0
512446,631.578947368421,4,2,2,10,1,0
512446,-66.6666666666667,4,2,2,10,0,0
512603,705.882352941176,4,2,2,10,1,0
512780,759.493670886076,4,2,2,10,1,0
512780,-66.6666666666667,4,2,2,10,0,0
513159,631.578947368421,4,2,2,10,1,0
513159,-66.6666666666667,4,2,2,10,0,0
514106,769.230769230769,4,2,2,10,1,0
514106,-66.6666666666667,4,2,2,10,0,0
514490,689.655172413793,4,2,2,10,1,0
514490,-66.6666666666667,4,2,2,10,0,0
514662,-66.6666666666667,4,2,2,5,0,0
514834,600,4,2,2,10,1,0
514834,-66.6666666666667,4,2,2,10,0,0
514984,-66.6666666666667,4,2,2,5,0,0
515134,566.037735849057,4,2,2,10,1,0
515134,-66.6666666666667,4,2,2,10,0,0
515700,612.244897959184,4,2,2,10,1,0
516005,833.333333333333,4,2,2,10,1,0
516005,-66.6666666666667,4,2,2,10,0,0
516213,731.707317073171,4,2,2,10,1,0
516395,585.365853658537,4,2,2,10,1,0
516395,-66.6666666666667,4,2,2,10,0,0
516688,382.165605095541,4,2,2,10,1,0
516974,333.333333333333,4,2,2,10,1,0
517140,437.956204379562,4,2,2,10,1,0
517249,535.714285714286,4,2,5,30,1,0
517249,-66.6666666666667,4,2,5,30,0,0
517583,-57.1428571428571,4,2,5,30,0,0
517784,-100,4,2,5,20,0,0
517985,622.116232049355,4,2,5,20,1,0
518062,538.116591928251,4,2,2,10,1,0
518062,-66.6666666666667,4,2,2,10,0,0
518600,533.333333333333,4,2,2,10,1,0
518866,428.571428571429,4,2,2,10,1,0
518866,-66.6666666666667,4,2,2,10,0,0
519080,359.281437125748,4,2,2,10,1,0
519259,604.534005037783,4,2,2,10,1,0
519259,-66.6666666666667,4,2,2,10,0,0
519523,530.973451327434,4,2,2,10,1,0
519523,-66.6666666666667,4,2,2,10,0,0
519764,458.015267175573,4,2,2,10,1,0
519993,441.176470588235,4,2,2,10,1,0
520103,410.958904109589,4,2,2,10,1,0
520308,461.538461538462,4,2,2,10,1,0
520423,447.761194029851,4,2,2,10,1,0
520423,-66.6666666666667,4,2,2,10,0,0
520646,550.45871559633,4,2,2,10,1,0
520921,545.454545454546,4,2,2,10,1,0
520921,-66.6666666666667,4,2,2,10,0,0
521193,521.739130434783,4,2,2,10,1,0
521323,566.037735849057,4,2,2,10,1,0
521464,521.739130434783,4,2,2,10,1,0
521464,-66.6666666666667,4,2,2,10,0,0
521724,550.45871559633,4,2,2,10,1,0
521724,-66.6666666666667,4,2,2,10,0,0
521999,392.156862745098,4,2,2,10,1,0
522369,500,4,2,2,10,1,0
522369,-83.3333333333333,4,2,2,10,0,0
522619,456.273764258555,4,2,2,10,1,0
522809,383.386581469649,4,2,2,10,1,0
523489,571.428571428571,4,2,2,10,1,0
523489,-90.9090909090909,4,2,2,10,0,0
523774,582.52427184466,4,2,2,10,1,0
524065,500,4,2,2,10,1,0
524065,-83.3333333333333,4,2,2,10,0,0
524315,631.578947368421,4,2,2,10,1,0
524630,560.747663551402,4,2,2,10,1,0
524630,-76.9230769230769,4,2,2,10,0,0
524910,810.810810810811,4,2,2,5,1,0
525112,-66.6666666666667,4,2,2,10,0,0
525518,-66.6666666666667,4,2,2,5,0,0
525718,1000,4,2,2,5,1,0
526718,1304.34782608696,4,2,2,5,1,0
531283,-100,4,2,5,30,0,0

[Colours]
Combo1 : 255,232,140
Combo2 : 145,30,30

[HitObjects]
71,318,38107,6,0,P|118:334|155:326,1,80,8|0,0:3|0:0,0:0:0:0:
273,297,38738,1,0,0:0:0:0:
119,260,39054,1,0,0:0:0:0:
285,278,39370,1,0,0:0:0:0:
107,241,39685,1,0,0:0:0:0:
363,159,40001,5,2,0:0:0:0:
212,122,40317,1,0,0:0:0:0:
411,102,40633,2,0,P|364:86|327:94,1,80,10|0,0:3|0:0,0:0:0:0:
184,141,41264,1,0,0:0:0:0:
363,267,41580,2,0,L|404:273,1,40,8|0,0:3|0:0,0:0:0:0:
306,337,41896,6,0,L|212:325,1,80,8|0,0:3|0:0,0:0:0:0:
61,200,42528,1,0,0:0:0:0:
242,146,42843,1,0,0:0:0:0:
54,165,43159,1,0,0:0:0:0:
223,313,43475,1,0,0:0:0:0:
54,165,43791,6,0,P|39:217|46:269,1,80,8|0,0:3|0:0,0:0:0:0:
268,140,44422,1,2,0:0:0:0:
52,222,44738,2,0,P|52:277|72:324,1,80,8|0,0:3|0:0,0:0:0:0:
241,337,45370,2,0,L|282:347,1,40,8|0,0:3|0:0,0:0:0:0:
201,247,45685,6,0,L|93:220,1,80,8|0,3:0|0:0,0:0:0:0:
309,57,46317,1,0,0:0:0:0:
404,112,46633,1,0,0:0:0:0:
448,220,46949,1,0,0:0:0:0:
376,312,47264,1,0,0:0:0:0:
260,344,47580,5,0,0:0:0:0:
106,94,47896,2,0,L|64:97,1,40,8|0,0:3|0:0,0:0:0:0:
130,23,48212,1,10,0:3:0:0:
252,0,48528,1,0,0:3:0:0:
436,88,48843,1,4,0:3:0:0:
268,144,49159,2,0,L|226:139,1,40,8|0,0:3|0:0,0:0:0:0:
170,41,49475,6,0,P|226:34|251:44,1,80,8|0,0:3|0:0,0:0:0:0:
375,116,50107,1,0,0:0:0:0:
221,181,50422,1,0,0:0:0:0:
392,251,50738,1,0,0:0:0:0:
205,178,51054,2,0,L|157:170,1,40,8|0,0:3|0:0,0:0:0:0:
269,119,51370,6,0,L|359:108,1,80,8|0,0:3|0:0,0:0:0:0:
210,294,52001,1,2,0:0:0:0:
337,225,52317,1,0,0:0:0:0:
176,132,52633,1,0,0:0:0:0:
356,221,52949,2,0,L|400:213,1,40,8|0,0:3|0:0,0:0:0:0:
346,332,53264,6,0,L|268:348,1,80,8|0,0:3|0:0,0:0:0:0:
108,303,53896,1,0,0:0:0:0:
24,240,54212,1,4,0:3:0:0:
12,152,54528,1,0,0:0:0:0:
68,80,54843,1,0,0:0:0:0:
208,36,55159,5,2,0:0:0:0:
372,108,55475,1,8,0:3:0:0:
192,176,55790,1,14,0:3:0:0:
372,243,56107,2,0,L|261:234,1,80,12|0,0:3|0:0,0:0:0:0:
128,341,56738,2,0,L|84:337,1,40,8|0,0:3|0:0,0:0:0:0:
182,265,57054,6,0,L|293:274,1,80,8|0,3:0|0:0,0:0:0:0:
389,225,57685,1,0,0:0:0:0:
251,242,58001,1,0,0:0:0:0:
411,323,58317,2,0,P|447:335|495:327,1,80,8|0,0:3|0:0,0:0:0:0:
317,137,58949,6,0,P|281:125|233:133,1,80,8|0,0:3|0:0,0:0:0:0:
116,192,59580,1,6,0:3:0:0:
253,91,59896,1,0,0:0:0:0:
63,78,60212,1,0,0:0:0:0:
265,19,60528,2,0,L|329:37,1,40,8|0,0:3|0:0,0:0:0:0:
238,94,60843,6,0,L|130:109,1,80,8|0,0:3|0:0,0:0:0:0:
330,148,61475,1,0,0:0:0:0:
177,140,61791,1,0,0:0:0:0:
366,233,62107,1,0,0:0:0:0:
194,310,62422,1,0,0:0:0:0:
416,240,62738,6,0,P|459:240|508:212,1,80,10|0,0:3|0:0,0:0:0:0:
302,174,63370,1,0,0:0:0:0:
442,93,63685,2,0,L|360:84,1,80,8|0,0:3|0:0,0:0:0:0:
181,331,64317,2,0,L|137:323,1,40,8|0,0:3|0:0,0:0:0:0:
253,342,64633,6,0,P|303:342|330:326,1,80,8|0,3:0|0:0,0:0:0:0:
174,239,65264,1,0,0:0:0:0:
360,303,65580,2,0,P|388:256|388:208,1,100,0|2,0:0|0:0,0:0:0:0:
222,165,66528,6,0,L|118:149,1,80,10|0,0:3|0:0,0:0:0:0:
298,102,67159,1,4,0:3:0:0:
139,180,67475,2,0,L|35:164,1,80,8|2,0:3|0:0,0:0:0:0:
216,88,68107,1,2,0:0:0:0:
452,336,68422,6,0,P|412:353|364:348,1,88.000002685547,8|0,0:3|0:0,0:0:0:0:
216,308,69054,1,0,0:0:0:0:
172,220,69370,1,0,0:0:0:0:
204,120,69685,1,0,0:0:0:0:
284,64,70001,1,0,0:0:0:0:
400,40,70317,53,2,0:0:0:0:
236,320,70633,2,0,P|195:338|136:328,1,88.000002685547,8|2,0:3|0:0,0:0:0:0:
8,224,71264,2,0,P|49:206|108:216,1,88.000002685547,8|0,0:3|0:0,0:0:0:0:
246,187,71896,2,0,P|271:194|290:195,1,44.0000013427735,8|0,0:3|0:0,0:0:0:0:
377,168,72212,6,0,P|421:153|479:166,1,88.000002685547,8|0,0:3|0:0,0:0:0:0:
296,98,72843,1,0,0:0:0:0:
429,237,73159,1,0,0:0:0:0:
247,310,73475,1,0,0:0:0:0:
441,74,73791,1,0,0:0:0:0:
229,318,74107,6,0,P|185:333|127:320,1,88.000002685547,8|0,0:3|0:0,0:0:0:0:
60,283,74738,1,2,0:0:0:0:
225,360,75054,2,0,P|178:363|125:335,1,88.000002685547,8|0,0:3|0:0,0:0:0:0:
10,179,75685,2,0,L|53:191,1,44.0000013427735,8|0,0:3|0:0,0:0:0:0:
135,146,76001,6,0,P|179:136|247:150,1,88.000002685547,8|0,0:3|0:0,0:0:0:0:
332,182,76633,1,0,0:0:0:0:
183,220,76949,1,0,0:0:0:0:
360,287,77264,1,0,0:0:0:0:
140,347,77580,1,0,0:0:0:0:
396,316,77896,6,0,P|440:323|492:292,1,88.000002685547,12|0,0:3|0:0,0:0:0:0:
265,354,78528,2,0,P|221:347|169:378,1,88.000002685547,10|0,0:3|0:0,0:0:0:0:
361,252,79159,1,0,0:0:0:0:
148,275,79475,2,0,L|106:263,1,44.0000013427735,8|0,0:3|0:0,0:0:0:0:
194,200,79791,6,0,P|242:212|281:203,1,88.000002685547,8|0,0:3|0:0,0:0:0:0:
123,144,80422,1,0,0:0:0:0:
278,203,80738,1,0,0:0:0:0:
89,285,81054,1,0,0:0:0:0:
299,192,81370,1,0,0:0:0:0:
101,112,81685,54,0,L|-3:132,1,88.000002685547,8|4,0:3|0:3,0:0:0:0:
195,172,82317,1,2,0:0:0:0:
46,290,82633,1,8,0:3:0:0:
168,208,82948,1,0,0:3:0:0:
12,120,83264,1,8,0:3:0:0:
208,104,83580,54,0,L|294:120,1,88.000002685547,8|0,0:3|0:0,0:0:0:0:
424,142,84212,1,0,0:0:0:0:
283,206,84528,1,0,0:0:0:0:
460,125,84843,1,0,0:0:0:0:
246,38,85159,1,0,0:0:0:0:
466,290,85475,5,0,0:0:0:0:
487,251,85632,1,0,0:0:0:0:
491,207,85790,1,8,0:3:0:0:
478,166,85948,1,0,0:0:0:0:
450,132,86106,1,10,0:3:0:0:
411,112,86264,1,0,0:0:0:0:
326,102,86422,2,0,L|240:118,1,88.000002685547,8|0,0:3|0:0,0:0:0:0:
91,345,87054,2,0,L|31:353,1,44.0000013427735,8|0,0:3|0:0,0:0:0:0:
145,290,87370,6,0,P|186:294|233:279,1,88.000002685547,8|0,0:3|0:0,0:0:0:0:
326,206,88001,1,0,0:0:0:0:
182,206,88317,1,0,0:0:0:0:
365,312,88633,1,0,0:0:0:0:
165,180,88949,2,0,L|121:173,1,44.0000013427735,0|0,0:0|0:0,0:0:0:0:
210,117,89264,6,0,P|243:130|296:130,1,88.000002685547,8|0,0:3|0:0,0:0:0:0:
142,65,89896,1,2,0:0:0:0:
339,288,90212,1,4,0:3:0:0:
182,206,90528,1,0,0:0:0:0:
376,105,90843,1,0,0:0:0:0:
167,68,91159,6,0,L|79:56,1,88.000002685547,8|0,0:3|0:0,0:0:0:0:
229,118,91791,1,0,0:0:0:0:
316,204,92107,1,0,0:0:0:0:
304,312,92422,1,0,0:0:0:0:
208,372,92738,1,0,0:0:0:0:
32,228,93054,6,0,P|72:244|132:248,1,88.000002685547,8|0,0:3|0:0,0:0:0:0:
301,189,93685,2,0,L|371:169,1,44.0000013427735,2|0,0:0|0:0,0:0:0:0:
216,125,94001,2,0,P|176:109|116:105,1,88.000002685547,8|0,0:3|0:0,0:0:0:0:
301,189,94633,2,0,L|371:169,1,44.0000013427735,0|0,0:0|0:0,0:0:0:0:
214,147,94949,6,0,P|171:141|112:153,1,88.000002685547,8|0,0:3|0:0,0:0:0:0:
321,264,95580,5,0,0:0:0:0:
173,234,95896,1,0,0:0:0:0:
350,90,96212,1,0,0:0:0:0:
151,246,96528,1,0,0:0:0:0:
368,368,96843,54,0,P|418:367|469:342,1,88.000002685547,8|0,0:3|0:0,0:0:0:0:
271,282,97475,1,2,0:0:0:0:
449,194,97800,1,0,0:0:0:0:
313,160,98125,5,2,0:0:0:0:
495,207,98450,1,2,0:0:0:0:
91,268,98775,6,0,P|51:276|11:273,1,80,10|0,0:3|0:0,0:0:0:0:
171,344,99400,2,0,P|211:336|250:338,1,80,0|0,0:0|0:0,0:0:0:0:
48,193,100025,2,0,L|71:105,1,80,0|0,0:0|0:0,0:0:0:0:
292,231,100650,6,0,P|368:216|448:236,1,160,2|0,0:2|0:0,0:0:0:0:
241,352,101532,2,0,P|166:368|86:348,1,160,2|10,0:2|0:3,0:0:0:0:
306,235,102474,6,0,P|321:167|252:89,1,160,10|0,0:3|0:0,0:0:0:0:
100,132,103401,2,0,P|85:200|154:278,1,160,2|0,0:0|0:0,0:0:0:0:
324,373,104336,6,0,L|408:360,1,80,10|0,0:3|0:0,0:0:0:0:
210,145,104948,2,0,L|126:132,1,80,0|0,0:0|0:0,0:0:0:0:
291,85,105560,5,2,0:0:0:0:
130,132,105845,1,2,0:0:0:0:
340,24,106178,6,0,P|374:77|320:162,1,160,10|0,0:3|0:0,0:0:0:0:
195,234,107105,1,2,0:0:0:0:
329,281,107415,1,2,0:0:0:0:
161,332,107724,1,2,0:0:0:0:
384,228,108033,6,0,P|403:287|328:356,1,160,10|0,0:3|0:0,0:0:0:0:
112,276,108961,2,0,P|92:216|167:147,1,160,10|2,0:3|0:0,0:0:0:0:
300,355,109889,6,0,L|398:365,1,80,10|0,0:3|0:0,0:0:0:0:
223,196,110507,2,0,L|125:206,1,80,0|0,0:0|0:0,0:0:0:0:
300,355,111126,2,0,L|398:365,1,80,0|0,0:0|0:0,0:0:0:0:
173,118,111745,54,0,L|161:31,1,80,8|0,0:3|0:0,0:0:0:0:
303,243,112363,2,0,L|315:156,1,80,0|0,0:0|0:0,0:0:0:0:
166,304,112982,5,2,0:0:0:0:
303,243,113291,1,10,0:3:0:0:
144,149,113600,6,0,P|106:162|63:154,1,80,10|0,0:3|0:0,0:0:0:0:
212,330,114229,2,0,P|250:317|293:325,1,80,0|0,0:0|0:0,0:0:0:0:
144,149,114859,2,0,P|106:162|63:154,1,80,0|0,0:0|0:0,0:0:0:0:
288,188,115489,6,0,P|309:144|236:42,1,160,10|0,0:3|0:0,0:0:0:0:
63,344,116409,2,0,P|124:363|233:345,1,160,2|2,0:0|0:0,0:0:0:0:
410,274,117330,6,0,P|456:248|368:128,1,240,10|4,0:3|0:3,0:0:0:0:
200,56,118560,1,0,0:0:0:0:
328,193,118868,1,0,0:0:0:0:
124,292,119176,6,0,P|83:302|44:298,1,80,10|0,0:3|0:0,0:0:0:0:
208,357,119807,2,0,P|249:347|288:351,1,80,0|0,0:0|0:0,0:0:0:0:
441,356,120439,2,0,P|459:301|403:237,1,120,2|0,0:0|0:0,0:0:0:0:
356,193,121070,6,0,L|254:195,1,80,10|0,0:3|0:0,0:0:0:0:
112,106,121688,2,0,L|214:108,1,80,0|0,0:0|0:0,0:0:0:0:
385,217,122307,2,0,L|283:219,1,80,0|0,0:0|0:0,0:0:0:0:
128,273,122925,6,0,P|100:221|172:138,1,160,10|0,0:3|0:0,0:0:0:0:
275,115,123807,1,2,0:0:0:0:
118,53,124113,1,0,0:0:0:0:
307,11,124419,1,2,0:0:0:0:
104,352,124724,6,0,L|202:362,1,80,8|0,0:3|0:0,0:0:0:0:
358,258,125352,2,0,L|260:268,1,80,0|0,0:0|0:0,0:0:0:0:
98,364,125981,2,0,L|196:374,1,80,0|8,0:0|0:3,0:0:0:0:
402,327,126609,54,0,L|417:222,1,80,10|0,0:3|0:0,0:0:0:0:
242,225,127224,2,0,L|227:120,1,80,0|0,0:0|0:0,0:0:0:0:
58,183,127839,5,2,0:0:0:0:
76,62,128147,1,2,0:0:0:0:
280,332,128455,6,0,P|219:350|174:344,1,88.000002685547,10|0,0:3|0:0,0:0:0:0:
29,260,129070,2,0,P|90:242|135:248,1,88.000002685547,0|0,0:0|0:0,0:0:0:0:
304,354,129685,2,0,P|243:372|198:366,1,88.000002685547,0|0,0:0|0:0,0:0:0:0:
29,260,130301,6,0,P|13:192|94:105,1,176.000005371094,10|0,0:3|0:0,0:0:0:0:
244,47,131214,2,0,P|260:115|179:202,1,176.000005371094,2|2,0:0|0:0,0:0:0:0:
40,355,132128,6,0,L|236:334,1,176.000005371094,10|0,0:3|0:0,0:0:0:0:
408,222,133042,2,0,L|212:201,1,176.000005371094,2|0,0:0|0:0,0:0:0:0:
428,88,133955,6,0,P|386:96|346:81,1,88.000002685547,10|0,0:3|0:0,0:0:0:0:
169,325,134564,2,0,P|212:316|252:331,1,88.000002685547,0|0,0:0|0:0,0:0:0:0:
391,326,135174,5,2,0:0:0:0:
228,308,135486,1,2,0:0:0:0:
476,240,135799,6,0,P|499:179|422:95,1,176.000005371094,10|0,0:3|0:0,0:0:0:0:
206,205,136715,1,2,0:0:0:0:
384,287,137020,1,2,0:0:0:0:
180,360,137325,1,2,0:0:0:0:
416,250,137631,6,0,P|439:189|362:105,1,176.000005371094,10|0,0:3|0:0,0:0:0:0:
196,92,138547,2,0,P|104:124|88:196,1,176.000005371094,10|10,0:3|0:3,0:0:0:0:
272,205,139479,6,0,L|369:191,1,88.000002685547,10|0,0:3|0:0,0:0:0:0:
200,307,140089,2,0,L|103:293,1,88.000002685547,0|0,0:0|0:0,0:0:0:0:
296,237,140700,2,0,L|393:223,1,88.000002685547,0|0,0:0|0:0,0:0:0:0:
189,92,141311,6,0,P|143:99|91:85,1,88.000002685547,0|0,0:0|0:0,0:0:0:0:
267,31,141921,2,0,P|313:24|365:38,1,88.000002685547,0|0,0:0|0:0,0:0:0:0:
147,21,142532,53,2,0:0:0:0:
309,106,142837,1,2,0:0:0:0:
79,328,143143,6,0,B|140:283|191:358|263:304,1,176.000005371094,10|0,0:3|0:0,0:0:0:0:
387,344,144059,1,2,0:0:0:0:
276,348,144364,1,2,0:0:0:0:
464,192,144669,1,2,0:0:0:0:
245,251,144975,6,0,P|200:254|158:243,1,88.000002685547,10|0,0:3|0:0,0:0:0:0:
304,112,145591,2,0,P|349:109|391:120,1,88.000002685547
260,128,146208,1,0,0:0:0:0:
93,346,146517,2,0,L|51:336,1,44.0000013427735,2|2,0:0|0:0,0:0:0:0:
164,320,146832,6,0,P|217:315|330:358,1,176.000005371094,10|0,0:3|0:0,0:0:0:0:
452,323,147741,1,2,0:0:0:0:
267,308,148044,1,2,0:0:0:0:
445,340,148347,1,2,0:0:0:0:
220,148,148666,6,0,P|184:184|245:281,1,176.000005371094,2|0,0:0|0:0,0:0:0:0:
391,198,149593,2,0,P|427:162|363:61,1,176.000005371094,2|2,0:0|0:0,0:0:0:0:
176,76,150534,6,0,P|93:96|-1:68,1,176.000005371094,10|0,0:3|0:0,0:0:0:0:
216,336,151452,2,0,P|299:316|393:344,1,176.000005371094,2|2,0:0|0:0,0:0:0:0:
166,323,152370,6,0,P|146:264|228:194,1,176.000005371094,10|0,0:3|0:0,0:0:0:0:
374,236,153243,2,0,P|394:177|312:107,1,176.000005371094,10|8,0:3|0:3,0:0:0:0:
168,181,154200,54,0,L|64:164,1,88.000002685547,10|0,0:3|0:0,0:0:0:0:
280,91,154806,2,0,L|384:74,1,88.000002685547,0|0,0:0|0:0,0:0:0:0:
141,226,155412,2,0,L|37:209,1,88.000002685547,0|0,0:0|0:0,0:0:0:0:
436,366,156037,6,0,P|491:337|429:246,1,200,2|0,0:0|0:0,0:0:0:0:
56,352,157910,6,0,L|45:329,2,20,12|0|0,0:1|0:0|0:0,0:0:0:0:
211,357,158210,1,2,0:2:0:0:
244,324,158360,1,0,0:0:0:0:
248,276,158510,1,2,3:0:0:0:
224,232,158660,1,0,0:0:0:0:
182,217,158810,2,0,L|74:204,1,95.9999970703126,2|0,0:0|3:0,0:0:0:0:
278,148,159410,2,0,L|346:140,1,40,10|0,0:3|0:0,0:0:0:0:
234,76,159710,6,0,L|126:92,1,80,14|0,0:3|0:0,0:0:0:0:
300,184,160310,1,8,0:1:0:0:
87,204,160610,1,2,0:0:0:0:
198,169,160760,1,0,0:0:0:0:
87,204,160910,1,2,3:2:0:0:
52,168,161060,1,0,0:0:0:0:
48,120,161210,1,10,0:3:0:0:
76,80,161360,1,0,0:0:0:0:
123,64,161510,54,0,L|179:72,1,40,12|0,1:0|0:0,0:0:0:0:
301,334,161810,2,0,L|262:328,1,40,2|0,0:0|0:0,0:0:0:0:
123,64,162110,2,0,L|179:72,1,40,2|0,3:2|0:0,0:0:0:0:
301,334,162410,2,0,L|409:318,1,80,2|0,0:0|3:0,0:0:0:0:
227,247,163010,2,0,L|171:255,1,40,8|0,0:1|0:0,0:0:0:0:
317,126,163310,6,0,L|377:118,2,40,2|0|0,0:2|0:0|0:0,0:0:0:0:
162,69,163910,1,0,3:0:0:0:
348,299,164210,2,0,L|432:300,1,80,8|0,0:3|3:0,0:0:0:0:
223,355,164810,1,0,3:0:0:0:
150,319,164960,1,0,3:0:0:0:
117,243,165110,6,0,L|123:163,1,80,10|2,1:0|0:0,0:0:0:0:
251,115,165560,2,0,L|307:123,1,40,0|2,0:0|3:0,0:0:0:0:
168,49,166010,1,0,0:0:0:0:
375,134,166310,1,0,3:0:0:0:
180,237,166610,2,0,L|140:241,1,40,10|10,0:3|0:3,0:0:0:0:
245,348,166910,6,0,L|285:344,1,40,10|0,0:3|0:0,0:0:0:0:
424,252,167210,2,0,L|329:262,1,95.9999970703126,2|0,0:0|3:0,0:0:0:0:
106,125,167810,2,0,L|186:117,1,80,2|0,0:0|3:0,0:0:0:0:
419,72,168410,2,0,L|471:40,1,40,10|8,0:3|0:3,0:0:0:0:
344,164,168710,6,0,L|292:132,1,40,2|2,1:0|0:0,0:0:0:0:
463,351,169010,2,0,P|491:294|431:214,1,143.999995605469,6|0,0:3|0:0,0:0:0:0:
368,182,169610,2,0,L|236:203,1,120,2|0,0:0|0:0,0:0:0:0:
154,163,170210,2,0,L|95:148,1,40,10|0,0:3|0:0,0:0:0:0:
228,92,170510,54,0,L|287:77,1,40,14|10,3:1|0:3,0:0:0:0:
109,277,170810,2,0,P|81:220|141:140,1,143.999995605469,10|0,0:3|0:0,0:0:0:0:
214,337,171410,2,0,L|346:358,1,120,10|0,0:3|0:0,0:0:0:0:
457,293,172010,2,0,L|475:244,1,40,10|0,0:3|0:0,0:0:0:0:
237,28,172310,6,0,L|156:39,1,80,14|8,3:2|0:3,0:0:0:0:
88,75,172760,1,0,0:0:0:0:
44,139,172910,2,0,P|30:187|122:309,1,200,2|0,3:0|0:0,0:0:0:0:
211,283,173810,1,8,0:1:0:0:
249,203,173960,1,0,0:0:0:0:
220,130,174110,5,10,1:2:0:0:
152,85,174260,1,0,0:0:0:0:
71,83,174410,2,0,L|55:43,1,40,8|0,0:3|0:0,0:0:0:0:
188,344,174710,2,0,L|204:304,1,40,8|8,0:3|0:3,0:0:0:0:
68,368,175010,2,0,P|44:319|87:254,1,120,10|0,0:3|0:0,0:0:0:0:
212,368,175610,2,0,L|268:356,1,47.9999985351563,10|0,0:3|0:0,0:0:0:0:
383,251,175910,6,0,L|334:242,1,40,12|0,1:2|0:0,0:0:0:0:
223,210,176210,1,0,0:0:0:0:
128,173,176360,2,0,P|117:123|137:86,1,80,2|0,0:1|0:0,0:0:0:0:
223,210,176810,2,0,L|350:197,1,120,10|0,0:3|0:0,0:0:0:0:
458,131,177410,2,0,L|418:119,1,40,10|8,0:3|0:3,0:0:0:0:
286,240,177710,54,0,L|174:252,1,95.9999970703126,10|2,0:3|0:0,0:0:0:0:
75,214,178160,2,0,L|88:142,1,40,0|8,0:0|0:1,0:0:0:0:
286,240,178610,2,0,L|298:288,1,40,10|0,0:3|0:0,0:0:0:0:
203,230,178910,1,10,0:0:0:0:
177,140,179060,1,2,0:0:0:0:
225,59,179210,1,14,0:1:0:0:
311,36,179360,1,2,0:0:0:0:
445,350,179514,6,0,L|365:346,1,80,10|2,0:3|3:0,0:0:0:0:
229,338,179964,2,0,L|215:277,1,40,0|0,0:0|0:0,0:0:0:0:
408,233,180414,2,0,L|422:172,1,40,2|0,3:0|0:0,0:0:0:0:
278,189,180714,2,0,L|174:185,1,80,2|2,0:0|0:0,0:0:0:0:
48,177,181314,6,0,L|34:116,1,40,8|0,1:2|0:0,0:0:0:0:
172,90,181614,2,0,L|186:29,1,40,10|0,0:3|0:0,0:0:0:0:
52,203,181914,2,0,L|12:223,1,40,10|2,0:3|0:0,0:0:0:0:
162,334,182214,2,0,L|198:316,1,40,10|0,0:3|0:0,0:0:0:0:
342,381,182514,2,0,L|248:375,1,80,8|2,0:3|0:0,0:0:0:0:
140,346,182964,1,2,0:0:0:0:
267,307,183114,6,0,L|307:303,1,40,14|0,1:2|0:0,0:0:0:0:
190,256,183414,1,2,3:3:0:0:
309,150,183564,2,0,L|189:162,1,120,0|10,0:0|0:3,0:0:0:0:
49,74,184164,2,0,L|128:67,1,80,8|0,0:3|0:0,0:0:0:0:
253,56,184614,1,2,0:0:0:0:
472,304,184914,5,8,0:2:0:0:
480,248,185064,1,0,0:0:0:0:
448,200,185214,1,2,0:0:0:0:
343,153,185364,2,0,P|303:157|259:169,1,80,0|0,0:0|0:0,0:0:0:0:
125,253,185814,2,0,L|264:284,1,120,8|0,3:0|0:0,0:0:0:0:
398,350,186414,2,0,L|337:363,1,40,10|0,0:3|0:0,0:0:0:0:
103,360,186714,6,0,P|81:301|96:262,1,88.000002685547,10|2,0:3|3:0,0:0:0:0:
152,215,187164,1,0,0:0:0:0:
289,242,187314,2,0,L|306:300,1,44.0000013427735,2|0,0:0|0:0,0:0:0:0:
152,215,187614,2,0,P|130:165|185:90,1,132.00000402832,8|0,0:3|0:0,0:0:0:0:
280,256,188214,2,0,L|297:314,1,44.0000013427735,10|2,0:3|0:0,0:0:0:0:
119,74,188514,6,0,L|257:64,1,132.00000402832,14|0,0:2|0:0,0:0:0:0:
404,102,189114,1,2,0:0:0:0:
451,176,189264,1,0,0:0:0:0:
434,265,189414,1,10,0:3:0:0:
371,328,189565,1,2,0:0:0:0:
230,287,189715,2,0,L|160:301,1,44.0000013427735,2|0,0:0|0:0,0:0:0:0:
318,199,190015,2,0,L|362:207,1,44.0000013427735,8|0,0:3|0:0,0:0:0:0:
230,287,190315,54,0,L|144:272,1,88.000002685547,14|2,1:2|0:0,0:0:0:0:
70,220,190765,1,0,0:0:0:0:
206,195,190915,2,0,L|292:180,1,88.000002685547,2|8,0:0|3:1,0:0:0:0:
120,125,191515,1,0,0:0:0:0:
335,100,191815,2,0,L|379:92,1,44.0000013427735,10|0,0:3|0:0,0:0:0:0:
247,46,192115,1,12,0:1:0:0:
397,133,192415,6,0,L|441:141,1,44.0000013427735,8|0,0:3|0:0,0:0:0:0:
289,35,192715,1,2,0:0:0:0:
250,108,192865,1,0,0:0:0:0:
265,185,193015,1,10,0:3:0:0:
324,234,193165,1,2,0:0:0:0:
459,266,193315,1,6,0:1:0:0:
270,345,193615,2,0,L|226:353,1,44.0000013427735,8|0,0:3|0:0,0:0:0:0:
86,256,193915,6,0,L|195:265,1,88.000002685547,14|2,0:2|0:0,0:0:0:0:
263,224,194365,1,2,0:0:0:0:
120,138,194515,1,8,0:1:0:0:
328,272,194815,2,0,P|344:212|278:150,1,132.00000402832,8|0,0:3|0:0,0:0:0:0:
206,130,195415,1,10,0:3:0:0:
322,82,195565,1,0,0:0:0:0:
179,139,195715,54,0,L|73:83,1,88.000002685547,2|0,0:0|0:0,0:0:0:0:
341,342,196615,2,0,L|345:290,1,44.0000013427735,10|0,0:3|0:0,0:0:0:0:
203,268,196915,1,2,0:0:0:0:
368,364,197215,2,0,L|354:314,1,44.0000013427735,8|8,0:3|0:3,0:0:0:0:
186,302,197515,6,0,L|76:313,1,88.000002685547,14|2,0:2|0:0,0:0:0:0:
33,268,197965,1,2,0:0:0:0:
142,195,198115,1,8,0:1:0:0:
389,226,198415,2,0,P|405:166|339:104,1,132.00000402832,8|0,0:3|0:0,0:0:0:0:
249,89,199015,1,10,0:3:0:0:
377,42,199165,1,2,0:0:0:0:
248,56,199315,6,0,L|212:48,1,22.0000006713867,14|14,1:2|1:2,0:0:0:0:
367,230,199616,2,0,L|403:222,1,22.0000006713867,2|0,0:0|0:0,0:0:0:0:
210,81,199916,2,0,L|174:73,1,22.0000006713867,2|0,0:0|0:0,0:0:0:0:
414,346,200216,6,0,L|450:307,1,30.0000011444092,2|0,0:0|0:0,0:0:0:0:
258,235,200516,2,0,L|234:191,1,30.0000011444092,2|0,0:0|0:0,0:0:0:0:
59,248,200816,2,0,L|18:228,1,30.0000011444092,10|0,0:1|0:0,0:0:0:0:
373,83,201116,6,0,P|436:88|486:62,1,88.000002685547,10|0,1:0|0:0,0:0:0:0:
359,73,201566,1,2,0:0:0:0:
471,183,201716,1,2,0:0:0:0:
230,352,202016,2,0,P|207:283|263:242,1,132.00000402832,0|0,0:0|0:0,0:0:0:0:
382,195,202616,2,0,L|310:191,1,44.0000013427735,10|0,0:3|0:0,0:0:0:0:
205,126,202916,6,0,L|118:134,1,88.000002685547,10|0,0:3|0:0,0:0:0:0:
38,85,203366,1,0,0:0:0:0:
158,41,203516,1,8,0:1:0:0:
378,333,203816,2,0,L|421:322,1,44.0000013427735,10|0,0:3|0:0,0:0:0:0:
305,285,204116,1,2,0:0:0:0:
264,215,204266,1,0,0:0:0:0:
281,133,204416,1,0,0:0:0:0:
350,76,204566,1,0,0:0:0:0:
484,127,204716,6,0,L|376:143,1,88.000002685547,14|2,1:0|0:0,0:0:0:0:
313,108,205166,1,0,0:0:0:0:
441,226,205316,2,0,L|429:286,1,44.0000013427735,2|0,0:0|0:0,0:0:0:0:
282,136,205616,2,0,L|294:196,1,44.0000013427735,10|8,0:3|0:3,0:0:0:0:
441,226,205916,2,0,L|498:220,1,44.0000013427735,10|0,0:3|0:0,0:0:0:0:
335,328,206216,2,0,L|277:333,1,44.0000013427735,8|0,0:3|0:0,0:0:0:0:
146,288,206516,5,14,0:1:0:0:
350,170,206816,1,2,0:0:0:0:
230,146,206966,1,0,0:0:0:0:
359,80,207116,1,2,0:0:0:0:
270,226,207266,1,2,0:0:0:0:
398,61,207416,2,0,L|346:85,1,44.0000013427735,8|0,0:3|0:0,0:0:0:0:
218,231,207716,2,0,L|270:255,1,44.0000013427735,10|0,0:3|0:0,0:0:0:0:
413,84,208016,2,0,L|424:132,1,44.0000013427735,10|2,0:3|0:0,0:0:0:0:
268,184,208316,6,0,L|260:236,1,44.0000013427735,12|0,0:2|0:0,0:0:0:0:
119,313,208616,1,2,0:0:0:0:
232,256,208766,1,0,0:0:0:0:
124,226,208916,1,2,0:0:0:0:
224,280,209066,1,2,0:0:0:0:
102,216,209216,1,10,0:3:0:0:
274,155,209517,5,0,0:0:0:0:
76,202,209817,1,10,2:1:0:0:
31,140,209967,1,2,2:0:0:0:
41,64,210117,1,0,2:0:0:0:
103,21,210267,1,2,2:0:0:0:
240,346,210418,2,0,L|184:334,1,44.0000013427735,8|8,0:3|0:3,0:0:0:0:
41,250,210718,2,0,L|127:233,1,88.000002685547,8|2,0:3|3:0,0:0:0:0:
292,143,211168,2,0,L|206:126,1,88.000002685547,2|0,0:0|0:0,0:0:0:0:
58,349,211619,6,0,L|101:358,1,44.0000013427735,10|0,0:3|0:0,0:0:0:0:
267,101,211919,2,0,L|180:83,1,88.000002685547,10|2,0:3|0:0,0:0:0:0:
37,348,212370,2,0,L|123:365,1,88.000002685547,0|2,0:0|0:0,0:0:0:0:
287,340,212820,2,0,P|370:341|439:300,1,132.00000402832,8|0,0:3|0:0,0:0:0:0:
286,249,213421,1,8,0:3:0:0:
413,321,213571,1,2,0:0:0:0:
259,332,213721,5,8,1:2:0:0:
469,187,214019,1,2,0:0:0:0:
351,160,214169,1,2,0:0:0:0:
492,179,214318,2,0,L|484:131,1,44.0000013427735,8|0,0:3|0:0,0:0:0:0:
343,116,214617,2,0,L|351:164,1,44.0000013427735,8|0,0:3|0:0,0:0:0:0:
486,331,214915,2,0,L|438:329,1,44.0000013427735,8|0,0:3|0:0,0:0:0:0:
305,258,215214,2,0,L|353:256,1,44.0000013427735,10|0,0:3|0:0,0:0:0:0:
50,120,215513,5,12,0:2:0:0:
256,332,215813,1,2,0:0:0:0:
168,308,215963,1,0,0:0:0:0:
244,362,216113,1,2,0:0:0:0:
451,118,216413,2,0,P|395:126|343:114,1,88.000002685547,10|2,0:3|0:0,0:0:0:0:
118,48,217013,2,0,P|174:40|226:52,1,88.000002685547,10|8,0:3|0:1,0:0:0:0:
368,345,217613,6,0,L|428:327,1,44.0000013427735,10|0,0:3|0:0,0:0:0:0:
257,318,217913,1,0,0:0:0:0:
462,310,218213,2,0,L|465:252,1,44.0000013427735,2|0,0:0|0:0,0:0:0:0:
314,221,218513,2,0,L|254:203,1,44.0000013427735,10|0,0:1|0:0,0:0:0:0:
420,147,218813,2,0,L|480:129,1,44.0000013427735,10|8,0:3|0:3,0:0:0:0:
314,49,219113,6,0,L|218:78,1,88.000002685547,10|2,0:3|0:0,0:0:0:0:
89,39,219562,1,0,3:0:0:0:
229,74,219712,1,2,0:0:0:0:
458,315,220011,2,0,P|410:340|362:344,1,88.000002685547,10|2,0:3|0:0,0:0:0:0:
138,339,220610,2,0,P|186:314|234:310,1,88.000002685547,2|8,0:0|0:1,0:0:0:0:
384,372,221210,53,2,0:0:0:0:
384,292,221360,1,0,0:0:0:0:
336,220,221510,1,2,0:0:0:0:
256,184,221660,1,0,0:0:0:0:
388,324,221810,2,0,L|401:268,1,44.0000013427735,10|0,0:3|0:0,0:0:0:0:
244,204,222110,1,8,0:1:0:0:
366,177,222260,1,0,0:0:0:0:
227,206,222410,2,0,L|214:150,1,44.0000013427735,10|8,0:3|0:3,0:0:0:0:
353,71,222710,6,0,L|305:92,1,44.0000013427735,12|0,0:2|0:0,0:0:0:0:
147,78,223010,1,2,0:0:0:0:
253,212,223160,1,2,0:0:0:0:
133,182,223310,1,8,0:1:0:0:
253,212,223460,1,2,0:0:0:0:
82,193,223610,6,0,L|14:168,1,44.0000013427735,10|0,0:3|0:0,0:0:0:0:
182,64,223910,1,2,0:0:0:0:
419,331,224210,1,10,0:3:0:0:
178,377,224510,6,0,L|122:364,1,44.0000013427735,8|0,0:3|0:0,0:0:0:0:
265,335,224810,1,2,0:0:0:0:
294,238,224960,1,0,0:0:0:0:
253,137,225110,1,10,0:1:0:0:
162,93,225260,1,2,0:0:0:0:
295,50,225410,6,0,L|337:34,1,44.0000013427735,8|0,0:3|0:0,0:0:0:0:
208,5,225710,1,8,0:1:0:0:
416,7,226010,1,6,1:0:0:0:
184,212,226310,54,0,P|157:232|132:236,1,44.0000013427735,8|0,0:3|0:0,0:0:0:0:
36,201,226610,1,2,0:0:0:0:
182,247,226760,1,0,0:0:0:0:
36,201,226910,1,8,0:1:0:0:
204,160,227060,1,2,0:0:0:0:
64,173,227210,6,0,L|70:119,1,44.0000013427735,10|0,1:3|0:0,0:0:0:0:
204,76,227510,1,8,0:1:0:0:
392,320,227810,2,0,L|348:316,1,44.0000013427735,10|0,0:3|0:0,0:0:0:0:
194,376,228110,6,0,L|238:372,1,44.0000013427735,8|0,0:3|0:0,0:0:0:0:
348,316,228410,1,2,0:0:0:0:
392,221,228560,1,0,0:0:0:0:
380,116,228710,1,8,0:1:0:0:
301,54,228860,1,2,0:0:0:0:
151,89,229010,6,0,L|115:105,2,29.3333342285157,6|8|8,1:2|0:1|0:2,0:0:0:0:
243,132,229310,1,0,1:0:0:0:
60,148,229610,1,14,0:1:0:0:
348,316,229910,6,0,P|394:326|452:312,1,88.000002685547,8|10,0:3|0:3,0:0:0:0:
288,261,230360,1,0,0:0:0:0:
410,360,230510,2,0,P|455:349|502:312,1,88.000002685547,10|10,0:3|0:3,0:0:0:0:
392,239,230960,5,10,0:1:0:0:
237,133,231110,2,0,L|191:146,1,44.0000013427735,10|0,0:3|0:0,0:0:0:0:
275,61,231410,1,10,0:3:0:0:
166,156,231560,1,0,0:0:0:0:
305,68,231710,54,0,L|394:94,1,88.000002685547,10|10,1:3|0:3,0:0:0:0:
254,254,232160,1,0,0:0:0:0:
411,98,232310,2,0,L|429:47,1,44.0000013427735,10|0,0:3|0:0,0:0:0:0:
268,295,232610,6,0,L|250:244,1,44.0000013427735,8|0,0:3|0:0,0:0:0:0:
401,123,232910,2,0,L|381:163,1,44.0000013427735,10|0,0:3|0:0,0:0:0:0:
230,371,233210,2,0,L|186:373,1,44.0000013427735,10|0,0:3|0:0,0:0:0:0:
40,272,233510,54,0,P|81:289|132:296,1,88.000002685547,14|10,1:2|3:3,0:0:0:0:
241,255,233960,1,0,3:0:0:0:
79,337,234110,2,0,P|123:335|172:319,1,88.000002685547,10|10,0:3|0:3,0:0:0:0:
292,343,234560,5,2,0:0:0:0:
132,170,234710,2,0,L|91:130,1,44.0000013427735,14|0,0:1|0:0,0:0:0:0:
234,79,235010,2,0,L|275:39,1,44.0000013427735,10|0,0:3|0:0,0:0:0:0:
122,187,235310,6,0,L|81:147,1,44.0000013427735,14|0,1:2|0:0,0:0:0:0:
243,212,235610,2,0,L|254:281,1,44.0000013427735,10|0,0:3|0:0,0:0:0:0:
383,158,235910,2,0,L|394:227,1,44.0000013427735,14|0,0:1|0:0,0:0:0:0:
242,58,236210,6,0,L|231:127,1,44.0000013427735,10|0,0:3|0:0,0:0:0:0:
79,270,236510,2,0,L|90:339,1,44.0000013427735,14|0,0:1|0:0,0:0:0:0:
255,336,236810,2,0,L|292:361,1,44.0000013427735,10|0,0:3|0:0,0:0:0:0:
455,271,237110,6,0,L|401:285,1,44.0000013427735,10|0,0:3|0:0,0:0:0:0:
268,188,237410,2,0,L|322:202,1,44.0000013427735,8|0,0:3|0:0,0:0:0:0:
477,60,237710,2,0,L|369:92,1,88.000002685547,8|12,0:3|3:3,0:0:0:0:
248,23,238160,5,0,3:0:0:0:
164,76,238310,1,8,0:3:0:0:
142,172,238460,1,0,0:0:0:0:
184,257,238610,1,12,0:1:0:0:
273,304,238760,1,0,0:0:0:0:
439,263,238910,5,14,1:2:0:0:
243,314,239210,1,8,0:3:0:0:
349,351,239360,1,0,0:0:0:0:
196,296,239510,2,0,L|144:311,1,44.0000013427735,8|0,0:3|0:0,0:0:0:0:
278,197,239810,6,0,L|330:212,1,44.0000013427735,10|0,0:3|0:0,0:0:0:0:
166,160,240110,1,8,0:3:0:0:
275,115,240260,1,10,0:1:0:0:
135,71,240410,1,10,0:3:0:0:
278,197,240560,1,0,0:0:0:0:
136,149,240710,6,0,L|88:133,1,44.0000013427735,14|0,1:2|0:0,0:0:0:0:
232,295,241010,2,0,L|243:344,1,44.0000013427735,8|0,0:3|0:0,0:0:0:0:
85,261,241310,2,0,L|133:245,1,44.0000013427735,8|0,0:3|0:0,0:0:0:0:
265,112,241610,54,0,L|223:125,1,44.0000013427735,10|0,0:3|0:0,0:0:0:0:
72,65,241910,2,0,L|80:21,1,44.0000013427735,10|0,0:3|0:0,0:0:0:0:
256,207,242210,2,0,L|298:220,1,44.0000013427735,10|0,0:3|0:0,0:0:0:0:
66,336,242510,6,0,P|42:283|81:228,1,120.000004577637,10|0,0:3|0:0,0:0:0:0:
446,336,243410,2,0,P|470:283|431:228,1,120.000004577637,10|2,0:2|0:0,0:0:0:0:
66,336,244310,53,4,3:1:0:0:
317,359,245257,1,2,0:3:0:0:
144,319,245888,1,0,0:0:0:0:
352,324,246204,6,0,P|356:288|337:250,1,60.0000022888184,0|8,3:0|0:3,0:0:0:0:
263,211,246678,2,0,L|203:213,1,60.0000022888184,0|0,0:3|0:0,0:0:0:0:
116,160,247152,1,0,0:0:0:0:
291,94,247467,1,2,0:3:0:0:
75,139,247783,1,0,0:0:0:0:
329,330,248099,6,0,L|336:266,1,60.0000022888184,4|8,3:1|0:3,0:0:0:0:
476,242,248573,2,0,L|465:171,1,60.0000022888184,8|8,0:3|0:3,0:0:0:0:
332,181,249046,1,2,0:3:0:0:
494,242,249362,1,8,0:3:0:0:
302,348,249678,1,2,0:2:0:0:
110,321,249994,6,0,P|72:272|144:200,1,180.000006866455,6|2,3:2|3:3,0:0:0:0:
315,320,251257,1,0,0:0:0:0:
168,268,251573,1,0,3:0:0:0:
368,248,251888,6,0,P|381:200|335:130,1,120.000004577637,2|0,3:2|0:0,0:0:0:0:
193,185,252836,2,0,P|180:137|226:67,1,120.000004577637,2|0,0:3|3:0,0:0:0:0:
291,70,253625,1,0,0:0:0:0:
392,256,253783,6,0,P|405:208|359:138,1,120.000004577637,4|0,3:3|0:0,0:0:0:0:
156,344,254731,2,0,L|20:339,1,120.000004577637,2|4,0:0|0:3,0:0:0:0:
256,368,255678,6,0,L|268:299,1,60.0000022888184,0|8,3:0|0:3,0:0:0:0:
418,259,256152,2,0,L|399:195,1,60.0000022888184,0|0,0:0|0:0,0:0:0:0:
236,376,256625,2,0,L|248:307,1,60.0000022888184,8|0,0:0|0:0,0:0:0:0:
401,297,257099,1,2,0:3:0:0:
425,208,257257,1,8,3:3:0:0:
379,122,257415,1,0,0:0:0:0:
296,75,257573,5,12,1:0:0:0:
106,278,259467,6,0,P|80:227|134:179,1,120.000004577637,0|0,3:0|0:0,0:0:0:0:
254,184,260415,2,0,L|263:118,1,60.0000022888184,2|12,0:0|1:2,0:0:0:0:
128,177,261046,1,8,3:3:0:0:
316,360,261362,6,0,L|304:277,1,60.0000022888184,0|2,3:0|0:3,0:0:0:0:
169,97,261836,2,0,L|181:14,1,60.0000022888184,0|8,0:0|0:3,0:0:0:0:
316,360,262310,1,8,3:3:0:0:
134,291,262625,1,8,0:0:0:0:
352,344,262941,1,10,0:3:0:0:
128,177,263257,54,0,L|64:189,1,60.0000022888184,0|0,3:0|0:0,0:0:0:0:
226,340,263731,2,0,L|290:352,1,60.0000022888184,0|0,0:0|0:0,0:0:0:0:
128,177,264204,1,0,3:2:0:0:
343,146,264520,1,0,0:0:0:0:
91,104,264836,1,0,3:0:0:0:
280,320,265152,6,0,L|354:301,1,60.0000022888184,8|0,0:0|0:0,0:0:0:0:
361,290,265545,1,2,0:3:0:0:
378,268,265624,1,8,0:3:0:0:
394,245,265703,1,8,0:3:0:0:
405,219,265782,1,2,0:3:0:0:
409,190,265861,1,8,0:3:0:0:
409,162,265940,1,8,0:3:0:0:
401,133,266019,1,4,0:3:0:0:
390,109,266098,5,8,0:3:0:0:
373,86,266177,1,2,0:3:0:0:
352,65,266256,1,8,0:0:0:0:
329,52,266335,1,8,0:3:0:0:
300,163,266415,2,0,L|236:175,1,60.0000022888184,2|2,1:2|0:3,0:0:0:0:
100,106,266888,1,4,0:2:0:0:
220,164,267046,5,0,3:0:0:0:
429,90,267362,1,4,0:3:0:0:
199,143,267678,1,0,0:0:0:0:
455,355,267994,6,0,P|469:325|421:248,1,120.000004577637,10|0,0:3|0:0,0:0:0:0:
201,307,268941,2,0,P|187:277|249:171,1,160,4|0,3:3|0:0,0:0:0:0:
436,50,269970,6,0,P|470:97|384:232,1,225
112,359,270840,5,4,0:3:0:0:
54,272,271054,1,2,0:3:0:0:
47,169,271268,1,0,0:0:0:0:
111,90,271482,1,0,0:0:0:0:
219,63,271697,2,0,L|226:107,1,44.0000013427735,2|0,0:0|0:0,0:0:0:0:
50,0,272125,2,0,L|43:44,1,44.0000013427735,2|0,0:0|0:0,0:0:0:0:
236,13,272554,5,0,0:0:0:0:
294,100,272768,1,0,0:0:0:0:
301,203,272982,1,0,0:0:0:0:
237,282,273196,1,0,0:0:0:0:
97,320,273411,2,0,L|88:262,1,47.9999985351563,2|0,0:0|0:0,0:0:0:0:
237,367,273839,2,0,L|188:382,1,47.9999985351563,2|0,0:0|0:0,0:0:0:0:
400,359,274268,5,0,3:0:0:0:
458,272,274482,1,0,0:0:0:0:
465,169,274696,1,0,0:0:0:0:
401,90,274910,1,0,0:0:0:0:
284,64,275125,2,0,L|273:119,1,51.999997619629,14|0,0:0|0:0,0:0:0:0:
428,0,275553,2,0,L|440:59,1,51.999997619629,2|0,0:2|0:0,0:0:0:0:
276,13,275982,5,0,0:0:0:0:
218,100,276196,1,0,0:0:0:0:
211,203,276410,1,0,0:0:0:0:
275,282,276624,1,0,0:0:0:0:
415,319,276839,2,0,L|424:265,1,51.999997619629,10|0,0:0|0:0,0:0:0:0:
275,367,277267,2,0,L|335:382,1,55.9999982910157,2|0,0:0|0:0,0:0:0:0:
144,132,277697,53,0,3:0:0:0:
296,84,277911,1,0,0:0:0:0:
134,113,278125,1,0,0:0:0:0:
310,248,278340,1,0,0:0:0:0:
117,142,278554,2,0,L|58:144,1,60.0000022888184,10|0,0:0|0:0,0:0:0:0:
223,344,278982,2,0,L|163:341,1,60.0000022888184,2|0,0:0|0:0,0:0:0:0:
368,132,279411,5,0,0:0:0:0:
216,84,279625,1,0,0:0:0:0:
378,113,279839,1,0,0:0:0:0:
202,248,280054,1,0,0:0:0:0:
395,142,280268,2,0,L|460:144,1,64,10|0,0:0|0:0,0:0:0:0:
289,344,280696,2,0,L|357:339,1,64,2|0,0:0|0:0,0:0:0:0:
156,17,281125,5,0,3:0:0:0:
98,104,281339,1,0,0:0:0:0:
91,207,281553,1,0,0:0:0:0:
155,286,281767,1,0,0:0:0:0:
295,323,281982,2,0,L|306:245,1,68.0000012969971,10|0,0:0|0:0,0:0:0:0:
127,290,282411,2,0,L|114:366,1,68.0000012969971,2|0,0:0|0:0,0:0:0:0:
284,320,282840,6,0,P|316:328|362:325,1,68.0000012969971
180,212,283268,2,0,P|148:204|102:207,1,68.0000012969971
292,344,283697,2,0,P|324:352|376:345,1,71.9999978027344,10|0,0:0|0:0,0:0:0:0:
152,172,284125,2,0,P|120:164|66:169,1,71.9999978027344,2|0,0:0|0:0,0:0:0:0:
354,268,284554,6,0,P|371:225|317:137,1,143.999995605469,6|0,0:0|0:0,0:0:0:0:
198,99,285197,2,0,P|181:142|235:230,1,143.999995605469,0|0,0:0|0:0,0:0:0:0:
354,268,285840,2,0,L|436:260,1,71.9999978027344,2|0,0:0|0:0,0:0:0:0:
224,352,286268,6,0,L|72:341,1,143.999995605469,4|0,0:3|0:0,0:0:0:0:
206,324,286911,1,0,0:0:0:0:
332,301,287125,2,0,L|320:227,1,71.9999978027344,2|0,0:0|0:0,0:0:0:0:
197,151,287554,2,0,L|209:77,1,71.9999978027344,0|0,0:0|0:0,0:0:0:0:
422,66,287982,6,0,P|438:135|391:194,1,143.999995605469,6|0,0:0|0:0,0:0:0:0:
281,212,288625,1,0,0:0:0:0:
162,235,288840,2,0,L|147:321,1,71.9999978027344,2|0,0:0|0:0,0:0:0:0:
295,114,289268,2,0,L|310:200,1,71.9999978027344,2|0,0:0|0:0,0:0:0:0:
141,154,289697,5,4,0:3:0:0:
281,179,289911,1,0,0:0:0:0:
122,149,290125,1,0,0:0:0:0:
286,82,290340,1,0,0:0:0:0:
100,142,290554,2,0,L|17:120,1,71.9999978027344,6|0,0:0|0:0,0:0:0:0:
150,325,290982,2,0,L|233:303,1,71.9999978027344,2|0,0:0|0:0,0:0:0:0:
380,147,291411,6,0,P|343:158|229:138,1,143.999995605469,6|0,3:2|0:0,0:0:0:0:
138,84,292054,1,0,0:0:0:0:
34,348,292268,2,0,L|115:366,1,71.9999978027344,2|0,0:0|0:0,0:0:0:0:
290,264,292697,2,0,L|209:282,1,71.9999978027344,2|0,0:0|0:0,0:0:0:0:
34,348,293125,6,0,P|15:301|78:227,1,143.999995605469,0|0,0:0|0:0,0:0:0:0:
188,221,293768,1,0,0:0:0:0:
312,211,293982,2,0,P|331:164|268:90,1,143.999995605469,2|2,0:0|0:0,0:0:0:0:
180,192,294625,1,0,0:0:0:0:
56,352,294840,6,0,B|89:335|127:350|127:350|164:366|204:350,1,143.999995605469,2|0,3:0|0:0,0:0:0:0:
358,274,295482,1,0,0:0:0:0:
160,248,295697,1,2,0:0:0:0:
303,210,295912,1,0,0:0:0:0:
110,226,296125,1,2,0:0:0:0:
253,188,296340,1,0,0:0:0:0:
395,151,296554,54,0,L|358:88,1,71.9999978027344,2|0,0:0|0:0,0:0:0:0:
229,82,296982,1,0,0:0:0:0:
366,143,297197,2,0,L|299:102,1,71.9999978027344,2|2,0:0|0:0,0:0:0:0:
190,99,297625,1,0,0:0:0:0:
337,154,297840,2,0,L|249:142,1,71.9999978027344,2|0,0:0|0:0,0:0:0:0:
71,361,298268,6,0,P|57:327|118:222,1,160,2|0,3:2|0:0,0:0:0:0:
235,288,298911,2,0,P|289:293|385:243,1,160,2|0,0:0|0:0,0:0:0:0:
507,172,299554,2,0,L|426:165,1,80,2|0,0:0|0:0,0:0:0:0:
281,147,299982,6,0,P|267:113|328:8,1,160,2|0,0:0|0:0,0:0:0:0:
444,332,300625,2,0,P|390:337|300:276,1,160,2|0,0:0|0:0,0:0:0:0:
468,160,301268,2,0,L|480:244,1,80
289,364,301697,6,0,L|197:353,1,80,2|0,3:2|0:0,0:0:0:0:
349,293,302125,1,0,0:0:0:0:
188,359,302340,1,0,0:0:0:0:
370,273,302554,2,0,L|278:262,1,80,2|0,0:0|0:0,0:0:0:0:
430,202,302982,1,2,0:0:0:0:
269,268,303197,1,0,0:0:0:0:
94,202,303411,5,8,0:3:0:0:
48,138,303625,1,0,0:0:0:0:
45,64,303840,1,0,0:0:0:0:
102,2,304054,1,0,0:0:0:0:
185,0,304268,2,0,P|220:14|304:0,1,120,2|0,0:0|0:0,0:0:0:0:
405,27,304697,1,0,0:1:0:0:
434,53,304804,1,0,0:0:0:0:
446,90,304911,1,0,0:0:0:0:
437,129,305018,1,0,0:0:0:0:
351,213,305125,6,0,L|182:227,1,160,2|0,3:2|0:0,0:0:0:0:
324,340,305768,1,0,0:0:0:0:
125,281,305982,2,0,P|106:236|173:143,1,160,2|2,0:0|0:0,0:0:0:0:
283,155,306625,1,0,0:0:0:0:
407,175,306840,6,0,P|426:130|359:37,1,160,2|0,0:0|0:0,0:0:0:0:
233,92,307482,2,0,P|199:98|79:56,1,160,2|0,0:0|0:0,0:0:0:0:
206,185,308125,1,2,0:0:0:0:
66,297,308340,1,0,0:0:0:0:
234,171,308554,6,0,P|268:165|388:207,1,160,2|0,0:0|0:0,0:0:0:0:
210,279,309197,1,0,0:0:0:0:
418,134,309411,2,0,L|325:145,1,80,2|0,0:0|0:0,0:0:0:0:
182,368,309840,2,0,L|275:379,1,80,2|0,0:0|0:0,0:0:0:0:
473,194,310268,6,0,P|493:135|438:57,1,160,2|0,0:0|0:0,0:0:0:0:
319,126,310911,1,0,0:0:0:0:
196,202,311125,2,0,P|176:143|231:65,1,160,4|2,1:3|0:0,0:0:0:0:
399,349,311768,2,0,L|445:342,1,40,0|0,0:0|0:0,0:0:0:0:
189,284,311982,6,0,L|89:298,1,100,6|2,3:2|0:0,0:0:0:0:
264,223,312411,1,0,0:0:0:0:
332,164,312554,2,0,L|256:176,1,53.3333333333333,2|0,0:0|0:0,0:0:0:0:
156,119,312840,2,0,P|128:165|182:251,1,160,2|2,0:0|0:0,0:0:0:0:
367,159,313482,2,0,L|413:152,1,40,0|0,0:0|0:0,0:0:0:0:
288,140,313697,5,4,0:3:0:0:
252,116,313768,1,0,0:0:0:0:
236,72,313857,1,0,0:0:0:0:
248,32,313911,1,0,0:0:0:0:
376,288,314054,1,0,0:0:0:0:
404,216,314161,1,0,0:0:0:0:
384,140,314232,1,0,0:0:0:0:
320,92,314304,1,0,0:0:0:0:
212,212,314411,1,0,0:0:0:0:
160,224,314482,1,0,0:0:0:0:
108,236,314554,5,8,0:1:0:0:
36,328,314697,1,0,0:0:0:0:
64,356,314768,1,2,0:0:0:0:
176,336,314875,1,0,0:0:0:0:
208,296,314956,1,0,0:0:0:0:
216,248,315018,1,0,0:0:0:0:
196,208,315090,1,0,0:0:0:0:
168,196,315125,1,0,0:0:0:0:
64,104,315197,2,0,L|84:140,1,40,0|4,0:3|0:3,0:3:0:0:
194,356,315411,5,2,3:0:0:0:
233,352,315518,1,0,0:0:0:0:
273,348,315625,1,0,0:0:0:0:
392,337,315732,2,0,L|423:377,2,40,0|0|0,0:0|0:0|0:0,0:0:0:0:
284,264,316027,2,0,L|176:276,1,103.500001974106,2|0,0:2|0:0,0:0:0:0:
92,340,316348,6,0,L|156:358,1,40,0|2,0:0|0:0,0:0:0:0:
239,311,316563,1,0,0:0:0:0:
296,204,316643,2,0,L|256:112,1,100,10|2,0:0|0:0,0:0:0:0:
74,115,317125,2,0,L|107:33,1,80,2|0,0:2|0:0,0:0:0:0:
304,34,317554,6,0,L|373:50,2,53.3333333333333,2|2|0,0:2|0:0|0:0,0:0:0:0:
240,184,317929,2,0,L|176:204,1,60,2|2,0:0|0:0,0:0:0:0:
270,266,318197,2,0,P|322:286|383:284,1,80,4|2,0:3|0:0,0:0:0:0:
485,198,318572,2,0,L|411:211,1,60,14|0,0:2|0:0,0:0:0:0:
304,144,318840,6,0,L|206:137,1,80,2|0,3:3|0:0,0:0:0:0:
59,339,319268,2,0,L|157:332,1,80,2|0,0:2|0:0,0:0:0:0:
288,316,319616,2,0,P|332:271|279:171,1,190,2|0,0:0|0:0,0:0:0:0:
145,352,320340,2,0,L|104:355,1,40
290,289,320554,6,0,L|342:296,1,40,6|0,0:1|0:0,0:0:0:0:
229,215,320768,2,0,L|177:222,1,40,0|0,0:0|0:0,0:0:0:0:
308,157,320982,2,0,L|360:164,1,40,0|0,0:0|0:0,0:0:0:0:
247,83,321196,2,0,L|195:90,1,40,0|0,0:0|0:0,0:0:0:0:
425,29,321411,5,0,0:0:0:0:
458,49,321518,1,0,0:0:0:0:
482,81,321625,1,0,0:0:0:0:
492,120,321732,1,0,0:0:0:0:
488,159,321839,1,0,0:0:0:0:
469,194,321946,1,0,0:0:0:0:
438,220,322053,1,0,0:0:0:0:
401,232,322160,1,0,0:0:0:0:
173,352,322268,54,0,P|104:362|50:350,1,120,10|0,3:0|0:0,0:0:0:0:
173,352,322697,2,0,L|264:367,1,80,0|0,0:0|0:0,0:0:0:0:
395,341,323125,1,2,0:0:0:0:
405,302,323232,1,0,0:0:0:0:
394,264,323339,1,0,0:0:0:0:
365,237,323446,1,0,0:0:0:0:
280,218,323554,1,2,0:0:0:0:
270,179,323661,1,0,0:0:0:0:
281,141,323768,1,0,0:0:0:0:
310,114,323875,1,0,0:0:0:0:
404,121,323982,6,0,L|456:118,1,40,6|0,0:1|0:0,0:0:0:0:
264,44,324197,2,0,L|212:41,1,40,0|0,0:0|0:0,0:0:0:0:
440,92,324411,2,0,L|492:89,1,40
256,16,324626,2,0,L|204:13,1,40,0|0,0:0|0:0,0:0:0:0:
48,250,324840,54,0,L|27:289,1,40,0|0,0:0|0:0,0:0:0:0:
220,316,325054,2,0,L|264:332,1,40
448,283,325268,2,0,L|503:208,1,80,0|0,0:0|0:0,0:0:0:0:
43,78,325697,53,4,0:0:0:0:
275,124,325997,1,0,0:0:0:0:
50,119,326297,2,0,L|84:292,1,176.000005371094,0|0,0:0|0:0,0:0:0:0:
280,96,326897,2,0,L|191:52,1,88.000002685547,2|0,2:0|0:0,0:0:0:0:
312,324,327297,6,0,L|256:340,1,44.0000013427735,0|0,0:0|0:0,0:0:0:0:
418,351,327597,2,0,P|428:313|380:239,1,132.00000402832,0|0,0:0|0:0,0:0:0:0:
259,176,327997,2,0,L|223:44,1,132.00000402832,0|0,0:0|0:0,0:0:0:0:
367,62,328497,2,0,P|425:90|489:81,1,132.00000402832,0|0,0:0|0:0,0:0:0:0:
245,351,328897,6,0,L|189:335,1,44.0000013427735,0|0,0:0|0:0,0:0:0:0:
62,353,329197,2,0,P|57:308|78:266,1,88.000002685547,0|0,0:0|2:0,0:0:0:0:
182,243,329497,2,0,P|191:214|145:125,1,132.00000402832,0|0,0:0|2:0,0:0:0:0:
47,29,329897,2,0,L|182:35,1,132.00000402832,0|0,0:0|2:0,0:0:0:0:
258,94,330297,1,0,0:0:0:0:
430,346,330497,5,0,0:0:0:0:
455,311,330597,1,0,0:0:0:0:
458,267,330697,1,0,0:0:0:0:
436,230,330797,1,0,0:0:0:0:
397,210,330897,1,0,0:0:0:0:
204,248,331097,2,0,L|142:255,1,44.0000013427735,0|0,0:0|0:0,0:0:0:0:
252,315,331297,1,0,0:0:0:0:
68,264,331497,1,0,0:0:0:0:
245,164,331697,2,0,L|183:171,1,44.0000013427735,0|0,0:0|0:0,0:0:0:0:
450,353,332097,6,0,P|455:308|434:266,1,88.000002685547,4|0,0:0|2:0,0:0:0:0:
330,243,332397,2,0,P|321:214|367:125,1,132.00000402832,0|0,0:0|0:0,0:0:0:0:
465,29,332797,2,0,L|330:35,1,132.00000402832,0|0,0:0|0:0,0:0:0:0:
164,75,333297,1,2,2:0:0:0:
312,320,333497,2,0,L|269:325,1,44.0000013427735,0|0,0:0|0:0,0:0:0:0:
376,261,333697,69,0,0:0:0:0:
388,213,333797,1,0,0:0:0:0:
221,186,333997,2,0,L|264:190,1,44.0000013427735,0|0,0:0|0:0,0:0:0:0:
129,82,334297,2,0,L|85:86,1,44.0000013427735
188,152,334497,1,0,0:0:0:0:
44,89,334697,1,0,0:0:0:0:
224,0,334897,2,0,L|122:6,1,90.0000034332277
381,72,335297,5,8,0:0:0:0:
442,121,335397,2,0,L|422:217,1,88.000002685547,0|0,0:0|0:0,0:0:0:0:
307,297,335697,2,0,L|256:301,1,44.0000013427735,8|0,0:0|2:0,0:0:0:0:
372,346,335897,2,0,P|437:355|501:337,1,132.00000402832,8|0,0:0|0:0,0:0:0:0:
411,251,336297,1,0,0:0:0:0:
124,164,336497,1,0,0:0:0:0:
434,244,336697,2,0,L|486:227,1,44.0000013427735,8|0,0:0|2:0,0:0:0:0:
200,40,336897,5,0,0:0:0:0:
164,65,336997,1,0,0:0:0:0:
147,104,337097,1,0,0:0:0:0:
153,147,337197,1,0,0:0:0:0:
221,199,337297,2,0,L|319:210,1,88.000002685547,8|0,0:0|0:0,0:0:0:0:
117,292,337597,2,0,L|19:303,1,88.000002685547,8|0,0:0|0:0,0:0:0:0:
260,344,337897,1,0,0:0:0:0:
316,356,337997,1,0,0:0:0:0:
360,336,338097,1,8,0:0:0:0:
392,294,338197,2,0,L|298:284,1,88.000002685547,8|0,0:0|0:0,0:0:0:0:
54,138,338497,5,4,0:0:0:0:
268,98,338797,1,0,0:0:0:0:
54,138,339097,2,0,P|44:213|111:290,1,176.000005371094,0|0,0:0|0:0,0:0:0:0:
466,93,339697,2,0,L|361:87,1,88.000002685547,2|0,2:0|0:0,0:0:0:0:
235,127,340097,6,0,L|241:187,1,44.0000013427735,0|0,0:0|0:0,0:0:0:0:
68,362,340397,2,0,P|135:353|204:374,1,132.00000402832,0|0,0:0|0:0,0:0:0:0:
335,254,340798,2,0,P|268:245|199:266,1,132.00000402832,0|0,0:0|0:0,0:0:0:0:
19,345,341298,2,0,P|86:336|155:357,1,132.00000402832,0|0,0:0|0:0,0:0:0:0:
395,306,341698,5,0,0:0:0:0:
414,267,341798,1,0,0:0:0:0:
408,224,341898,1,0,0:0:0:0:
378,192,341998,1,0,0:0:0:0:
292,189,342098,2,0,P|249:187|210:167,1,88.000002685547,8|0,0:0|0:0,0:0:0:0:
390,112,342398,2,0,P|433:110|472:90,1,88.000002685547,8|0,0:0|0:0,0:0:0:0:
421,16,342698,2,0,L|372:24,1,44.0000013427735,8|0,0:0|2:0,0:0:0:0:
127,82,342898,1,0,0:0:0:0:
33,165,343098,2,0,L|88:172,1,44.0000013427735,8|0,0:0|0:0,0:0:0:0:
373,302,343298,5,0,0:0:0:0:
392,263,343398,1,0,0:0:0:0:
386,220,343498,1,0,0:0:0:0:
356,188,343598,1,0,0:0:0:0:
270,185,343698,2,0,P|227:183|188:163,1,88.000002685547,8|0,0:0|0:0,0:0:0:0:
401,105,343998,2,0,P|444:107|483:127,1,88.000002685547,8|0,0:0|0:0,0:0:0:0:
418,187,344298,1,8,0:0:0:0:
334,216,344398,1,8,0:0:0:0:
99,322,344498,2,0,L|67:282,1,44.0000013427735,8|0,0:0|2:0,0:0:0:0:
263,313,344698,2,0,L|290:347,1,44.0000013427735,0|0,0:0|0:0,0:0:0:0:
40,325,344898,6,0,P|35:261|60:227,1,88.000002685547,4|0,0:0|2:0,0:0:0:0:
156,172,345198,2,0,L|64:169,1,88.000002685547,0|0,0:0|2:0,0:0:0:0:
180,17,345498,2,0,P|185:81|136:134,1,132.00000402832,0|0,0:0|2:0,0:0:0:0:
40,325,345898,2,0,P|112:335|186:317,1,132.00000402832,0|0,0:0|2:0,0:0:0:0:
265,344,346298,2,0,L|277:253,1,88.000002685547,8|4,0:0|0:0,0:0:0:0:
196,210,346598,5,0,0:0:0:0:
395,78,346798,2,0,P|323:88|249:70,1,132.00000402832,0|0,0:3|0:0,0:0:0:0:
154,42,347198,2,0,P|226:32|300:50,1,132.00000402832,0|0,0:0|0:0,0:0:0:0:
436,183,347698,2,0,L|422:280,1,88.000002685547,0|0,0:0|0:0,0:0:0:0:
66,199,348098,5,8,0:0:0:0:
10,133,348198,2,0,L|98:117,1,88.000002685547,8|0,0:0|0:0,0:0:0:0:
235,65,348498,2,0,L|187:60,1,44.0000013427735,0|0,0:0|2:0,0:0:0:0:
85,155,348698,2,0,P|66:194|97:280,1,132.00000402832,0|0,0:0|2:0,0:0:0:0:
197,180,349098,2,0,P|216:141|185:55,1,132.00000402832,0|0,0:0|2:0,0:0:0:0:
88,35,349498,1,0,0:0:0:0:
189,341,349698,5,0,0:0:0:0:
232,337,349798,1,0,0:0:0:0:
276,333,349898,1,0,0:0:0:0:
320,330,349998,1,0,0:0:0:0:
380,248,350098,2,0,L|318:235,1,60.0000022888184,2|0,0:2|2:0,0:0:0:0:
257,114,350298,5,0,0:0:0:0:
300,110,350398,1,0,0:0:0:0:
344,106,350498,1,0,0:0:0:0:
388,103,350598,1,0,0:0:0:0:
448,21,350698,2,0,L|357:4,1,88.000002685547,0|8,0:0|0:0,0:0:0:0:
157,129,350998,2,0,L|66:112,1,88.000002685547,0|0,0:0|0:0,0:0:0:0:
329,293,351298,6,0,P|367:295|426:262,1,95.9999970703126,4|0,0:0|2:0,0:0:0:0:
493,338,351598,2,0,P|451:315|403:315,1,95.9999970703126,0|0,0:0|2:0,0:0:0:0:
279,352,351898,2,0,P|256:313|303:220,1,143.999995605469,0|0,0:0|2:0,0:0:0:0:
391,189,352298,1,0,0:0:0:0:
242,338,352498,2,0,L|182:321,1,47.9999985351563,8|8,0:0|0:0,0:0:0:0:
312,265,352698,2,0,L|377:246,1,60.0000022888184,10|0,0:0|2:0,0:0:0:0:
84,234,352898,5,0,0:0:0:0:
69,188,352998,1,0,0:0:0:0:
82,143,353098,1,0,0:0:0:0:
118,112,353198,1,0,0:0:0:0:
208,96,353298,2,0,L|348:128,1,120.000004577637,2|8,0:2|0:0,0:0:0:0:
260,193,353598,1,8,0:0:0:0:
469,61,353698,2,0,L|476:163,1,90.0000034332277,2|0,0:0|2:0,0:0:0:0:
400,138,354098,1,8,0:0:0:0:
242,327,354298,2,0,L|195:339,1,47.9999985351563,8|0,0:0|0:0,0:0:0:0:
389,349,354498,5,8,0:0:0:0:
435,323,354598,1,8,0:0:0:0:
471,287,354698,2,0,P|477:243|407:144,1,160,2|0,0:0|2:0,0:0:0:0:
321,172,355198,2,0,P|274:176|227:164,1,95.9999970703126,8|0,0:0|0:0,0:0:0:0:
148,119,355498,2,0,P|136:164|202:249,1,155.999992858887,2|0,0:0|0:0,0:0:0:0:
456,58,355899,2,0,P|409:54|362:66,1,95.9999970703126,0|8,0:0|0:0,0:0:0:0:
284,95,356199,5,8,0:0:0:0:
98,36,356299,2,0,P|70:87|152:200,1,207.999990478516,2|0,0:0|0:0,0:0:0:0:
261,307,356799,2,0,L|157:327,1,95.9999970703126,8|0,0:0|0:0,0:0:0:0:
99,288,357099,1,8,0:0:0:0:
276,217,357299,2,0,L|333:230,1,47.9999985351563,8|0,0:0|0:0,0:0:0:0:
239,144,357499,1,0,0:0:0:0:
434,363,357699,6,0,L|444:296,1,47.9999985351563,4|0,0:0|0:0,0:0:0:0:
348,260,357899,2,0,L|338:193,1,47.9999985351563
459,118,358099,2,0,P|411:126|363:118,1,95.9999970703126,0|0,0:0|0:0,0:0:0:0:
268,10,358399,2,0,P|316:2|419:36,1,143.999995605469,2|0,3:0|0:0,0:0:0:0:
228,24,358899,1,0,0:0:0:0:
364,118,359099,1,0,0:0:0:0:
166,325,359299,5,0,0:0:0:0:
141,285,359399,1,0,0:0:0:0:
147,238,359499,1,0,0:0:0:0:
181,206,359599,1,0,0:0:0:0:
275,169,359699,2,0,L|235:97,1,60.0000022888184,2|0,0:0|0:0,0:0:0:0:
137,82,359899,2,0,L|177:10,1,60.0000022888184,0|0,0:0|0:0,0:0:0:0:
388,20,360099,5,0,0:0:0:0:
441,45,360199,1,0,2:0:0:0:
473,94,360299,1,2,0:0:0:0:
474,154,360399,1,0,2:0:0:0:
443,204,360499,1,4,0:0:0:0:
389,230,360599,1,4,0:0:0:0:
167,317,360699,2,0,L|152:252,1,60.0000022888184,2|0,0:0|2:0,0:0:0:0:
414,329,360899,6,0,L|482:315,1,60.0000022888184,4|0,0:2|2:0,0:0:0:0:
359,226,361099,2,0,L|298:214,1,47.9999985351563,0|0,0:0|2:0,0:0:0:0:
423,296,361299,2,0,L|484:284,1,47.9999985351563,0|0,0:0|2:0,0:0:0:0:
359,193,361499,2,0,L|287:177,1,60.0000022888184,8|0,0:0|2:0,0:0:0:0:
429,168,361699,5,0,0:0:0:0:
439,121,361799,1,0,0:0:0:0:
427,75,361899,1,0,0:0:0:0:
397,38,361999,1,0,0:0:0:0:
353,19,362099,1,0,0:0:0:0:
164,60,362299,2,0,L|106:54,1,47.9999985351563,0|0,0:0|0:0,0:0:0:0:
214,129,362499,6,0,P|230:183|194:235,1,120.000004577637,8|0,0:0|0:0,0:0:0:0:
115,275,362799,1,0,2:0:0:0:
227,333,362899,2,0,L|287:333,1,40,8|0,0:2|2:0,0:0:0:0:
420,292,363099,1,0,0:0:0:0:
434,246,363199,1,0,0:0:0:0:
422,201,363299,1,0,0:0:0:0:
387,169,363399,1,0,2:0:0:0:
295,146,363499,2,0,L|235:136,1,40,8|0,0:2|2:0,0:0:0:0:
362,67,363699,2,0,L|368:19,1,47.9999985351563,8|0,0:0|0:0,0:0:0:0:
180,128,363899,2,0,L|186:80,1,47.9999985351563,8|0,0:0|0:0,0:0:0:0:
384,98,364099,6,0,L|376:158,1,47.9999985351563,4|0,0:0|0:0,0:0:0:0:
291,209,364299,2,0,P|254:229|192:228,1,95.9999970703126
74,175,364699,2,0,L|50:187,1,23.9999992675781,8|0,0:2|0:0,0:0:0:0:
218,106,364999,2,0,L|239:95,1,23.9999992675781,8|0,0:2|0:0,0:0:0:0:
52,325,365299,2,0,L|31:314,2,23.9999992675781,8|0|8,0:2|0:0|0:2,0:0:0:0:
213,345,365599,1,0,0:0:0:0:
260,337,365699,5,4,0:0:0:0:
307,329,365799,1,2,0:0:0:0:
354,321,365899,2,0,P|361:271|315:207,1,120,2|0,0:0|0:0,0:0:0:0:
251,190,366299,1,2,0:0:0:0:
341,117,366399,2,0,L|306:77,1,47.9999985351563,0|0,0:0|2:0,0:0:0:0:
225,67,366599,1,0,0:0:0:0:
415,58,366699,2,0,L|380:18,1,47.9999985351563,2|0,0:0|2:0,0:0:0:0:
224,316,366899,2,0,L|259:276,1,47.9999985351563,0|0,0:0|2:0,0:0:0:0:
415,58,367099,2,0,L|380:18,1,47.9999985351563,8|0,0:0|2:0,0:0:0:0:
99,243,367299,5,4,0:0:0:0:
25,201,367399,2,0,P|13:146|96:64,1,143.999995605469,4|0,0:0|0:0,0:0:0:0:
225,111,367899,2,0,P|268:190|175:287,1,239.999992675781,0|0,0:0|0:0,0:0:0:0:
70,358,368499,2,0,L|174:381,1,95.9999970703126,8|0,0:0|0:0,0:0:0:0:
352,340,368899,6,0,L|408:329,1,47.9999985351563
228,260,369099,2,0,L|120:292,1,95.9999970703126,2|0,0:3|0:0,0:0:0:0:
53,250,369399,1,0,0:0:0:0:
34,206,369499,1,0,0:0:0:0:
48,161,369599,1,0,0:0:0:0:
155,105,369699,6,0,L|103:69,1,47.9999985351563,8|0,0:0|2:0,0:0:0:0:
12,40,369899,2,0,L|64:4,1,47.9999985351563,0|0,0:0|2:0,0:0:0:0:
295,147,370099,1,8,0:0:0:0:
310,102,370199,1,0,0:0:0:0:
298,56,370299,1,2,0:2:0:0:
262,26,370399,1,0,0:0:0:0:
191,241,370499,5,12,0:0:0:0:
176,286,370599,1,0,0:0:0:0:
188,332,370699,1,0,2:0:0:0:
224,362,370800,2,0,L|327:347,1,95.9999970703126,0|0,0:0|2:0,0:0:0:0:
425,289,371100,2,0,L|397:337,1,47.9999985351563,8|0,0:0|2:0,0:0:0:0:
264,285,371300,1,2,0:2:0:0:
493,166,371600,2,0,L|465:214,1,47.9999985351563,0|2,0:0|0:2,0:0:0:0:
324,228,371900,1,0,0:0:0:0:
493,166,372100,70,0,L|430:153,1,47.9999985351563,12|0,0:0|2:0,0:0:0:0:
349,142,372300,2,0,L|197:171,1,143.999995605469,0|0,0:0|0:0,0:0:0:0:
120,114,372700,2,0,L|102:135,2,23.9999992675781,8|0|0,0:2|0:0|0:0,0:0:0:0:
258,28,373000,2,0,L|276:49,2,23.9999992675781,8|0|0,0:2|0:0|0:0,0:0:0:0:
94,148,373300,2,0,L|76:169,2,23.9999992675781,8|0|8,0:2|0:0|0:2,0:0:0:0:
264,285,373600,1,0,0:0:0:0:
342,335,373700,6,0,L|435:310,1,95.9999970703126,8|0,0:0|2:0,0:0:0:0:
341,215,374000,2,0,L|249:190,1,95.9999970703126,0|0,0:0|2:0,0:0:0:0:
367,139,374300,1,0,0:0:0:0:
188,166,374500,1,0,0:0:0:0:
398,135,374700,1,0,0:0:0:0:
264,285,374900,1,0,0:0:0:0:
422,109,375100,1,0,0:0:0:0:
218,272,375300,6,0,L|155:255,1,47.9999985351563,12|0,0:0|0:0,0:0:0:0:
264,285,375500,1,0,0:0:0:0:
82,309,375700,2,0,P|56:252|108:179,1,143.999995605469,8|0,0:0|0:0,0:0:0:0:
195,163,376100,2,0,L|311:179,1,95.9999970703126,8|0,0:0|0:0,0:0:0:0:
109,187,376500,1,2,0:2:0:0:
78,223,376600,1,0,0:0:0:0:
73,270,376700,1,0,0:0:0:0:
98,311,376800,1,0,0:0:0:0:
378,147,376900,5,8,0:0:0:0:
409,111,377000,1,0,0:0:0:0:
414,64,377100,1,0,0:0:0:0:
389,23,377200,1,0,0:0:0:0:
312,46,377300,2,0,L|184:28,1,120.000004577637,8|0,0:0|0:0,0:0:0:0:
303,322,377600,2,0,L|431:304,2,120.000004577637,8|2|2,0:0|0:2|0:2,0:0:0:0:
192,308,378100,2,0,P|206:283|224:236,1,60.0000022888184,8|2,0:0|0:2,0:0:0:0:
306,227,378300,1,0,0:0:0:0:
130,112,378400,54,0,P|63:115|17:88,1,120.000004577637,8|0,0:0|0:0,0:0:0:0:
249,86,378700,2,0,L|276:165,1,60.0000022888184,0|0,0:0|0:0,0:0:0:0:
29,362,378900,2,0,L|149:353,1,120.000004577637,8|0,0:0|0:0,0:0:0:0:
230,237,379200,2,0,L|110:228,1,120.000004577637,8|0,0:0|0:0,0:0:0:0:
26,168,379500,1,2,0:2:0:0:
120,148,379600,1,2,0:2:0:0:
384,328,379700,6,0,L|454:337,1,60.0000022888184,8|2,0:0|0:2,0:0:0:0:
165,375,379900,2,0,L|141:319,1,60.0000022888184,0|2,0:0|0:2,0:0:0:0:
376,26,380100,5,0,0:0:0:0:
414,70,380200,1,0,0:0:0:0:
408,128,380300,1,0,0:0:0:0:
362,164,380400,1,0,0:0:0:0:
279,197,380500,2,0,L|153:212,1,120.000004577637,8|0,0:0|0:0,0:0:0:0:
362,283,380800,2,0,L|488:298,2,120.000004577637,8|8|2,0:0|0:0|0:2,0:0:0:0:
266,228,381300,2,0,P|254:256|254:300,1,60.0000022888184,0|0,0:0|0:0,0:0:0:0:
469,100,381500,6,0,B|443:121|443:121|342:109,1,120.000004577637,2|0,0:0|0:0,0:0:0:0:
246,184,381800,2,0,B|272:205|272:205|373:193,1,120.000004577637,2|0,0:2|0:0,0:0:0:0:
468,272,382100,2,0,B|442:293|442:293|341:281,1,120.000004577637,8|0,0:0|0:0,0:0:0:0:
284,243,382400,53,0,0:0:0:0:
55,365,382500,1,0,0:0:0:0:
38,308,382600,1,0,0:0:0:0:
59,252,382700,1,8,0:0:0:0:
107,219,382800,1,2,0:2:0:0:
297,131,382900,2,0,P|301:95|297:59,1,70.000000667572,2|2,0:0|0:2,0:0:0:0:
126,0,383100,2,0,P|122:36|126:72,1,70.000000667572,2|2,0:0|0:2,0:0:0:0:
409,359,383300,6,0,L|429:292,1,60.0000022888184,0|0,0:0|0:0,0:0:0:0:
315,291,383500,2,0,L|291:218,1,60.0000022888184,0|0,0:0|0:0,0:0:0:0:
419,147,383700,2,0,P|363:103|307:95,1,120.000004577637,8|0,0:0|0:0,0:0:0:0:
194,320,384000,2,0,P|250:364|306:372,2,120.000004577637,8|8|2,0:0|0:0|0:2,0:0:0:0:
296,260,384500,2,0,L|368:256,1,60.0000022888184,0|0,0:0|0:0,0:0:0:0:
183,108,384700,2,0,P|110:130|43:116,1,140.000001335144,8|0,0:0|0:0,0:0:0:0:
296,372,385000,6,0,L|372:368,1,73.9999997177124,8|0,0:0|0:0,0:0:0:0:
276,352,385200,1,0,0:0:0:0:
59,349,385300,2,0,P|44:301|93:227,1,120.000004577637,8|0,0:0|0:0,0:0:0:0:
341,146,385600,2,0,P|356:98|307:24,1,120.000004577637,8|0,0:0|0:0,0:0:0:0:
72,240,385901,1,2,0:0:0:0:
50,260,385951,1,0,2:0:0:0:
40,288,386001,1,2,0:0:0:0:
42,318,386051,1,0,2:0:0:0:
56,352,386101,2,0,L|116:356,1,60.0000022888184,8|2,0:0|0:2,0:0:0:0:
345,284,386301,2,0,L|285:280,1,60.0000022888184,8|2,0:0|0:2,0:0:0:0:
48,144,386501,5,4,0:0:0:0:
16,104,386601,1,0,0:0:0:0:
28,56,386701,1,0,0:0:0:0:
72,32,386801,1,0,0:0:0:0:
238,29,386901,2,0,L|106:16,1,120.000004577637,8|0,0:0|0:0,0:0:0:0:
193,206,387201,2,0,L|325:193,2,120.000004577637,8|2|2,0:0|0:2|0:2,0:0:0:0:
76,185,387701,2,0,L|92:121,1,60.0000022888184,8|0,0:0|0:0,0:0:0:0:
386,137,387901,6,0,P|400:214|350:281,1,140.000001335144,2|0,0:0|0:0,0:0:0:0:
269,321,388201,2,0,L|212:300,2,60.0000022888184,8|0|0,0:0|0:0|0:0,0:0:0:0:
473,250,388501,1,8,0:0:0:0:
320,326,388701,2,0,L|255:349,1,60.0000022888184,0|0,0:0|0:0,0:0:0:0:
58,316,388901,2,0,P|36:260|70:192,1,120.000004577637,8|0,0:0|0:0,0:0:0:0:
135,167,389201,1,0,0:0:0:0:
215,144,389301,6,0,L|251:134,1,30.0000011444092,2|0,0:0|2:0,0:0:0:0:
112,56,389501,2,0,L|76:46,1,30.0000011444092,2|0,0:0|2:0,0:0:0:0:
418,35,389701,6,0,L|433:104,1,60.0000022888184,8|8,0:0|0:0,0:0:0:0:
319,115,389901,2,0,L|304:184,1,60.0000022888184,8|8,0:0|0:0,0:0:0:0:
413,324,390101,2,0,B|285:287,1,120.000004577637,8|0,0:0|0:0,0:0:0:0:
171,222,390401,2,0,B|299:185,1,120.000004577637,8|8,0:0|0:0,0:0:0:0:
413,100,390701,2,0,L|349:82,1,60.0000022888184,0|0,0:0|0:0,0:0:0:0:
110,57,390901,2,0,P|61:108|66:177,1,120.000004577637,8|0,0:0|0:0,0:0:0:0:
122,234,391201,1,0,0:0:0:0:
360,358,391301,6,0,L|423:343,1,60.0000022888184,0|0,0:0|0:0,0:0:0:0:
122,234,391501,2,0,L|62:250,1,60.0000022888184,0|0,0:0|0:0,0:0:0:0:
373,332,391701,2,0,L|498:301,1,120.000004577637,8|0,0:0|0:0,0:0:0:0:
371,245,392001,2,0,L|246:214,1,120.000004577637,8|0,0:0|0:0,0:0:0:0:
357,148,392301,2,0,L|424:164,1,60.0000022888184,0|0,0:0|0:0,0:0:0:0:
172,348,392501,2,0,L|165:329,4,15.0000005722046
265,372,392701,2,0,L|194:356,1,60.0000022888184,0|0,0:0|0:0,0:0:0:0:
43,275,392901,6,0,P|25:214|66:149,1,120.000004577637,12|0,0:0|0:0,0:0:0:0:
127,128,393201,1,0,0:0:0:0:
376,214,393301,2,0,L|241:178,1,120.000004577637,8|0,0:0|0:0,0:0:0:0:
164,50,393601,2,0,L|281:24,1,120.000004577637,8|0,0:0|0:0,0:0:0:0:
371,250,393901,2,0,L|299:234,1,70.000000667572,2|0,0:0|0:0,0:0:0:0:
113,359,394101,2,0,L|182:375,1,70.000000667572,0|0,0:0|0:0,0:0:0:0:
362,284,394301,1,0,0:0:0:0:
419,231,394401,1,0,0:0:0:0:
362,284,394501,6,0,P|291:269|237:294,1,120.000004577637,8|0,0:0|0:0,0:0:0:0:
182,336,394801,1,0,0:0:0:0:
362,284,394901,2,0,P|373:227|336:175,1,120.000004577637,8|0,0:0|0:0,0:0:0:0:
244,155,395201,2,0,L|120:142,1,120.000004577637,0|0,0:0|0:0,0:0:0:0:
43,94,395501,1,0,0:0:0:0:
135,53,395601,1,0,0:0:0:0:
367,29,395701,2,0,P|396:82|351:156,1,120,8|0,0:0|0:0,0:0:0:0:
68,337,396101,6,0,P|139:352|193:327,1,120.000004577637,4|0,0:0|0:0,0:0:0:0:
274,361,396401,1,0,0:0:0:0:
104,263,396501,2,0,P|102:198|149:157,1,120.000004577637,8|0,0:0|0:0,0:0:0:0:
268,268,396801,2,0,P|339:253|393:278,1,120.000004577637,8|0,0:0|0:0,0:0:0:0:
176,74,397101,2,0,L|104:89,1,60.0000022888184,8|0,0:0|0:0,0:0:0:0:
296,344,397301,1,2,0:2:0:0:
121,44,397501,2,0,L|49:59,1,60.0000022888184,0|0,0:0|0:0,0:0:0:0:
158,59,397701,6,0,P|216:89|274:91,1,120.000004577637,8|0,0:0|0:0,0:0:0:0:
358,69,398001,1,0,0:0:0:0:
153,175,398101,2,0,P|127:251|162:310,1,120.000004577637,8|0,0:0|0:0,0:0:0:0:
350,249,398401,2,0,L|211:236,2,120.000004577637,8|8|0,0:0|0:0|0:0,0:0:0:0:
434,317,398901,2,0,P|460:241|425:182,1,120.000004577637,10|0,0:2|0:0,0:0:0:0:
366,169,399201,1,0,0:0:0:0:
118,38,399301,6,0,L|194:54,1,60.0000022888184,4|0,0:0|0:0,0:0:0:0:
372,63,399501,2,0,L|313:50,1,60.0000022888184,0|0,0:0|0:0,0:0:0:0:
136,64,399701,2,0,B|-3:37,1,120.000004577637,8|0,0:0|0:0,0:0:0:0:
213,364,400001,2,0,B|352:337,1,120.000004577637,8|0,0:0|0:0,0:0:0:0:
92,351,400301,2,0,L|81:278,1,60.0000022888184,0|0,0:0|0:0,0:0:0:0:
420,316,400501,2,0,L|434:231,1,70.000000667572,2|0,0:0|0:0,0:0:0:0:
337,225,400702,2,0,L|268:210,1,70.000000667572,0|0,0:0|0:0,0:0:0:0:
63,171,400902,5,8,0:0:0:0:
244,88,401102,1,0,0:0:0:0:
83,291,401302,2,0,L|95:369,1,60.0000022888184,8|0,0:0|0:0,0:0:0:0:
308,340,401502,1,0,0:0:0:0:
300,320,401602,1,0,0:0:0:0:
292,300,401702,5,0,0:0:0:0:
146,197,401902,1,0,0:0:0:0:
154,217,402002,1,0,0:0:0:0:
162,237,402102,1,0,0:0:0:0:
358,231,402302,1,0,0:0:0:0:
346,203,402402,1,0,0:0:0:0:
146,197,402502,6,0,L|63:188,1,60.0000022888184,10|0,0:2|0:0,0:0:0:0:
277,86,402702,2,0,L|263:144,1,60.0000022888184,0|0,0:0|0:0,0:0:0:0:
86,190,402902,2,0,P|78:132|126:66,1,120.000004577637,8|0,0:0|0:0,0:0:0:0:
295,231,403202,2,0,P|303:289|255:355,1,120.000004577637,8|0,0:0|0:0,0:0:0:0:
105,347,403502,2,0,L|36:351,1,60.0000022888184,8|0,0:0|0:0,0:0:0:0:
225,269,403702,1,8,0:0:0:0:
64,328,403902,1,0,0:0:0:0:
39,273,404002,1,0,0:0:0:0:
38,214,404102,5,0,0:0:0:0:
60,158,404202,1,0,0:0:0:0:
102,116,404302,1,0,0:0:0:0:
158,94,404402,1,0,0:0:0:0:
343,157,404502,2,0,P|400:164|471:141,1,120.000004577637,8|0,0:0|0:0,0:0:0:0:
192,45,404802,2,0,P|135:38|64:61,1,120.000004577637,8|0,0:0|0:0,0:0:0:0:
340,349,405102,2,0,L|281:340,1,60.0000022888184,0|0,0:0|0:0,0:0:0:0:
79,80,405302,2,0,P|136:63|195:70,1,120.000004577637,2|0,0:0|0:0,0:0:0:0:
270,108,405602,1,0,0:0:0:0:
112,152,405702,6,0,P|85:226|126:309,1,120.000004577637,4|0,0:0|0:0,0:0:0:0:
162,317,406002,1,0,0:0:0:0:
459,147,406102,2,0,P|486:73|445:-10,1,120.000004577637,8|0,0:0|0:0,0:0:0:0:
375,29,406402,2,0,L|245:44,1,120.000004577637,8|0,0:0|0:0,0:0:0:0:
84,360,406702,2,0,L|162:352,1,60.0000022888184,0|0,0:0|0:0,0:0:0:0:
340,349,406902,1,8,0:0:0:0:
193,224,407102,2,0,L|271:216,1,60.0000022888184,0|0,0:0|0:0,0:0:0:0:
442,201,407302,5,0,0:0:0:0:
457,144,407402,1,0,0:0:0:0:
436,89,407502,1,0,0:0:0:0:
386,58,407602,1,0,0:0:0:0:
174,138,407702,2,0,L|43:128,1,120.000004577637,8|0,0:0|0:0,0:0:0:0:
287,257,408002,2,0,L|156:247,1,120.000004577637,8|0,0:0|0:0,0:0:0:0:
57,277,408302,2,0,L|68:206,1,60.0000022888184,8|0,0:0|0:0,0:0:0:0:
323,181,408502,2,0,P|375:260|306:340,1,180.000006866455,8|0,0:0|0:0,0:0:0:0:
132,336,408902,5,4,0:0:0:0:
274,379,409102,2,0,L|182:369,1,60.0000022888184,0|0,0:0|0:0,0:0:0:0:
400,357,409302,2,0,B|423:298|423:298|345:256,1,120.000004577637,8|0,0:0|0:0,0:0:0:0:
175,278,409602,2,0,B|152:219|152:219|230:177,1,120.000004577637,8|0,0:0|0:0,0:0:0:0:
379,88,409902,2,0,L|402:168,1,60.0000022888184,0|0,0:0|0:0,0:0:0:0:
201,192,410102,2,0,P|136:201|68:164,1,120.000004577637,10|0,0:2|0:0,0:0:0:0:
344,117,410402,2,0,L|388:193,1,60.0000022888184,0|0,0:0|0:0,0:0:0:0:
274,71,410602,6,0,L|143:81,1,120.000004577637,8|0,0:0|0:0,0:0:0:0:
44,131,410902,2,0,L|112:253,1,120.000004577637,8|0,0:0|0:0,0:0:0:0:
237,319,411202,2,0,L|375:310,2,120.000004577637,8|0|0,0:0|0:0|0:0,0:0:0:0:
51,331,411702,1,8,0:0:0:0:
174,249,411902,2,0,L|85:255,1,60.0000022888184,0|0,0:0|0:0,0:0:0:0:
315,350,412102,6,0,L|413:357,1,64,2|0,0:2|0:0,0:0:0:0:
135,163,412302,2,0,L|40:169,1,64,2|0,0:2|0:0,0:0:0:0:
281,81,412502,2,0,P|351:84|413:45,1,128,10|0,0:2|0:0,0:0:0:0:
197,35,412802,2,0,L|135:51,1,64,8|0,0:0|0:0,0:0:0:0:
253,112,413002,2,0,P|323:115|385:76,1,128,10|0,0:2|0:0,0:0:0:0:
169,126,413302,2,0,L|107:142,1,64,0|0,0:0|0:0,0:0:0:0:
349,290,413502,2,0,L|416:302,1,64,0|0,0:0|0:0,0:0:0:0:
123,174,413702,6,0,L|59:163,1,64,0|0,0:0|0:0,0:0:0:0:
334,256,413902,2,0,L|406:268,1,64,0|0,0:0|0:0,0:0:0:0:
123,174,414102,2,0,P|92:231|125:303,1,128,0|2,0:0|0:0,0:0:0:0:
185,237,414402,1,8,0:0:0:0:
212,180,414502,1,2,0:2:0:0:
197,119,414602,1,0,0:0:0:0:
146,82,414702,1,2,0:2:0:0:
84,86,414802,1,10,0:2:0:0:
264,31,414902,2,0,L|340:23,1,64,0|2,0:0|0:2,0:0:0:0:
134,368,415102,2,0,L|58:360,1,64,0|0,0:0|0:0,0:0:0:0:
366,353,415302,6,0,P|388:271|325:221,1,128,8|0,0:0|0:0,0:0:0:0:
287,198,415602,1,0,0:0:0:0:
474,42,415703,2,0,B|414:66|414:66|301:53,1,128,8|0,0:0|0:0,0:0:0:0:
123,192,416003,2,0,B|183:212|183:212|247:204,2,128,8|10|0,0:0|0:2|0:0,0:0:0:0:
331,118,416503,2,0,L|246:128,1,64,8|0,0:0|0:0,0:0:0:0:
84,81,416703,2,0,L|164:73,1,70.000000667572,8|0,0:0|0:0,0:0:0:0:
366,353,416903,5,0,0:0:0:0:
458,321,417003,2,0,P|467:245|410:180,1,128,2|0,0:2|0:0,0:0:0:0:
247,204,417303,2,0,P|238:280|295:345,1,128,8|0,0:0|0:0,0:0:0:0:
458,321,417603,1,2,0:2:0:0:
469,259,417703,1,2,0:2:0:0:
442,202,417803,1,2,0:2:0:0:
387,172,417903,1,2,0:2:0:0:
325,180,418003,1,2,0:2:0:0:
60,348,418103,2,0,L|187:370,1,128,10|0,0:2|0:0,0:0:0:0:
267,338,418403,1,0,0:0:0:0:
60,348,418503,6,0,L|35:290,1,64,8|0,0:0|0:0,0:0:0:0:
229,125,418703,2,0,L|254:67,1,64,0|0,0:0|0:0,0:0:0:0:
34,289,418903,2,0,L|161:311,1,128,8|0,0:0|0:0,0:0:0:0:
370,199,419203,2,0,L|243:221,2,128,10|2|8,0:2|0:2|0:0,0:0:0:0:
96,300,419703,2,0,L|16:286,1,64,2|2,0:2|0:2,0:0:0:0:
297,361,419903,2,0,P|374:376|436:358,1,128,8|0,0:0|0:0,0:0:0:0:
252,344,420203,6,0,P|175:329|113:347,1,128,10|0,0:2|0:0,0:0:0:0:
297,361,420503,2,0,P|374:376|436:358,1,128,8|0,0:0|0:0,0:0:0:0:
481,311,420803,1,2,0:2:0:0:
219,52,420903,1,2,0:2:0:0:
174,95,421003,1,2,0:2:0:0:
177,157,421103,1,2,0:2:0:0:
226,196,421203,1,2,0:2:0:0:
416,284,421303,2,0,L|504:268,1,64,8|0,0:0|0:0,0:0:0:0:
289,207,421503,2,0,L|201:191,1,64,0|0,0:0|0:0,0:0:0:0:
416,284,421703,6,0,L|426:212,1,64,4|0,0:0|0:0,0:0:0:0:
320,212,421903,2,0,L|310:140,1,64,0|0,0:0|0:0,0:0:0:0:
127,331,422103,2,0,P|94:257|129:205,1,128,8|0,0:0|0:0,0:0:0:0:
337,57,422403,2,0,L|183:41,2,128,8|10|0,0:0|0:2|0:0,0:0:0:0:
230,351,422903,2,0,L|305:360,1,64,8|0,0:0|0:0,0:0:0:0:
482,261,423103,2,0,L|407:270,1,64,0|0,0:0|0:0,0:0:0:0:
230,351,423303,5,0,0:0:0:0:
127,331,423403,2,0,P|94:257|129:205,1,128,8|0,0:0|0:0,0:0:0:0:
207,183,423703,2,0,L|342:197,1,120,8|0,0:0|0:0,0:0:0:0:
248,115,424103,2,0,L|162:107,1,64,10|2,0:2|0:2,0:0:0:0:
321,123,424303,2,0,L|388:129,1,64,10|2,0:2|0:2,0:0:0:0:
227,89,424503,2,0,L|80:75,1,128,10|0,0:2|0:0,0:0:0:0:
173,179,424803,1,0,0:0:0:0:
413,372,424903,5,8,0:0:0:0:
459,329,425003,1,0,0:0:0:0:
470,268,425103,1,0,0:0:0:0:
442,212,425203,1,0,0:0:0:0:
360,269,425303,2,0,P|287:283|207:254,1,128,8|0,0:0|0:0,0:0:0:0:
31,225,425603,2,0,P|104:211|184:240,1,128,8|2,0:0|0:2,0:0:0:0:
363,33,425903,2,0,L|300:36,1,64,2|0,0:2|0:0,0:0:0:0:
96,328,426103,2,0,L|33:331,1,64,2|0,0:2|0:0,0:0:0:0:
216,172,426303,2,0,L|279:175,1,64
469,121,426503,6,0,L|498:29,1,64,0|8,0:0|0:0,0:0:0:0:
179,62,426703,1,8,0:0:0:0:
78,345,426903,54,0,L|155:348,1,71.9999978027344,8|0,0:3|0:0,0:0:0:0:
315,271,427103,2,0,L|243:275,1,71.9999978027344,8|0,0:3|0:0,0:0:0:0:
78,345,427303,54,0,L|155:348,1,71.9999978027344,8|0,0:3|0:0,0:0:0:0:
340,244,427503,2,0,L|268:248,1,71.9999978027344,8|0,0:3|0:0,0:0:0:0:
78,345,427703,54,0,L|155:348,1,71.9999978027344,8|0,0:3|0:0,0:0:0:0:
365,217,427903,2,0,L|293:221,1,71.9999978027344,8|0,0:3|0:0,0:0:0:0:
78,345,428103,54,0,L|164:349,1,80,2|0,0:2|0:0,0:0:0:0:
238,353,428303,2,0,L|324:357,1,80,2|0,0:2|0:0,0:0:0:0:
62,57,428503,2,0,L|24:144,1,80,2|0,0:2|0:0,0:0:0:0:
110,155,428703,2,0,L|196:159,1,80,2|0,0:2|0:0,0:0:0:0:
420,163,428903,6,0,L|458:250,1,80,2|0,0:2|0:0,0:0:0:0:
372,261,429103,2,0,L|286:265,1,80,2|0,0:2|0:0,0:0:0:0:
53,208,429303,2,0,L|15:295,1,80,2|0,0:2|0:0,0:0:0:0:
101,306,429503,2,0,L|187:310,1,80,2|0,0:2|0:0,0:0:0:0:
436,336,429703,5,8,0:0:0:0:
452,236,429803,1,0,0:0:0:0:
256,192,430003,1,0,0:0:0:0:
190,174,430103,2,0,L|256:192,1,68.0000012969971,10|0,0:2|0:0,0:0:0:0:
450,85,430303,2,0,L|384:103,1,68.0000012969971,0|0,0:0|0:0,0:0:0:0:
180,309,430503,2,0,L|340:349,1,136.000002593994,8|0,0:0|0:0,0:0:0:0:
389,312,430804,1,8,0:0:0:0:
141,230,430904,2,0,P|108:227|75:212,1,68.0000012969971,2|2,0:2|0:2,0:0:0:0:
255,191,431104,2,0,P|288:194|321:209,1,68.0000012969971,2|2,0:2|0:2,0:0:0:0:
70,209,431304,5,2,0:2:0:0:
54,143,431404,1,0,0:0:0:0:
81,82,431504,1,2,0:2:0:0:
138,47,431604,1,0,0:0:0:0:
397,50,431704,1,2,0:2:0:0:
413,116,431804,1,0,0:0:0:0:
386,177,431904,1,2,0:2:0:0:
329,212,432004,1,0,0:0:0:0:
51,193,432104,5,2,0:2:0:0:
35,127,432204,1,0,0:0:0:0:
62,66,432304,1,2,0:2:0:0:
119,31,432404,1,0,0:0:0:0:
348,252,432504,2,0,P|312:248|279:232,1,68.0000012969971,2|0,0:2|0:0,0:0:0:0:
92,256,432704,2,0,P|128:260|160:275,1,68.0000012969971,2|0,0:2|0:0,0:0:0:0:
403,312,432904,6,0,P|430:241|383:175,1,136.000002593994,4|0,0:0|0:0,0:0:0:0:
290,121,433204,2,0,L|475:112,1,136.000002593994,0|0,0:0|0:0,0:0:0:0:
310,239,433504,2,0,P|283:310|330:376,1,136.000002593994,0|0,0:0|0:0,0:0:0:0:
403,312,433804,1,0,0:0:0:0:
430,251,433904,1,0,0:0:0:0:
405,190,434004,1,0,0:0:0:0:
310,239,434104,2,0,L|224:217,1,68.0000012969971,8|2,0:0|0:2,0:0:0:0:
426,99,434304,2,0,L|520:74,1,68.0000012969971,0|0,0:0|0:0,0:0:0:0:
171,323,434504,53,8,0:0:0:0:
80,295,434604,2,0,P|76:210|138:166,1,136.000002593994,0|0,0:0|0:0,0:0:0:0:
199,118,434904,2,0,P|266:135|343:126,1,136.000002593994,8|0,0:0|0:0,0:0:0:0:
278,36,435204,1,0,0:0:0:0:
98,330,435304,2,0,L|-10:326,1,95.9999970703126,2|0,0:0|0:0,0:0:0:0:
91,240,435604,2,0,L|159:236,1,68.0000012969971,8|0,0:0|0:0,0:0:0:0:
82,153,435804,2,0,L|10:157,1,68.0000012969971,10|0,0:2|0:0,0:0:0:0:
106,81,436004,1,2,0:2:0:0:
408,55,436104,5,0,0:0:0:0:
439,113,436204,1,2,0:2:0:0:
421,177,436304,1,0,0:0:0:0:
317,217,436404,2,0,L|307:289,1,68.0000012969971,2|0,0:2|0:0,0:0:0:0:
418,295,436604,2,0,L|428:367,1,68.0000012969971,2|0,0:2|0:0,0:0:0:0:
325,298,436804,1,0,0:0:0:0:
148,9,436904,2,0,P|92:37|12:21,1,136.000002593994,8|0,0:0|0:0,0:0:0:0:
104,112,437204,1,0,0:0:0:0:
21,26,437304,2,0,P|87:37|148:9,1,136.000002593994,10|2,0:2|0:0,0:0:0:0:
253,152,437604,6,0,L|179:176,1,68.0000012969971,8|0,0:0|0:0,0:0:0:0:
86,329,437804,2,0,L|151:349,1,68.0000012969971,0|0,0:0|0:0,0:0:0:0:
262,133,438004,2,0,L|188:157,1,68.0000012969971,0|0,0:0|0:0,0:0:0:0:
95,310,438204,2,0,L|160:330,1,68.0000012969971,0|0,0:0|0:0,0:0:0:0:
244,315,438404,1,0,0:0:0:0:
446,376,438504,6,0,P|476:321|450:247,1,136.000002593994,8|0,0:0|0:0,0:0:0:0:
372,224,438804,2,0,L|307:204,1,68.0000012969971,8|0,0:0|0:0,0:0:0:0:
224,176,439004,2,0,P|193:121|220:47,1,136.000002593994,10|0,0:2|0:0,0:0:0:0:
385,4,439304,5,0,0:0:0:0:
452,52,439404,1,0,0:0:0:0:
479,140,439504,1,0,0:0:0:0:
435,222,439604,1,0,0:0:0:0:
332,256,439704,1,0,0:0:0:0:
319,335,439804,1,0,0:0:0:0:
440,216,439904,1,0,0:0:0:0:
452,296,440004,1,0,0:0:0:0:
224,348,440104,2,0,L|17:320,1,204.000003890991,8|0,0:0|0:0,0:0:0:0:
150,306,440504,2,0,L|198:257,1,68.0000012969971,8|0,0:0|0:0,0:0:0:0:
70,273,440704,2,0,L|21:321,1,68.0000012969971,0|0,0:0|0:0,0:0:0:0:
309,357,440904,5,0,0:0:0:0:
335,295,441004,1,0,0:0:0:0:
318,231,441104,1,0,0:0:0:0:
265,190,441204,1,0,0:0:0:0:
152,116,441304,2,0,L|325:93,1,136.000002593994,8|0,0:0|0:0,0:0:0:0:
178,62,441604,2,0,L|110:54,1,68.0000012969971,0|0,0:0|0:0,0:0:0:0:
224,216,441804,2,0,L|292:208,1,68.0000012969971,2|0,0:2|0:0,0:0:0:0:
194,191,442004,1,0,0:0:0:0:
426,365,442104,2,0,L|436:270,1,68.0000012969971,0|0,0:0|0:0,0:0:0:0:
363,256,442304,1,0,0:0:0:0:
89,368,442404,54,0,L|181:384,1,68.0000012969971,2|0,0:2|0:0,0:0:0:0:
256,320,442604,2,0,L|189:308,1,68.0000012969971,10|0,0:2|0:0,0:0:0:0:
89,368,442804,1,0,0:0:0:0:
176,308,442904,2,0,L|84:292,1,68.0000012969971,0|0,0:0|0:0,0:0:0:0:
39,246,443104,1,0,0:0:0:0:
259,231,443204,1,2,0:2:0:0:
280,167,443304,1,2,0:2:0:0:
260,103,443404,1,2,0:2:0:0:
206,64,443504,1,2,0:2:0:0:
451,67,443604,2,0,L|471:-21,1,68.0000012969971,10|0,0:2|0:0,0:0:0:0:
197,246,443804,2,0,L|209:314,1,68.0000012969971,0|0,0:0|0:0,0:0:0:0:
391,245,444004,53,0,0:0:0:0:
428,172,444104,2,0,L|332:164,1,68.0000012969971,0|0,0:0|0:0,0:0:0:0:
244,13,444304,2,0,L|312:7,1,68.0000012969971,0|0,0:0|0:0,0:0:0:0:
428,172,444504,2,0,P|448:236|408:308,1,136.000002593994,8|0,0:0|0:0,0:0:0:0:
139,353,444804,2,0,L|274:360,2,136.000002593994,8|2|8,0:0|0:2|0:0,0:0:0:0:
71,312,445304,1,0,0:0:0:0:
283,319,445404,2,0,L|291:247,1,68.0000012969971,8|0,0:0|0:0,0:0:0:0:
76,281,445604,6,0,L|84:209,1,68.0000012969971,0|0,0:0|0:0,0:0:0:0:
299,206,445804,2,0,L|434:213,1,136.000002593994,2|0,0:2|0:0,0:0:0:0:
384,122,446105,1,0,0:0:0:0:
197,1,446204,2,0,P|149:70|178:136,1,136.000002593994,8|0,0:0|0:0,0:0:0:0:
262,320,446504,2,0,P|310:251|281:185,1,136.000002593994,8|0,0:0|0:0,0:0:0:0:
119,217,446804,2,0,L|30:201,1,68.0000012969971,2|0,0:2|0:0,0:0:0:0:
281,86,447004,2,0,L|370:70,1,68.0000012969971,2|0,0:2|0:0,0:0:0:0:
90,11,447204,5,0,0:0:0:0:
155,29,447304,1,0,0:0:0:0:
209,69,447404,1,0,0:0:0:0:
246,126,447504,1,0,0:0:0:0:
260,192,447604,1,0,0:0:0:0:
250,259,447704,1,0,0:0:0:0:
217,318,447804,1,0,0:0:0:0:
165,362,447904,1,0,0:0:0:0:
102,384,448004,1,0,0:0:0:0:
34,383,448104,1,0,0:0:0:0:
307,371,448205,54,0,L|377:371,1,68.0000012969971,2|0,0:2|0:0,0:0:0:0:
140,168,448405,2,0,L|96:240,1,68.0000012969971,0|0,0:0|0:0,0:0:0:0:
406,235,448604,1,2,0:2:0:0:
428,172,448704,1,0,0:0:0:0:
402,110,448804,1,0,0:0:0:0:
343,81,448904,1,0,0:0:0:0:
140,168,449005,6,0,L|216:208,1,68.0000012969971,0|0,0:0|0:0,0:0:0:0:
403,49,449204,2,0,L|327:89,1,68.0000012969971,0|0,0:0|0:0,0:0:0:0:
126,191,449404,2,0,L|202:231,1,68.0000012969971,0|0,0:0|0:0,0:0:0:0:
395,370,449604,1,0,0:0:0:0:
468,336,449704,2,0,P|491:261|416:195,1,136.000002593994,10|0,0:2|0:0,0:0:0:0:
227,214,450004,2,0,P|204:289|279:355,1,136.000002593994,10|0,0:2|0:0,0:0:0:0:
448,129,450305,2,0,L|377:157,1,68.0000012969971,0|0,0:0|0:0,0:0:0:0:
304,126,450504,5,4,0:0:0:0:
221,103,450605,1,0,0:0:0:0:
140,119,450705,1,0,0:0:0:0:
59,185,450805,1,0,0:0:0:0:
348,251,450905,2,0,L|519:286,1,136.000002593994,8|0,0:0|0:0,0:0:0:0:
312,8,451205,2,0,L|123:43,2,136.000002593994,8|10|8,0:0|0:2|0:0,0:0:0:0:
499,57,451705,2,0,L|405:75,1,68.0000012969971,8|8,0:0|0:0,0:0:0:0:
205,70,451905,2,0,L|71:42,1,136.000002593994,0|0,0:0|0:0,0:0:0:0:
171,145,452205,6,0,L|192:222,1,68.0000012969971,8|0,0:0|0:0,0:0:0:0:
69,266,452405,2,0,L|48:343,1,68.0000012969971,0|0,0:0|0:0,0:0:0:0:
171,145,452605,2,0,L|260:163,1,68.0000012969971,10|0,0:2|0:0,0:0:0:0:
333,84,452805,1,2,0:2:0:0:
369,139,452905,1,10,0:2:0:0:
363,205,453005,1,0,0:0:0:0:
315,252,453105,1,2,0:2:0:0:
223,290,453205,2,0,L|202:367,1,68.0000012969971,8|0,0:0|0:0,0:0:0:0:
303,26,453405,2,0,L|324:103,1,68.0000012969971,2|0,0:2|0:0,0:0:0:0:
220,64,453605,1,0,0:0:0:0:
392,351,453705,6,0,L|472:344,1,71.9999978027344,4|0,0:0|0:0,0:0:0:0:
263,195,453901,2,0,L|183:188,1,71.9999978027344,0|0,0:0|0:0,0:0:0:0:
372,264,454098,2,0,P|395:184|340:107,1,143.999995605469,8|0,0:0|0:0,0:0:0:0:
248,363,454393,2,0,L|414:349,2,143.999995605469,8|10|0,0:0|0:2|0:0,0:0:0:0:
51,331,454885,1,8,0:0:0:0:
33,262,454983,1,0,0:0:0:0:
59,197,455081,1,0,0:0:0:0:
120,160,455180,1,0,0:0:0:0:
312,142,455278,6,0,L|384:134,1,71.9999978027344,0|0,0:0|0:0,0:0:0:0:
199,70,455475,1,10,0:2:0:0:
349,117,455672,1,8,0:0:0:0:
218,73,455868,1,8,0:0:0:0:
380,131,456065,1,8,0:0:0:0:
228,83,456262,1,8,0:0:0:0:
449,112,456459,1,8,0:0:0:0:
465,182,456557,1,0,0:0:0:0:
481,252,456655,1,0,0:0:0:0:
497,322,456754,1,0,0:0:0:0:
258,347,456852,6,0,P|178:345|118:315,1,143.999995605469,8|0,0:0|0:0,0:0:0:0:
360,293,457145,2,0,P|440:295|500:325,2,143.999995605469,8|10|2,0:0|0:2|0:2,0:0:0:0:
165,236,457635,2,0,L|148:143,1,71.9999978027344,10|0,0:2|0:0,0:0:0:0:
246,135,457830,1,0,0:0:0:0:
15,194,457928,2,0,P|80:164|151:164,1,143.999995605469,8|0,0:0|0:0,0:0:0:0:
242,346,458222,1,10,0:2:0:0:
84,284,458418,5,8,0:0:0:0:
251,253,458613,1,8,0:0:0:0:
81,154,458809,1,8,0:0:0:0:
287,244,459005,1,8,0:0:0:0:
313,177,459102,1,0,0:0:0:0:
300,108,459200,1,2,0:0:0:0:
253,55,459298,1,0,0:0:0:0:
184,36,459396,1,0,0:0:0:0:
404,345,459494,2,0,L|482:328,1,71.9999978027344,0|0,0:0|0:0,0:0:0:0:
373,263,459690,2,0,L|295:246,1,71.9999978027344,2|0,0:2|0:0,0:0:0:0:
404,345,459886,2,0,L|482:328,1,71.9999978027344,0|0,0:0|0:0,0:0:0:0:
153,31,460082,6,0,L|75:14,1,71.9999978027344,4|0,0:0|0:0,0:0:0:0:
176,142,460277,2,0,L|254:125,1,71.9999978027344,8|0,0:0|0:0,0:0:0:0:
146,57,460473,2,0,L|68:40,1,71.9999978027344,8|0,0:0|0:0,0:0:0:0:
198,346,460669,1,0,0:0:0:0:
225,310,460767,1,0,0:0:0:0:
232,266,460865,2,0,L|148:282,1,71.9999978027344,0|0,0:0|0:0,0:0:0:0:
90,247,461060,1,2,0:2:0:0:
316,320,461158,2,0,P|336:242|250:176,1,143.999995605469,8|0,0:0|0:0,0:0:0:0:
58,107,461452,6,0,P|38:185|124:251,1,143.999995605469,10|0,0:2|0:0,0:0:0:0:
172,157,461745,1,10,0:2:0:0:
24,91,461941,1,8,0:0:0:0:
216,143,462137,1,8,0:0:0:0:
56,323,462333,1,8,0:0:0:0:
247,262,462528,1,8,0:0:0:0:
121,166,462724,1,8,0:0:0:0:
317,319,462919,1,8,0:0:0:0:
147,179,463116,5,12,0:0:0:0:
186,120,463214,1,0,0:0:0:0:
172,51,463312,1,0,0:0:0:0:
113,13,463411,1,0,0:0:0:0:
325,66,463509,1,8,0:0:0:0:
355,84,463558,1,8,0:0:0:0:
374,115,463607,1,8,0:0:0:0:
378,150,463656,1,0,0:0:0:0:
367,184,463705,1,0,0:0:0:0:
256,334,463804,2,0,L|168:322,1,71.9999978027344,8|0,0:0|0:0,0:0:0:0:
106,309,464001,5,2,0:2:0:0:
292,336,464197,1,0,0:0:0:0:
317,269,464296,1,0,0:0:0:0:
306,199,464393,1,0,0:0:0:0:
261,143,464492,1,0,0:0:0:0:
195,117,464590,1,0,0:0:0:0:
21,340,464689,1,0,0:0:0:0:
94,312,464788,1,0,0:0:0:0:
279,115,464886,2,0,L|208:87,1,71.9999978027344,2|0,0:2|0:0,0:0:0:0:
34,261,465083,5,10,0:2:0:0:
213,298,465279,1,8,0:0:0:0:
55,223,465476,1,8,0:0:0:0:
448,189,465673,1,8,0:0:0:0:
300,136,465869,1,8,0:0:0:0:
474,81,466066,1,8,0:0:0:0:
121,25,466263,6,0,P|66:71|76:153,1,160,2|2,0:2|0:3,0:0:0:0:
243,241,466863,2,0,P|254:316|197:368,1,160,0|0,0:0|0:0,0:0:0:0:
46,351,467463,2,0,L|41:258,1,80,0|2,0:0|0:3,0:0:0:0:
181,288,467863,6,0,P|261:304|345:276,1,160,2|0,0:0|0:0,0:0:0:0:
499,138,468463,2,0,P|419:122|335:150,1,160,2|0,0:3|0:0,0:0:0:0:
170,36,469063,2,0,L|260:46,1,80,0|0,0:0|0:0,0:0:0:0:
391,25,469433,6,0,P|446:71|436:153,1,160,2|0,0:0|0:0,0:0:0:0:
269,241,470014,2,0,P|257:316|310:374,1,160,2|0,0:3|0:0,0:0:0:0:
466,351,470596,2,0,L|471:258,1,80,0|0,0:0|0:0,0:0:0:0:
331,288,470984,6,0,P|251:304|167:276,1,160,2|0,0:0|0:0,0:0:0:0:
13,138,471566,2,0,P|93:122|177:150,1,160,8|0,0:3|0:0,0:0:0:0:
342,36,472147,2,0,L|252:46,1,80,8|2,0:3|0:3,0:0:0:0:
112,237,472535,6,0,L|34:226,2,75.9999979705811,12|0|0,0:0|0:0|0:0,0:0:0:0:
303,350,472926,1,8,0:0:0:0:
335,329,473024,1,8,0:0:0:0:
344,292,473122,1,8,0:0:0:0:
334,255,473220,1,8,0:0:0:0:
302,233,473318,1,8,0:0:0:0:
92,116,473710,2,0,L|52:189,2,75.9999979705811,8|0|0,0:0|0:0|0:0,0:0:0:0:
303,350,474102,6,0,L|381:361,2,75.9999979705811,8|8|8,0:0|0:0|0:0,0:0:0:0:
112,220,474494,1,8,0:0:0:0:
80,199,474592,1,8,0:0:0:0:
71,162,474690,1,8,0:0:0:0:
81,125,474788,1,8,0:0:0:0:
113,103,474886,1,8,0:0:0:0:
281,322,475082,2,0,L|359:333,2,75.9999979705811,8|8|8,0:0|0:0|0:0,0:0:0:0:
441,289,475474,5,12,0:0:0:0:
473,268,475572,1,8,0:0:0:0:
482,231,475670,1,8,0:0:0:0:
472,194,475768,1,8,0:0:0:0:
440,172,475866,1,8,0:0:0:0:
248,196,476062,1,8,0:0:0:0:
216,175,476160,1,8,0:0:0:0:
207,138,476258,1,8,0:0:0:0:
217,101,476356,1,8,0:0:0:0:
249,79,476454,6,0,L|353:63,1,75.9999979705811,10|0,0:2|0:0,0:0:0:0:
118,320,476649,2,0,L|14:304,1,75.9999979705811,10|0,0:2|0:0,0:0:0:0:
257,93,476845,2,0,L|361:77,1,75.9999979705811,10|0,0:2|0:0,0:0:0:0:
126,334,477041,2,0,L|18:321,1,75.9999979705811,10|0,0:2|0:0,0:0:0:0:
224,196,477335,2,0,L|300:207,1,75.9999979705811,10|0,0:2|0:0,0:0:0:0:
139,81,477531,5,8,0:0:0:0:
75,102,477629,1,8,0:0:0:0:
29,148,477727,1,8,0:0:0:0:
12,210,477825,1,8,0:0:0:0:
25,273,477923,1,8,0:0:0:0:
66,324,478021,1,8,0:0:0:0:
119,353,478119,1,8,0:0:0:0:
184,354,478217,1,8,0:0:0:0:
241,326,478315,1,8,0:0:0:0:
462,358,478413,6,0,L|469:268,1,90.0000034332277,2|0,0:0|0:0,0:0:0:0:
213,335,478805,21,8,0:0:0:0:
192,252,478901,1,8,0:0:0:0:
366,290,478997,1,8,0:0:0:0:
444,276,479093,1,8,0:0:0:0:
99,309,479189,1,8,0:0:0:0:
21,274,479285,2,0,L|128:254,1,80,10|0,0:0|0:0,0:0:0:0:
180,240,479478,1,0,0:0:0:0:
381,217,479574,5,0,0:0:0:0:
448,185,479670,2,0,P|456:89|393:43,1,160,8|0,0:0|0:0,0:0:0:0:
216,152,479958,2,0,L|48:108,1,160,8|2,0:0|0:2,0:0:0:0:
308,106,480247,2,0,L|408:134,1,80,10|0,0:2|0:0,0:0:0:0:
306,237,480439,5,0,0:0:0:0:
224,340,480535,2,0,L|322:367,1,80,10|0,0:2|0:0,0:0:0:0:
497,286,480728,2,0,L|393:315,1,80,10|0,0:2|0:0,0:0:0:0:
204,209,480920,2,0,L|302:236,1,80,10|0,0:2|0:0,0:0:0:0:
497,139,481112,2,0,L|399:166,1,80,10|0,0:2|0:0,0:0:0:0:
194,77,481305,2,0,L|292:104,1,80,10|0,0:2|0:0,0:0:0:0:
451,342,481497,1,8,0:0:0:0:
351,363,481593,1,8,0:0:0:0:
451,342,481689,1,8,0:0:0:0:
351,363,481785,1,8,0:0:0:0:
95,319,481881,6,0,P|66:262|128:193,1,160,8|0,0:0|0:0,0:0:0:0:
236,180,482170,2,0,L|212:256,1,80,8|0,0:0|0:0,0:0:0:0:
95,319,482362,2,0,P|66:262|128:193,1,160,10|0,0:2|0:0,0:0:0:0:
215,184,482651,1,8,0:0:0:0:
309,105,482747,2,0,L|196:70,1,80,8|0,0:0|0:0,0:0:0:0:
18,335,482939,2,0,L|199:393,1,160,8|0,0:0|0:0,0:0:0:0:
388,254,483228,6,0,L|364:330,1,80,10|0,0:2|0:0,0:0:0:0:
153,57,483420,2,0,P|117:68|72:68,1,80,10|0,0:2|0:0,0:0:0:0:
309,105,483612,2,0,P|345:94|390:94,1,80,10|0,0:2|0:0,0:0:0:0:
124,304,483805,2,0,L|4:327,1,80,10|0,0:2|0:0,0:0:0:0:
124,304,483997,5,0,0:0:0:0:
204,288,484093,1,0,0:0:0:0:
418,345,484189,1,8,0:0:0:0:
462,278,484285,1,8,0:0:0:0:
461,200,484381,1,8,0:0:0:0:
417,134,484477,1,8,0:0:0:0:
343,105,484573,1,8,0:0:0:0:
108,40,484670,2,0,P|65:87|133:144,1,160,10|8,0:2|0:0,0:0:0:0:
323,215,484958,5,8,0:0:0:0:
232,228,485055,1,10,0:2:0:0:
323,215,485151,1,8,0:0:0:0:
232,228,485247,1,8,0:0:0:0:
439,294,485343,1,8,0:0:0:0:
458,217,485439,1,8,0:0:0:0:
432,143,485535,1,8,0:0:0:0:
368,97,485631,1,8,0:0:0:0:
169,313,485728,5,8,0:0:0:0:
248,319,485824,1,8,0:0:0:0:
328,326,485920,1,8,0:0:0:0:
408,332,486016,1,8,0:0:0:0:
89,304,486112,2,0,P|79:241|165:168,1,160,10|0,0:2|0:0,0:0:0:0:
407,72,486401,2,0,L|242:60,1,160,10|0,0:2|0:0,0:0:0:0:
163,169,486689,54,0,L|187:277,1,80,10|0,0:2|0:0,0:0:0:0:
428,163,486881,2,0,L|348:215,1,80,10|0,0:2|0:0,0:0:0:0:
141,213,487074,2,0,L|165:321,1,80,10|0,0:2|0:0,0:0:0:0:
468,182,487266,2,0,L|388:234,1,80,10|0,0:2|0:0,0:0:0:0:
121,253,487458,6,0,L|145:361,1,80,10|0,0:2|0:0,0:0:0:0:
508,198,487650,2,0,L|428:250,1,80,10|0,0:2|0:0,0:0:0:0:
69,121,487843,2,0,L|87:42,1,80,10|0,0:2|0:0,0:0:0:0:
391,26,488035,5,8,0:0:0:0:
440,86,488131,1,8,0:0:0:0:
428,163,488227,1,8,0:0:0:0:
364,206,488323,1,8,0:0:0:0:
69,361,488420,2,0,L|233:348,1,160,8|0,0:0|0:0,0:0:0:0:
458,368,488708,2,0,L|356:374,1,80,8|0,0:0|0:0,0:0:0:0:
308,297,488901,2,0,L|400:293,1,80,10|0,0:2|0:0,0:0:0:0:
121,26,489093,1,8,0:0:0:0:
72,86,489189,1,8,0:0:0:0:
84,163,489285,1,8,0:0:0:0:
148,206,489381,1,8,0:0:0:0:
443,361,489478,6,0,L|279:348,1,160,8|8,0:0|0:0,0:0:0:0:
74,304,489766,2,0,L|122:240,1,80,10|0,0:2|0:0,0:0:0:0:
331,284,489958,2,0,L|283:348,1,80,10|0,0:2|0:0,0:0:0:0:
71,262,490151,2,0,L|119:198,1,80,10|0,0:2|0:0,0:0:0:0:
375,270,490343,54,0,L|327:334,1,80,10|0,0:2|0:0,0:0:0:0:
79,107,490535,2,0,L|169:119,1,80,10|0,0:2|0:0,0:0:0:0:
394,34,490728,2,0,L|304:46,1,80,2|0,0:2|0:0,0:0:0:0:
72,125,490920,2,0,L|162:137,1,80,10|0,0:2|0:0,0:0:0:0:
356,328,491112,5,8,0:0:0:0:
459,309,491208,1,8,0:0:0:0:
356,328,491305,1,8,0:0:0:0:
459,309,491401,1,8,0:0:0:0:
74,304,491497,2,0,P|50:229|98:153,1,160,8|0,0:0|0:0,0:0:0:0:
209,210,491785,2,0,L|126:243,1,80,10|0,0:2|0:0,0:0:0:0:
51,312,491978,2,0,P|27:237|75:161,1,160,10|0,0:2|0:0,0:0:0:0:
289,145,492266,2,0,L|194:130,1,80,8|8,0:0|0:0,0:0:0:0:
289,145,492458,2,0,L|384:160,1,80,8|8,0:0|0:0,0:0:0:0:
122,77,492651,6,0,L|27:62,1,80,0|8,0:0|0:0,0:0:0:0:
310,267,492843,2,0,L|336:357,1,80,10|0,0:2|0:0,0:0:0:0:
125,357,493035,2,0,L|220:342,1,80,10|0,0:2|0:0,0:0:0:0:
477,143,493228,2,0,L|382:128,1,80,10|0,0:2|0:0,0:0:0:0:
148,255,493420,6,0,L|191:323,1,80,10|0,0:2|0:0,0:0:0:0:
423,97,493612,2,0,L|343:101,1,80,10|0,0:2|0:0,0:0:0:0:
252,339,493805,2,0,L|332:343,1,80,10|0,0:2|0:0,0:0:0:0:
73,50,493997,1,2,0:2:0:0:
31,115,494093,1,2,0:2:0:0:
51,190,494189,5,10,0:2:0:0:
120,227,494285,1,8,0:0:0:0:
323,141,494381,2,0,L|243:145,1,80,8|8,0:0|0:0,0:0:0:0:
163,152,494574,1,8,0:0:0:0:
244,145,494670,2,0,P|274:92|208:22,1,160,10|0,0:2|0:0,0:0:0:0:
112,320,494958,1,8,0:0:0:0:
212,292,495055,1,8,0:0:0:0:
109,302,495151,1,8,0:0:0:0:
210,273,495247,1,8,0:0:0:0:
486,339,495343,6,0,L|462:251,1,80,8|0,0:0|0:0,0:0:0:0:
264,261,495535,2,0,L|240:173,1,80,10|0,0:2|0:0,0:0:0:0:
39,172,495728,2,0,L|15:84,1,80,10|0,0:2|0:0,0:0:0:0:
285,362,495920,2,0,L|380:347,1,80,10|0,0:2|0:0,0:0:0:0:
112,320,496112,2,0,L|17:335,1,80,10|0,0:2|0:0,0:0:0:0:
406,213,496305,6,0,L|501:228,2,80,8|8|8,0:0|0:0|0:0,0:0:0:0:
326,202,496593,2,0,L|350:122,1,80,8|0,0:0|0:0,0:0:0:0:
460,132,496785,2,0,L|436:52,1,80,8|0,0:0|0:0,0:0:0:0:
204,329,496978,2,0,B|126:351|126:351|36:332,1,160,10|8,0:2|0:0,0:0:0:0:
296,276,497266,5,8,0:0:0:0:
216,235,497362,2,0,L|308:283,1,80,8|0,0:0|0:0,0:0:0:0:
412,162,497555,2,0,L|320:210,1,80,0|0,0:0|0:0,0:0:0:0:
251,166,497747,2,0,P|217:100|275:20,1,160,8|0,0:0|0:0,0:0:0:0:
466,94,498035,2,0,P|500:160|442:240,1,160,8|0,0:0|0:0,0:0:0:0:
391,264,498324,1,8,0:0:0:0:
195,253,498420,6,0,L|103:205,1,80,10|2,0:2|0:2,0:0:0:0:
391,264,498612,1,10,0:2:0:0:
462,230,498708,2,0,P|499:163|450:98,1,160,10|0,0:2|0:0,0:0:0:0:
282,109,498997,2,0,L|340:40,1,80,10|0,0:2|0:0,0:0:0:0:
116,52,499189,2,0,L|20:22,1,80,10|0,0:2|0:0,0:0:0:0:
320,341,499381,2,0,L|224:311,1,80,10|0,0:2|0:0,0:0:0:0:
48,248,499574,5,10,0:2:0:0:
26,172,499670,1,0,0:0:0:0:
52,98,499766,1,10,0:2:0:0:
116,52,499862,1,0,0:0:0:0:
296,349,499959,2,0,L|218:367,1,80,10|0,0:2|0:0,0:0:0:0:
48,248,500151,2,0,L|148:277,1,80,10|0,0:2|0:0,0:0:0:0:
324,253,500343,5,8,0:0:0:0:
232,260,500439,1,8,0:0:0:0:
324,253,500535,1,8,0:0:0:0:
232,260,500631,1,8,0:0:0:0:
432,236,500728,2,0,P|447:175|382:94,1,160,8|0,0:0|0:0,0:0:0:0:
134,53,501016,2,0,L|303:47,2,160,8|10|0,0:0|0:2|0:0,0:0:0:0:
331,345,501497,1,10,0:2:0:0:
434,338,501593,1,8,0:0:0:0:
331,345,501689,1,8,0:0:0:0:
434,338,501785,1,8,0:0:0:0:
134,53,501881,6,0,P|85:77|35:76,1,80,8|8,0:0|0:0,0:0:0:0:
241,153,502074,2,0,P|290:129|340:130,1,80,10|0,0:2|0:0,0:0:0:0:
112,216,502266,2,0,L|19:179,1,80,10|0,0:2|0:0,0:0:0:0:
253,370,502458,2,0,L|323:331,1,80,10|0,0:2|0:0,0:0:0:0:
60,79,502651,6,0,L|140:112,1,80,10|2,0:2|0:2,0:0:0:0:
399,283,502843,2,0,L|477:319,1,80,2|2,0:2|0:2,0:0:0:0:
112,216,503035,2,0,P|76:298|146:362,1,160,8|2,0:0|0:2,0:0:0:0:
205,355,503324,1,2,0:2:0:0:
455,225,503420,5,4,0:0:0:0:
256,192,503520,12,0,512227,0:0:0:0:
116,327,512446,6,0,L|102:264,1,60.0000022888184,2|2,0:0|0:0,0:0:0:0:
248,237,512780,2,0,L|259:167,1,60.0000022888184,2|0,0:0|0:0,0:0:0:0:
112,57,513159,2,0,P|59:97|46:153,2,120.000004577637,2|2|2,0:3|0:2|0:0,0:0:0:0:
299,336,514106,2,0,L|373:342,1,60.0000022888184,2|2,0:0|0:0,0:0:0:0:
236,248,514490,6,0,L|107:255,1,120.000004577637,0|2,0:3|0:0,0:0:0:0:
293,100,515134,2,0,P|347:61|360:8,2,120.000004577637,2|2|2,0:0|0:0|0:0,0:0:0:0:
87,340,516005,54,0,L|53:270,1,60.0000022888184,2|2,0:0|0:0,0:0:0:0:
186,285,516395,2,0,L|210:226,1,60.0000022888184,2|2,0:0|0:0,0:0:0:0:
325,187,516688,6,0,L|375:170,2,40,2|2|2,0:0|0:0|0:0,0:0:0:0:
238,145,516974,2,0,L|197:159,2,40,2|2|2,0:0|0:0|0:0,0:0:0:0:
332,75,517249,2,0,P|368:89|462:76,1,120.000004577637,4|0,1:0|0:0,0:0:0:0:
396,184,517583,6,0,L|312:204,1,70.000000667572,8|0,1:1|0:0,0:0:0:0:
248,260,517784,2,0,L|192:248,1,40,2|0,0:1|0:0,0:0:0:0:
100,150,518062,2,0,P|47:190|34:246,2,120.000004577637,2|2|2,0:0|0:0|0:0,0:0:0:0:
233,187,518866,2,0,P|287:211|349:211,1,120.000004577637,2|2,0:0|0:0,0:0:0:0:
456,92,519259,6,0,L|395:107,1,60.0000022888184,2|2,0:0|0:0,0:0:0:0:
289,29,519523,2,0,L|359:42,1,60.0000022888184,2|2,0:0|0:0,0:0:0:0:
454,294,519764,6,0,L|493:312,2,40,2|2|2,0:0|0:0|0:0,0:0:0:0:
360,344,520103,2,0,L|318:354,2,40,2|2|2,0:0|0:0|0:0,0:0:0:0:
454,294,520423,6,0,P|464:242|422:182,1,120.000004577637,2|2,0:0|0:0,0:0:0:0:
234,190,520921,2,0,P|224:242|266:302,1,120.000004577637,2|2,0:0|0:0,0:0:0:0:
349,245,521323,1,2,0:0:0:0:
431,187,521464,54,0,L|464:144,2,40.000001525879,2|2|2,0:0|0:0|0:0,0:0:0:0:
322,104,521724,2,0,P|267:113|202:88,1,120.000004577637,2|2,0:0|0:0,0:0:0:0:
28,27,522369,6,0,P|83:18|121:33,1,95.9999970703126,2|2,0:0|0:0,0:0:0:0:
314,231,522809,2,0,L|392:257,2,80,2|2|2,0:0|0:0|0:0,0:0:0:0:
107,341,523489,6,0,L|118:249,1,88.000002685547,2|2,0:0|0:0,0:0:0:0:
348,156,524065,2,0,L|340:49,1,95.9999970703126,2|2,0:0|0:0,0:0:0:0:
132,355,524630,54,0,P|192:366|243:357,1,103.999995239258,2|0,0:0|0:0,0:0:0:0:
408,272,525112,2,0,P|358:255|280:270,1,120.000004577637,2|0,0:0|0:0,0:0:0:0:
256,192,525718,12,0,530957,0:0:0:0:
376,192,531283,53,12,1:0:0:0:
