osu file format v14

[General]
AudioFilename: audio.mp3
AudioLeadIn: 0
PreviewTime: 48001
Countdown: 0
SampleSet: Normal
StackLeniency: 0.7
Mode: 1
LetterboxInBreaks: 0
WidescreenStoryboard: 0

[Editor]
Bookmarks: 8844,18949,29054,39159,49265,58896,59370,68212,79580
DistanceSpacing: 1
BeatDivisor: 4
GridSize: 32
TimelineZoom: 1.9

[Metadata]
Title:intrO - Don't be Foolish
TitleUnicode:intrO - Don't be Foolish
Artist:t+pazolite
ArtistUnicode:t+pazolite
Creator:incandescence
Version:Ayyri's Kantan
Source:
Tags:DISC2 Ponko2 Girlish C89 Comiket 89 C.H.S CHS tpz taikocracy ayyri
BeatmapID:1548235
BeatmapSetID:733624

[Difficulty]
HPDrainRate:7
CircleSize:2
OverallDifficulty:3
ApproachRate:10
SliderMultiplier:1.4
SliderTickRate:1

[Events]
//Background and Video events
0,0,"Tewi 265.jpg",0,65
//Break Periods
//Storyboard Layer 0 (Background)
//Storyboard Layer 1 (Fail)
//Storyboard Layer 2 (Pass)
//Storyboard Layer 3 (Foreground)
//Storyboard Sound Samples

[TimingPoints]
8844,315.789473684211,4,1,0,50,1,0
38844,-100,4,1,0,5,0,0
39159,-100,4,1,0,75,0,0
49265,-100,4,1,0,75,0,1
58896,-100,4,1,0,75,0,0
59370,-100,4,1,0,75,0,1
68212,-100,4,1,0,75,0,0
69475,-100,4,1,0,75,0,0
70738,-100,4,1,0,65,0,0
72001,-100,4,1,0,65,0,0
73265,-100,4,1,0,55,0,0
74528,-100,4,1,0,45,0,0
75791,-100,4,1,0,35,0,0
77054,-100,4,1,0,25,0,0
78317,-100,4,1,0,15,0,0
79422,-100,4,1,0,5,0,0
79580,-100,4,1,0,30,0,0

[Colours]
Combo1 : 255,83,83
Combo2 : 128,64,64
Combo3 : 128,0,0
Combo4 : 249,193,194

[HitObjects]
256,192,8844,5,8,0:0:0:0:
256,192,10107,1,0,0:0:0:0:
256,192,10738,1,8,0:0:0:0:
256,192,11370,1,0,0:0:0:0:
256,192,12633,1,8,0:0:0:0:
256,192,13265,1,0,0:0:0:0:
256,192,13896,1,8,0:0:0:0:
256,192,15159,1,0,0:0:0:0:
256,192,15791,1,8,0:0:0:0:
256,192,16422,1,0,0:0:0:0:
256,192,17686,1,8,0:0:0:0:
256,192,18949,1,8,0:0:0:0:
256,192,19580,1,8,0:0:0:0:
256,192,20212,1,0,0:0:0:0:
256,192,20844,1,8,0:0:0:0:
256,192,22107,1,8,0:0:0:0:
256,192,22738,1,0,0:0:0:0:
256,192,23370,1,8,0:0:0:0:
256,192,24633,1,8,0:0:0:0:
256,192,25265,1,0,0:0:0:0:
256,192,25896,1,8,0:0:0:0:
256,192,27159,1,8,0:0:0:0:
256,192,27791,1,8,0:0:0:0:
256,192,28107,1,8,0:0:0:0:
256,192,28422,1,8,0:0:0:0:
256,192,29054,1,4,0:0:0:0:
256,192,29212,12,0,38844,0:0:0:0:
256,192,39159,5,12,0:0:0:0:
256,192,39791,1,8,0:0:0:0:
256,192,40422,1,0,0:0:0:0:
256,192,40738,1,0,0:0:0:0:
256,192,41054,1,8,0:0:0:0:
256,192,41686,1,0,0:0:0:0:
256,192,42949,1,8,0:0:0:0:
256,192,43265,1,0,0:0:0:0:
256,192,43580,1,8,0:0:0:0:
256,192,44212,1,0,0:0:0:0:
256,192,44844,1,8,0:0:0:0:
256,192,45475,1,0,0:0:0:0:
256,192,45791,1,0,0:0:0:0:
256,192,46107,1,8,0:0:0:0:
256,192,46738,1,0,0:0:0:0:
256,192,48001,1,12,0:0:0:0:
256,192,48949,1,4,0:0:0:0:
256,192,49265,1,12,0:0:0:0:
256,192,49896,1,8,0:0:0:0:
256,192,50528,1,0,0:0:0:0:
256,192,50844,1,0,0:0:0:0:
256,192,51159,1,8,0:0:0:0:
256,192,51791,1,8,0:0:0:0:
256,192,52738,1,0,0:0:0:0:
256,192,53054,1,8,0:0:0:0:
256,192,53686,1,8,0:0:0:0:
256,192,54317,1,0,0:0:0:0:
256,192,54949,1,8,0:0:0:0:
256,192,55580,1,0,0:0:0:0:
256,192,55896,1,8,0:0:0:0:
256,192,56212,1,0,0:0:0:0:
256,192,56844,1,8,0:0:0:0:
256,192,57791,1,0,0:0:0:0:
256,192,58107,1,8,0:0:0:0:
256,192,58738,1,0,0:0:0:0:
256,192,59054,1,8,0:0:0:0:
256,192,59370,1,4,0:0:0:0:
256,192,60001,1,8,0:0:0:0:
256,192,60633,1,0,0:0:0:0:
256,192,60949,1,8,0:0:0:0:
256,192,61265,1,0,0:0:0:0:
256,192,61896,1,8,0:0:0:0:
256,192,62528,1,8,0:0:0:0:
256,192,63159,1,0,0:0:0:0:
256,192,63475,1,0,0:0:0:0:
256,192,63791,1,8,0:0:0:0:
256,192,64422,1,0,0:0:0:0:
256,192,65370,1,8,0:0:0:0:
256,192,65686,1,0,0:0:0:0:
256,192,66317,1,8,0:0:0:0:
256,192,66949,1,0,0:0:0:0:
256,192,67580,1,8,0:0:0:0:
256,192,67896,1,0,0:0:0:0:
256,192,68212,1,12,0:0:0:0:
256,192,69159,1,12,0:0:0:0:
256,192,69475,1,4,0:0:0:0:
256,192,69633,12,0,79422,0:0:0:0:
256,192,79580,5,0,0:0:0:0:
