osu file format v14

[General]
AudioFilename: audio.mp3
AudioLeadIn: 0
PreviewTime: 26530
Countdown: 0
SampleSet: Normal
StackLeniency: 0.7
Mode: 3
LetterboxInBreaks: 0
SpecialStyle: 0
WidescreenStoryboard: 0

[Editor]
Bookmarks: 144319
DistanceSpacing: 0.8
BeatDivisor: 4
GridSize: 4
TimelineZoom: 1.3

[Metadata]
Title:You are the Miserable
TitleUnicode:You are the Miserable
Artist:t+pazolite
ArtistUnicode:t+pazolite
Creator:Jaymio Piano
Version:Lanota Ultra Lv.12
Source:Lanota 1.5
Tags:
BeatmapID:1359627
BeatmapSetID:641149

[Difficulty]
HPDrainRate:6
CircleSize:7
OverallDifficulty:7
ApproachRate:5
SliderMultiplier:1.4
SliderTickRate:1

[Events]
//Background and Video events
0,0,"Picture.png",0,0
//Break Periods
//Storyboard Layer 0 (Background)
//Storyboard Layer 1 (Fail)
//Storyboard Layer 2 (Pass)
//Storyboard Layer 3 (Foreground)
//Storyboard Layer 4 (Overlay)
//Storyboard Sound Samples

[TimingPoints]
2972.15749326332,368.092012486229,4,1,0,40,1,0
85424,-100,4,1,0,40,0,0
88369,-90.9090909090909,4,1,0,40,0,0
91314,-83.3333333333333,4,1,0,40,0,0
94258,-76.9230769230769,4,1,0,40,0,0
95731,-100,4,1,0,40,0,0
97203,-2000,4,1,0,40,0,0
102725,-200,4,1,0,40,0,0
103093,-1000,4,1,0,40,0,0
106743,-50,4,1,0,40,0,0
106774,-1000,4,1,0,40,0,0
107111,-50,4,1,0,40,0,0
107142,-10000,4,1,0,40,0,0
107479,-50,4,1,0,40,0,0
107510,-125,4,1,0,40,0,0
108982,-100,4,1,0,40,0,0
156105,-500,4,1,0,40,0,0
156650,-1000,4,1,0,40,0,0
157110,-2000,4,1,0,40,0,0
157570,-200,4,1,0,40,0,0
157938,-100,4,1,0,40,0,0
158306,-83.3333333333333,4,1,0,40,0,0
158675,-66.6666666666667,4,1,0,40,0,0
159043,-66.6666666666667,4,1,0,40,0,0

[HitObjects]
256,192,1499,128,0,2604:0:0:0:0:
109,192,2972,128,0,5916:0:0:0:0:
402,192,2972,128,0,4444:0:0:0:0:
329,192,4444,128,0,5916:0:0:0:0:
402,192,5916,128,0,8861:0:0:0:0:
182,192,5916,128,0,7389:0:0:0:0:
109,192,7389,128,0,8125:0:0:0:0:
36,192,8125,128,0,8861:0:0:0:0:
109,192,8861,128,0,11806:0:0:0:0:
475,192,8861,128,0,11806:0:0:0:0:
402,192,11806,128,0,14567:0:0:0:0:
182,192,11806,128,0,13278:0:0:0:0:
109,192,13278,128,0,14567:0:0:0:0:
402,192,14751,128,0,14812:0:0:0:0:
109,192,14751,128,8,14812:0:0:0:0:
182,192,14935,1,0,0:0:0:0:
402,192,15027,1,0,0:0:0:0:
256,192,15119,1,0,0:0:0:0:
109,192,15119,1,0,0:0:0:0:
329,192,15303,1,0,0:0:0:0:
256,192,15395,1,0,0:0:0:0:
109,192,15487,1,0,0:0:0:0:
182,192,15579,1,0,0:0:0:0:
256,192,15671,1,0,0:0:0:0:
329,192,15763,1,0,0:0:0:0:
402,192,15855,1,0,0:0:0:0:
182,192,15855,1,0,0:0:0:0:
109,192,16039,128,8,16100:0:0:0:0:
256,192,16039,128,0,16100:0:0:0:0:
256,192,16223,128,0,16284:0:0:0:0:
402,192,16223,128,8,16284:0:0:0:0:
329,192,16407,1,0,0:0:0:0:
109,192,16499,1,0,0:0:0:0:
182,192,16591,1,0,0:0:0:0:
402,192,16591,1,0,0:0:0:0:
182,192,16775,1,0,0:0:0:0:
256,192,16867,1,0,0:0:0:0:
402,192,16959,1,0,0:0:0:0:
36,192,16959,1,0,0:0:0:0:
329,192,17051,1,0,0:0:0:0:
256,192,17143,1,0,0:0:0:0:
475,192,17235,1,0,0:0:0:0:
402,192,17327,1,0,0:0:0:0:
182,192,17327,1,0,0:0:0:0:
36,192,17511,128,0,17573:0:0:0:0:
256,192,17511,128,8,17573:0:0:0:0:
182,192,17695,128,0,17757:0:0:0:0:
475,192,17695,128,8,17757:0:0:0:0:
329,192,17879,1,0,0:0:0:0:
109,192,17971,1,0,0:0:0:0:
256,192,18063,1,0,0:0:0:0:
402,192,18063,1,0,0:0:0:0:
109,192,18247,1,0,0:0:0:0:
182,192,18339,1,0,0:0:0:0:
256,192,18432,1,0,0:0:0:0:
402,192,18432,1,0,0:0:0:0:
182,192,18524,1,0,0:0:0:0:
109,192,18616,1,0,0:0:0:0:
402,192,18708,1,0,0:0:0:0:
329,192,18800,1,0,0:0:0:0:
182,192,18800,1,0,0:0:0:0:
109,192,18984,128,0,19045:0:0:0:0:
402,192,18984,128,8,19045:0:0:0:0:
36,192,19168,128,8,19229:0:0:0:0:
329,192,19168,128,0,19229:0:0:0:0:
109,192,19352,1,0,0:0:0:0:
402,192,19444,1,0,0:0:0:0:
182,192,19536,128,0,19597:0:0:0:0:
475,192,19536,128,8,19597:0:0:0:0:
329,192,19720,1,0,0:0:0:0:
109,192,19812,1,0,0:0:0:0:
36,192,19904,128,8,19965:0:0:0:0:
475,192,19904,128,0,19965:0:0:0:0:
329,192,19996,1,0,0:0:0:0:
109,192,20088,1,0,0:0:0:0:
402,192,20180,1,0,0:0:0:0:
182,192,20272,128,0,20333:0:0:0:0:
329,192,20272,128,8,20333:0:0:0:0:
475,192,20364,1,0,0:0:0:0:
36,192,20456,1,0,0:0:0:0:
256,192,20548,1,0,0:0:0:0:
109,192,20640,128,0,20701:0:0:0:0:
402,192,20640,128,8,20701:0:0:0:0:
256,192,20824,1,0,0:0:0:0:
402,192,20916,1,0,0:0:0:0:
329,192,21008,1,0,0:0:0:0:
109,192,21008,1,0,0:0:0:0:
402,192,21192,128,8,21928:0:0:0:0:
182,192,21192,1,0,0:0:0:0:
109,192,21284,1,0,0:0:0:0:
36,192,21376,1,0,0:0:0:0:
109,192,21468,1,0,0:0:0:0:
182,192,21560,1,0,0:0:0:0:
256,192,21652,1,0,0:0:0:0:
109,192,21744,1,0,0:0:0:0:
182,192,21928,128,8,21990:0:0:0:0:
109,192,22112,128,8,22174:0:0:0:0:
402,192,22112,128,0,22174:0:0:0:0:
329,192,22296,1,0,0:0:0:0:
182,192,22389,1,0,0:0:0:0:
329,192,22481,1,0,0:0:0:0:
475,192,22481,1,0,0:0:0:0:
109,192,22665,128,8,23401:0:0:0:0:
256,192,22665,1,0,0:0:0:0:
329,192,22757,1,0,0:0:0:0:
402,192,22849,1,0,0:0:0:0:
329,192,22941,1,0,0:0:0:0:
256,192,23033,1,0,0:0:0:0:
329,192,23125,1,0,0:0:0:0:
402,192,23217,1,0,0:0:0:0:
329,192,23401,128,0,23462:0:0:0:0:
182,192,23585,128,8,23646:0:0:0:0:
402,192,23585,128,0,23646:0:0:0:0:
329,192,23769,1,0,0:0:0:0:
182,192,23861,1,0,0:0:0:0:
109,192,23953,1,0,0:0:0:0:
256,192,23953,1,0,0:0:0:0:
109,192,24137,128,0,24198:0:0:0:0:
329,192,24137,128,8,24198:0:0:0:0:
182,192,24321,1,0,0:0:0:0:
329,192,24413,1,0,0:0:0:0:
256,192,24505,1,0,0:0:0:0:
402,192,24505,1,0,0:0:0:0:
109,192,24689,128,8,24750:0:0:0:0:
256,192,24689,128,0,24750:0:0:0:0:
402,192,24689,1,0,0:0:0:0:
475,192,24781,1,0,0:0:0:0:
402,192,24873,1,0,0:0:0:0:
329,192,24965,1,0,0:0:0:0:
256,192,25057,128,0,25425:0:0:0:0:
36,192,25425,5,0,0:0:0:0:
109,192,25517,1,0,0:0:0:0:
182,192,25609,1,0,0:0:0:0:
329,192,25793,1,0,0:0:0:0:
402,192,25885,1,0,0:0:0:0:
329,192,25977,1,0,0:0:0:0:
402,192,26069,1,0,0:0:0:0:
329,192,26161,1,0,0:0:0:0:
402,192,26253,1,0,0:0:0:0:
329,192,26346,1,0,0:0:0:0:
402,192,26438,1,0,0:0:0:0:
402,192,26530,128,0,27174:0:0:0:0:
109,192,26530,128,0,26714:0:0:0:0:
109,192,26898,128,0,27082:0:0:0:0:
475,192,27266,128,0,27910:0:0:0:0:
109,192,27266,128,0,27450:0:0:0:0:
109,192,27634,128,0,27818:0:0:0:0:
109,192,28002,128,0,28186:0:0:0:0:
329,192,28002,128,0,28738:0:0:0:0:
109,192,28370,128,0,28554:0:0:0:0:
109,192,28738,128,0,28922:0:0:0:0:
402,192,28738,128,0,29106:0:0:0:0:
36,192,29106,1,2,0:0:0:0:
182,192,29106,1,2,0:0:0:0:
329,192,29474,128,0,29658:0:0:0:0:
109,192,29474,128,0,30210:0:0:0:0:
329,192,29842,128,0,30026:0:0:0:0:
329,192,30210,128,0,30395:0:0:0:0:
182,192,30210,128,0,30947:0:0:0:0:
329,192,30579,128,0,30763:0:0:0:0:
36,192,30947,128,0,31683:0:0:0:0:
402,192,30947,128,0,31131:0:0:0:0:
402,192,31315,128,0,31499:0:0:0:0:
402,192,31683,128,0,31867:0:0:0:0:
109,192,31683,128,0,32051:0:0:0:0:
329,192,32051,1,2,0:0:0:0:
475,192,32051,1,2,0:0:0:0:
329,192,32419,128,0,33155:0:0:0:0:
475,192,32419,1,0,0:0:0:0:
475,192,32787,1,0,0:0:0:0:
182,192,33155,128,0,33891:0:0:0:0:
475,192,33155,1,0,0:0:0:0:
475,192,33523,1,0,0:0:0:0:
256,192,33891,128,0,36836:0:0:0:0:
109,192,33891,128,0,34628:0:0:0:0:
36,192,33891,1,0,0:0:0:0:
36,192,34259,1,0,0:0:0:0:
475,192,34628,128,0,35364:0:0:0:0:
36,192,34628,1,0,0:0:0:0:
36,192,34996,1,0,0:0:0:0:
109,192,35364,128,0,35548:0:0:0:0:
402,192,35732,128,0,35916:0:0:0:0:
109,192,36100,128,0,36284:0:0:0:0:
402,192,36468,128,0,36652:0:0:0:0:
36,192,36836,128,0,37940:0:0:0:0:
182,192,36836,128,0,37940:0:0:0:0:
329,192,36836,128,0,37940:0:0:0:0:
475,192,36836,128,0,37940:0:0:0:0:
402,192,38308,1,0,0:0:0:0:
256,192,38308,1,0,0:0:0:0:
182,192,38493,1,0,0:0:0:0:
109,192,38677,1,0,0:0:0:0:
256,192,38677,1,0,0:0:0:0:
329,192,38861,1,0,0:0:0:0:
109,192,39045,1,0,0:0:0:0:
402,192,39045,1,0,0:0:0:0:
329,192,39229,1,0,0:0:0:0:
256,192,39321,1,0,0:0:0:0:
109,192,39413,1,0,0:0:0:0:
402,192,39413,1,0,0:0:0:0:
182,192,39597,1,0,0:0:0:0:
402,192,39781,1,0,0:0:0:0:
256,192,39781,1,0,0:0:0:0:
109,192,39965,1,0,0:0:0:0:
109,192,40149,1,0,0:0:0:0:
256,192,40149,1,0,0:0:0:0:
402,192,40333,1,0,0:0:0:0:
182,192,40517,1,0,0:0:0:0:
329,192,40517,1,0,0:0:0:0:
402,192,40701,1,0,0:0:0:0:
36,192,40762,1,0,0:0:0:0:
475,192,40824,1,0,0:0:0:0:
109,192,40885,1,0,0:0:0:0:
329,192,40885,1,0,0:0:0:0:
182,192,41069,1,0,0:0:0:0:
402,192,41069,1,0,0:0:0:0:
256,192,41253,1,0,0:0:0:0:
475,192,41253,1,0,0:0:0:0:
109,192,41437,1,0,0:0:0:0:
36,192,41621,1,0,0:0:0:0:
256,192,41621,1,0,0:0:0:0:
402,192,41805,1,0,0:0:0:0:
182,192,41989,1,0,0:0:0:0:
402,192,41989,1,0,0:0:0:0:
475,192,42173,1,0,0:0:0:0:
329,192,42265,1,0,0:0:0:0:
36,192,42358,1,0,0:0:0:0:
256,192,42358,1,0,0:0:0:0:
109,192,42542,1,0,0:0:0:0:
182,192,42726,1,0,0:0:0:0:
402,192,42726,1,0,0:0:0:0:
329,192,42910,1,0,0:0:0:0:
256,192,43094,1,0,0:0:0:0:
36,192,43094,1,0,0:0:0:0:
182,192,43278,1,0,0:0:0:0:
109,192,43462,1,0,0:0:0:0:
402,192,43462,1,0,0:0:0:0:
182,192,43554,1,0,0:0:0:0:
256,192,43646,1,0,0:0:0:0:
182,192,43738,1,0,0:0:0:0:
109,192,43830,1,0,0:0:0:0:
402,192,43830,1,0,0:0:0:0:
329,192,43922,1,0,0:0:0:0:
256,192,44014,1,0,0:0:0:0:
329,192,44106,1,0,0:0:0:0:
402,192,44198,1,0,0:0:0:0:
36,192,44198,1,0,0:0:0:0:
329,192,44382,1,0,0:0:0:0:
109,192,44566,1,0,0:0:0:0:
475,192,44566,1,0,0:0:0:0:
256,192,44750,1,0,0:0:0:0:
36,192,44934,1,0,0:0:0:0:
402,192,44934,1,0,0:0:0:0:
329,192,45118,1,0,0:0:0:0:
109,192,45302,1,0,0:0:0:0:
475,192,45302,1,0,0:0:0:0:
182,192,45486,1,0,0:0:0:0:
36,192,45670,1,0,0:0:0:0:
402,192,45670,1,0,0:0:0:0:
256,192,45854,1,0,0:0:0:0:
475,192,46038,1,0,0:0:0:0:
109,192,46038,1,0,0:0:0:0:
256,192,46222,1,0,0:0:0:0:
36,192,46407,1,0,0:0:0:0:
402,192,46407,1,0,0:0:0:0:
182,192,46591,1,0,0:0:0:0:
256,192,46652,1,0,0:0:0:0:
329,192,46713,1,0,0:0:0:0:
109,192,46775,1,0,0:0:0:0:
475,192,46775,1,0,0:0:0:0:
182,192,46959,1,0,0:0:0:0:
329,192,46959,1,0,0:0:0:0:
182,192,47143,1,0,0:0:0:0:
36,192,47143,1,0,0:0:0:0:
402,192,47327,1,0,0:0:0:0:
182,192,47511,1,0,0:0:0:0:
329,192,47511,1,0,0:0:0:0:
109,192,47695,1,0,0:0:0:0:
329,192,47879,1,0,0:0:0:0:
475,192,47879,1,0,0:0:0:0:
256,192,48063,1,0,0:0:0:0:
109,192,48247,1,0,0:0:0:0:
329,192,48247,1,0,0:0:0:0:
256,192,48431,1,0,0:0:0:0:
475,192,48431,1,0,0:0:0:0:
256,192,48615,1,0,0:0:0:0:
36,192,48615,128,0,48983:0:0:0:0:
256,192,48799,1,0,0:0:0:0:
329,192,48860,1,0,0:0:0:0:
402,192,48922,1,0,0:0:0:0:
475,192,48983,128,0,49351:0:0:0:0:
256,192,49167,1,0,0:0:0:0:
182,192,49229,1,0,0:0:0:0:
109,192,49290,1,0,0:0:0:0:
36,192,49351,1,0,0:0:0:0:
109,192,49535,1,0,0:0:0:0:
402,192,49597,1,0,0:0:0:0:
182,192,49658,1,0,0:0:0:0:
329,192,49719,1,0,0:0:0:0:
36,192,49811,1,0,0:0:0:0:
475,192,49811,1,0,0:0:0:0:
109,192,49903,1,0,0:0:0:0:
402,192,49903,1,0,0:0:0:0:
402,192,50087,1,0,0:0:0:0:
256,192,50087,1,0,0:0:0:0:
109,192,50271,1,0,0:0:0:0:
36,192,50456,1,0,0:0:0:0:
182,192,50456,1,0,0:0:0:0:
256,192,50640,128,2,50732:0:0:0:0:
402,192,50640,1,0,0:0:0:0:
475,192,50824,1,0,0:0:0:0:
109,192,50824,1,0,0:0:0:0:
182,192,51008,1,0,0:0:0:0:
36,192,51192,1,0,0:0:0:0:
402,192,51192,1,0,0:0:0:0:
329,192,51376,1,0,0:0:0:0:
109,192,51560,1,0,0:0:0:0:
402,192,51560,1,0,0:0:0:0:
182,192,51744,1,0,0:0:0:0:
109,192,51928,1,0,0:0:0:0:
402,192,51928,1,0,0:0:0:0:
256,192,52112,128,2,52204:0:0:0:0:
475,192,52112,1,0,0:0:0:0:
36,192,52296,1,0,0:0:0:0:
402,192,52296,1,0,0:0:0:0:
182,192,52480,1,0,0:0:0:0:
329,192,52572,1,0,0:0:0:0:
475,192,52664,1,0,0:0:0:0:
109,192,52664,1,0,0:0:0:0:
256,192,52848,1,0,0:0:0:0:
182,192,53032,1,0,0:0:0:0:
329,192,53032,1,0,0:0:0:0:
109,192,53216,1,0,0:0:0:0:
182,192,53400,1,0,0:0:0:0:
329,192,53400,1,0,0:0:0:0:
475,192,53584,128,2,53676:0:0:0:0:
36,192,53584,1,0,0:0:0:0:
182,192,53768,1,0,0:0:0:0:
329,192,53768,1,0,0:0:0:0:
256,192,53952,1,0,0:0:0:0:
109,192,54136,1,0,0:0:0:0:
402,192,54136,1,0,0:0:0:0:
182,192,54320,1,0,0:0:0:0:
329,192,54320,1,0,0:0:0:0:
256,192,54505,1,0,0:0:0:0:
36,192,54689,1,0,0:0:0:0:
182,192,54689,1,0,0:0:0:0:
256,192,54873,1,0,0:0:0:0:
475,192,55057,1,0,0:0:0:0:
109,192,55057,128,2,55149:0:0:0:0:
402,192,55241,1,0,0:0:0:0:
182,192,55241,1,0,0:0:0:0:
329,192,55333,1,0,0:0:0:0:
256,192,55425,1,0,0:0:0:0:
182,192,55517,1,0,0:0:0:0:
109,192,55609,1,0,0:0:0:0:
402,192,55609,1,0,0:0:0:0:
182,192,55701,1,0,0:0:0:0:
256,192,55793,1,0,0:0:0:0:
329,192,55885,1,0,0:0:0:0:
402,192,55977,1,0,0:0:0:0:
109,192,55977,1,0,0:0:0:0:
182,192,56161,1,0,0:0:0:0:
109,192,56345,1,0,0:0:0:0:
402,192,56345,1,0,0:0:0:0:
329,192,56529,1,0,0:0:0:0:
182,192,56529,128,2,56621:0:0:0:0:
109,192,56713,1,0,0:0:0:0:
402,192,56713,1,0,0:0:0:0:
36,192,56897,1,0,0:0:0:0:
109,192,57081,1,0,0:0:0:0:
402,192,57081,1,0,0:0:0:0:
475,192,57265,1,0,0:0:0:0:
329,192,57449,1,0,0:0:0:0:
109,192,57449,1,0,0:0:0:0:
36,192,57633,1,0,0:0:0:0:
182,192,57817,1,0,0:0:0:0:
402,192,57817,1,0,0:0:0:0:
256,192,58001,128,2,58093:0:0:0:0:
475,192,58001,1,0,0:0:0:0:
329,192,58185,1,0,0:0:0:0:
109,192,58185,1,0,0:0:0:0:
402,192,58370,1,0,0:0:0:0:
182,192,58462,1,0,0:0:0:0:
36,192,58554,1,0,0:0:0:0:
329,192,58554,1,0,0:0:0:0:
402,192,58738,1,0,0:0:0:0:
182,192,58922,1,0,0:0:0:0:
475,192,58922,1,0,0:0:0:0:
402,192,59106,1,0,0:0:0:0:
36,192,59290,1,0,0:0:0:0:
329,192,59290,1,0,0:0:0:0:
109,192,59474,1,0,0:0:0:0:
329,192,59474,128,2,59566:0:0:0:0:
182,192,59658,1,0,0:0:0:0:
475,192,59658,1,0,0:0:0:0:
402,192,59842,1,0,0:0:0:0:
36,192,60026,1,0,0:0:0:0:
329,192,60026,1,0,0:0:0:0:
109,192,60210,1,0,0:0:0:0:
182,192,60394,1,0,0:0:0:0:
109,192,60486,1,0,0:0:0:0:
36,192,60578,1,0,0:0:0:0:
109,192,60670,1,0,0:0:0:0:
182,192,60762,1,0,0:0:0:0:
256,192,60854,1,0,0:0:0:0:
329,192,60946,1,0,0:0:0:0:
109,192,60946,1,0,0:0:0:0:
402,192,61038,1,0,0:0:0:0:
475,192,61130,1,0,0:0:0:0:
36,192,61130,1,0,0:0:0:0:
329,192,61222,1,0,0:0:0:0:
182,192,61314,1,0,0:0:0:0:
36,192,61406,1,0,0:0:0:0:
475,192,61498,1,0,0:0:0:0:
109,192,61498,1,0,0:0:0:0:
256,192,61590,1,0,0:0:0:0:
402,192,61682,1,0,0:0:0:0:
109,192,61774,1,0,0:0:0:0:
329,192,61866,128,0,64811:0:0:0:0:
109,192,64811,1,0,0:0:0:0:
182,192,65087,1,0,0:0:0:0:
256,192,65363,1,0,0:0:0:0:
402,192,65547,1,0,0:0:0:0:
329,192,65823,1,0,0:0:0:0:
256,192,66099,1,0,0:0:0:0:
329,192,66283,1,0,0:0:0:0:
256,192,66560,1,0,0:0:0:0:
182,192,66836,1,0,0:0:0:0:
256,192,67020,1,0,0:0:0:0:
329,192,67204,1,0,0:0:0:0:
182,192,67296,1,0,0:0:0:0:
109,192,67388,1,0,0:0:0:0:
329,192,67480,1,0,0:0:0:0:
256,192,67572,1,0,0:0:0:0:
402,192,67664,1,0,0:0:0:0:
182,192,67756,1,0,0:0:0:0:
329,192,68032,1,0,0:0:0:0:
402,192,68308,1,0,0:0:0:0:
329,192,68492,1,0,0:0:0:0:
182,192,68768,1,0,0:0:0:0:
109,192,69044,1,0,0:0:0:0:
256,192,69228,1,0,0:0:0:0:
182,192,69504,1,0,0:0:0:0:
329,192,69504,1,0,0:0:0:0:
109,192,69780,1,0,0:0:0:0:
402,192,69780,1,0,0:0:0:0:
182,192,69964,1,0,0:0:0:0:
329,192,69964,1,0,0:0:0:0:
109,192,70148,1,0,0:0:0:0:
256,192,70240,1,0,0:0:0:0:
402,192,70332,1,0,0:0:0:0:
182,192,70701,1,0,0:0:0:0:
329,192,70701,1,0,0:0:0:0:
256,192,70977,1,0,0:0:0:0:
109,192,70977,1,0,0:0:0:0:
402,192,70977,1,0,0:0:0:0:
182,192,71253,1,0,0:0:0:0:
329,192,71253,1,0,0:0:0:0:
36,192,71437,1,0,0:0:0:0:
475,192,71437,1,0,0:0:0:0:
109,192,71713,1,0,0:0:0:0:
402,192,71713,1,0,0:0:0:0:
182,192,71989,1,0,0:0:0:0:
329,192,71989,1,0,0:0:0:0:
36,192,71989,1,0,0:0:0:0:
475,192,72173,1,0,0:0:0:0:
329,192,72357,1,0,0:0:0:0:
402,192,72449,1,0,0:0:0:0:
256,192,72633,1,0,0:0:0:0:
329,192,72725,1,0,0:0:0:0:
182,192,72909,1,0,0:0:0:0:
256,192,73001,1,0,0:0:0:0:
329,192,73093,1,0,0:0:0:0:
402,192,73185,1,0,0:0:0:0:
329,192,73277,1,0,0:0:0:0:
256,192,73369,1,0,0:0:0:0:
182,192,73461,1,0,0:0:0:0:
109,192,73553,1,0,0:0:0:0:
36,192,73645,128,8,74013:0:0:0:0:
329,192,73645,1,0,0:0:0:0:
402,192,73921,1,0,0:0:0:0:
475,192,74197,1,0,0:0:0:0:
36,192,74197,1,8,0:0:0:0:
109,192,74382,1,8,0:0:0:0:
402,192,74382,1,0,0:0:0:0:
256,192,74658,1,0,0:0:0:0:
402,192,74934,1,0,0:0:0:0:
109,192,74934,1,8,0:0:0:0:
475,192,75118,1,0,0:0:0:0:
36,192,75118,1,8,0:0:0:0:
402,192,75394,1,0,0:0:0:0:
329,192,75670,1,0,0:0:0:0:
36,192,75670,1,8,0:0:0:0:
109,192,75854,1,8,0:0:0:0:
256,192,75854,1,0,0:0:0:0:
402,192,76038,1,0,0:0:0:0:
182,192,76130,1,0,0:0:0:0:
329,192,76222,1,0,0:0:0:0:
36,192,76222,1,8,0:0:0:0:
402,192,76590,128,8,76958:0:0:0:0:
182,192,76590,1,0,0:0:0:0:
36,192,76866,1,0,0:0:0:0:
109,192,77142,1,0,0:0:0:0:
475,192,77142,1,8,0:0:0:0:
402,192,77326,1,8,0:0:0:0:
182,192,77326,1,0,0:0:0:0:
256,192,77602,1,0,0:0:0:0:
109,192,77878,1,0,0:0:0:0:
402,192,77878,1,8,0:0:0:0:
256,192,78062,1,0,0:0:0:0:
475,192,78062,1,8,0:0:0:0:
109,192,78338,1,0,0:0:0:0:
36,192,78615,1,0,0:0:0:0:
475,192,78615,1,8,0:0:0:0:
402,192,78799,1,8,0:0:0:0:
109,192,78799,1,0,0:0:0:0:
256,192,78983,1,0,0:0:0:0:
475,192,78983,1,8,0:0:0:0:
36,192,79075,1,0,0:0:0:0:
182,192,79167,1,0,0:0:0:0:
329,192,79259,1,0,0:0:0:0:
475,192,79351,1,0,0:0:0:0:
109,192,79443,1,0,0:0:0:0:
182,192,79535,128,8,79903:0:0:0:0:
329,192,79535,1,0,0:0:0:0:
402,192,79811,1,0,0:0:0:0:
475,192,80087,1,0,0:0:0:0:
109,192,80087,1,8,0:0:0:0:
182,192,80271,1,8,0:0:0:0:
402,192,80271,1,0,0:0:0:0:
109,192,80547,1,0,0:0:0:0:
36,192,80823,1,0,0:0:0:0:
402,192,80823,1,8,0:0:0:0:
109,192,81007,1,0,0:0:0:0:
475,192,81007,1,8,0:0:0:0:
182,192,81283,1,0,0:0:0:0:
256,192,81559,1,0,0:0:0:0:
475,192,81559,1,8,0:0:0:0:
402,192,81743,1,8,0:0:0:0:
182,192,81743,1,0,0:0:0:0:
329,192,81927,1,0,0:0:0:0:
182,192,82019,1,0,0:0:0:0:
36,192,82111,1,0,0:0:0:0:
475,192,82111,1,8,0:0:0:0:
402,192,82295,1,8,0:0:0:0:
256,192,82480,128,0,83032:0:0:0:0:
109,192,82480,1,0,0:0:0:0:
402,192,82756,1,0,0:0:0:0:
109,192,83032,1,0,0:0:0:0:
182,192,83216,1,0,0:0:0:0:
329,192,83216,1,8,0:0:0:0:
402,192,83400,1,8,0:0:0:0:
256,192,83492,1,0,0:0:0:0:
109,192,83492,1,0,0:0:0:0:
475,192,83584,1,8,0:0:0:0:
36,192,83768,1,0,0:0:0:0:
182,192,83768,1,0,0:0:0:0:
329,192,83768,1,8,0:0:0:0:
402,192,83952,1,0,0:0:0:0:
256,192,84136,1,0,0:0:0:0:
109,192,84228,5,0,0:0:0:0:
402,192,84412,1,0,0:0:0:0:
182,192,84504,1,0,0:0:0:0:
182,192,84688,1,0,0:0:0:0:
475,192,84688,1,0,0:0:0:0:
256,192,84780,1,0,0:0:0:0:
329,192,84872,1,0,0:0:0:0:
402,192,84964,1,0,0:0:0:0:
475,192,85056,1,0,0:0:0:0:
36,192,85056,1,0,0:0:0:0:
402,192,85148,1,0,0:0:0:0:
329,192,85240,1,0,0:0:0:0:
256,192,85332,1,0,0:0:0:0:
402,192,85424,128,0,88369:0:0:0:0:
182,192,85424,1,0,0:0:0:0:
182,192,85792,1,0,0:0:0:0:
182,192,86160,1,0,0:0:0:0:
182,192,86529,1,0,0:0:0:0:
182,192,86897,1,0,0:0:0:0:
182,192,87265,1,0,0:0:0:0:
182,192,87633,1,0,0:0:0:0:
182,192,88001,1,0,0:0:0:0:
109,192,88369,128,0,91314:0:0:0:0:
329,192,88369,1,0,0:0:0:0:
329,192,88737,1,0,0:0:0:0:
329,192,89105,1,0,0:0:0:0:
329,192,89473,1,0,0:0:0:0:
329,192,89841,1,0,0:0:0:0:
329,192,90209,1,0,0:0:0:0:
329,192,90578,1,0,0:0:0:0:
402,192,90762,1,0,0:0:0:0:
329,192,90946,1,0,0:0:0:0:
402,192,91130,1,0,0:0:0:0:
402,192,91314,128,0,91498:0:0:0:0:
182,192,91314,1,0,0:0:0:0:
182,192,91498,1,0,0:0:0:0:
402,192,91682,128,0,91866:0:0:0:0:
182,192,91682,1,0,0:0:0:0:
182,192,91866,1,0,0:0:0:0:
402,192,92050,128,0,92234:0:0:0:0:
182,192,92050,1,0,0:0:0:0:
182,192,92234,1,0,0:0:0:0:
402,192,92418,128,0,92602:0:0:0:0:
182,192,92418,1,0,0:0:0:0:
182,192,92602,1,0,0:0:0:0:
109,192,92786,128,0,92970:0:0:0:0:
329,192,92786,1,0,0:0:0:0:
329,192,92970,1,0,0:0:0:0:
109,192,93154,128,0,93338:0:0:0:0:
329,192,93154,1,0,0:0:0:0:
329,192,93338,1,0,0:0:0:0:
109,192,93522,128,0,93706:0:0:0:0:
329,192,93522,1,0,0:0:0:0:
329,192,93706,1,0,0:0:0:0:
109,192,93890,128,0,94074:0:0:0:0:
329,192,93890,1,0,0:0:0:0:
329,192,94074,1,0,0:0:0:0:
109,192,94258,1,0,0:0:0:0:
256,192,94350,1,0,0:0:0:0:
402,192,94443,1,0,0:0:0:0:
109,192,94535,1,0,0:0:0:0:
256,192,94627,1,0,0:0:0:0:
402,192,94719,1,0,0:0:0:0:
109,192,94811,1,0,0:0:0:0:
256,192,94903,1,0,0:0:0:0:
402,192,94995,1,0,0:0:0:0:
109,192,95087,1,0,0:0:0:0:
256,192,95179,1,0,0:0:0:0:
402,192,95271,1,0,0:0:0:0:
109,192,95363,1,0,0:0:0:0:
256,192,95455,1,0,0:0:0:0:
402,192,95547,1,0,0:0:0:0:
109,192,95639,1,0,0:0:0:0:
402,192,95731,1,0,0:0:0:0:
256,192,95731,128,0,96651:0:0:0:0:
182,192,96835,1,0,0:0:0:0:
329,192,96835,1,0,0:0:0:0:
109,192,97203,128,0,98676:0:0:0:0:
256,192,97203,128,0,98676:0:0:0:0:
402,192,97203,128,0,98676:0:0:0:0:
329,192,102725,5,0,0:0:0:0:
256,192,102847,1,0,0:0:0:0:
182,192,102970,1,0,0:0:0:0:
109,192,103093,1,0,0:0:0:0:
402,192,103093,1,0,0:0:0:0:
402,192,107510,1,0,0:0:0:0:
36,192,107510,1,0,0:0:0:0:
329,192,107632,1,0,0:0:0:0:
256,192,107755,1,0,0:0:0:0:
109,192,107878,1,0,0:0:0:0:
475,192,107878,1,0,0:0:0:0:
182,192,108001,1,0,0:0:0:0:
256,192,108123,1,0,0:0:0:0:
36,192,108246,1,2,0:0:0:0:
109,192,108338,1,0,0:0:0:0:
182,192,108430,1,0,0:0:0:0:
256,192,108522,1,0,0:0:0:0:
475,192,108614,1,2,0:0:0:0:
402,192,108706,1,0,0:0:0:0:
329,192,108798,1,0,0:0:0:0:
256,192,108890,1,0,0:0:0:0:
109,192,108982,1,0,0:0:0:0:
402,192,108982,1,0,0:0:0:0:
36,192,109228,1,0,0:0:0:0:
329,192,109228,1,0,0:0:0:0:
402,192,109350,1,0,0:0:0:0:
109,192,109534,1,0,0:0:0:0:
182,192,109626,1,0,0:0:0:0:
256,192,109718,1,0,0:0:0:0:
475,192,109718,1,0,0:0:0:0:
256,192,109964,1,0,0:0:0:0:
475,192,109964,1,0,0:0:0:0:
402,192,110086,1,0,0:0:0:0:
256,192,110270,1,0,0:0:0:0:
182,192,110363,1,0,0:0:0:0:
109,192,110455,1,0,0:0:0:0:
329,192,110455,1,0,0:0:0:0:
475,192,110639,1,2,0:0:0:0:
109,192,110700,1,0,0:0:0:0:
329,192,110700,1,0,0:0:0:0:
402,192,110823,1,0,0:0:0:0:
475,192,111007,1,2,0:0:0:0:
109,192,111007,1,0,0:0:0:0:
182,192,111099,1,0,0:0:0:0:
109,192,111191,1,0,0:0:0:0:
256,192,111191,1,0,0:0:0:0:
402,192,111191,1,0,0:0:0:0:
256,192,111436,1,0,0:0:0:0:
402,192,111436,1,0,0:0:0:0:
36,192,111436,1,2,0:0:0:0:
109,192,111743,1,2,0:0:0:0:
256,192,111743,1,0,0:0:0:0:
329,192,111927,1,0,0:0:0:0:
475,192,111927,1,0,0:0:0:0:
329,192,112172,1,0,0:0:0:0:
475,192,112172,1,0,0:0:0:0:
109,192,112295,1,0,0:0:0:0:
329,192,112479,1,0,0:0:0:0:
256,192,112571,1,0,0:0:0:0:
182,192,112663,1,0,0:0:0:0:
402,192,112663,1,0,0:0:0:0:
182,192,112908,1,0,0:0:0:0:
402,192,112908,1,0,0:0:0:0:
256,192,113031,1,0,0:0:0:0:
109,192,113215,1,0,0:0:0:0:
182,192,113307,1,0,0:0:0:0:
256,192,113399,1,0,0:0:0:0:
402,192,113399,1,0,0:0:0:0:
36,192,113583,1,2,0:0:0:0:
256,192,113645,1,0,0:0:0:0:
402,192,113645,1,0,0:0:0:0:
109,192,113767,1,0,0:0:0:0:
36,192,113951,1,2,0:0:0:0:
256,192,113951,1,0,0:0:0:0:
329,192,114043,1,0,0:0:0:0:
402,192,114135,1,0,0:0:0:0:
182,192,114135,1,0,0:0:0:0:
475,192,114319,1,0,0:0:0:0:
109,192,114319,1,2,0:0:0:0:
329,192,114319,1,0,0:0:0:0:
182,192,114504,1,0,0:0:0:0:
402,192,114504,1,0,0:0:0:0:
36,192,114688,1,0,0:0:0:0:
475,192,114688,1,0,0:0:0:0:
109,192,114872,128,0,114964:0:0:0:0:
256,192,114872,1,0,0:0:0:0:
402,192,114872,1,0,0:0:0:0:
256,192,115117,1,0,0:0:0:0:
402,192,115117,1,0,0:0:0:0:
109,192,115240,128,0,115332:0:0:0:0:
329,192,115424,1,0,0:0:0:0:
402,192,115516,1,0,0:0:0:0:
109,192,115608,128,0,115700:0:0:0:0:
475,192,115608,1,0,0:0:0:0:
256,192,115608,1,0,0:0:0:0:
475,192,115853,1,0,0:0:0:0:
256,192,115853,1,0,0:0:0:0:
109,192,115976,128,0,116068:0:0:0:0:
402,192,116160,1,0,0:0:0:0:
329,192,116252,1,0,0:0:0:0:
256,192,116344,1,0,0:0:0:0:
36,192,116344,1,0,0:0:0:0:
402,192,116344,128,0,116436:0:0:0:0:
36,192,116528,1,0,0:0:0:0:
256,192,116589,1,0,0:0:0:0:
402,192,116712,128,0,116804:0:0:0:0:
182,192,116896,1,0,0:0:0:0:
109,192,116988,1,0,0:0:0:0:
402,192,117080,128,0,117172:0:0:0:0:
36,192,117080,1,0,0:0:0:0:
256,192,117080,1,0,0:0:0:0:
36,192,117326,1,0,0:0:0:0:
256,192,117326,1,0,0:0:0:0:
402,192,117448,128,0,117540:0:0:0:0:
109,192,117632,1,0,0:0:0:0:
256,192,117632,1,0,0:0:0:0:
182,192,117816,1,0,0:0:0:0:
329,192,117816,1,0,0:0:0:0:
36,192,117816,1,0,0:0:0:0:
329,192,118062,1,0,0:0:0:0:
182,192,118184,1,0,0:0:0:0:
36,192,118184,1,0,0:0:0:0:
329,192,118369,1,0,0:0:0:0:
475,192,118461,1,0,0:0:0:0:
182,192,118553,1,0,0:0:0:0:
36,192,118553,1,0,0:0:0:0:
329,192,118553,1,0,0:0:0:0:
329,192,118798,1,0,0:0:0:0:
182,192,118921,1,0,0:0:0:0:
36,192,118921,1,0,0:0:0:0:
329,192,119013,1,0,0:0:0:0:
475,192,119105,1,0,0:0:0:0:
36,192,119289,128,0,120393:0:0:0:0:
475,192,119289,128,0,120393:0:0:0:0:
182,192,119289,1,8,0:0:0:0:
329,192,119473,1,8,0:0:0:0:
256,192,119657,1,8,0:0:0:0:
329,192,119841,1,8,0:0:0:0:
182,192,120025,1,8,0:0:0:0:
256,192,120209,1,8,0:0:0:0:
109,192,120393,128,4,120577:0:0:0:0:
402,192,120393,128,4,120577:0:0:0:0:
256,192,120761,1,0,0:0:0:0:
402,192,120761,1,0,0:0:0:0:
109,192,121037,1,0,0:0:0:0:
402,192,121129,1,0,0:0:0:0:
182,192,121313,1,0,0:0:0:0:
329,192,121497,1,0,0:0:0:0:
109,192,121497,1,0,0:0:0:0:
402,192,121773,1,0,0:0:0:0:
109,192,121865,1,0,0:0:0:0:
475,192,122049,1,0,0:0:0:0:
402,192,122233,1,0,0:0:0:0:
109,192,122233,1,0,0:0:0:0:
329,192,122510,1,0,0:0:0:0:
109,192,122602,1,0,0:0:0:0:
256,192,122786,1,0,0:0:0:0:
402,192,122970,1,0,0:0:0:0:
182,192,122970,1,0,0:0:0:0:
182,192,123154,1,0,0:0:0:0:
256,192,123246,1,0,0:0:0:0:
109,192,123338,1,0,0:0:0:0:
402,192,123338,1,0,0:0:0:0:
475,192,123706,1,0,0:0:0:0:
256,192,123706,1,0,0:0:0:0:
109,192,123982,1,0,0:0:0:0:
475,192,124074,1,0,0:0:0:0:
182,192,124258,1,0,0:0:0:0:
36,192,124442,1,0,0:0:0:0:
329,192,124442,1,0,0:0:0:0:
402,192,124718,1,0,0:0:0:0:
36,192,124810,1,0,0:0:0:0:
475,192,124994,1,0,0:0:0:0:
256,192,125178,1,0,0:0:0:0:
36,192,125178,1,0,0:0:0:0:
182,192,125454,1,0,0:0:0:0:
475,192,125546,1,0,0:0:0:0:
109,192,125730,1,0,0:0:0:0:
475,192,125914,1,0,0:0:0:0:
36,192,125914,1,0,0:0:0:0:
109,192,126098,1,0,0:0:0:0:
256,192,126190,1,0,0:0:0:0:
402,192,126282,1,0,0:0:0:0:
182,192,126375,1,0,0:0:0:0:
329,192,126467,1,0,0:0:0:0:
109,192,126559,1,0,0:0:0:0:
182,192,126651,1,0,0:0:0:0:
475,192,126651,1,0,0:0:0:0:
109,192,126927,1,0,0:0:0:0:
256,192,127019,1,0,0:0:0:0:
475,192,127019,1,0,0:0:0:0:
36,192,127203,1,0,0:0:0:0:
329,192,127387,1,0,0:0:0:0:
475,192,127387,1,0,0:0:0:0:
109,192,127387,1,0,0:0:0:0:
182,192,127663,1,0,0:0:0:0:
402,192,127755,1,0,0:0:0:0:
475,192,127755,1,0,0:0:0:0:
256,192,127939,1,0,0:0:0:0:
329,192,128123,1,0,0:0:0:0:
36,192,128123,1,0,0:0:0:0:
402,192,128399,1,0,0:0:0:0:
256,192,128491,1,0,0:0:0:0:
36,192,128491,1,0,0:0:0:0:
475,192,128675,1,0,0:0:0:0:
36,192,128859,1,0,0:0:0:0:
182,192,128859,1,0,0:0:0:0:
402,192,128859,1,0,0:0:0:0:
402,192,129043,1,0,0:0:0:0:
329,192,129135,1,0,0:0:0:0:
36,192,129227,1,0,0:0:0:0:
109,192,129227,1,0,0:0:0:0:
256,192,129227,1,0,0:0:0:0:
402,192,129595,1,0,0:0:0:0:
475,192,129595,1,0,0:0:0:0:
182,192,129595,1,0,0:0:0:0:
256,192,129871,1,0,0:0:0:0:
36,192,129963,1,0,0:0:0:0:
109,192,129963,1,0,0:0:0:0:
329,192,130147,1,0,0:0:0:0:
402,192,130331,1,0,0:0:0:0:
475,192,130331,1,0,0:0:0:0:
256,192,130331,1,0,0:0:0:0:
182,192,130608,1,0,0:0:0:0:
36,192,130700,1,0,0:0:0:0:
109,192,130700,1,0,0:0:0:0:
256,192,130884,1,0,0:0:0:0:
402,192,131068,1,8,0:0:0:0:
475,192,131068,1,8,0:0:0:0:
36,192,131252,1,8,0:0:0:0:
109,192,131252,1,8,0:0:0:0:
182,192,131436,1,8,0:0:0:0:
329,192,131436,1,8,0:0:0:0:
256,192,131620,1,8,0:0:0:0:
109,192,131804,1,0,0:0:0:0:
256,192,131896,1,0,0:0:0:0:
182,192,131988,1,0,0:0:0:0:
329,192,132080,1,0,0:0:0:0:
402,192,132172,1,0,0:0:0:0:
256,192,132264,1,0,0:0:0:0:
329,192,132356,1,0,0:0:0:0:
182,192,132448,1,0,0:0:0:0:
109,192,132540,1,2,0:0:0:0:
402,192,132540,1,0,0:0:0:0:
109,192,132724,1,2,0:0:0:0:
182,192,132816,1,2,0:0:0:0:
329,192,132816,1,0,0:0:0:0:
109,192,132908,1,2,0:0:0:0:
402,192,132908,1,0,0:0:0:0:
109,192,133092,1,2,0:0:0:0:
475,192,133092,1,0,0:0:0:0:
109,192,133276,1,2,0:0:0:0:
402,192,133276,1,0,0:0:0:0:
109,192,133460,1,2,0:0:0:0:
475,192,133552,1,0,0:0:0:0:
109,192,133644,1,2,0:0:0:0:
182,192,133644,1,2,0:0:0:0:
402,192,133644,1,0,0:0:0:0:
329,192,133828,1,0,0:0:0:0:
182,192,134012,1,2,0:0:0:0:
475,192,134012,1,0,0:0:0:0:
109,192,134196,1,2,0:0:0:0:
182,192,134288,1,2,0:0:0:0:
402,192,134288,1,0,0:0:0:0:
109,192,134381,1,2,0:0:0:0:
475,192,134381,1,0,0:0:0:0:
182,192,134565,1,2,0:0:0:0:
329,192,134565,1,0,0:0:0:0:
109,192,134749,1,2,0:0:0:0:
402,192,134749,1,0,0:0:0:0:
109,192,134933,1,2,0:0:0:0:
329,192,134933,1,0,0:0:0:0:
402,192,135025,1,0,0:0:0:0:
36,192,135117,1,2,0:0:0:0:
256,192,135117,1,0,0:0:0:0:
109,192,135301,1,0,0:0:0:0:
329,192,135301,1,0,0:0:0:0:
402,192,135485,1,2,0:0:0:0:
182,192,135485,1,0,0:0:0:0:
402,192,135669,1,2,0:0:0:0:
329,192,135761,1,2,0:0:0:0:
182,192,135761,1,0,0:0:0:0:
402,192,135853,1,2,0:0:0:0:
109,192,135853,1,0,0:0:0:0:
402,192,136037,1,2,0:0:0:0:
36,192,136037,1,0,0:0:0:0:
475,192,136129,1,2,0:0:0:0:
402,192,136221,1,2,0:0:0:0:
109,192,136221,1,0,0:0:0:0:
329,192,136405,1,2,0:0:0:0:
182,192,136497,1,0,0:0:0:0:
402,192,136589,1,2,0:0:0:0:
36,192,136589,1,0,0:0:0:0:
182,192,136773,1,0,0:0:0:0:
402,192,136957,1,2,0:0:0:0:
109,192,136957,1,0,0:0:0:0:
329,192,137049,1,2,0:0:0:0:
402,192,137141,1,2,0:0:0:0:
475,192,137233,1,2,0:0:0:0:
109,192,137233,1,0,0:0:0:0:
402,192,137325,1,2,0:0:0:0:
182,192,137325,1,0,0:0:0:0:
402,192,137509,1,2,0:0:0:0:
36,192,137509,1,0,0:0:0:0:
329,192,137601,1,2,0:0:0:0:
402,192,137693,1,2,0:0:0:0:
109,192,137693,1,0,0:0:0:0:
402,192,137877,1,2,0:0:0:0:
36,192,137877,1,0,0:0:0:0:
109,192,137969,1,0,0:0:0:0:
402,192,138061,1,2,0:0:0:0:
182,192,138061,1,0,0:0:0:0:
256,192,138153,1,0,0:0:0:0:
329,192,138245,1,0,0:0:0:0:
256,192,138337,1,0,0:0:0:0:
182,192,138430,1,0,0:0:0:0:
109,192,138430,1,2,0:0:0:0:
36,192,138614,1,2,0:0:0:0:
182,192,138706,1,0,0:0:0:0:
256,192,138798,1,0,0:0:0:0:
109,192,138798,1,2,0:0:0:0:
402,192,138798,1,0,0:0:0:0:
475,192,138982,1,0,0:0:0:0:
182,192,138982,1,0,0:0:0:0:
402,192,139166,1,0,0:0:0:0:
109,192,139166,1,2,0:0:0:0:
329,192,139166,1,0,0:0:0:0:
36,192,139350,1,2,0:0:0:0:
256,192,139442,1,0,0:0:0:0:
109,192,139534,1,2,0:0:0:0:
402,192,139534,1,0,0:0:0:0:
182,192,139534,1,0,0:0:0:0:
475,192,139718,1,0,0:0:0:0:
329,192,139718,1,0,0:0:0:0:
402,192,139902,1,0,0:0:0:0:
109,192,139902,1,2,0:0:0:0:
256,192,139902,1,0,0:0:0:0:
36,192,140086,1,2,0:0:0:0:
329,192,140178,1,0,0:0:0:0:
109,192,140270,1,2,0:0:0:0:
402,192,140270,1,0,0:0:0:0:
256,192,140270,1,0,0:0:0:0:
475,192,140454,1,0,0:0:0:0:
182,192,140454,1,0,0:0:0:0:
402,192,140638,1,0,0:0:0:0:
109,192,140638,1,2,0:0:0:0:
329,192,140638,1,0,0:0:0:0:
36,192,140822,1,2,0:0:0:0:
182,192,140822,1,0,0:0:0:0:
256,192,140914,1,0,0:0:0:0:
109,192,141006,1,2,0:0:0:0:
402,192,141006,1,0,0:0:0:0:
329,192,141006,1,0,0:0:0:0:
475,192,141190,1,0,0:0:0:0:
402,192,141374,128,2,141558:0:0:0:0:
329,192,141374,1,0,0:0:0:0:
109,192,141558,128,2,141742:0:0:0:0:
182,192,141558,1,0,0:0:0:0:
402,192,141742,128,2,141926:0:0:0:0:
329,192,141742,1,0,0:0:0:0:
109,192,141926,128,2,142110:0:0:0:0:
182,192,141926,1,0,0:0:0:0:
402,192,142110,128,2,142294:0:0:0:0:
329,192,142110,1,0,0:0:0:0:
109,192,142294,128,2,142479:0:0:0:0:
182,192,142294,1,0,0:0:0:0:
402,192,142479,128,2,142663:0:0:0:0:
329,192,142479,1,0,0:0:0:0:
109,192,142663,128,2,142847:0:0:0:0:
182,192,142663,1,0,0:0:0:0:
329,192,142847,1,0,0:0:0:0:
182,192,142939,1,0,0:0:0:0:
329,192,143031,1,0,0:0:0:0:
182,192,143123,1,0,0:0:0:0:
109,192,143215,1,0,0:0:0:0:
402,192,143307,1,0,0:0:0:0:
109,192,143399,1,0,0:0:0:0:
402,192,143491,1,0,0:0:0:0:
36,192,143583,1,0,0:0:0:0:
256,192,143583,1,0,0:0:0:0:
109,192,143675,1,0,0:0:0:0:
329,192,143675,1,0,0:0:0:0:
182,192,143767,1,0,0:0:0:0:
402,192,143767,1,0,0:0:0:0:
256,192,143859,1,0,0:0:0:0:
475,192,143859,1,0,0:0:0:0:
182,192,143951,1,0,0:0:0:0:
402,192,143951,1,0,0:0:0:0:
109,192,144043,1,0,0:0:0:0:
329,192,144043,1,0,0:0:0:0:
182,192,144135,1,0,0:0:0:0:
402,192,144135,1,0,0:0:0:0:
256,192,144227,1,0,0:0:0:0:
475,192,144227,1,0,0:0:0:0:
402,192,144319,128,8,145147:0:0:0:0:
182,192,144319,128,0,145147:0:0:0:0:
475,192,145423,1,0,0:0:0:0:
36,192,145423,1,0,0:0:0:0:
109,192,145607,128,8,145669:0:0:0:0:
329,192,145607,128,0,145669:0:0:0:0:
182,192,145791,128,0,145853:0:0:0:0:
402,192,145791,128,8,145853:0:0:0:0:
329,192,145975,1,0,0:0:0:0:
182,192,146067,1,0,0:0:0:0:
256,192,146159,1,0,0:0:0:0:
475,192,146159,1,0,0:0:0:0:
402,192,146343,1,0,0:0:0:0:
329,192,146436,1,0,0:0:0:0:
256,192,146528,1,0,0:0:0:0:
182,192,146620,1,0,0:0:0:0:
256,192,146712,1,0,0:0:0:0:
329,192,146804,1,0,0:0:0:0:
402,192,146896,1,0,0:0:0:0:
182,192,146896,1,0,0:0:0:0:
329,192,147080,128,0,147141:0:0:0:0:
36,192,147080,128,8,147141:0:0:0:0:
182,192,147264,128,0,147325:0:0:0:0:
475,192,147264,128,8,147325:0:0:0:0:
256,192,147448,1,0,0:0:0:0:
402,192,147540,1,0,0:0:0:0:
109,192,147632,1,0,0:0:0:0:
329,192,147632,1,0,0:0:0:0:
402,192,147816,1,0,0:0:0:0:
182,192,147908,1,0,0:0:0:0:
36,192,148000,1,0,0:0:0:0:
329,192,148092,1,0,0:0:0:0:
182,192,148184,1,0,0:0:0:0:
475,192,148276,1,0,0:0:0:0:
109,192,148368,1,0,0:0:0:0:
402,192,148368,1,0,0:0:0:0:
182,192,148552,128,0,148613:0:0:0:0:
329,192,148552,128,8,148613:0:0:0:0:
36,192,148736,128,8,148797:0:0:0:0:
329,192,148736,128,0,148797:0:0:0:0:
182,192,148920,1,0,0:0:0:0:
329,192,149012,1,0,0:0:0:0:
109,192,149104,128,0,149166:0:0:0:0:
475,192,149104,128,8,149166:0:0:0:0:
329,192,149288,1,0,0:0:0:0:
109,192,149380,1,0,0:0:0:0:
182,192,149472,128,0,149534:0:0:0:0:
402,192,149472,128,8,149534:0:0:0:0:
36,192,149564,1,0,0:0:0:0:
329,192,149656,1,0,0:0:0:0:
475,192,149748,1,0,0:0:0:0:
109,192,149840,128,8,149902:0:0:0:0:
329,192,149840,128,0,149902:0:0:0:0:
475,192,149932,1,0,0:0:0:0:
182,192,150024,1,0,0:0:0:0:
109,192,150208,128,0,150270:0:0:0:0:
402,192,150208,128,8,150270:0:0:0:0:
182,192,150393,1,0,0:0:0:0:
475,192,150485,1,0,0:0:0:0:
256,192,150577,1,0,0:0:0:0:
402,192,150577,1,0,0:0:0:0:
109,192,150761,128,8,151313:0:0:0:0:
475,192,150761,1,0,0:0:0:0:
329,192,150853,1,0,0:0:0:0:
402,192,150945,1,0,0:0:0:0:
329,192,151037,1,0,0:0:0:0:
256,192,151129,1,0,0:0:0:0:
329,192,151221,1,0,0:0:0:0:
402,192,151313,1,0,0:0:0:0:
182,192,151497,1,0,0:0:0:0:
329,192,151497,1,8,0:0:0:0:
109,192,151681,128,8,151742:0:0:0:0:
402,192,151681,128,0,151742:0:0:0:0:
256,192,151865,1,0,0:0:0:0:
109,192,151957,1,0,0:0:0:0:
182,192,152049,1,0,0:0:0:0:
329,192,152049,1,0,0:0:0:0:
402,192,152233,128,8,152785:0:0:0:0:
182,192,152233,1,0,0:0:0:0:
36,192,152325,1,0,0:0:0:0:
109,192,152417,1,0,0:0:0:0:
182,192,152509,1,0,0:0:0:0:
256,192,152601,1,0,0:0:0:0:
182,192,152693,1,0,0:0:0:0:
109,192,152785,1,0,0:0:0:0:
329,192,152877,1,0,0:0:0:0:
182,192,152969,1,8,0:0:0:0:
109,192,153153,128,0,153215:0:0:0:0:
402,192,153153,128,8,153215:0:0:0:0:
36,192,153337,1,0,0:0:0:0:
182,192,153429,5,0,0:0:0:0:
256,192,153521,1,0,0:0:0:0:
402,192,153521,1,0,0:0:0:0:
182,192,153705,128,8,153767:0:0:0:0:
402,192,153705,128,0,153767:0:0:0:0:
475,192,153889,1,0,0:0:0:0:
329,192,153981,1,0,0:0:0:0:
36,192,154073,1,0,0:0:0:0:
182,192,154073,1,0,0:0:0:0:
109,192,154257,128,0,154319:0:0:0:0:
329,192,154257,128,8,154319:0:0:0:0:
475,192,154349,1,0,0:0:0:0:
36,192,154442,1,0,0:0:0:0:
402,192,154534,1,0,0:0:0:0:
109,192,154626,128,8,154994:0:0:0:0:
329,192,154626,1,0,0:0:0:0:
329,192,154810,1,0,0:0:0:0:
256,192,154902,1,0,0:0:0:0:
402,192,154994,128,8,155362:0:0:0:0:
182,192,154994,1,0,0:0:0:0:
182,192,155178,1,0,0:0:0:0:
256,192,155270,1,0,0:0:0:0:
475,192,155362,128,8,155730:0:0:0:0:
36,192,155362,1,0,0:0:0:0:
109,192,155454,1,0,0:0:0:0:
182,192,155546,1,0,0:0:0:0:
256,192,155638,1,0,0:0:0:0:
109,192,155730,128,8,156098:0:0:0:0:
329,192,155730,1,0,0:0:0:0:
402,192,155822,1,0,0:0:0:0:
475,192,155914,1,0,0:0:0:0:
329,192,156006,1,0,0:0:0:0:
256,192,156098,128,0,157570:0:0:0:0:
109,192,157570,1,0,0:0:0:0:
182,192,157662,1,0,0:0:0:0:
402,192,157754,1,0,0:0:0:0:
329,192,157846,1,0,0:0:0:0:
109,192,157938,1,0,0:0:0:0:
182,192,158030,1,0,0:0:0:0:
402,192,158122,1,0,0:0:0:0:
329,192,158214,1,0,0:0:0:0:
109,192,158306,1,0,0:0:0:0:
329,192,158399,1,0,0:0:0:0:
402,192,158491,1,0,0:0:0:0:
182,192,158583,1,0,0:0:0:0:
109,192,158675,1,0,0:0:0:0:
329,192,158767,1,0,0:0:0:0:
402,192,158859,1,0,0:0:0:0:
182,192,158951,1,0,0:0:0:0:
109,192,159043,128,8,159135:0:0:0:0:
256,192,159043,128,0,159135:0:0:0:0:
402,192,159043,128,8,159135:0:0:0:0:
