osu file format v14

[General]
AudioFilename: audio.mp3
AudioLeadIn: 0
PreviewTime: 94775
Countdown: 0
SampleSet: Normal
StackLeniency: 0.7
Mode: 1
LetterboxInBreaks: 0
WidescreenStoryboard: 0

[Editor]
Bookmarks: 354,10459,20564,30669,42038,52143,60985,72354,82459,95090,105196,115301,120038
DistanceSpacing: 1.5
BeatDivisor: 4
GridSize: 32
TimelineZoom: 2.6

[Metadata]
Title:Oshama Scramble!
TitleUnicode:Oshama Scramble!
Artist:t+pazolite
ArtistUnicode:t+pazolite
Creator:Stingy
Version:StAri's Kantan
Source:maimai ORANGE PLUS
Tags:Ayyri チューニズム CHUNITHM C.H.S CHS Ponko2 Ponko 2 Girlish DISC2 DISC 2 CHS-0021 CHS-0022 Comiket 89 C89 SEGA tpz
BeatmapID:1476507
BeatmapSetID:697043

[Difficulty]
HPDrainRate:7
CircleSize:2
OverallDifficulty:3
ApproachRate:10
SliderMultiplier:1.4
SliderTickRate:1

[Events]
//Background and Video events
0,0,"Oshama Scramble Ayyri & Stingy.png",0,50
//Break Periods
//Storyboard Layer 0 (Background)
//Storyboard Layer 1 (Fail)
//Storyboard Layer 2 (Pass)
//Storyboard Layer 3 (Foreground)
//Storyboard Sound Samples

[TimingPoints]
354,315.789473684211,4,1,0,65,1,0
10459,-100,4,1,0,70,0,0
20564,-100,4,1,0,55,0,0
30669,-100,4,1,0,65,0,0
42038,-100,4,1,0,75,0,1
50880,-100,4,1,0,75,0,0
52143,-100,4,1,0,75,0,1
60985,-100,4,1,0,75,0,0
62248,-100,4,1,0,55,0,0
72354,-100,4,1,0,65,0,0
82459,-100,4,1,0,70,0,0
95090,-100,4,1,0,75,0,1
104880,-100,4,1,0,75,0,0
105196,-100,4,1,0,75,0,1
115301,-100,4,1,0,75,0,0
120038,-100,4,1,0,50,0,0

[HitObjects]
256,192,354,5,0,0:0:0:0:
256,192,1459,1,0,0:0:0:0:
256,192,2248,1,8,0:0:0:0:
256,192,2880,1,0,0:0:0:0:
256,192,3985,1,8,0:0:0:0:
256,192,4775,1,0,0:0:0:0:
256,192,5406,1,12,0:0:0:0:
256,192,6669,1,0,0:0:0:0:
256,192,7301,1,0,0:0:0:0:
256,192,7617,1,0,0:0:0:0:
256,192,7932,2,0,L|320:192,16,35
256,192,10143,1,12,0:0:0:0:
256,192,10459,1,4,0:0:0:0:
256,192,10932,1,0,0:0:0:0:
256,192,11722,1,8,0:0:0:0:
256,192,12038,1,0,0:0:0:0:
256,192,12354,1,8,0:0:0:0:
256,192,12985,1,0,0:0:0:0:
256,192,13459,1,0,0:0:0:0:
256,192,14248,1,8,0:0:0:0:
256,192,14564,1,8,0:0:0:0:
256,192,14880,1,0,0:0:0:0:
256,192,15511,1,0,0:0:0:0:
256,192,15985,1,0,0:0:0:0:
256,192,16775,1,0,0:0:0:0:
256,192,17090,1,0,0:0:0:0:
256,192,17406,1,8,0:0:0:0:
256,192,18038,1,0,0:0:0:0:
256,192,18669,1,0,0:0:0:0:
256,192,18985,1,0,0:0:0:0:
256,192,19301,2,0,L|320:192,12,35
256,192,20564,1,0,0:0:0:0:
256,192,21196,1,8,0:0:0:0:
256,192,22459,1,8,0:0:0:0:
256,192,23722,1,8,0:0:0:0:
256,192,24985,1,8,0:0:0:0:
256,192,26248,1,8,0:0:0:0:
256,192,27511,1,8,0:0:0:0:
256,192,28775,1,8,0:0:0:0:
256,192,29406,1,0,0:0:0:0:
256,192,30038,1,8,0:0:0:0:
256,192,30354,1,0,0:0:0:0:
256,192,30669,1,12,0:0:0:0:
256,192,31301,1,8,0:0:0:0:
256,192,31617,1,0,0:0:0:0:
256,192,31932,1,8,0:0:0:0:
256,192,32564,1,8,0:0:0:0:
256,192,32880,1,8,0:0:0:0:
256,192,33196,1,0,0:0:0:0:
256,192,33827,1,0,0:0:0:0:
256,192,34459,1,0,0:0:0:0:
256,192,34775,1,8,0:0:0:0:
256,192,35090,1,0,0:0:0:0:
256,192,35722,1,8,0:0:0:0:
256,192,36511,1,0,0:0:0:0:
256,192,36985,1,0,0:0:0:0:
256,192,37617,1,0,0:0:0:0:
256,192,37932,1,0,0:0:0:0:
256,192,38248,1,0,0:0:0:0:
256,192,38880,1,0,0:0:0:0:
256,192,39511,2,0,L|320:192,16,35
256,192,42038,1,0,0:0:0:0:
256,192,42354,1,0,0:0:0:0:
256,192,42669,1,0,0:0:0:0:
256,192,43301,1,0,0:0:0:0:
256,192,43617,1,0,0:0:0:0:
256,192,43932,1,8,0:0:0:0:
256,192,44564,1,0,0:0:0:0:
256,192,44880,1,0,0:0:0:0:
256,192,45196,1,0,0:0:0:0:
256,192,45827,1,8,0:0:0:0:
256,192,47090,1,0,0:0:0:0:
256,192,47406,1,0,0:0:0:0:
256,192,47722,1,0,0:0:0:0:
256,192,48354,1,0,0:0:0:0:
256,192,48669,1,0,0:0:0:0:
256,192,48985,1,8,0:0:0:0:
256,192,49617,1,0,0:0:0:0:
256,192,49932,1,0,0:0:0:0:
256,192,50248,1,0,0:0:0:0:
256,192,50880,1,8,0:0:0:0:
256,192,51511,1,0,0:0:0:0:
256,192,51827,1,8,0:0:0:0:
256,192,52143,1,0,0:0:0:0:
256,192,52459,1,0,0:0:0:0:
256,192,52774,1,0,0:0:0:0:
256,192,53406,1,0,0:0:0:0:
256,192,53722,1,8,0:0:0:0:
256,192,54038,1,0,0:0:0:0:
256,192,54669,1,0,0:0:0:0:
256,192,54985,1,0,0:0:0:0:
256,192,55301,1,0,0:0:0:0:
256,192,55932,1,8,0:0:0:0:
256,192,57196,1,0,0:0:0:0:
256,192,57511,1,0,0:0:0:0:
256,192,57827,1,0,0:0:0:0:
256,192,58459,1,0,0:0:0:0:
256,192,58775,1,8,0:0:0:0:
256,192,59090,1,0,0:0:0:0:
256,192,59722,1,0,0:0:0:0:
256,192,60038,1,0,0:0:0:0:
256,192,60354,1,0,0:0:0:0:
256,192,60669,1,0,0:0:0:0:
256,192,60985,1,12,0:0:0:0:
256,192,61301,2,0,L|320:192,8,35
256,192,62248,1,12,0:0:0:0:
256,192,62880,1,8,0:0:0:0:
256,192,63511,1,0,0:0:0:0:
256,192,64775,1,0,0:0:0:0:
256,192,65406,1,8,0:0:0:0:
256,192,66038,1,8,0:0:0:0:
256,192,67301,1,0,0:0:0:0:
256,192,67617,1,8,0:0:0:0:
256,192,68248,1,8,0:0:0:0:
256,192,68564,1,0,0:0:0:0:
256,192,69196,1,0,0:0:0:0:
256,192,69827,1,0,0:0:0:0:
256,192,70459,1,0,0:0:0:0:
256,192,70775,1,0,0:0:0:0:
256,192,71090,1,12,0:0:0:0:
256,192,72354,1,12,0:0:0:0:
256,192,74248,1,8,0:0:0:0:
256,192,74564,1,8,0:0:0:0:
256,192,74880,1,4,0:0:0:0:
256,192,76775,1,8,0:0:0:0:
256,192,77090,1,8,0:0:0:0:
256,192,77406,1,4,0:0:0:0:
256,192,78669,1,4,0:0:0:0:
256,192,79617,1,8,0:0:0:0:
256,192,79932,1,4,0:0:0:0:
256,192,80564,1,4,0:0:0:0:
256,192,81196,1,0,0:0:0:0:
256,192,81511,1,0,0:0:0:0:
256,192,81827,1,0,0:0:0:0:
256,192,82143,1,0,0:0:0:0:
256,192,82459,1,12,0:0:0:0:
256,192,83722,1,12,0:0:0:0:
256,192,84985,1,12,0:0:0:0:
256,192,86248,1,12,0:0:0:0:
256,192,86880,1,0,0:0:0:0:
256,192,87511,1,12,0:0:0:0:
256,192,87827,1,0,0:0:0:0:
256,192,88143,1,12,0:0:0:0:
256,192,88775,1,12,0:0:0:0:
256,192,89090,1,0,0:0:0:0:
256,192,89406,1,12,0:0:0:0:
256,192,90038,1,12,0:0:0:0:
256,192,90354,1,0,0:0:0:0:
256,192,90669,1,0,0:0:0:0:
256,192,90985,1,0,0:0:0:0:
256,192,91301,2,0,L|320:192,16,35
256,192,93827,1,12,0:0:0:0:
256,192,94775,1,12,0:0:0:0:
256,192,95090,1,4,0:0:0:0:
256,192,95722,1,8,0:0:0:0:
256,192,96196,1,0,0:0:0:0:
256,192,96669,1,8,0:0:0:0:
256,192,96985,1,0,0:0:0:0:
256,192,97301,1,0,0:0:0:0:
256,192,97617,1,8,0:0:0:0:
256,192,98248,1,8,0:0:0:0:
256,192,98880,1,8,0:0:0:0:
256,192,99196,1,0,0:0:0:0:
256,192,99511,1,8,0:0:0:0:
256,192,100143,1,0,0:0:0:0:
256,192,100459,1,0,0:0:0:0:
256,192,100775,1,0,0:0:0:0:
256,192,101248,1,8,0:0:0:0:
256,192,101722,1,0,0:0:0:0:
256,192,102038,1,8,0:0:0:0:
256,192,102669,1,0,0:0:0:0:
256,192,102985,1,8,0:0:0:0:
256,192,103459,1,8,0:0:0:0:
256,192,103775,1,0,0:0:0:0:
256,192,104406,1,0,0:0:0:0:
256,192,104722,1,0,0:0:0:0:
256,192,105196,1,12,0:0:0:0:
256,192,105511,1,0,0:0:0:0:
256,192,105827,1,0,0:0:0:0:
256,192,106459,1,8,0:0:0:0:
256,192,106775,1,0,0:0:0:0:
256,192,107090,1,8,0:0:0:0:
256,192,107722,1,0,0:0:0:0:
256,192,108354,1,0,0:0:0:0:
256,192,108985,1,8,0:0:0:0:
256,192,109301,1,8,0:0:0:0:
256,192,109617,1,0,0:0:0:0:
256,192,110248,1,12,0:0:0:0:
256,192,110722,1,0,0:0:0:0:
256,192,111038,1,0,0:0:0:0:
256,192,111354,1,8,0:0:0:0:
256,192,111827,1,8,0:0:0:0:
256,192,112143,1,0,0:0:0:0:
256,192,112775,1,0,0:0:0:0:
256,192,113090,1,0,0:0:0:0:
256,192,113406,1,12,0:0:0:0:
256,192,113722,1,8,0:0:0:0:
256,192,114038,1,0,0:0:0:0:
256,192,114669,1,0,0:0:0:0:
256,192,114985,1,12,0:0:0:0:
256,192,115301,1,4,0:0:0:0:
256,192,115459,8,0,120038,0:0:0:0:
