osu file format v14

[General]
AudioFilename: audio.mp3
AudioLeadIn: 0
PreviewTime: 94775
Countdown: 0
SampleSet: Normal
StackLeniency: 0.7
Mode: 1
LetterboxInBreaks: 0
WidescreenStoryboard: 0

[Editor]
DistanceSpacing: 1.4
BeatDivisor: 4
GridSize: 32
TimelineZoom: 2.599999

[Metadata]
Title:Oshama Scramble!
TitleUnicode:Oshama Scramble!
Artist:t+pazolite
ArtistUnicode:t+pazolite
Creator:Stingy
Version:Oni
Source:maimai ORANGE PLUS
Tags:Ayyri チューニズム CHUNITHM C.H.S CHS Ponko2 Ponko 2 Girlish DISC2 DISC 2 CHS-0021 CHS-0022 Comiket 89 C89 SEGA tpz
BeatmapID:1476506
BeatmapSetID:697043

[Difficulty]
HPDrainRate:5
CircleSize:2
OverallDifficulty:6
ApproachRate:10
SliderMultiplier:1.4
SliderTickRate:1

[Events]
//Background and Video events
0,0,"Oshama Scramble Stingy.png",0,50
//Break Periods
//Storyboard Layer 0 (Background)
//Storyboard Layer 1 (Fail)
//Storyboard Layer 2 (Pass)
//Storyboard Layer 3 (Foreground)
//Storyboard Sound Samples

[TimingPoints]
354,315.789473684211,4,1,0,65,1,0
10459,-100,4,1,0,70,0,0
20564,-100,4,1,0,55,0,0
30669,-100,4,1,0,65,0,0
42038,-90.9090909090909,4,1,0,75,0,1
50880,-90.9090909090909,4,1,0,75,0,0
52143,-86.9565217391304,4,1,0,75,0,1
60985,-86.9565217391304,4,1,0,75,0,0
62248,-100,4,1,0,55,0,0
72354,-100,4,1,0,65,0,0
82459,-100,4,1,0,70,0,0
95090,-86.9565217391304,4,1,0,75,0,1
104880,-100,4,1,0,75,0,0
105196,-86.9565217391304,4,1,0,75,0,1
115301,-100,4,1,0,75,0,0
120038,-100,4,1,0,50,0,0

[HitObjects]
256,192,354,5,0,0:0:0:0:
256,192,590,1,0,0:0:0:0:
256,192,827,1,0,0:0:0:0:
256,192,1143,1,8,0:0:0:0:
256,192,1459,1,0,0:0:0:0:
256,192,1775,1,0,0:0:0:0:
256,192,1932,1,0,0:0:0:0:
256,192,2090,1,8,0:0:0:0:
256,192,2248,1,0,0:0:0:0:
256,192,2406,1,0,0:0:0:0:
256,192,2564,1,8,0:0:0:0:
256,192,2722,1,8,0:0:0:0:
256,192,2880,1,0,0:0:0:0:
256,192,3117,1,0,0:0:0:0:
256,192,3354,1,0,0:0:0:0:
256,192,3669,1,8,0:0:0:0:
256,192,3985,1,0,0:0:0:0:
256,192,4301,1,0,0:0:0:0:
256,192,4459,1,0,0:0:0:0:
256,192,4617,1,0,0:0:0:0:
256,192,4775,1,8,0:0:0:0:
256,192,4932,1,0,0:0:0:0:
256,192,5090,1,8,0:0:0:0:
256,192,5248,1,8,0:0:0:0:
256,192,5406,1,4,0:0:0:0:
256,192,5564,1,0,0:0:0:0:
256,192,5643,1,0,0:0:0:0:
256,192,5722,1,0,0:0:0:0:
256,192,5880,1,0,0:0:0:0:
256,192,6038,1,0,0:0:0:0:
256,192,6196,1,8,0:0:0:0:
256,192,6354,1,0,0:0:0:0:
256,192,6669,1,0,0:0:0:0:
256,192,6827,1,0,0:0:0:0:
256,192,6985,1,8,0:0:0:0:
256,192,7143,1,0,0:0:0:0:
256,192,7301,1,8,0:0:0:0:
256,192,7459,1,8,0:0:0:0:
256,192,7617,1,0,0:0:0:0:
256,192,7932,1,0,0:0:0:0:
256,192,8011,1,0,0:0:0:0:
256,192,8090,1,0,0:0:0:0:
256,192,8169,1,0,0:0:0:0:
256,192,8248,1,0,0:0:0:0:
256,192,8406,1,8,0:0:0:0:
256,192,8564,1,0,0:0:0:0:
256,192,8643,1,0,0:0:0:0:
256,192,8722,1,8,0:0:0:0:
256,192,8801,1,8,0:0:0:0:
256,192,8880,1,0,0:0:0:0:
256,192,9038,1,0,0:0:0:0:
256,192,9117,1,0,0:0:0:0:
256,192,9196,1,0,0:0:0:0:
256,192,10143,1,12,0:0:0:0:
256,192,10459,5,4,0:0:0:0:
256,192,10696,1,8,0:0:0:0:
256,192,10775,1,0,0:0:0:0:
256,192,10932,1,8,0:0:0:0:
256,192,11090,1,0,0:0:0:0:
256,192,11169,1,0,0:0:0:0:
256,192,11248,1,8,0:0:0:0:
256,192,11406,1,0,0:0:0:0:
256,192,11722,1,8,0:0:0:0:
256,192,11801,1,8,0:0:0:0:
256,192,11880,1,0,0:0:0:0:
256,192,11959,1,0,0:0:0:0:
256,192,12038,1,8,0:0:0:0:
256,192,12196,1,8,0:0:0:0:
256,192,12354,1,0,0:0:0:0:
256,192,12511,1,8,0:0:0:0:
256,192,12590,1,0,0:0:0:0:
256,192,12827,1,8,0:0:0:0:
256,192,12985,1,0,0:0:0:0:
256,192,13222,1,8,0:0:0:0:
256,192,13301,1,0,0:0:0:0:
256,192,13459,1,8,0:0:0:0:
256,192,13617,1,0,0:0:0:0:
256,192,13696,1,0,0:0:0:0:
256,192,13775,1,8,0:0:0:0:
256,192,13932,1,0,0:0:0:0:
256,192,14248,1,0,0:0:0:0:
256,192,14327,1,0,0:0:0:0:
256,192,14406,1,0,0:0:0:0:
256,192,14485,1,0,0:0:0:0:
256,192,14564,1,8,0:0:0:0:
256,192,14722,1,8,0:0:0:0:
256,192,14880,1,0,0:0:0:0:
256,192,14959,1,0,0:0:0:0:
256,192,15038,1,8,0:0:0:0:
256,192,15196,1,8,0:0:0:0:
256,192,15354,1,8,0:0:0:0:
256,192,15511,1,0,0:0:0:0:
256,192,15748,1,8,0:0:0:0:
256,192,15827,1,0,0:0:0:0:
256,192,15985,1,8,0:0:0:0:
256,192,16143,1,0,0:0:0:0:
256,192,16222,1,0,0:0:0:0:
256,192,16301,1,8,0:0:0:0:
256,192,16459,1,0,0:0:0:0:
256,192,16775,1,8,0:0:0:0:
256,192,16854,1,8,0:0:0:0:
256,192,16932,1,0,0:0:0:0:
256,192,17011,1,0,0:0:0:0:
256,192,17090,1,8,0:0:0:0:
256,192,17248,1,8,0:0:0:0:
256,192,17406,1,0,0:0:0:0:
256,192,17564,1,8,0:0:0:0:
256,192,17643,1,0,0:0:0:0:
256,192,17880,1,8,0:0:0:0:
256,192,18038,1,0,0:0:0:0:
256,192,18196,1,0,0:0:0:0:
256,192,18354,1,0,0:0:0:0:
256,192,18511,1,8,0:0:0:0:
256,192,18669,1,0,0:0:0:0:
256,192,18827,1,8,0:0:0:0:
256,192,18906,1,8,0:0:0:0:
256,192,18985,1,0,0:0:0:0:
256,192,19143,1,8,0:0:0:0:
256,192,19301,1,0,0:0:0:0:
256,192,19380,1,0,0:0:0:0:
256,192,19459,1,0,0:0:0:0:
256,192,19538,1,0,0:0:0:0:
256,192,19617,1,8,0:0:0:0:
256,192,19775,1,8,0:0:0:0:
256,192,19854,1,8,0:0:0:0:
256,192,19932,1,0,0:0:0:0:
256,192,20090,1,0,0:0:0:0:
256,192,20248,1,12,0:0:0:0:
256,192,20406,1,8,0:0:0:0:
256,192,20564,5,0,0:0:0:0:
256,192,20722,1,8,0:0:0:0:
256,192,20880,1,0,0:0:0:0:
256,192,21196,1,8,0:0:0:0:
256,192,21354,1,0,0:0:0:0:
256,192,21669,1,0,0:0:0:0:
256,192,21985,1,0,0:0:0:0:
256,192,22143,1,0,0:0:0:0:
256,192,22459,1,8,0:0:0:0:
256,192,22775,1,0,0:0:0:0:
256,192,22932,1,0,0:0:0:0:
256,192,23090,1,0,0:0:0:0:
256,192,23406,1,0,0:0:0:0:
256,192,23564,1,0,0:0:0:0:
256,192,23722,1,8,0:0:0:0:
256,192,24038,1,0,0:0:0:0:
256,192,24196,1,0,0:0:0:0:
256,192,24354,1,8,0:0:0:0:
256,192,24511,1,8,0:0:0:0:
256,192,24669,1,0,0:0:0:0:
256,192,24827,1,0,0:0:0:0:
256,192,24985,1,8,0:0:0:0:
256,192,25301,1,8,0:0:0:0:
256,192,25459,1,8,0:0:0:0:
256,192,25617,1,0,0:0:0:0:
256,192,25775,1,8,0:0:0:0:
256,192,25932,1,0,0:0:0:0:
256,192,26248,1,8,0:0:0:0:
256,192,26406,1,0,0:0:0:0:
256,192,26722,1,0,0:0:0:0:
256,192,27038,1,0,0:0:0:0:
256,192,27196,1,0,0:0:0:0:
256,192,27354,1,0,0:0:0:0:
256,192,27511,1,8,0:0:0:0:
256,192,27827,1,0,0:0:0:0:
256,192,27985,1,0,0:0:0:0:
256,192,28143,1,8,0:0:0:0:
256,192,28301,1,0,0:0:0:0:
256,192,28459,1,8,0:0:0:0:
256,192,28775,1,8,0:0:0:0:
256,192,28932,1,0,0:0:0:0:
256,192,29090,1,8,0:0:0:0:
256,192,29248,1,0,0:0:0:0:
256,192,29564,1,8,0:0:0:0:
256,192,29722,1,8,0:0:0:0:
256,192,29880,1,8,0:0:0:0:
256,192,29959,1,8,0:0:0:0:
256,192,30038,1,8,0:0:0:0:
256,192,30196,1,0,0:0:0:0:
256,192,30354,1,8,0:0:0:0:
256,192,30511,1,8,0:0:0:0:
256,192,30669,5,4,0:0:0:0:
256,192,30827,1,8,0:0:0:0:
256,192,30985,1,0,0:0:0:0:
256,192,31301,1,8,0:0:0:0:
256,192,31459,1,0,0:0:0:0:
256,192,31538,1,0,0:0:0:0:
256,192,31617,1,8,0:0:0:0:
256,192,31775,1,8,0:0:0:0:
256,192,32090,1,0,0:0:0:0:
256,192,32248,1,8,0:0:0:0:
256,192,32564,1,8,0:0:0:0:
256,192,32880,1,8,0:0:0:0:
256,192,33038,1,0,0:0:0:0:
256,192,33196,1,8,0:0:0:0:
256,192,33511,1,8,0:0:0:0:
256,192,33669,1,0,0:0:0:0:
256,192,33827,1,8,0:0:0:0:
256,192,34143,1,8,0:0:0:0:
256,192,34301,1,0,0:0:0:0:
256,192,34459,1,8,0:0:0:0:
256,192,34617,1,0,0:0:0:0:
256,192,34696,1,0,0:0:0:0:
256,192,34775,1,8,0:0:0:0:
256,192,34932,1,0,0:0:0:0:
256,192,35090,1,8,0:0:0:0:
256,192,35406,1,0,0:0:0:0:
256,192,35564,1,0,0:0:0:0:
256,192,35722,1,8,0:0:0:0:
256,192,35880,1,0,0:0:0:0:
256,192,36038,1,0,0:0:0:0:
256,192,36354,1,8,0:0:0:0:
256,192,36511,1,0,0:0:0:0:
256,192,36827,1,8,0:0:0:0:
256,192,36985,1,0,0:0:0:0:
256,192,37143,1,0,0:0:0:0:
256,192,37222,1,0,0:0:0:0:
256,192,37301,1,0,0:0:0:0:
256,192,37459,1,8,0:0:0:0:
256,192,37617,1,0,0:0:0:0:
256,192,37775,1,0,0:0:0:0:
256,192,37854,1,0,0:0:0:0:
256,192,38090,1,0,0:0:0:0:
256,192,38169,1,0,0:0:0:0:
256,192,38248,1,0,0:0:0:0:
256,192,38406,1,0,0:0:0:0:
256,192,38564,1,8,0:0:0:0:
256,192,38722,1,0,0:0:0:0:
256,192,38880,1,0,0:0:0:0:
256,192,39196,1,8,0:0:0:0:
256,192,39354,1,0,0:0:0:0:
256,192,39511,1,0,0:0:0:0:
256,192,39669,1,0,0:0:0:0:
256,192,39827,1,0,0:0:0:0:
256,192,39985,1,0,0:0:0:0:
256,192,40143,1,8,0:0:0:0:
256,192,40222,1,8,0:0:0:0:
256,192,40301,1,0,0:0:0:0:
256,192,40380,1,0,0:0:0:0:
256,192,40459,1,8,0:0:0:0:
256,192,40617,1,8,0:0:0:0:
256,192,40696,1,8,0:0:0:0:
256,192,40775,1,0,0:0:0:0:
256,192,42038,1,4,0:0:0:0:
256,192,42275,1,8,0:0:0:0:
256,192,42354,1,0,0:0:0:0:
256,192,42511,1,8,0:0:0:0:
256,192,42669,1,0,0:0:0:0:
256,192,42906,1,8,0:0:0:0:
256,192,42985,1,0,0:0:0:0:
256,192,43143,1,8,0:0:0:0:
256,192,43301,1,0,0:0:0:0:
256,192,43538,1,8,0:0:0:0:
256,192,43617,1,0,0:0:0:0:
256,192,43775,1,8,0:0:0:0:
256,192,43932,1,0,0:0:0:0:
256,192,44090,1,8,0:0:0:0:
256,192,44248,1,8,0:0:0:0:
256,192,44406,1,8,0:0:0:0:
256,192,44564,1,0,0:0:0:0:
256,192,44801,1,8,0:0:0:0:
256,192,44880,1,0,0:0:0:0:
256,192,45038,1,8,0:0:0:0:
256,192,45196,1,0,0:0:0:0:
256,192,45432,1,8,0:0:0:0:
256,192,45511,1,0,0:0:0:0:
256,192,45669,1,8,0:0:0:0:
256,192,45827,1,0,0:0:0:0:
256,192,46143,1,0,0:0:0:0:
256,192,46301,1,8,0:0:0:0:
256,192,46459,1,0,0:0:0:0:
256,192,46617,1,0,0:0:0:0:
256,192,46696,1,0,0:0:0:0:
256,192,46775,1,8,0:0:0:0:
256,192,46932,1,8,0:0:0:0:
256,192,47090,1,0,0:0:0:0:
256,192,47327,1,8,0:0:0:0:
256,192,47406,1,0,0:0:0:0:
256,192,47564,1,8,0:0:0:0:
256,192,47722,1,0,0:0:0:0:
256,192,47959,1,8,0:0:0:0:
256,192,48038,1,0,0:0:0:0:
256,192,48196,1,8,0:0:0:0:
256,192,48354,1,0,0:0:0:0:
256,192,48590,1,8,0:0:0:0:
256,192,48669,1,0,0:0:0:0:
256,192,48827,1,8,0:0:0:0:
256,192,48985,1,0,0:0:0:0:
256,192,49143,1,8,0:0:0:0:
256,192,49301,1,8,0:0:0:0:
256,192,49459,1,8,0:0:0:0:
256,192,49617,1,0,0:0:0:0:
256,192,49854,1,8,0:0:0:0:
256,192,49932,1,0,0:0:0:0:
256,192,50090,1,8,0:0:0:0:
256,192,50248,1,0,0:0:0:0:
256,192,50485,1,8,0:0:0:0:
256,192,50564,1,0,0:0:0:0:
256,192,50722,1,8,0:0:0:0:
256,192,50880,1,0,0:0:0:0:
256,192,52143,1,0,0:0:0:0:
256,192,52380,1,8,0:0:0:0:
256,192,52459,1,8,0:0:0:0:
256,192,52617,1,0,0:0:0:0:
256,192,52775,1,8,0:0:0:0:
256,192,53011,1,0,0:0:0:0:
256,192,53090,1,0,0:0:0:0:
256,192,53248,1,8,0:0:0:0:
256,192,53406,1,0,0:0:0:0:
256,192,53643,1,8,0:0:0:0:
256,192,53722,1,8,0:0:0:0:
256,192,53880,1,0,0:0:0:0:
256,192,54038,1,0,0:0:0:0:
256,192,54196,1,8,0:0:0:0:
256,192,54354,1,8,0:0:0:0:
256,192,54511,1,8,0:0:0:0:
256,192,54669,1,0,0:0:0:0:
256,192,54906,1,8,0:0:0:0:
256,192,54985,1,8,0:0:0:0:
256,192,55143,1,0,0:0:0:0:
256,192,55301,1,8,0:0:0:0:
256,192,55538,1,0,0:0:0:0:
256,192,55617,1,0,0:0:0:0:
256,192,55775,1,8,0:0:0:0:
256,192,55932,1,0,0:0:0:0:
256,192,56248,1,0,0:0:0:0:
256,192,56406,1,8,0:0:0:0:
256,192,56564,1,0,0:0:0:0:
256,192,56722,1,8,0:0:0:0:
256,192,56801,1,8,0:0:0:0:
256,192,56880,1,8,0:0:0:0:
256,192,57038,1,8,0:0:0:0:
256,192,57196,1,0,0:0:0:0:
256,192,57432,1,8,0:0:0:0:
256,192,57511,1,8,0:0:0:0:
256,192,57669,1,0,0:0:0:0:
256,192,57827,1,8,0:0:0:0:
256,192,58064,1,0,0:0:0:0:
256,192,58143,1,0,0:0:0:0:
256,192,58301,1,8,0:0:0:0:
256,192,58459,1,0,0:0:0:0:
256,192,58696,1,8,0:0:0:0:
256,192,58775,1,8,0:0:0:0:
256,192,58932,1,0,0:0:0:0:
256,192,59090,1,0,0:0:0:0:
256,192,59248,1,8,0:0:0:0:
256,192,59406,1,8,0:0:0:0:
256,192,59564,1,8,0:0:0:0:
256,192,59722,1,0,0:0:0:0:
256,192,59880,1,0,0:0:0:0:
256,192,60038,1,0,0:0:0:0:
256,192,60196,1,0,0:0:0:0:
256,192,60354,1,8,0:0:0:0:
256,192,60511,1,8,0:0:0:0:
256,192,60669,1,8,0:0:0:0:
256,192,60827,1,8,0:0:0:0:
256,192,60906,1,8,0:0:0:0:
256,192,60985,1,0,0:0:0:0:
256,192,62248,5,12,0:0:0:0:
256,192,62406,1,0,0:0:0:0:
256,192,62485,1,0,0:0:0:0:
256,192,62564,1,0,0:0:0:0:
256,192,62722,1,0,0:0:0:0:
256,192,62880,1,8,0:0:0:0:
256,192,63196,1,8,0:0:0:0:
256,192,63354,1,0,0:0:0:0:
256,192,63511,1,0,0:0:0:0:
256,192,64775,1,0,0:0:0:0:
256,192,65248,1,0,0:0:0:0:
256,192,65406,1,8,0:0:0:0:
256,192,65722,1,0,0:0:0:0:
256,192,66354,1,0,0:0:0:0:
256,192,66669,1,8,0:0:0:0:
256,192,66985,1,8,0:0:0:0:
256,192,67301,1,0,0:0:0:0:
256,192,67459,1,8,0:0:0:0:
256,192,67538,1,8,0:0:0:0:
256,192,67617,1,8,0:0:0:0:
256,192,68090,1,0,0:0:0:0:
256,192,68248,1,8,0:0:0:0:
256,192,68564,1,0,0:0:0:0:
256,192,68880,1,0,0:0:0:0:
256,192,69196,1,0,0:0:0:0:
256,192,69511,1,8,0:0:0:0:
256,192,69827,1,0,0:0:0:0:
256,192,69985,1,0,0:0:0:0:
256,192,70143,1,0,0:0:0:0:
256,192,70301,1,0,0:0:0:0:
256,192,70459,1,0,0:0:0:0:
256,192,70538,1,0,0:0:0:0:
256,192,70617,1,0,0:0:0:0:
256,192,70775,1,0,0:0:0:0:
256,192,70854,1,0,0:0:0:0:
256,192,70932,1,0,0:0:0:0:
256,192,71011,1,0,0:0:0:0:
256,192,71090,1,0,0:0:0:0:
256,192,71248,1,8,0:0:0:0:
256,192,71406,1,8,0:0:0:0:
256,192,71564,1,0,0:0:0:0:
256,192,71722,1,8,0:0:0:0:
256,192,71880,1,8,0:0:0:0:
256,192,72038,1,0,0:0:0:0:
256,192,72196,1,0,0:0:0:0:
256,192,72354,1,0,0:0:0:0:
256,192,72590,1,0,0:0:0:0:
256,192,72827,1,8,0:0:0:0:
256,192,72985,1,0,0:0:0:0:
256,192,73064,1,0,0:0:0:0:
256,192,73143,1,0,0:0:0:0:
256,192,73459,1,8,0:0:0:0:
256,192,73617,1,0,0:0:0:0:
256,192,73775,1,8,0:0:0:0:
256,192,73854,1,0,0:0:0:0:
256,192,74090,1,8,0:0:0:0:
256,192,74248,1,8,0:0:0:0:
256,192,74406,1,0,0:0:0:0:
256,192,74564,1,8,0:0:0:0:
256,192,74722,1,0,0:0:0:0:
256,192,74880,1,0,0:0:0:0:
256,192,75117,1,0,0:0:0:0:
256,192,75354,1,0,0:0:0:0:
256,192,75511,1,8,0:0:0:0:
256,192,75590,1,8,0:0:0:0:
256,192,75669,1,8,0:0:0:0:
256,192,75985,1,8,0:0:0:0:
256,192,76143,1,0,0:0:0:0:
256,192,76301,1,0,0:0:0:0:
256,192,76380,1,8,0:0:0:0:
256,192,76538,1,8,0:0:0:0:
256,192,76617,1,0,0:0:0:0:
256,192,76696,1,8,0:0:0:0:
256,192,76775,1,8,0:0:0:0:
256,192,76932,1,0,0:0:0:0:
256,192,77090,1,8,0:0:0:0:
256,192,77248,1,0,0:0:0:0:
256,192,77327,1,0,0:0:0:0:
256,192,77406,1,0,0:0:0:0:
256,192,77643,1,0,0:0:0:0:
256,192,77880,1,0,0:0:0:0:
256,192,78038,1,8,0:0:0:0:
256,192,78117,1,8,0:0:0:0:
256,192,78196,1,8,0:0:0:0:
256,192,78354,1,0,0:0:0:0:
256,192,78511,1,8,0:0:0:0:
256,192,78669,1,0,0:0:0:0:
256,192,78827,1,8,0:0:0:0:
256,192,78906,1,8,0:0:0:0:
256,192,78985,1,8,0:0:0:0:
256,192,79143,1,0,0:0:0:0:
256,192,79222,1,8,0:0:0:0:
256,192,79380,1,8,0:0:0:0:
256,192,79459,1,8,0:0:0:0:
256,192,79538,1,8,0:0:0:0:
256,192,79617,1,0,0:0:0:0:
256,192,79775,1,0,0:0:0:0:
256,192,79932,1,0,0:0:0:0:
256,192,80169,1,8,0:0:0:0:
256,192,80406,1,8,0:0:0:0:
256,192,80564,1,0,0:0:0:0:
256,192,80643,1,0,0:0:0:0:
256,192,80722,1,8,0:0:0:0:
256,192,80880,1,0,0:0:0:0:
256,192,81038,1,8,0:0:0:0:
256,192,81117,1,8,0:0:0:0:
256,192,81196,1,0,0:0:0:0:
256,192,81275,1,0,0:0:0:0:
256,192,81354,1,8,0:0:0:0:
256,192,81511,1,0,0:0:0:0:
256,192,81669,1,8,0:0:0:0:
256,192,81827,1,0,0:0:0:0:
256,192,81985,1,8,0:0:0:0:
256,192,82143,1,8,0:0:0:0:
256,192,82301,1,0,0:0:0:0:
256,192,82459,1,0,0:0:0:0:
256,192,82696,1,0,0:0:0:0:
256,192,82775,1,8,0:0:0:0:
256,192,82932,1,0,0:0:0:0:
256,192,83090,1,8,0:0:0:0:
256,192,83169,1,8,0:0:0:0:
256,192,83248,1,8,0:0:0:0:
256,192,83564,1,8,0:0:0:0:
256,192,83722,1,0,0:0:0:0:
256,192,83959,1,8,0:0:0:0:
256,192,84038,1,8,0:0:0:0:
256,192,84196,1,0,0:0:0:0:
256,192,84354,1,8,0:0:0:0:
256,192,84432,1,8,0:0:0:0:
256,192,84511,1,8,0:0:0:0:
256,192,84827,1,8,0:0:0:0:
256,192,84985,1,0,0:0:0:0:
256,192,85222,1,0,0:0:0:0:
256,192,85301,1,8,0:0:0:0:
256,192,85459,1,8,0:0:0:0:
256,192,85617,1,0,0:0:0:0:
256,192,85854,1,8,0:0:0:0:
256,192,85932,1,8,0:0:0:0:
256,192,86090,1,0,0:0:0:0:
256,192,86248,1,8,0:0:0:0:
256,192,86327,1,8,0:0:0:0:
256,192,86406,1,8,0:0:0:0:
256,192,86564,1,0,0:0:0:0:
256,192,86722,1,8,0:0:0:0:
256,192,86801,1,8,0:0:0:0:
256,192,86880,1,0,0:0:0:0:
256,192,87038,1,8,0:0:0:0:
256,192,87196,1,8,0:0:0:0:
256,192,87275,1,8,0:0:0:0:
256,192,87354,1,8,0:0:0:0:
256,192,87432,1,8,0:0:0:0:
256,192,87511,1,0,0:0:0:0:
256,192,87669,1,8,0:0:0:0:
256,192,87827,1,0,0:0:0:0:
256,192,87985,1,8,0:0:0:0:
256,192,88143,1,0,0:0:0:0:
256,192,88301,1,8,0:0:0:0:
256,192,88459,1,0,0:0:0:0:
256,192,88538,1,0,0:0:0:0:
256,192,88617,1,8,0:0:0:0:
256,192,88696,1,8,0:0:0:0:
256,192,88775,1,0,0:0:0:0:
256,192,88932,1,8,0:0:0:0:
256,192,89090,1,0,0:0:0:0:
256,192,89248,1,8,0:0:0:0:
256,192,89406,1,0,0:0:0:0:
256,192,89564,1,0,0:0:0:0:
256,192,89722,1,8,0:0:0:0:
256,192,89880,1,8,0:0:0:0:
256,192,90038,1,0,0:0:0:0:
256,192,90117,1,0,0:0:0:0:
256,192,90196,1,8,0:0:0:0:
256,192,90275,1,8,0:0:0:0:
256,192,90354,1,0,0:0:0:0:
256,192,90511,1,8,0:0:0:0:
256,192,90590,1,8,0:0:0:0:
256,192,90669,1,0,0:0:0:0:
256,192,90748,1,0,0:0:0:0:
256,192,90827,1,8,0:0:0:0:
256,192,90985,1,0,0:0:0:0:
256,192,91064,1,0,0:0:0:0:
256,192,91143,1,8,0:0:0:0:
256,192,91301,1,0,0:0:0:0:
256,192,91380,1,0,0:0:0:0:
256,192,91459,1,8,0:0:0:0:
256,192,91538,1,8,0:0:0:0:
256,192,91617,1,0,0:0:0:0:
256,192,91775,1,8,0:0:0:0:
256,192,91854,1,8,0:0:0:0:
256,192,91932,1,0,0:0:0:0:
256,192,92011,1,8,0:0:0:0:
256,192,92090,1,8,0:0:0:0:
256,192,92248,1,0,0:0:0:0:
256,192,92327,1,8,0:0:0:0:
256,192,92406,1,8,0:0:0:0:
256,192,92564,1,0,0:0:0:0:
256,192,93827,1,0,0:0:0:0:
256,192,95090,5,0,0:0:0:0:
256,192,95248,1,8,0:0:0:0:
256,192,95327,1,8,0:0:0:0:
256,192,95406,1,0,0:0:0:0:
256,192,95564,1,8,0:0:0:0:
256,192,95722,1,0,0:0:0:0:
256,192,95880,1,8,0:0:0:0:
256,192,95959,1,0,0:0:0:0:
256,192,96038,1,8,0:0:0:0:
256,192,96196,1,0,0:0:0:0:
256,192,96511,1,0,0:0:0:0:
256,192,96669,1,8,0:0:0:0:
256,192,96827,1,0,0:0:0:0:
256,192,96985,1,8,0:0:0:0:
256,192,97143,1,0,0:0:0:0:
256,192,97222,1,0,0:0:0:0:
256,192,97301,1,8,0:0:0:0:
256,192,97459,1,0,0:0:0:0:
256,192,97617,1,8,0:0:0:0:
256,192,97854,1,8,0:0:0:0:
256,192,97932,1,8,0:0:0:0:
256,192,98090,1,0,0:0:0:0:
256,192,98248,1,8,0:0:0:0:
256,192,98406,1,8,0:0:0:0:
256,192,98485,1,8,0:0:0:0:
256,192,98564,1,8,0:0:0:0:
256,192,98722,1,0,0:0:0:0:
256,192,98880,1,8,0:0:0:0:
256,192,99038,1,0,0:0:0:0:
256,192,99117,1,0,0:0:0:0:
256,192,99196,1,8,0:0:0:0:
256,192,99354,1,0,0:0:0:0:
256,192,99511,1,8,0:0:0:0:
256,192,99827,1,8,0:0:0:0:
256,192,99985,1,8,0:0:0:0:
256,192,100143,1,0,0:0:0:0:
256,192,100301,1,8,0:0:0:0:
256,192,100380,1,8,0:0:0:0:
256,192,100459,1,0,0:0:0:0:
256,192,100617,1,8,0:0:0:0:
256,192,100775,1,0,0:0:0:0:
256,192,100932,1,8,0:0:0:0:
256,192,101011,1,0,0:0:0:0:
256,192,101090,1,8,0:0:0:0:
256,192,101248,1,0,0:0:0:0:
256,192,101327,1,8,0:0:0:0:
256,192,101406,1,0,0:0:0:0:
256,192,101564,1,0,0:0:0:0:
256,192,101643,1,0,0:0:0:0:
256,192,101722,1,8,0:0:0:0:
256,192,101880,1,0,0:0:0:0:
256,192,102038,1,8,0:0:0:0:
256,192,102275,1,0,0:0:0:0:
256,192,102354,1,8,0:0:0:0:
256,192,102511,1,0,0:0:0:0:
256,192,102669,1,8,0:0:0:0:
256,192,102827,1,0,0:0:0:0:
256,192,102906,1,0,0:0:0:0:
256,192,102985,1,8,0:0:0:0:
256,192,103301,1,0,0:0:0:0:
256,192,103459,1,8,0:0:0:0:
256,192,103617,1,8,0:0:0:0:
256,192,103775,1,0,0:0:0:0:
256,192,104090,1,8,0:0:0:0:
256,192,104406,1,8,0:0:0:0:
256,192,104722,1,8,0:0:0:0:
256,192,105196,1,0,0:0:0:0:
256,192,105354,1,0,0:0:0:0:
256,192,105432,1,0,0:0:0:0:
256,192,105511,1,0,0:0:0:0:
256,192,105669,1,8,0:0:0:0:
256,192,105827,1,0,0:0:0:0:
256,192,105985,1,8,0:0:0:0:
256,192,106064,1,0,0:0:0:0:
256,192,106143,1,8,0:0:0:0:
256,192,106301,1,0,0:0:0:0:
256,192,106617,1,0,0:0:0:0:
256,192,106775,1,8,0:0:0:0:
256,192,106932,1,0,0:0:0:0:
256,192,107090,1,8,0:0:0:0:
256,192,107248,1,0,0:0:0:0:
256,192,107327,1,0,0:0:0:0:
256,192,107406,1,8,0:0:0:0:
256,192,107564,1,0,0:0:0:0:
256,192,107722,1,8,0:0:0:0:
256,192,107959,1,8,0:0:0:0:
256,192,108038,1,8,0:0:0:0:
256,192,108196,1,0,0:0:0:0:
256,192,108354,1,8,0:0:0:0:
256,192,108511,1,8,0:0:0:0:
256,192,108590,1,8,0:0:0:0:
256,192,108669,1,8,0:0:0:0:
256,192,108827,1,0,0:0:0:0:
256,192,108985,1,8,0:0:0:0:
256,192,109143,1,0,0:0:0:0:
256,192,109222,1,0,0:0:0:0:
256,192,109301,1,8,0:0:0:0:
256,192,109459,1,0,0:0:0:0:
256,192,109617,1,8,0:0:0:0:
256,192,109932,1,8,0:0:0:0:
256,192,110090,1,8,0:0:0:0:
256,192,110248,1,0,0:0:0:0:
256,192,110406,1,8,0:0:0:0:
256,192,110564,1,8,0:0:0:0:
256,192,110722,1,0,0:0:0:0:
256,192,111038,1,0,0:0:0:0:
256,192,111117,1,0,0:0:0:0:
256,192,111196,1,8,0:0:0:0:
256,192,111354,1,0,0:0:0:0:
256,192,111669,1,0,0:0:0:0:
256,192,111748,1,8,0:0:0:0:
256,192,111827,1,0,0:0:0:0:
256,192,111985,1,8,0:0:0:0:
256,192,112143,1,0,0:0:0:0:
256,192,112459,1,0,0:0:0:0:
256,192,112617,1,8,0:0:0:0:
256,192,112696,1,8,0:0:0:0:
256,192,112775,1,0,0:0:0:0:
256,192,112932,1,0,0:0:0:0:
256,192,113090,1,0,0:0:0:0:
256,192,113248,1,0,0:0:0:0:
256,192,113406,1,0,0:0:0:0:
256,192,113485,1,0,0:0:0:0:
256,192,113564,1,8,0:0:0:0:
256,192,113643,1,8,0:0:0:0:
256,192,113722,1,0,0:0:0:0:
256,192,113801,1,0,0:0:0:0:
256,192,113880,1,8,0:0:0:0:
256,192,113959,1,8,0:0:0:0:
256,192,114038,1,0,0:0:0:0:
256,192,114196,1,8,0:0:0:0:
256,192,114275,1,8,0:0:0:0:
256,192,114354,1,0,0:0:0:0:
256,192,114511,1,8,0:0:0:0:
256,192,114590,1,0,0:0:0:0:
256,192,114669,1,0,0:0:0:0:
256,192,114985,1,8,0:0:0:0:
256,192,115301,12,0,120038,0:0:0:0:
