osu file format v14

[General]
AudioFilename: audio.mp3
AudioLeadIn: 0
PreviewTime: 94775
Countdown: 0
SampleSet: Normal
StackLeniency: 0.7
Mode: 1
LetterboxInBreaks: 0
WidescreenStoryboard: 0

[Editor]
Bookmarks: 354,10459,20564,30669,42038,50880,52143,60985,62248,72354,82459,95090,104880,105196,115301,120038
DistanceSpacing: 1.5
BeatDivisor: 4
GridSize: 32
TimelineZoom: 2

[Metadata]
Title:Oshama Scramble!
TitleUnicode:Oshama Scramble!
Artist:t+pazolite
ArtistUnicode:t+pazolite
Creator:Stingy
Version:Ayyri's Muzukashii
Source:maimai ORANGE PLUS
Tags:Ayyri チューニズム CHUNITHM C.H.S CHS Ponko2 Ponko 2 Girlish DISC2 DISC 2 CHS-0021 CHS-0022 Comiket 89 C89 SEGA tpz
BeatmapID:1476504
BeatmapSetID:697043

[Difficulty]
HPDrainRate:5
CircleSize:2
OverallDifficulty:5
ApproachRate:10
SliderMultiplier:1.4
SliderTickRate:1

[Events]
//Background and Video events
0,0,"Oshama Scramble Ayyri.png",0,50
//Break Periods
//Storyboard Layer 0 (Background)
//Storyboard Layer 1 (Fail)
//Storyboard Layer 2 (Pass)
//Storyboard Layer 3 (Foreground)
//Storyboard Sound Samples

[TimingPoints]
354,315.789473684211,4,1,0,75,1,0
42038,-100,4,1,0,75,0,1
50880,-100,4,1,0,75,0,0
52143,-100,4,1,0,75,0,1
60985,-100,4,1,0,75,0,0
95090,-100,4,1,0,75,0,1
104880,-100,4,1,0,75,0,0
105196,-100,4,1,0,75,0,1
115301,-100,4,1,0,75,0,0
120038,-100,4,1,0,50,0,0

[HitObjects]
256,192,354,5,0,0:0:0:0:
256,192,590,1,0,0:0:0:0:
256,192,827,1,8,0:0:0:0:
256,192,1143,1,0,0:0:0:0:
256,192,1459,1,8,0:0:0:0:
256,192,2248,1,0,0:0:0:0:
256,192,2564,1,8,0:0:0:0:
256,192,2880,1,0,0:0:0:0:
256,192,3117,1,0,0:0:0:0:
256,192,3354,1,8,0:0:0:0:
256,192,3669,1,0,0:0:0:0:
256,192,3985,1,8,0:0:0:0:
256,192,4775,1,8,0:0:0:0:
256,192,5090,1,0,0:0:0:0:
256,192,5406,1,12,0:0:0:0:
256,192,5722,1,0,0:0:0:0:
256,192,6038,1,0,0:0:0:0:
256,192,6196,1,8,0:0:0:0:
256,192,6354,1,0,0:0:0:0:
256,192,6669,1,0,0:0:0:0:
256,192,7301,1,8,0:0:0:0:
256,192,7617,1,8,0:0:0:0:
256,192,7932,1,0,0:0:0:0:
256,192,8090,1,0,0:0:0:0:
256,192,8248,1,8,0:0:0:0:
256,192,8564,1,8,0:0:0:0:
256,192,8722,1,8,0:0:0:0:
256,192,8880,1,0,0:0:0:0:
256,192,8959,1,0,0:0:0:0:
256,192,9038,1,0,0:0:0:0:
256,192,9196,1,8,0:0:0:0:
256,192,10143,1,12,0:0:0:0:
256,192,10459,1,12,0:0:0:0:
256,192,10617,1,0,0:0:0:0:
256,192,10932,1,0,0:0:0:0:
256,192,11248,1,0,0:0:0:0:
256,192,11406,1,8,0:0:0:0:
256,192,11564,1,0,0:0:0:0:
256,192,11722,1,0,0:0:0:0:
256,192,11801,1,0,0:0:0:0:
256,192,11880,1,0,0:0:0:0:
256,192,12038,1,8,0:0:0:0:
256,192,12196,1,8,0:0:0:0:
256,192,12354,1,0,0:0:0:0:
256,192,12669,1,0,0:0:0:0:
256,192,12985,1,0,0:0:0:0:
256,192,13143,1,8,0:0:0:0:
256,192,13459,1,8,0:0:0:0:
256,192,13775,1,8,0:0:0:0:
256,192,13932,1,0,0:0:0:0:
256,192,14248,1,8,0:0:0:0:
256,192,14327,1,8,0:0:0:0:
256,192,14406,1,8,0:0:0:0:
256,192,14564,1,0,0:0:0:0:
256,192,14722,1,0,0:0:0:0:
256,192,14880,1,8,0:0:0:0:
256,192,15511,1,12,0:0:0:0:
256,192,15669,1,0,0:0:0:0:
256,192,15985,1,0,0:0:0:0:
256,192,16301,1,0,0:0:0:0:
256,192,16459,1,8,0:0:0:0:
256,192,16775,1,0,0:0:0:0:
256,192,16854,1,0,0:0:0:0:
256,192,16932,1,0,0:0:0:0:
256,192,17090,1,8,0:0:0:0:
256,192,17248,1,8,0:0:0:0:
256,192,17406,1,0,0:0:0:0:
256,192,17722,1,0,0:0:0:0:
256,192,18038,1,0,0:0:0:0:
256,192,18196,1,8,0:0:0:0:
256,192,18511,1,8,0:0:0:0:
256,192,18669,1,0,0:0:0:0:
256,192,18827,1,8,0:0:0:0:
256,192,19143,1,8,0:0:0:0:
256,192,19301,1,0,0:0:0:0:
256,192,19380,1,0,0:0:0:0:
256,192,19459,1,0,0:0:0:0:
256,192,19617,1,8,0:0:0:0:
256,192,19696,1,8,0:0:0:0:
256,192,19775,1,8,0:0:0:0:
256,192,19932,1,0,0:0:0:0:
256,192,20248,1,12,0:0:0:0:
256,192,20564,1,0,0:0:0:0:
256,192,21038,1,0,0:0:0:0:
256,192,21354,1,8,0:0:0:0:
256,192,21669,1,0,0:0:0:0:
256,192,22459,1,0,0:0:0:0:
256,192,22775,1,0,0:0:0:0:
256,192,23090,1,8,0:0:0:0:
256,192,23564,1,0,0:0:0:0:
256,192,23880,1,8,0:0:0:0:
256,192,24196,1,0,0:0:0:0:
256,192,24985,1,0,0:0:0:0:
256,192,25301,1,0,0:0:0:0:
256,192,25617,1,8,0:0:0:0:
256,192,26090,1,0,0:0:0:0:
256,192,26406,1,8,0:0:0:0:
256,192,26722,1,0,0:0:0:0:
256,192,27511,1,0,0:0:0:0:
256,192,27827,1,0,0:0:0:0:
256,192,27985,1,0,0:0:0:0:
256,192,28143,1,8,0:0:0:0:
256,192,28617,1,0,0:0:0:0:
256,192,28932,1,8,0:0:0:0:
256,192,29248,1,0,0:0:0:0:
256,192,30354,1,0,0:0:0:0:
256,192,30511,1,0,0:0:0:0:
256,192,30669,1,12,0:0:0:0:
256,192,30985,1,8,0:0:0:0:
256,192,31143,1,8,0:0:0:0:
256,192,31301,1,0,0:0:0:0:
256,192,31459,1,8,0:0:0:0:
256,192,31775,1,8,0:0:0:0:
256,192,32090,1,0,0:0:0:0:
256,192,32248,1,8,0:0:0:0:
256,192,32564,1,0,0:0:0:0:
256,192,32880,1,0,0:0:0:0:
256,192,33038,1,8,0:0:0:0:
256,192,33196,1,4,0:0:0:0:
256,192,33511,1,8,0:0:0:0:
256,192,33669,1,8,0:0:0:0:
256,192,33827,1,4,0:0:0:0:
256,192,34143,1,0,0:0:0:0:
256,192,34301,1,8,0:0:0:0:
256,192,34459,1,4,0:0:0:0:
256,192,34775,1,8,0:0:0:0:
256,192,35090,1,0,0:0:0:0:
256,192,35406,1,8,0:0:0:0:
256,192,35564,1,0,0:0:0:0:
256,192,35722,1,12,0:0:0:0:
256,192,35880,1,0,0:0:0:0:
256,192,36038,1,8,0:0:0:0:
256,192,36354,1,0,0:0:0:0:
256,192,36511,1,8,0:0:0:0:
256,192,36827,1,0,0:0:0:0:
256,192,36985,1,12,0:0:0:0:
256,192,37301,1,0,0:0:0:0:
256,192,37459,1,8,0:0:0:0:
256,192,37617,1,0,0:0:0:0:
256,192,37854,1,0,0:0:0:0:
256,192,38090,1,0,0:0:0:0:
256,192,38248,1,12,0:0:0:0:
256,192,38564,1,0,0:0:0:0:
256,192,38722,1,0,0:0:0:0:
256,192,38880,1,12,0:0:0:0:
256,192,39196,1,0,0:0:0:0:
256,192,39354,1,0,0:0:0:0:
256,192,39511,1,12,0:0:0:0:
256,192,39669,1,0,0:0:0:0:
256,192,39827,1,0,0:0:0:0:
256,192,39985,1,0,0:0:0:0:
256,192,40143,1,8,0:0:0:0:
256,192,40222,1,8,0:0:0:0:
256,192,40301,1,8,0:0:0:0:
256,192,40459,1,8,0:0:0:0:
256,192,40538,1,8,0:0:0:0:
256,192,40617,1,8,0:0:0:0:
256,192,40775,1,0,0:0:0:0:
256,192,41722,1,12,0:0:0:0:
256,192,42038,1,0,0:0:0:0:
256,192,42354,1,0,0:0:0:0:
256,192,42669,1,0,0:0:0:0:
256,192,42985,1,0,0:0:0:0:
256,192,43301,1,0,0:0:0:0:
256,192,43617,1,0,0:0:0:0:
256,192,43932,1,0,0:0:0:0:
256,192,44090,1,8,0:0:0:0:
256,192,44248,1,8,0:0:0:0:
256,192,44406,1,8,0:0:0:0:
256,192,44564,1,0,0:0:0:0:
256,192,44880,1,0,0:0:0:0:
256,192,45196,1,0,0:0:0:0:
256,192,45511,1,0,0:0:0:0:
256,192,45827,1,8,0:0:0:0:
256,192,46143,1,0,0:0:0:0:
256,192,46301,1,8,0:0:0:0:
256,192,46459,1,0,0:0:0:0:
256,192,46617,1,0,0:0:0:0:
256,192,46775,1,8,0:0:0:0:
256,192,46932,1,8,0:0:0:0:
256,192,47090,1,0,0:0:0:0:
256,192,47406,1,0,0:0:0:0:
256,192,47722,1,0,0:0:0:0:
256,192,48038,1,0,0:0:0:0:
256,192,48354,1,0,0:0:0:0:
256,192,48669,1,0,0:0:0:0:
256,192,48985,1,0,0:0:0:0:
256,192,49143,1,8,0:0:0:0:
256,192,49301,1,8,0:0:0:0:
256,192,49459,1,8,0:0:0:0:
256,192,49617,1,0,0:0:0:0:
256,192,49932,1,0,0:0:0:0:
256,192,50248,1,0,0:0:0:0:
256,192,50564,1,0,0:0:0:0:
256,192,50880,1,8,0:0:0:0:
256,192,51354,1,0,0:0:0:0:
256,192,51511,1,8,0:0:0:0:
256,192,51827,1,8,0:0:0:0:
256,192,52143,1,0,0:0:0:0:
256,192,52301,1,0,0:0:0:0:
256,192,52459,1,8,0:0:0:0:
256,192,52775,1,8,0:0:0:0:
256,192,52932,1,0,0:0:0:0:
256,192,53090,1,8,0:0:0:0:
256,192,53248,1,8,0:0:0:0:
256,192,53406,1,0,0:0:0:0:
256,192,53564,1,0,0:0:0:0:
256,192,53643,1,0,0:0:0:0:
256,192,53722,1,0,0:0:0:0:
256,192,53880,1,0,0:0:0:0:
256,192,54038,1,8,0:0:0:0:
256,192,54354,1,0,0:0:0:0:
256,192,54669,1,0,0:0:0:0:
256,192,54827,1,0,0:0:0:0:
256,192,54985,1,8,0:0:0:0:
256,192,55143,1,8,0:0:0:0:
256,192,55301,1,0,0:0:0:0:
256,192,55617,1,0,0:0:0:0:
256,192,55932,1,8,0:0:0:0:
256,192,56248,1,0,0:0:0:0:
256,192,56406,1,0,0:0:0:0:
256,192,56564,1,8,0:0:0:0:
256,192,56722,1,0,0:0:0:0:
256,192,56801,1,0,0:0:0:0:
256,192,56880,1,0,0:0:0:0:
256,192,57038,1,0,0:0:0:0:
256,192,57196,1,8,0:0:0:0:
256,192,57511,1,8,0:0:0:0:
256,192,57669,1,0,0:0:0:0:
256,192,57827,1,8,0:0:0:0:
256,192,58143,1,0,0:0:0:0:
256,192,58301,1,0,0:0:0:0:
256,192,58459,1,8,0:0:0:0:
256,192,58617,1,0,0:0:0:0:
256,192,58696,1,0,0:0:0:0:
256,192,58775,1,0,0:0:0:0:
256,192,58932,1,0,0:0:0:0:
256,192,59090,1,8,0:0:0:0:
256,192,59406,1,0,0:0:0:0:
256,192,59722,1,0,0:0:0:0:
256,192,59880,1,0,0:0:0:0:
256,192,60038,1,8,0:0:0:0:
256,192,60196,1,8,0:0:0:0:
256,192,60354,1,0,0:0:0:0:
256,192,60511,1,0,0:0:0:0:
256,192,60669,1,8,0:0:0:0:
256,192,60827,1,8,0:0:0:0:
256,192,60906,1,8,0:0:0:0:
256,192,60985,1,8,0:0:0:0:
256,192,61301,2,0,L|320:192,10,35
256,192,62248,1,12,0:0:0:0:
256,192,62564,1,0,0:0:0:0:
256,192,62722,1,0,0:0:0:0:
256,192,62880,1,8,0:0:0:0:
256,192,63196,1,8,0:0:0:0:
256,192,63511,1,0,0:0:0:0:
256,192,64775,1,0,0:0:0:0:
256,192,65090,1,0,0:0:0:0:
256,192,65248,1,0,0:0:0:0:
256,192,65406,1,8,0:0:0:0:
256,192,65564,1,8,0:0:0:0:
256,192,65643,1,8,0:0:0:0:
256,192,65722,1,8,0:0:0:0:
256,192,65880,1,8,0:0:0:0:
256,192,66038,1,0,0:0:0:0:
256,192,66354,1,8,0:0:0:0:
256,192,66669,1,4,0:0:0:0:
256,192,66985,1,12,0:0:0:0:
256,192,67301,1,0,0:0:0:0:
256,192,67617,1,8,0:0:0:0:
256,192,68090,1,0,0:0:0:0:
256,192,68248,1,8,0:0:0:0:
256,192,68564,1,0,0:0:0:0:
256,192,69196,1,0,0:0:0:0:
256,192,69511,1,8,0:0:0:0:
256,192,69827,1,0,0:0:0:0:
256,192,69985,1,0,0:0:0:0:
256,192,70143,1,0,0:0:0:0:
256,192,70301,1,0,0:0:0:0:
256,192,70459,1,0,0:0:0:0:
256,192,70538,1,0,0:0:0:0:
256,192,70617,1,0,0:0:0:0:
256,192,70775,1,0,0:0:0:0:
256,192,70854,1,0,0:0:0:0:
256,192,70932,1,0,0:0:0:0:
256,192,71090,1,12,0:0:0:0:
256,192,72354,1,12,0:0:0:0:
256,192,72511,1,0,0:0:0:0:
256,192,72827,1,0,0:0:0:0:
256,192,72985,1,8,0:0:0:0:
256,192,73143,1,0,0:0:0:0:
256,192,73301,1,0,0:0:0:0:
256,192,73380,1,0,0:0:0:0:
256,192,73459,1,0,0:0:0:0:
256,192,73617,1,8,0:0:0:0:
256,192,74248,1,0,0:0:0:0:
256,192,74564,1,0,0:0:0:0:
256,192,74880,1,12,0:0:0:0:
256,192,75038,1,0,0:0:0:0:
256,192,75354,1,0,0:0:0:0:
256,192,75511,1,8,0:0:0:0:
256,192,75669,1,8,0:0:0:0:
256,192,75827,1,0,0:0:0:0:
256,192,75906,1,0,0:0:0:0:
256,192,75985,1,0,0:0:0:0:
256,192,76143,1,8,0:0:0:0:
256,192,76775,1,0,0:0:0:0:
256,192,76932,1,8,0:0:0:0:
256,192,77090,1,0,0:0:0:0:
256,192,77169,1,0,0:0:0:0:
256,192,77248,1,0,0:0:0:0:
256,192,77406,1,12,0:0:0:0:
256,192,77564,1,0,0:0:0:0:
256,192,77880,1,0,0:0:0:0:
256,192,78196,1,0,0:0:0:0:
256,192,78354,1,8,0:0:0:0:
256,192,78511,1,0,0:0:0:0:
256,192,78669,1,12,0:0:0:0:
256,192,78985,1,0,0:0:0:0:
256,192,79143,1,8,0:0:0:0:
256,192,79301,1,0,0:0:0:0:
256,192,79459,1,0,0:0:0:0:
256,192,79617,1,8,0:0:0:0:
256,192,79775,1,0,0:0:0:0:
256,192,79932,1,12,0:0:0:0:
256,192,80248,1,0,0:0:0:0:
256,192,80406,1,0,0:0:0:0:
256,192,80564,1,12,0:0:0:0:
256,192,80880,1,0,0:0:0:0:
256,192,80959,1,0,0:0:0:0:
256,192,81038,1,0,0:0:0:0:
256,192,81196,1,12,0:0:0:0:
256,192,81511,1,4,0:0:0:0:
256,192,81827,1,4,0:0:0:0:
256,192,82143,1,12,0:0:0:0:
256,192,82459,1,12,0:0:0:0:
256,192,82775,1,0,0:0:0:0:
256,192,82932,1,8,0:0:0:0:
256,192,83090,1,0,0:0:0:0:
256,192,83722,1,12,0:0:0:0:
256,192,84038,1,0,0:0:0:0:
256,192,84196,1,8,0:0:0:0:
256,192,84354,1,0,0:0:0:0:
256,192,84511,1,8,0:0:0:0:
256,192,84669,1,8,0:0:0:0:
256,192,84827,1,0,0:0:0:0:
256,192,84985,1,12,0:0:0:0:
256,192,85301,1,0,0:0:0:0:
256,192,85459,1,8,0:0:0:0:
256,192,85617,1,0,0:0:0:0:
256,192,85932,1,8,0:0:0:0:
256,192,86090,1,0,0:0:0:0:
256,192,86248,1,12,0:0:0:0:
256,192,86406,1,0,0:0:0:0:
256,192,86722,1,0,0:0:0:0:
256,192,86880,1,12,0:0:0:0:
256,192,87196,1,0,0:0:0:0:
256,192,87275,1,0,0:0:0:0:
256,192,87354,1,0,0:0:0:0:
256,192,87511,1,12,0:0:0:0:
256,192,87827,1,0,0:0:0:0:
256,192,88143,1,12,0:0:0:0:
256,192,88459,1,0,0:0:0:0:
256,192,88775,1,12,0:0:0:0:
256,192,89090,1,0,0:0:0:0:
256,192,89406,1,12,0:0:0:0:
256,192,89722,1,0,0:0:0:0:
256,192,90038,1,12,0:0:0:0:
256,192,90196,1,0,0:0:0:0:
256,192,90354,1,0,0:0:0:0:
256,192,90511,1,0,0:0:0:0:
256,192,90669,1,8,0:0:0:0:
256,192,90985,1,0,0:0:0:0:
256,192,91143,1,0,0:0:0:0:
256,192,91301,1,8,0:0:0:0:
256,192,91459,1,8,0:0:0:0:
256,192,91617,1,0,0:0:0:0:
256,192,91775,1,0,0:0:0:0:
256,192,91932,1,8,0:0:0:0:
256,192,92090,1,8,0:0:0:0:
256,192,92169,1,8,0:0:0:0:
256,192,92248,1,8,0:0:0:0:
256,192,92406,1,8,0:0:0:0:
256,192,92485,1,8,0:0:0:0:
256,192,92564,1,8,0:0:0:0:
256,192,93827,1,12,0:0:0:0:
256,192,94143,1,0,0:0:0:0:
256,192,94301,1,0,0:0:0:0:
256,192,94459,1,8,0:0:0:0:
256,192,94775,1,12,0:0:0:0:
256,192,95090,1,12,0:0:0:0:
256,192,95248,1,0,0:0:0:0:
256,192,95406,1,8,0:0:0:0:
256,192,95564,1,8,0:0:0:0:
256,192,95722,1,0,0:0:0:0:
256,192,95880,1,0,0:0:0:0:
256,192,96196,1,0,0:0:0:0:
256,192,96511,1,0,0:0:0:0:
256,192,96669,1,8,0:0:0:0:
256,192,97301,1,0,0:0:0:0:
256,192,97459,1,0,0:0:0:0:
256,192,97617,1,8,0:0:0:0:
256,192,97775,1,8,0:0:0:0:
256,192,97854,1,8,0:0:0:0:
256,192,97932,1,8,0:0:0:0:
256,192,98248,1,8,0:0:0:0:
256,192,98406,1,8,0:0:0:0:
256,192,98485,1,8,0:0:0:0:
256,192,98564,1,8,0:0:0:0:
256,192,98880,1,0,0:0:0:0:
256,192,99038,1,0,0:0:0:0:
256,192,99117,1,0,0:0:0:0:
256,192,99196,1,0,0:0:0:0:
256,192,99354,1,0,0:0:0:0:
256,192,99511,1,8,0:0:0:0:
256,192,100143,1,12,0:0:0:0:
256,192,100301,1,0,0:0:0:0:
256,192,100459,1,8,0:0:0:0:
256,192,100617,1,8,0:0:0:0:
256,192,100775,1,0,0:0:0:0:
256,192,100932,1,0,0:0:0:0:
256,192,101248,1,8,0:0:0:0:
256,192,101564,1,8,0:0:0:0:
256,192,101643,1,8,0:0:0:0:
256,192,101722,1,8,0:0:0:0:
256,192,101880,1,0,0:0:0:0:
256,192,102038,1,8,0:0:0:0:
256,192,102354,1,0,0:0:0:0:
256,192,102511,1,0,0:0:0:0:
256,192,102669,1,8,0:0:0:0:
256,192,102827,1,0,0:0:0:0:
256,192,102985,1,8,0:0:0:0:
256,192,103143,1,8,0:0:0:0:
256,192,103459,1,8,0:0:0:0:
256,192,103617,1,0,0:0:0:0:
256,192,103775,1,12,0:0:0:0:
256,192,104090,1,12,0:0:0:0:
256,192,104406,1,4,0:0:0:0:
256,192,104722,1,4,0:0:0:0:
256,192,105196,1,12,0:0:0:0:
256,192,105354,1,0,0:0:0:0:
256,192,105511,1,8,0:0:0:0:
256,192,105669,1,8,0:0:0:0:
256,192,105827,1,0,0:0:0:0:
256,192,105985,1,0,0:0:0:0:
256,192,106301,1,0,0:0:0:0:
256,192,106617,1,0,0:0:0:0:
256,192,106775,1,8,0:0:0:0:
256,192,107406,1,0,0:0:0:0:
256,192,107564,1,0,0:0:0:0:
256,192,107722,1,8,0:0:0:0:
256,192,107880,1,8,0:0:0:0:
256,192,107959,1,8,0:0:0:0:
256,192,108038,1,8,0:0:0:0:
256,192,108354,1,8,0:0:0:0:
256,192,108511,1,8,0:0:0:0:
256,192,108590,1,8,0:0:0:0:
256,192,108669,1,8,0:0:0:0:
256,192,108985,1,0,0:0:0:0:
256,192,109143,1,0,0:0:0:0:
256,192,109222,1,0,0:0:0:0:
256,192,109301,1,0,0:0:0:0:
256,192,109459,1,0,0:0:0:0:
256,192,109617,1,8,0:0:0:0:
256,192,110248,1,12,0:0:0:0:
256,192,110564,1,8,0:0:0:0:
256,192,110722,1,0,0:0:0:0:
256,192,111038,1,0,0:0:0:0:
256,192,111354,1,0,0:0:0:0:
256,192,111669,1,0,0:0:0:0:
256,192,111827,1,8,0:0:0:0:
256,192,111985,1,8,0:0:0:0:
256,192,112143,1,0,0:0:0:0:
256,192,112459,1,0,0:0:0:0:
256,192,112617,1,0,0:0:0:0:
256,192,112775,1,8,0:0:0:0:
256,192,112932,1,0,0:0:0:0:
256,192,113090,1,8,0:0:0:0:
256,192,113406,1,8,0:0:0:0:
256,192,113564,1,0,0:0:0:0:
256,192,113722,1,0,0:0:0:0:
256,192,113880,1,0,0:0:0:0:
256,192,114038,1,8,0:0:0:0:
256,192,114117,1,8,0:0:0:0:
256,192,114196,1,8,0:0:0:0:
256,192,114354,1,8,0:0:0:0:
256,192,114432,1,8,0:0:0:0:
256,192,114511,1,8,0:0:0:0:
256,192,114669,1,0,0:0:0:0:
256,192,114985,1,12,0:0:0:0:
256,192,115301,1,4,0:0:0:0:
256,192,115459,12,0,120038,0:0:0:0:
