osu file format v14

[General]
AudioFilename: audio.mp3
AudioLeadIn: 0
PreviewTime: 4393
Countdown: 0
SampleSet: Soft
StackLeniency: 0.3
Mode: 0
LetterboxInBreaks: 0
WidescreenStoryboard: 0

[Editor]
Bookmarks: 4185,4743,9208,13673,22603,30277,31533,35998,53859,62789,71719,76184,80649,85115,89580,98510,106324,107440,116231,117487
DistanceSpacing: 1
BeatDivisor: 4
GridSize: 16
TimelineZoom: 2.799999

[Metadata]
Title:OTENAMI Hurricane
TitleUnicode:OTENAMI Hurricane
Artist:t+pazolite
ArtistUnicode:t+pazolite
Creator:Taeyang
Version:Taeyang's style
Source:beatmania IIDX
Tags:24 sinobuz pop breakcore
BeatmapID:1262330
BeatmapSetID:597059

[Difficulty]
HPDrainRate:5
CircleSize:4.3
OverallDifficulty:9
ApproachRate:9.8
SliderMultiplier:2.2
SliderTickRate:1

[Events]
//Background and Video events
0,0,"1.jpg",0,0
//Break Periods
2,71929,75705
//Storyboard Layer 0 (Background)
//Storyboard Layer 1 (Fail)
//Storyboard Layer 2 (Pass)
//Storyboard Layer 3 (Foreground)
//Storyboard Sound Samples

[TimingPoints]
1394,279.06976744186,4,2,0,70,1,0
4743,279.06976744186,4,2,0,70,1,0
4743,-133.333333333333,4,2,0,70,0,0
9208,-100,4,2,0,70,0,0
9626,-133.333333333333,4,2,0,70,0,0
10324,-100,4,2,0,70,0,0
12556,-133.333333333333,4,2,0,70,0,0
13394,-66.6666666666667,4,2,0,70,0,0
13673,-100,4,2,0,70,0,0
17580,-200,4,2,0,70,0,0
17859,-100,4,2,0,70,0,0
22324,-133.333333333333,4,2,0,70,0,0
22603,-100,4,2,0,70,0,0
24556,-133.333333333333,4,2,0,70,0,0
24836,-100,4,2,0,70,0,0
26510,-133.333333333333,4,2,0,70,0,0
27068,-100,4,2,0,70,0,0
28742,-133.333333333333,4,2,0,70,0,0
29022,-66.6666666666667,4,2,0,70,0,0
29301,-100,4,2,0,70,0,0
30277,-200,4,2,0,70,0,0
31533,-133.333333333333,4,2,0,40,0,0
35440,-200,4,2,0,40,0,0
35719,-133.333333333333,4,2,0,40,0,0
35998,-100,4,2,0,70,0,0
44370,-133.333333333333,4,2,0,70,0,0
44649,-100,4,2,0,70,0,0
46882,-80,4,2,0,70,0,0
47161,-100,4,2,0,70,0,0
48836,-133.333333333333,4,2,0,70,0,0
49115,-100,4,2,0,70,0,0
52742,-200,4,2,0,70,0,0
53580,-133.333333333333,4,2,0,70,0,0
53789,-133.333333333333,4,2,0,5,0,0
53859,-200,4,2,0,40,0,0
61673,-133.333333333333,4,2,0,40,0,0
61952,-100,4,2,0,40,0,0
62231,-80,4,2,0,40,0,0
62510,-66.6666666666667,4,2,0,40,0,0
62789,-100,4,2,0,70,0,0
64463,-133.333333333333,4,2,0,70,0,0
64673,-133.333333333333,4,2,0,5,0,0
64742,-133.333333333333,4,2,0,70,0,0
65022,-100,4,2,0,70,0,0
71161,-80,4,2,0,70,0,0
71440,-66.6666666666667,4,2,0,70,0,0
76184,-200,4,2,0,50,0,0
80649,-66.6666666666667,4,2,0,70,0,0
80719,-133.333333333333,4,2,0,70,0,0
83998,-200,4,2,0,70,0,0
85115,-100,4,2,0,70,0,0
89091,-100,4,2,0,5,0,0
89161,-100,4,2,0,70,0,0
89580,-83.3333333333333,4,2,0,70,0,1
97952,-133.333333333333,4,2,0,70,0,0
98161,-133.333333333333,4,2,0,5,0,0
98231,-133.333333333333,4,2,0,70,0,0
98510,-83.3333333333333,4,2,0,70,0,1
106324,-133.333333333333,4,2,0,70,0,0
106533,-133.333333333333,4,2,0,5,0,0
106603,-133.333333333333,4,2,0,70,0,0
106812,-133.333333333333,4,2,0,5,0,0
106882,-200,4,2,0,70,0,0
107091,-200,4,2,0,5,0,0
107161,-83.3333333333333,4,2,0,70,0,0
107440,-83.3333333333333,4,2,0,70,0,1
111347,-166.666666666667,4,2,0,70,0,1
111626,-83.3333333333333,4,2,0,70,0,1
115952,-166.666666666667,4,2,0,70,0,1
116370,-300,4,2,0,50,0,0
117487,-200,4,2,0,20,0,0

[HitObjects]
256,192,1394,12,2,4184,0:0:0:0:
49,250,4463,5,0,0:0:0:0:
206,265,4603,1,0,0:0:0:0:
49,250,4743,6,0,B|100:245|100:245|147:271|147:271|221:264,1,165.000006294251
474,245,5301,1,0,0:0:0:0:
407,144,5440,2,0,L|402:188,1,41.2500015735627
393,274,5580,1,0,0:0:0:0:
411,115,5719,1,0,0:0:0:0:
420,347,5859,6,0,P|380:352|344:333,1,82.5000031471254
344,333,6138,1,0,0:0:0:0:
292,33,6417,1,0,0:0:0:0:
292,33,6696,2,0,L|199:37,1,82.5000031471254
116,60,6975,6,0,L|280:53,1,165.000006294251
332,352,7533,1,0,0:0:0:0:
201,305,7673,2,0,L|206:265,1,41.2500015735627
217,179,7812,1,0,0:0:0:0:
127,363,7952,1,0,0:0:0:0:
332,351,8091,6,0,P|347:316|343:269,1,82.5000031471254
204,100,8370,2,0,P|201:141|217:179,1,82.5000031471254
432,40,8649,1,0,0:0:0:0:
452,26,8929,5,0,0:0:0:0:
417,267,9068,1,0,0:0:0:0:
265,116,9208,6,0,P|214:96|163:114,1,110
3,321,9487,1,0,0:0:0:0:
136,104,9626,6,0,P|212:76|288:105,1,165.000006294251
331,174,9975,1,0,0:0:0:0:
331,174,10045,1,0,0:0:0:0:
84,209,10184,1,0,0:0:0:0:
245,372,10324,6,0,B|268:353|268:353|263:272,1,110
248,34,10603,1,0,0:0:0:0:
134,77,10742,1,0,0:0:0:0:
135,90,10811,1,0,0:0:0:0:
136,104,10882,2,0,L|140:169,1,55
231,191,11022,2,0,L|234:163,2,27.5
288,106,11161,5,0,0:0:0:0:
304,98,11231,1,0,0:0:0:0:
328,96,11300,1,0,0:0:0:0:
360,105,11370,1,0,0:0:0:0:
386,151,11440,5,0,0:0:0:0:
55,127,11580,2,0,L|1:121,1,55
43,340,11719,1,0,0:0:0:0:
84,324,11788,1,0,0:0:0:0:
125,334,11858,1,0,0:0:0:0:
166,319,11928,1,0,0:0:0:0:
207,329,11998,6,0,L|261:323,1,55
428,311,12138,1,0,0:0:0:0:
376,140,12277,2,0,B|360:169|356:207|390:238|390:238|360:253|355:282,1,165
294,226,12556,1,0,0:0:0:0:
446,178,12836,5,0,0:0:0:0:
271,235,12975,1,0,0:0:0:0:
369,115,13115,6,0,L|272:104,1,82.5000031471254
405,103,13394,6,0,L|217:82,1,165.000006294251
79,353,13673,5,0,0:0:0:0:
436,274,13812,2,0,B|403:269|403:269|372:283|372:283|329:276,1,110
105,238,14091,2,0,P|97:209|101:171,1,55
120,97,14231,1,0,0:0:0:0:
322,48,14370,2,0,B|345:77|345:77|334:160,1,110
192,24,14649,1,0,0:0:0:0:
471,76,14789,5,0,0:0:0:0:
168,20,14929,1,0,0:0:0:0:
215,199,15068,2,0,L|256:192,2,36.6666666666667
177,275,15208,1,0,0:0:0:0:
257,97,15347,1,0,0:0:0:0:
314,349,15487,1,0,0:0:0:0:
493,301,15626,2,0,L|383:293,1,110
95,268,15905,5,0,0:0:0:0:
314,349,16045,1,0,0:0:0:0:
252,78,16184,1,0,0:0:0:0:
159,317,16324,2,0,L|217:311,2,36.6666666666667
95,268,16463,1,0,0:0:0:0:
128,68,16603,1,0,0:0:0:0:
124,95,16672,1,0,0:0:0:0:
143,124,16742,2,0,P|147:151|141:177,1,55
95,268,16882,6,0,B|133:239|139:202|139:202|173:239|165:281,1,165
78,278,17161,1,0,0:0:0:0:
78,278,17231,1,0,0:0:0:0:
78,278,17301,5,0,0:0:0:0:
57,242,17370,1,0,0:0:0:0:
49,201,17440,1,0,0:0:0:0:
53,161,17510,1,0,0:0:0:0:
69,123,17580,2,0,B|96:106|96:106|146:110,1,82.5
213,173,17859,6,0,B|218:134|218:134|227:125|227:125|221:110|221:110|225:68,1,110
203,257,18138,5,0,0:0:0:0:
496,305,18277,1,0,0:0:0:0:
150,324,18417,1,0,0:0:0:0:
120,278,18486,1,0,0:0:0:0:
124,224,18556,1,0,0:0:0:0:
160,184,18626,1,0,0:0:0:0:
213,173,18696,1,0,0:0:0:0:
401,358,18836,1,0,0:0:0:0:
346,362,18905,1,0,0:0:0:0:
291,365,18975,1,0,0:0:0:0:
225,68,19115,1,0,0:0:0:0:
428,242,19254,5,0,0:0:0:0:
203,257,19394,2,0,L|201:307,2,36.6666666666667
254,192,19533,1,0,0:0:0:0:
417,377,19673,1,0,0:0:0:0:
439,107,19812,1,0,0:0:0:0:
341,304,19952,1,0,0:0:0:0:
341,304,20022,1,0,0:0:0:0:
341,304,20091,2,0,L|271:299,1,55
199,196,20231,2,0,L|254:192,1,55
77,280,20370,5,0,0:0:0:0:
305,130,20510,2,0,P|334:176|325:229,1,110
135,67,20789,1,0,0:0:0:0:
190,63,20859,1,0,0:0:0:0:
244,60,20928,1,0,0:0:0:0:
453,78,21068,1,0,0:0:0:0:
453,78,21138,1,0,0:0:0:0:
453,78,21208,2,0,P|462:103|463:130,1,55
324,229,21347,2,0,P|325:201|334:176,1,55
433,317,21487,5,0,0:0:0:0:
132,287,21626,1,0,0:0:0:0:
104,283,21695,1,0,0:0:0:0:
77,280,21766,2,0,L|83:335,2,36.6666666666667
67,184,21905,1,0,0:0:0:0:
226,286,22045,1,0,0:0:0:0:
62,305,22324,6,0,P|99:321|139:317,1,82.5000031471254
443,160,22603,5,0,0:0:0:0:
112,241,22742,1,0,0:0:0:0:
318,364,22882,1,0,0:0:0:0:
242,61,23022,1,0,0:0:0:0:
239,48,23092,1,0,0:0:0:0:
237,35,23161,1,0,0:0:0:0:
467,90,23301,2,0,L|461:144,1,55
150,170,23440,1,0,0:0:0:0:
363,27,23580,1,0,0:0:0:0:
428,327,23719,5,0,0:0:0:0:
131,162,23859,1,0,0:0:0:0:
78,334,23998,2,0,L|42:342,2,36.6666666666667
162,315,24138,1,0,0:0:0:0:
100,9,24277,1,0,0:0:0:0:
47,70,24556,6,0,P|84:89|125:86,1,82.5000031471254
456,7,24836,5,0,0:0:0:0:
307,305,24975,1,0,0:0:0:0:
198,48,25115,1,0,0:0:0:0:
502,111,25254,1,0,0:0:0:0:
499,138,25323,1,0,0:0:0:0:
496,165,25393,1,0,0:0:0:0:
196,222,25533,2,0,L|191:167,1,55
179,39,25673,1,0,0:0:0:0:
208,338,25812,1,0,0:0:0:0:
136,111,25952,6,0,P|184:88|236:102,1,110
271,130,26161,1,0,0:0:0:0:
314,146,26231,1,0,0:0:0:0:
359,149,26301,1,0,0:0:0:0:
403,137,26371,1,0,0:0:0:0:
442,113,26440,1,0,0:0:0:0:
469,78,26510,6,0,P|412:80|403:137,1,123.750004720688
413,147,26789,2,0,P|471:144|480:88,1,123.750004720688
350,32,27068,5,0,0:0:0:0:
98,86,27208,2,0,B|72:108|72:108|79:183,1,110
245,301,27487,1,0,0:0:0:0:
252,288,27556,1,0,0:0:0:0:
259,276,27626,2,0,P|270:251|272:223,1,55
186,117,27766,2,0,P|183:144|190:170,1,55
263,70,27905,1,0,0:0:0:0:
233,41,27974,1,0,0:0:0:0:
195,28,28044,1,0,0:0:0:0:
154,33,28114,1,0,0:0:0:0:
120,55,28184,5,0,0:0:0:0:
152,355,28324,2,0,L|232:350,1,55
308,230,28463,2,0,L|271:223,2,36.6666666666667
382,280,28603,1,0,0:0:0:0:
208,273,28742,6,0,P|190:218|220:161,1,123.750004720688
314,103,29022,6,0,P|239:133|165:101,1,165.000006294251
383,9,29301,5,0,0:0:0:0:
496,93,29440,2,0,L|501:57,2,36.6666666666667
479,195,29580,1,0,0:0:0:0:
479,195,29719,6,0,P|452:201|425:198,1,55
310,162,29859,2,0,P|283:155|256:158,1,55
133,186,29998,1,0,0:0:0:0:
134,199,30067,1,0,0:0:0:0:
135,213,30137,1,0,0:0:0:0:
296,326,30277,6,0,B|306:329|327:304|345:287|331:241|290:218|249:231|235:280|235:280|220:316|160:329|101:313|89:279|89:279|140:306|179:292|211:246,1,495
115,48,31673,5,0,0:0:0:0:
115,48,31813,1,0,0:0:0:0:
136,211,31952,1,0,0:0:0:0:
286,111,32091,5,0,0:0:0:0:
103,32,32231,1,0,0:0:0:0:
126,229,32370,1,0,0:0:0:0:
202,118,32510,1,0,0:0:0:0:
45,104,32649,6,0,P|41:144|58:181,1,82.5000031471254
202,118,32929,2,0,P|161:113|124:130,1,82.5000031471254
6,246,33208,5,0,0:0:0:0:
9,266,33487,1,0,0:0:0:0:
12,286,33766,1,0,0:0:0:0:
291,246,33905,5,0,0:0:0:0:
291,246,34045,1,0,0:0:0:0:
126,229,34184,1,0,0:0:0:0:
309,228,34324,5,0,0:0:0:0:
110,207,34463,1,0,0:0:0:0:
165,341,34603,2,0,L|252:337,1,82.5000031471254
412,313,34882,5,0,0:0:0:0:
442,236,35022,1,0,0:0:0:0:
309,228,35161,1,0,0:0:0:0:
328,307,35301,1,0,0:0:0:0:
379,182,35440,2,0,P|388:143|378:104,1,82.5
364,82,35719,6,0,L|240:88,1,123.750004720688
161,92,35998,5,0,0:0:0:0:
489,37,36138,1,0,0:0:0:0:
408,349,36277,2,0,P|354:360|294:342,1,110
143,73,36556,1,0,0:0:0:0:
448,193,36696,1,0,0:0:0:0:
152,282,36836,2,0,L|147:173,1,110
474,182,37115,5,0,0:0:0:0:
115,66,37254,1,0,0:0:0:0:
166,369,37394,1,0,0:0:0:0:
110,39,37533,1,0,0:0:0:0:
500,171,37673,5,0,0:0:0:0:
0,302,37952,1,0,0:0:0:0:
105,12,38231,5,0,0:0:0:0:
166,369,38370,1,0,0:0:0:0:
349,49,38510,2,0,P|296:36|244:53,1,110
291,312,38789,1,0,0:0:0:0:
400,116,38929,1,0,0:0:0:0:
73,143,39068,2,0,L|87:252,1,110
455,291,39347,5,0,0:0:0:0:
101,359,39487,1,0,0:0:0:0:
475,287,39626,1,0,0:0:0:0:
68,247,39766,1,0,0:0:0:0:
495,283,39905,6,0,B|490:218|490:218|512:186|512:186|506:125,1,165
511,39,40184,5,0,0:0:0:0:
436,77,40277,2,0,P|397:84|363:77,1,73.3333333333333
88,9,40463,5,0,0:0:0:0:
186,339,40603,1,0,0:0:0:0:
478,203,40742,2,0,B|454:177|454:177|379:185,1,110
47,214,41022,1,0,0:0:0:0:
373,276,41161,1,0,0:0:0:0:
184,61,41301,2,0,B|158:85|158:85|166:159,1,110
448,58,41580,5,0,0:0:0:0:
345,354,41719,1,0,0:0:0:0:
425,131,41859,1,0,0:0:0:0:
477,327,41998,1,0,0:0:0:0:
351,175,42138,6,0,P|324:166|297:166,1,55
270,89,42277,2,0,P|244:99|223:116,1,55
152,75,42417,2,0,P|139:99|134:126,1,55
52,140,42556,2,0,P|57:166|71:190,1,55
315,349,42696,5,0,0:0:0:0:
273,15,42836,1,0,0:0:0:0:
146,272,42975,1,0,0:0:0:0:
129,301,43045,1,0,0:0:0:0:
97,295,43115,1,0,0:0:0:0:
92,262,43184,1,0,0:0:0:0:
122,248,43254,2,0,B|147:272|147:272|222:266,1,110
499,250,43533,1,0,0:0:0:0:
249,161,43673,1,0,0:0:0:0:
129,301,43812,6,0,L|238:294,1,110
76,222,44091,2,0,L|185:215,1,110
376,208,44301,1,0,0:0:0:0:
403,201,44370,6,0,P|394:150|355:183,1,123.750004720688
417,242,44649,6,0,P|451:171|401:111,1,165
320,94,44929,5,0,0:0:0:0:
152,336,45068,1,0,0:0:0:0:
26,69,45208,1,0,0:0:0:0:
63,51,45277,1,0,0:0:0:0:
103,47,45347,1,0,0:0:0:0:
143,57,45417,1,0,0:0:0:0:
178,79,45487,1,0,0:0:0:0:
336,260,45626,2,0,L|330:335,1,55
248,373,45766,1,0,0:0:0:0:
304,74,45905,1,0,0:0:0:0:
451,303,46045,5,0,0:0:0:0:
152,336,46184,2,0,L|115:342,3,27.5
103,345,46324,2,0,P|88:275|99:229,1,110
150,125,46603,1,0,0:0:0:0:
164,81,46882,6,0,P|173:163|103:118,1,206.25
101,38,47161,5,0,0:0:0:0:
423,71,47301,1,0,0:0:0:0:
423,71,47370,1,0,0:0:0:0:
423,71,47440,2,0,P|434:103|431:126,1,55
353,238,47580,2,0,P|350:210|360:185,1,55
419,294,47719,1,0,0:0:0:0:
386,318,47788,1,0,0:0:0:0:
345,324,47858,1,0,0:0:0:0:
306,311,47928,1,0,0:0:0:0:
278,282,47998,1,0,0:0:0:0:
239,28,48138,1,0,0:0:0:0:
154,333,48277,5,0,0:0:0:0:
353,238,48417,1,0,0:0:0:0:
353,238,48487,1,0,0:0:0:0:
352,238,48556,2,0,P|356:210|350:183,1,55
428,137,48696,2,0,P|410:115|387:100,1,55
210,104,48836,6,0,P|271:103|313:60,1,123.750004720688
122,27,49115,6,0,P|118:54|124:81,1,55
52,128,49255,2,0,P|69:149|92:164,1,55
352,238,49394,1,0,0:0:0:0:
153,275,49533,2,0,L|158:203,1,55
218,328,49673,1,0,0:0:0:0:
186,353,49742,1,0,0:0:0:0:
146,359,49812,1,0,0:0:0:0:
107,346,49882,1,0,0:0:0:0:
79,317,49952,6,0,L|69:275,2,27.5
55,215,50091,1,0,0:0:0:0:
55,215,50161,1,0,0:0:0:0:
55,215,50231,2,0,L|48:135,1,55
239,74,50370,2,0,L|234:128,1,55
153,275,50510,5,0,0:0:0:0:
168,15,50649,1,0,0:0:0:0:
385,157,50789,1,0,0:0:0:0:
160,188,50929,1,0,0:0:0:0:
438,98,51068,2,0,L|476:78,1,27.5
455,120,51138,2,0,L|495:105,1,27.5
464,146,51207,2,0,L|505:138,1,27.5
463,173,51277,2,0,L|505:173,1,27.5
454,198,51347,2,0,P|435:249|451:301,1,110
385,157,51626,5,0,0:0:0:0:
324,353,51766,1,0,0:0:0:0:
324,353,51836,1,0,0:0:0:0:
324,353,51905,1,0,0:0:0:0:
128,292,52045,2,0,L|121:231,1,55
233,31,52184,1,0,0:0:0:0:
260,63,52253,1,0,0:0:0:0:
266,103,52323,1,0,0:0:0:0:
252,141,52393,1,0,0:0:0:0:
220,167,52463,2,0,P|210:204|212:235,1,55
323,352,52603,2,0,P|322:324|313:299,1,55
189,96,52742,6,0,L|57:100,1,110
353,87,53301,1,0,0:0:0:0:
353,87,53580,6,0,B|360:126|360:126|345:171|345:171|351:207,1,123.750004720688
370,293,53859,5,0,0:0:0:0:
283,312,53999,1,0,0:0:0:0:
196,331,54138,1,0,0:0:0:0:
196,331,54277,1,0,0:0:0:0:
65,182,54417,5,0,0:0:0:0:
152,201,54556,1,0,0:0:0:0:
239,220,54696,1,0,0:0:0:0:
65,182,54836,1,0,0:0:0:0:
184,50,54975,5,0,0:0:0:0:
49,193,55115,1,0,0:0:0:0:
304,151,55254,1,0,0:0:0:0:
304,151,55394,1,0,0:0:0:0:
165,35,55533,5,0,0:0:0:0:
147,238,55673,1,0,0:0:0:0:
275,79,55812,2,0,P|301:71|327:77,1,55
455,127,56091,5,0,0:0:0:0:
448,215,56231,1,0,0:0:0:0:
441,304,56370,1,0,0:0:0:0:
441,304,56510,1,0,0:0:0:0:
375,164,56649,5,0,0:0:0:0:
448,215,56789,1,0,0:0:0:0:
294,202,56929,1,0,0:0:0:0:
375,164,57069,1,0,0:0:0:0:
354,337,57208,5,0,0:0:0:0:
181,316,57347,1,0,0:0:0:0:
202,143,57487,1,0,0:0:0:0:
202,143,57626,1,0,0:0:0:0:
443,124,57766,6,0,P|456:148|452:175,1,55
354,337,58045,1,0,0:0:0:0:
294,202,58184,1,0,0:0:0:0:
294,202,58254,1,0,0:0:0:0:
294,202,58324,5,0,0:0:0:0:
439,356,58463,1,0,0:0:0:0:
181,316,58603,1,0,0:0:0:0:
181,316,58742,1,0,0:0:0:0:
344,112,58882,5,0,0:0:0:0:
354,337,59022,1,0,0:0:0:0:
250,162,59161,2,0,P|228:145|201:142,1,55
105,301,59440,6,0,L|159:297,1,55
58,168,59719,1,0,0:0:0:0:
58,168,59859,1,0,0:0:0:0:
6,367,59998,5,0,0:0:0:0:
243,296,60138,1,0,0:0:0:0:
85,94,60277,2,0,P|58:86|32:92,1,55
91,314,60556,6,0,L|145:310,1,55
399,297,60836,1,0,0:0:0:0:
399,297,60975,1,0,0:0:0:0:
308,235,61114,5,0,0:0:0:0:
300,345,61254,1,0,0:0:0:0:
473,327,61394,2,0,P|481:302|476:275,1,55
440,122,61673,6,0,P|399:127|358:121,1,82.5000031471254
236,59,61882,1,0,0:0:0:0:
212,46,61952,6,0,B|190:68|190:68|195:146,1,110
205,296,62161,1,0,0:0:0:0:
235,230,62231,6,0,P|202:222|170:232,1,68.75
108,279,62370,2,0,L|106:302,4,17.1875
65,213,62510,6,0,L|62:192,12,20.6250007867813
4,140,62789,6,0,P|51:114|114:131,1,110
446,308,63068,1,0,0:0:0:0:
241,30,63208,1,0,0:0:0:0:
62,192,63347,2,0,L|73:308,1,110
459,208,63626,1,0,0:0:0:0:
221,19,63766,1,0,0:0:0:0:
157,281,63905,5,0,0:0:0:0:
433,215,64045,1,0,0:0:0:0:
445,211,64114,1,0,0:0:0:0:
459,208,64184,1,0,0:0:0:0:
201,8,64324,1,0,0:0:0:0:
94,330,64463,6,0,P|146:361|204:344,1,123.750004720688
241,258,64742,1,0,0:0:0:0:
306,99,65022,6,0,L|415:108,1,110
112,83,65301,1,0,0:0:0:0:
448,14,65440,1,0,0:0:0:0:
47,37,65580,2,0,P|31:88|54:137,1,110
370,256,65859,1,0,0:0:0:0:
167,20,65998,1,0,0:0:0:0:
65,314,66138,5,0,0:0:0:0:
287,119,66277,1,0,0:0:0:0:
296,108,66347,1,0,0:0:0:0:
306,99,66416,1,0,0:0:0:0:
413,362,66556,1,0,0:0:0:0:
42,309,66696,1,0,0:0:0:0:
362,228,66836,6,0,L|365:201,1,27.5
426,152,66975,2,0,L|409:131,1,27.5
417,52,67115,2,0,L|390:50,1,27.5
86,31,67254,6,0,B|58:53|58:53|67:127,1,110
309,330,67533,1,0,0:0:0:0:
256,16,67673,1,0,0:0:0:0:
10,176,67812,2,0,P|57:204|109:191,1,110
270,0,68091,1,0,0:0:0:0:
233,278,68231,1,0,0:0:0:0:
66,126,68370,5,0,0:0:0:0:
336,102,68510,2,0,L|398:96,1,55
163,115,68649,1,0,0:0:0:0:
495,85,68789,1,0,0:0:0:0:
455,317,68929,2,0,P|403:333|354:311,1,110
208,49,69208,2,0,P|156:33|107:55,1,110
78,314,69487,5,0,0:0:0:0:
410,251,69626,1,0,0:0:0:0:
53,161,69766,1,0,0:0:0:0:
433,257,69905,1,0,0:0:0:0:
26,376,70045,5,0,0:0:0:0:
0,330,70114,1,0,0:0:0:0:
8,276,70184,1,0,0:0:0:0:
49,240,70254,1,0,0:0:0:0:
102,237,70324,1,0,0:0:0:0:
482,333,70463,1,0,0:0:0:0:
340,55,70603,5,0,0:0:0:0:
293,24,70673,1,0,0:0:0:0:
249,62,70743,1,0,0:0:0:0:
202,31,70812,1,0,0:0:0:0:
158,69,70882,1,0,0:0:0:0:
78,314,71022,1,0,0:0:0:0:
423,229,71161,6,0,L|428:167,3,34.375
371,289,71301,2,0,L|376:351,3,34.375
345,213,71440,6,0,L|347:181,14,20.6250007867813
293,274,71719,5,0,0:0:0:0:
306,304,76184,6,0,L|182:292,1,110
88,281,76742,1,0,0:0:0:0:
401,316,77580,5,0,0:0:0:0:
88,281,77859,1,0,0:0:0:0:
416,336,78417,5,0,0:0:0:0:
71,297,78696,1,0,0:0:0:0:
277,18,78975,1,0,0:0:0:0:
277,18,79812,5,0,0:0:0:0:
235,366,80091,1,0,0:0:0:0:
319,107,80370,5,0,0:0:0:0:
192,276,80510,1,0,0:0:0:0:
110,83,80649,6,0,B|119:127|89:153|89:153|110:160|110:160|82:189|99:226,1,165.000006294251
267,189,80929,1,0,0:0:0:0:
34,95,81068,1,0,0:0:0:0:
72,289,81208,2,0,P|113:295|148:274,1,82.5000031471254
201,43,81487,1,0,0:0:0:0:
275,214,81626,1,0,0:0:0:0:
402,153,81766,6,0,L|319:147,1,82.5000031471254
486,160,82045,1,0,0:0:0:0:
282,78,82184,2,0,P|238:143|274:213,1,165.000006294251
428,287,82603,1,0,0:0:0:0:
201,313,82742,6,0,B|147:320|147:320|103:297|103:297|42:305,1,165.000006294251
42,305,83301,1,0,0:0:0:0:
237,243,83440,2,0,P|281:308|245:378,1,165.000006294251
147,216,83859,1,0,0:0:0:0:
410,281,83998,6,0,B|417:315|395:339|395:339|355:288|393:223|393:223|377:201|377:201|407:159|386:116,1,302.5
325,63,84836,6,0,L|300:66,1,13.75
87,76,84975,1,0,0:0:0:0:
443,65,85115,6,0,P|465:115|446:165,1,110
266,350,85394,1,0,0:0:0:0:
42,219,85533,2,0,B|124:213|124:213|167:240|167:240|254:232,1,220
10,310,85952,1,0,0:0:0:0:
143,110,86091,2,0,L|195:113,2,36.6666666666667
128,95,86231,6,0,L|237:104,1,110
463,132,86510,1,0,0:0:0:0:
300,251,86649,2,0,B|268:206|304:152|304:152|339:101|299:46,1,220
363,205,87068,1,0,0:0:0:0:
215,307,87208,1,0,0:0:0:0:
292,34,87347,5,0,0:0:0:0:
394,275,87487,1,0,0:0:0:0:
394,275,87556,1,0,0:0:0:0:
394,275,87626,1,0,0:0:0:0:
463,132,87766,1,0,0:0:0:0:
472,311,87905,1,0,0:0:0:0:
446,342,87974,1,0,0:0:0:0:
408,358,88044,1,0,0:0:0:0:
367,355,88114,1,0,0:0:0:0:
333,333,88184,2,0,P|285:307|230:316,1,110
18,364,88463,6,0,B|42:337|68:327|68:327|22:308|22:308|86:287|86:287|45:254|5:265|5:265|38:231|66:227|66:227|23:167|46:135|46:135|54:169|88:188,1,495
140,220,89161,5,0,0:0:0:0:
475,104,89301,2,0,P|414:54|340:81,1,165
72,301,89580,6,0,L|62:169,1,131.99999597168
353,370,89859,1,0,0:0:0:0:
401,132,89998,1,0,0:0:0:0:
274,342,90138,2,0,B|210:357|210:357|147:335,1,131.99999597168
57,91,90417,1,0,0:0:0:0:
0,276,90556,1,0,0:0:0:0:
83,15,90696,5,0,0:0:0:0:
173,259,90836,1,0,0:0:0:0:
173,259,90905,1,0,0:0:0:0:
173,259,90975,1,0,0:0:0:0:
340,81,91115,2,0,B|388:66|432:99|432:99|387:133|337:117,1,197.99999395752
261,81,91394,1,0,0:0:0:0:
472,20,91533,1,0,0:0:0:0:
419,233,91673,1,0,0:0:0:0:
242,65,91812,5,0,0:0:0:0:
165,281,91952,1,0,0:0:0:0:
38,109,92091,1,0,0:0:0:0:
214,348,92231,1,0,0:0:0:0:
327,43,92370,1,0,0:0:0:0:
87,176,92510,1,0,0:0:0:0:
87,176,92556,2,0,L|92:227,1,43.9999986572266
70,37,92649,1,0,0:0:0:0:
102,329,92789,1,0,0:0:0:0:
270,152,92929,5,0,0:0:0:0:
313,129,92998,1,0,0:0:0:0:
362,126,93068,1,0,0:0:0:0:
407,144,93138,1,0,0:0:0:0:
443,179,93208,1,0,0:0:0:0:
498,349,93347,1,0,0:0:0:0:
191,252,93487,1,0,0:0:0:0:
384,21,93626,1,0,0:0:0:0:
417,26,93696,1,0,0:0:0:0:
450,31,93765,1,0,0:0:0:0:
452,277,93905,1,0,0:0:0:0:
145,180,94045,5,0,0:0:0:0:
320,65,94184,2,0,P|323:97|312:128,1,65.9999979858399
62,152,94324,1,0,0:0:0:0:
60,119,94393,1,0,0:0:0:0:
59,86,94463,1,0,0:0:0:0:
58,53,94533,1,0,0:0:0:0:
56,20,94603,1,0,0:0:0:0:
68,325,94742,2,0,L|3:311,2,43.9999986572266
141,213,94882,2,0,L|207:189,1,65.9999979858399
142,293,95022,2,0,L|207:307,2,43.9999986572266
65,243,95161,5,0,0:0:0:0:
312,128,95301,2,0,P|323:97|320:65,1,65.9999979858399
238,5,95440,1,0,0:0:0:0:
283,214,95580,1,0,0:0:0:0:
459,189,95719,1,0,0:0:0:0:
449,180,95789,2,0,P|424:164|388:160,1,65.9999979858399
203,190,95929,1,0,0:0:0:0:
195,200,95998,2,0,L|200:282,1,65.9999979858399
204,347,96138,1,0,0:0:0:0:
189,100,96277,5,0,0:0:0:0:
204,347,96417,1,0,0:0:0:0:
204,347,96487,1,0,0:0:0:0:
204,347,96556,1,0,0:0:0:0:
399,236,96696,1,0,0:0:0:0:
245,45,96836,2,0,P|186:21|129:50,1,131.99999597168
80,113,97045,1,0,0:0:0:0:
80,113,97115,2,0,L|86:206,1,65.9999979858399
204,347,97254,1,0,0:0:0:0:
207,314,97323,1,0,0:0:0:0:
211,281,97394,5,0,0:0:0:0:
245,45,97533,1,0,0:0:0:0:
423,176,97673,2,0,L|390:173,1,32.99999899292
397,206,97742,2,0,L|389:173,1,32.99999899292
361,191,97813,2,0,L|389:173,1,32.99999899292
364,153,97883,2,0,L|389:174,1,32.99999899292
401,142,97952,6,0,P|455:154|442:208,1,123.750004720688
351,272,98231,2,0,L|320:265,1,20.6250007867813
211,281,98370,2,0,L|180:274,1,20.6250007867813
105,134,98510,6,0,B|165:108|165:108|237:130,1,131.99999597168
463,221,98789,1,0,0:0:0:0:
228,33,98929,1,0,0:0:0:0:
241,338,99068,1,0,0:0:0:0:
311,80,99208,1,0,0:0:0:0:
311,80,99277,1,0,0:0:0:0:
311,80,99347,1,0,0:0:0:0:
425,300,99487,1,0,0:0:0:0:
172,273,99626,5,0,0:0:0:0:
452,305,99766,1,0,0:0:0:0:
88,263,99905,1,0,0:0:0:0:
379,152,100045,1,0,0:0:0:0:
241,338,100184,1,0,0:0:0:0:
148,125,100324,1,0,0:0:0:0:
148,125,100394,1,0,0:0:0:0:
148,125,100463,1,0,0:0:0:0:
343,275,100603,1,0,0:0:0:0:
38,324,100742,6,0,P|8:266|32:207,1,131.99999597168
225,48,101022,1,0,0:0:0:0:
343,275,101161,1,0,0:0:0:0:
88,263,101301,1,0,0:0:0:0:
397,164,101440,1,0,0:0:0:0:
397,164,101487,2,0,L|394:229,1,43.9999986572266
387,345,101580,1,0,0:0:0:0:
241,170,101719,1,0,0:0:0:0:
481,86,101859,5,0,0:0:0:0:
477,135,101928,1,0,0:0:0:0:
474,184,101998,1,0,0:0:0:0:
471,234,102068,1,0,0:0:0:0:
468,283,102138,1,0,0:0:0:0:
317,24,102277,1,0,0:0:0:0:
165,316,102417,1,0,0:0:0:0:
393,229,102556,1,0,0:0:0:0:
394,196,102625,1,0,0:0:0:0:
396,163,102695,1,0,0:0:0:0:
214,71,102836,1,0,0:0:0:0:
284,276,102975,5,0,0:0:0:0:
437,98,103115,2,0,P|407:84|375:88,1,65.9999979858399
205,187,103254,1,0,0:0:0:0:
164,215,103323,1,0,0:0:0:0:
116,222,103393,1,0,0:0:0:0:
69,206,103463,1,0,0:0:0:0:
34,172,103533,1,0,0:0:0:0:
209,5,103673,2,0,P|208:37|213:70,1,65.9999979858399
284,276,103812,1,0,0:0:0:0:
308,254,103881,1,0,0:0:0:0:
339,243,103951,1,0,0:0:0:0:
372,245,104021,1,0,0:0:0:0:
401,260,104091,5,0,0:0:0:0:
204,366,104231,2,0,P|205:333|200:300,1,65.9999979858399
123,127,104370,1,0,0:0:0:0:
352,320,104510,1,0,0:0:0:0:
147,247,104649,1,0,0:0:0:0:
156,238,104719,2,0,P|179:224|224:227,1,65.9999979858399
74,310,104859,1,0,0:0:0:0:
63,302,104929,2,0,L|56:226,1,65.9999979858399
46,136,105068,1,0,0:0:0:0:
200,300,105208,5,0,0:0:0:0:
259,61,105347,1,0,0:0:0:0:
259,61,105417,1,0,0:0:0:0:
259,61,105487,1,0,0:0:0:0:
352,320,105626,1,0,0:0:0:0:
485,266,105766,2,0,P|455:251|423:252,1,65.9999979858399
339,334,105905,2,0,P|309:348|277:347,1,65.9999979858399
74,310,106045,1,0,0:0:0:0:
70,277,106114,1,0,0:0:0:0:
67,244,106184,1,0,0:0:0:0:
63,211,106254,1,0,0:0:0:0:
80,178,106324,6,0,B|111:173|128:195|128:195|107:217|60:211,1,123.750004720688
39,113,106603,2,0,P|90:101|159:120,1,123.750004720688
223,165,106882,6,0,L|228:254,1,82.5
247,267,107161,6,0,L|257:133,1,131.99999597168
490,264,107440,5,0,0:0:0:0:
305,326,107580,1,0,0:0:0:0:
270,124,107719,1,0,0:0:0:0:
429,209,107859,1,0,0:0:0:0:
195,329,107998,2,0,P|166:271|190:212,1,131.99999597168
490,264,108277,1,0,0:0:0:0:
247,267,108417,6,0,B|304:222|370:267|370:267|437:309|490:263,1,263.99999194336
372,106,108836,2,0,P|368:127|369:149,2,43.9999986572266
448,60,108975,1,0,0:0:0:0:
269,124,109115,2,0,P|196:136|142:111,1,131.99999597168
33,264,109394,2,0,B|11:240|11:240|20:141,1,131.99999597168
112,11,109673,5,0,0:0:0:0:
238,223,109812,1,0,0:0:0:0:
62,368,109952,1,0,0:0:0:0:
131,103,110091,1,0,0:0:0:0:
184,283,110231,1,0,0:0:0:0:
211,300,110300,1,0,0:0:0:0:
243,305,110370,1,0,0:0:0:0:
275,296,110440,1,0,0:0:0:0:
300,275,110510,1,0,0:0:0:0:
443,108,110649,1,0,0:0:0:0:
359,349,110789,5,0,0:0:0:0:
238,223,110929,1,0,0:0:0:0:
236,201,110998,1,0,0:0:0:0:
234,179,111068,2,0,L|228:113,1,65.9999979858399
448,42,111208,2,0,L|442:107,1,65.9999979858399
179,53,111347,6,0,P|223:34|270:47,1,98.9999969787599
162,44,111626,6,0,P|221:19|284:37,1,131.99999597168
439,287,111905,5,0,0:0:0:0:
75,188,112045,1,0,0:0:0:0:
373,0,112184,1,0,0:0:0:0:
368,49,112253,1,0,0:0:0:0:
363,98,112323,1,0,0:0:0:0:
358,147,112393,1,0,0:0:0:0:
354,197,112463,1,0,0:0:0:0:
119,335,112603,2,0,P|108:304|114:272,1,65.9999979858399
228,113,112742,1,0,0:0:0:0:
336,367,112882,1,0,0:0:0:0:
157,197,113022,5,0,0:0:0:0:
444,154,113161,1,0,0:0:0:0:
442,170,113208,2,0,L|435:238,1,43.9999986572266
422,330,113301,1,0,0:0:0:0:
454,65,113440,1,0,0:0:0:0:
240,241,113580,1,0,0:0:0:0:
316,101,113719,1,0,0:0:0:0:
316,101,113789,1,0,0:0:0:0:
316,101,113859,2,0,B|290:150|319:186|319:186|304:190|304:190|330:219|323:268|312:276,1,197.99999395752
248,323,114138,5,0,0:0:0:0:
145,47,114277,1,0,0:0:0:0:
383,140,114417,1,0,0:0:0:0:
67,236,114556,5,0,0:0:0:0:
445,196,114696,2,0,P|466:136|439:78,1,131.99999597168
27,35,114975,1,0,0:0:0:0:
27,35,115045,1,0,0:0:0:0:
27,35,115115,1,0,0:0:0:0:
248,323,115254,5,0,0:0:0:0:
196,96,115394,1,0,0:0:0:0:
165,105,115463,1,0,0:0:0:0:
148,133,115533,1,0,0:0:0:0:
154,164,115603,1,0,0:0:0:0:
179,184,115673,1,0,0:0:0:0:
211,182,115742,1,0,0:0:0:0:
234,159,115812,5,0,0:0:0:0:
362,72,115952,2,0,P|392:62|424:70,1,65.9999979858399
469,246,116231,1,0,0:0:0:0:
398,294,116370,6,0,B|328:326|277:286|277:286|276:320|276:320|217:277|151:306,1,293.333333333333
