osu file format v14

[General]
AudioFilename: 03. Lemon Heart.mp3
AudioLeadIn: 0
PreviewTime: 90477
Countdown: 0
SampleSet: Normal
StackLeniency: 0.7
Mode: 1
LetterboxInBreaks: 0
WidescreenStoryboard: 0

[Editor]
Bookmarks: 1335,24649,46592,90477,134363,156306,200192,233106,276992,304420
DistanceSpacing: 1.1
BeatDivisor: 4
GridSize: 32
TimelineZoom: 2.1

[Metadata]
Title:Lemon Heart
TitleUnicode:Lemon Heart
Artist:t+pazolite
ArtistUnicode:t+pazolite
Creator:Jonawaga
Version:AriWaga's Oni
Source:
Tags:Ayyri C.H.S with Lick Dom Records + Diverse System CHS HARDCORE TANO*C songs for X Girlz TCSLCD-0003 Comiket 81 91 C81 C91 The Best of tpz 2 the Best!!! CHS-0027 CHS-0028 Disc1 Disc 1
BeatmapID:1485248
BeatmapSetID:701849

[Difficulty]
HPDrainRate:5
CircleSize:2
OverallDifficulty:6
ApproachRate:10
SliderMultiplier:1.4
SliderTickRate:1

[Events]
//Background and Video events
0,0,"Remilia 286.jpg",0,-25
//Break Periods
//Storyboard Layer 0 (Background)
//Storyboard Layer 1 (Fail)
//Storyboard Layer 2 (Pass)
//Storyboard Layer 3 (Foreground)
//Storyboard Sound Samples

[TimingPoints]
1335,342.857142857143,4,1,0,75,1,0
1335,-117.647058823529,4,1,0,75,0,0
1506,-114.942528735632,4,1,0,75,0,0
1592,-113.636363636364,4,1,0,75,0,0
1677,-112.359550561798,4,1,0,75,0,0
1763,-111.111111111111,4,1,0,75,0,0
1849,-109.89010989011,4,1,0,75,0,0
1935,-108.695652173913,4,1,0,75,0,0
2020,-107.52688172043,4,1,0,75,0,0
2192,-105.263157894737,4,1,0,75,0,0
2277,-104.166666666667,4,1,0,75,0,0
2363,-103.092783505155,4,1,0,75,0,0
2706,-100,4,1,0,75,0,0
45220,-98.0392156862745,4,1,0,75,0,0
45392,-96.1538461538461,4,1,0,75,0,0
45563,-94.3396226415094,4,1,0,75,0,0
45735,-92.5925925925926,4,1,0,75,0,0
45906,-90.9090909090909,4,1,0,75,0,0
46077,-89.2857142857143,4,1,0,75,0,0
46249,-87.719298245614,4,1,0,75,0,0
46420,-86.2068965517241,4,1,0,75,0,0
46592,-84.7457627118644,4,1,0,75,0,0
47106,-91.743119266055,4,1,0,75,0,0
47792,-100,4,1,0,75,0,0
90477,-100,4,1,0,75,0,1
109677,-100,4,1,0,75,0,0
111220,-90.9090909090909,4,1,0,75,0,0
112249,-95.2380952380952,4,1,0,75,0,0
112420,-100,4,1,0,75,0,1
134363,-100,4,1,0,75,0,0
233106,-100,4,1,0,75,0,1
252306,-100,4,1,0,75,0,0
253849,-90.9090909090909,4,1,0,75,0,0
254877,-95.2380952380952,4,1,0,75,0,0
255049,-100,4,1,0,75,0,1
276992,-100,4,1,0,75,0,0
298934,-100,4,1,0,25,0,0
304420,-100,4,1,0,5,0,0

[HitObjects]
256,192,1335,5,0,0:0:0:0:
256,192,1506,1,0,0:0:0:0:
256,192,1592,1,8,0:0:0:0:
256,192,1677,1,0,0:0:0:0:
256,192,1763,1,8,0:0:0:0:
256,192,1849,1,0,0:0:0:0:
256,192,1935,1,0,0:0:0:0:
256,192,2020,1,8,0:0:0:0:
256,192,2192,1,0,0:0:0:0:
256,192,2277,1,0,0:0:0:0:
256,192,2363,1,12,0:0:0:0:
256,192,2706,1,12,0:0:0:0:
256,192,2877,1,0,0:0:0:0:
256,192,2963,1,8,0:0:0:0:
256,192,3135,1,8,0:0:0:0:
256,192,3220,1,0,0:0:0:0:
256,192,3306,1,0,0:0:0:0:
256,192,3392,1,8,0:0:0:0:
256,192,3477,1,0,0:0:0:0:
256,192,3563,1,8,0:0:0:0:
256,192,3735,1,8,0:0:0:0:
256,192,3820,1,8,0:0:0:0:
256,192,3906,1,0,0:0:0:0:
256,192,4077,1,0,0:0:0:0:
256,192,4163,1,8,0:0:0:0:
256,192,4249,1,0,0:0:0:0:
256,192,4335,1,8,0:0:0:0:
256,192,4420,1,0,0:0:0:0:
256,192,4592,1,0,0:0:0:0:
256,192,4677,1,8,0:0:0:0:
256,192,4763,1,0,0:0:0:0:
256,192,4849,1,8,0:0:0:0:
256,192,5020,1,0,0:0:0:0:
256,192,5106,1,8,0:0:0:0:
256,192,5192,1,8,0:0:0:0:
256,192,5277,1,0,0:0:0:0:
256,192,5449,1,8,0:0:0:0:
256,192,5792,1,0,0:0:0:0:
256,192,6135,1,8,0:0:0:0:
256,192,6477,1,0,0:0:0:0:
256,192,6649,1,8,0:0:0:0:
256,192,6820,1,0,0:0:0:0:
256,192,6992,1,0,0:0:0:0:
256,192,7163,1,0,0:0:0:0:
256,192,7335,1,0,0:0:0:0:
256,192,7506,1,8,0:0:0:0:
256,192,7677,1,0,0:0:0:0:
256,192,7849,1,8,0:0:0:0:
256,192,7935,1,8,0:0:0:0:
256,192,8020,1,0,0:0:0:0:
256,192,8192,1,0,0:0:0:0:
256,192,8363,1,0,0:0:0:0:
256,192,8449,1,8,0:0:0:0:
256,192,8620,1,8,0:0:0:0:
256,192,8706,1,0,0:0:0:0:
256,192,8792,1,0,0:0:0:0:
256,192,8877,1,8,0:0:0:0:
256,192,8963,1,0,0:0:0:0:
256,192,9049,1,8,0:0:0:0:
256,192,9220,1,8,0:0:0:0:
256,192,9306,1,8,0:0:0:0:
256,192,9392,1,0,0:0:0:0:
256,192,9563,1,0,0:0:0:0:
256,192,9649,1,0,0:0:0:0:
256,192,9735,1,8,0:0:0:0:
256,192,9820,1,0,0:0:0:0:
256,192,9906,1,8,0:0:0:0:
256,192,10077,1,0,0:0:0:0:
256,192,10249,1,8,0:0:0:0:
256,192,10335,1,0,0:0:0:0:
256,192,10420,1,0,0:0:0:0:
256,192,10506,1,8,0:0:0:0:
256,192,10677,1,8,0:0:0:0:
256,192,10763,1,0,0:0:0:0:
256,192,10935,1,8,0:0:0:0:
256,192,11020,1,0,0:0:0:0:
256,192,11106,1,8,0:0:0:0:
256,192,11192,1,0,0:0:0:0:
256,192,11277,1,8,0:0:0:0:
256,192,11449,1,0,0:0:0:0:
256,192,11535,1,0,0:0:0:0:
256,192,11620,1,8,0:0:0:0:
256,192,11792,1,0,0:0:0:0:
256,192,11963,1,8,0:0:0:0:
256,192,12049,1,0,0:0:0:0:
256,192,12220,1,8,0:0:0:0:
256,192,12306,1,8,0:0:0:0:
256,192,12392,1,0,0:0:0:0:
256,192,12477,1,0,0:0:0:0:
256,192,12649,1,0,0:0:0:0:
256,192,12735,1,0,0:0:0:0:
256,192,12820,1,8,0:0:0:0:
256,192,12992,1,0,0:0:0:0:
256,192,13163,1,0,0:0:0:0:
256,192,13249,1,8,0:0:0:0:
256,192,13335,1,8,0:0:0:0:
256,192,13506,1,8,0:0:0:0:
256,192,13677,1,12,0:0:0:0:
256,192,13849,1,0,0:0:0:0:
256,192,13935,1,8,0:0:0:0:
256,192,14106,1,8,0:0:0:0:
256,192,14192,1,0,0:0:0:0:
256,192,14277,1,0,0:0:0:0:
256,192,14363,1,8,0:0:0:0:
256,192,14449,1,0,0:0:0:0:
256,192,14535,1,8,0:0:0:0:
256,192,14706,1,8,0:0:0:0:
256,192,14792,1,8,0:0:0:0:
256,192,14877,1,0,0:0:0:0:
256,192,15049,1,0,0:0:0:0:
256,192,15135,1,8,0:0:0:0:
256,192,15220,1,0,0:0:0:0:
256,192,15306,1,8,0:0:0:0:
256,192,15392,1,0,0:0:0:0:
256,192,15563,1,0,0:0:0:0:
256,192,15649,1,8,0:0:0:0:
256,192,15735,1,0,0:0:0:0:
256,192,15820,1,8,0:0:0:0:
256,192,15992,1,0,0:0:0:0:
256,192,16077,1,8,0:0:0:0:
256,192,16163,1,8,0:0:0:0:
256,192,16249,1,0,0:0:0:0:
256,192,16420,1,8,0:0:0:0:
256,192,16763,1,0,0:0:0:0:
256,192,17106,1,8,0:0:0:0:
256,192,17449,1,0,0:0:0:0:
256,192,17620,1,8,0:0:0:0:
256,192,17792,1,8,0:0:0:0:
256,192,17963,1,8,0:0:0:0:
256,192,18049,1,0,0:0:0:0:
256,192,18135,1,8,0:0:0:0:
256,192,18306,1,8,0:0:0:0:
256,192,18477,1,0,0:0:0:0:
256,192,18649,1,8,0:0:0:0:
256,192,18820,1,8,0:0:0:0:
256,192,18906,1,8,0:0:0:0:
256,192,18992,1,0,0:0:0:0:
256,192,19163,1,0,0:0:0:0:
256,192,19335,1,0,0:0:0:0:
256,192,19420,1,8,0:0:0:0:
256,192,19592,1,8,0:0:0:0:
256,192,19677,1,0,0:0:0:0:
256,192,19763,1,0,0:0:0:0:
256,192,19849,1,8,0:0:0:0:
256,192,19935,1,0,0:0:0:0:
256,192,20020,1,8,0:0:0:0:
256,192,20192,1,8,0:0:0:0:
256,192,20277,1,8,0:0:0:0:
256,192,20363,1,0,0:0:0:0:
256,192,20535,1,0,0:0:0:0:
256,192,20620,1,0,0:0:0:0:
256,192,20706,1,8,0:0:0:0:
256,192,20792,1,0,0:0:0:0:
256,192,20877,1,8,0:0:0:0:
256,192,21049,1,0,0:0:0:0:
256,192,21220,1,8,0:0:0:0:
256,192,21392,1,0,0:0:0:0:
256,192,21477,1,8,0:0:0:0:
256,192,21649,1,8,0:0:0:0:
256,192,21735,1,0,0:0:0:0:
256,192,21906,1,8,0:0:0:0:
256,192,21992,1,0,0:0:0:0:
256,192,22077,1,8,0:0:0:0:
256,192,22163,1,0,0:0:0:0:
256,192,22249,1,8,0:0:0:0:
256,192,22420,1,0,0:0:0:0:
256,192,22506,1,0,0:0:0:0:
256,192,22592,1,8,0:0:0:0:
256,192,22763,1,8,0:0:0:0:
256,192,22935,1,8,0:0:0:0:
256,192,23020,1,0,0:0:0:0:
256,192,23192,1,0,0:0:0:0:
256,192,23277,1,8,0:0:0:0:
256,192,23449,1,0,0:0:0:0:
256,192,23535,1,8,0:0:0:0:
256,192,23620,1,0,0:0:0:0:
256,192,23706,1,0,0:0:0:0:
256,192,23792,1,8,0:0:0:0:
256,192,23963,1,12,0:0:0:0:
256,192,24306,1,12,0:0:0:0:
256,192,24649,1,12,0:0:0:0:
256,192,24820,1,8,0:0:0:0:
256,192,24992,1,0,0:0:0:0:
256,192,25077,1,0,0:0:0:0:
256,192,25163,1,8,0:0:0:0:
256,192,25335,1,0,0:0:0:0:
256,192,25506,1,8,0:0:0:0:
256,192,25677,1,0,0:0:0:0:
256,192,25763,1,0,0:0:0:0:
256,192,25849,1,8,0:0:0:0:
256,192,26020,1,0,0:0:0:0:
256,192,26192,1,8,0:0:0:0:
256,192,26277,1,0,0:0:0:0:
256,192,26363,1,8,0:0:0:0:
256,192,26535,1,8,0:0:0:0:
256,192,26620,1,0,0:0:0:0:
256,192,26706,1,0,0:0:0:0:
256,192,26877,1,8,0:0:0:0:
256,192,27049,1,8,0:0:0:0:
256,192,27135,1,0,0:0:0:0:
256,192,27220,1,8,0:0:0:0:
256,192,27306,1,8,0:0:0:0:
256,192,27392,1,0,0:0:0:0:
256,192,27563,1,8,0:0:0:0:
256,192,27735,1,8,0:0:0:0:
256,192,27906,1,8,0:0:0:0:
256,192,28077,1,0,0:0:0:0:
256,192,28249,1,8,0:0:0:0:
256,192,28420,1,0,0:0:0:0:
256,192,28506,1,0,0:0:0:0:
256,192,28592,1,8,0:0:0:0:
256,192,28763,1,0,0:0:0:0:
256,192,28935,1,8,0:0:0:0:
256,192,29020,1,0,0:0:0:0:
256,192,29106,1,8,0:0:0:0:
256,192,29277,1,8,0:0:0:0:
256,192,29449,1,0,0:0:0:0:
256,192,29620,1,8,0:0:0:0:
256,192,29792,1,0,0:0:0:0:
256,192,29877,1,0,0:0:0:0:
256,192,29963,1,8,0:0:0:0:
256,192,30049,1,0,0:0:0:0:
256,192,30135,1,8,0:0:0:0:
256,192,30306,1,8,0:0:0:0:
256,192,30477,1,0,0:0:0:0:
256,192,30563,1,0,0:0:0:0:
256,192,30649,1,8,0:0:0:0:
256,192,30820,1,0,0:0:0:0:
256,192,30992,1,8,0:0:0:0:
256,192,31163,1,0,0:0:0:0:
256,192,31249,1,0,0:0:0:0:
256,192,31335,1,8,0:0:0:0:
256,192,31506,1,0,0:0:0:0:
256,192,31677,1,8,0:0:0:0:
256,192,31763,1,0,0:0:0:0:
256,192,31849,1,8,0:0:0:0:
256,192,32020,1,8,0:0:0:0:
256,192,32106,1,0,0:0:0:0:
256,192,32192,1,0,0:0:0:0:
256,192,32363,1,8,0:0:0:0:
256,192,32535,1,8,0:0:0:0:
256,192,32620,1,0,0:0:0:0:
256,192,32706,1,8,0:0:0:0:
256,192,32792,1,8,0:0:0:0:
256,192,32877,1,0,0:0:0:0:
256,192,33049,1,8,0:0:0:0:
256,192,33220,1,8,0:0:0:0:
256,192,33392,1,8,0:0:0:0:
256,192,33563,1,0,0:0:0:0:
256,192,33735,1,8,0:0:0:0:
256,192,33906,1,0,0:0:0:0:
256,192,34077,1,8,0:0:0:0:
256,192,34249,1,0,0:0:0:0:
256,192,34420,1,8,0:0:0:0:
256,192,34506,1,0,0:0:0:0:
256,192,34592,1,8,0:0:0:0:
256,192,34763,1,8,0:0:0:0:
256,192,34935,1,12,0:0:0:0:
256,192,35277,1,12,0:0:0:0:
256,192,35620,1,12,0:0:0:0:
256,192,35792,1,8,0:0:0:0:
256,192,35963,1,0,0:0:0:0:
256,192,36049,1,0,0:0:0:0:
256,192,36135,1,8,0:0:0:0:
256,192,36306,1,0,0:0:0:0:
256,192,36477,1,8,0:0:0:0:
256,192,36649,1,0,0:0:0:0:
256,192,36735,1,0,0:0:0:0:
256,192,36820,1,8,0:0:0:0:
256,192,36992,1,0,0:0:0:0:
256,192,37163,1,8,0:0:0:0:
256,192,37249,1,0,0:0:0:0:
256,192,37335,1,8,0:0:0:0:
256,192,37506,1,8,0:0:0:0:
256,192,37592,1,0,0:0:0:0:
256,192,37677,1,0,0:0:0:0:
256,192,37849,1,8,0:0:0:0:
256,192,38020,1,8,0:0:0:0:
256,192,38106,1,0,0:0:0:0:
256,192,38192,1,8,0:0:0:0:
256,192,38277,1,8,0:0:0:0:
256,192,38363,1,0,0:0:0:0:
256,192,38535,1,8,0:0:0:0:
256,192,38706,1,8,0:0:0:0:
256,192,38877,1,8,0:0:0:0:
256,192,39049,1,0,0:0:0:0:
256,192,39220,1,8,0:0:0:0:
256,192,39392,1,0,0:0:0:0:
256,192,39477,1,0,0:0:0:0:
256,192,39563,1,8,0:0:0:0:
256,192,39735,1,0,0:0:0:0:
256,192,39906,1,8,0:0:0:0:
256,192,39992,1,0,0:0:0:0:
256,192,40077,1,8,0:0:0:0:
256,192,40249,1,8,0:0:0:0:
256,192,40420,1,0,0:0:0:0:
256,192,40592,1,8,0:0:0:0:
256,192,40763,1,0,0:0:0:0:
256,192,40849,1,0,0:0:0:0:
256,192,40935,1,8,0:0:0:0:
256,192,41020,1,0,0:0:0:0:
256,192,41106,1,8,0:0:0:0:
256,192,41277,1,8,0:0:0:0:
256,192,41449,1,0,0:0:0:0:
256,192,41535,1,0,0:0:0:0:
256,192,41620,1,8,0:0:0:0:
256,192,41792,1,0,0:0:0:0:
256,192,41963,1,8,0:0:0:0:
256,192,42135,1,0,0:0:0:0:
256,192,42220,1,0,0:0:0:0:
256,192,42306,1,8,0:0:0:0:
256,192,42477,1,0,0:0:0:0:
256,192,42649,1,8,0:0:0:0:
256,192,42735,1,0,0:0:0:0:
256,192,42820,1,8,0:0:0:0:
256,192,42992,1,8,0:0:0:0:
256,192,43077,1,0,0:0:0:0:
256,192,43163,1,0,0:0:0:0:
256,192,43335,1,8,0:0:0:0:
256,192,43506,1,8,0:0:0:0:
256,192,43592,1,0,0:0:0:0:
256,192,43677,1,8,0:0:0:0:
256,192,43763,1,8,0:0:0:0:
256,192,43849,1,0,0:0:0:0:
256,192,44020,1,0,0:0:0:0:
256,192,44192,1,0,0:0:0:0:
256,192,44363,1,0,0:0:0:0:
256,192,44535,1,0,0:0:0:0:
256,192,44706,1,8,0:0:0:0:
256,192,44877,1,0,0:0:0:0:
256,192,45049,1,8,0:0:0:0:
256,192,45220,1,0,0:0:0:0:
256,192,45392,1,8,0:0:0:0:
256,192,45563,1,8,0:0:0:0:
256,192,45735,1,8,0:0:0:0:
256,192,45906,1,8,0:0:0:0:
256,192,46077,1,8,0:0:0:0:
256,192,46249,1,8,0:0:0:0:
256,192,46420,1,8,0:0:0:0:
256,192,46592,1,4,0:0:0:0:
256,192,47106,1,0,0:0:0:0:
256,192,47792,1,8,0:0:0:0:
256,192,48477,1,0,0:0:0:0:
256,192,48820,1,8,0:0:0:0:
256,192,49335,1,0,0:0:0:0:
256,192,49849,1,8,0:0:0:0:
256,192,50535,1,0,0:0:0:0:
256,192,51220,1,8,0:0:0:0:
256,192,51563,1,8,0:0:0:0:
256,192,52077,1,0,0:0:0:0:
256,192,52592,1,8,0:0:0:0:
256,192,53277,1,0,0:0:0:0:
256,192,53963,1,8,0:0:0:0:
256,192,54306,1,0,0:0:0:0:
256,192,54820,1,0,0:0:0:0:
256,192,55335,1,8,0:0:0:0:
256,192,56020,1,8,0:0:0:0:
256,192,56363,1,8,0:0:0:0:
256,192,56706,1,8,0:0:0:0:
256,192,57049,1,8,0:0:0:0:
256,192,57220,1,8,0:0:0:0:
256,192,57563,1,12,0:0:0:0:
256,192,57906,1,8,0:0:0:0:
256,192,58077,1,0,0:0:0:0:
256,192,58420,1,0,0:0:0:0:
256,192,58592,1,8,0:0:0:0:
256,192,58763,1,0,0:0:0:0:
256,192,58935,1,0,0:0:0:0:
256,192,59277,1,8,0:0:0:0:
256,192,59449,1,0,0:0:0:0:
256,192,59792,1,0,0:0:0:0:
256,192,59877,1,0,0:0:0:0:
256,192,59963,1,8,0:0:0:0:
256,192,60135,1,0,0:0:0:0:
256,192,60306,1,0,0:0:0:0:
256,192,60649,1,8,0:0:0:0:
256,192,60820,1,0,0:0:0:0:
256,192,60992,1,0,0:0:0:0:
256,192,61163,1,0,0:0:0:0:
256,192,61335,1,8,0:0:0:0:
256,192,61677,1,0,0:0:0:0:
256,192,62020,1,8,0:0:0:0:
256,192,62192,1,0,0:0:0:0:
256,192,62535,1,0,0:0:0:0:
256,192,62620,1,0,0:0:0:0:
256,192,62706,1,8,0:0:0:0:
256,192,62877,1,0,0:0:0:0:
256,192,63049,1,0,0:0:0:0:
256,192,63392,1,8,0:0:0:0:
256,192,63563,1,0,0:0:0:0:
256,192,63906,1,0,0:0:0:0:
256,192,64077,1,8,0:0:0:0:
256,192,64249,1,0,0:0:0:0:
256,192,64420,1,0,0:0:0:0:
256,192,64763,1,8,0:0:0:0:
256,192,64935,1,0,0:0:0:0:
256,192,65277,1,0,0:0:0:0:
256,192,65363,1,0,0:0:0:0:
256,192,65449,1,8,0:0:0:0:
256,192,65620,1,0,0:0:0:0:
256,192,65792,1,0,0:0:0:0:
256,192,66135,1,8,0:0:0:0:
256,192,66306,1,0,0:0:0:0:
256,192,66477,1,0,0:0:0:0:
256,192,66649,1,0,0:0:0:0:
256,192,66820,1,8,0:0:0:0:
256,192,66992,1,8,0:0:0:0:
256,192,67335,1,8,0:0:0:0:
256,192,67677,1,8,0:0:0:0:
256,192,68020,1,8,0:0:0:0:
256,192,68192,1,8,0:0:0:0:
256,192,68535,1,8,0:0:0:0:
256,192,68706,1,0,0:0:0:0:
256,192,68877,1,8,0:0:0:0:
256,192,69049,1,8,0:0:0:0:
256,192,69220,1,0,0:0:0:0:
256,192,69392,1,8,0:0:0:0:
256,192,69563,1,8,0:0:0:0:
256,192,69735,1,0,0:0:0:0:
256,192,70077,1,8,0:0:0:0:
256,192,70420,1,0,0:0:0:0:
256,192,70592,1,8,0:0:0:0:
256,192,70935,1,0,0:0:0:0:
256,192,71106,1,8,0:0:0:0:
256,192,71277,1,0,0:0:0:0:
256,192,71620,1,8,0:0:0:0:
256,192,71963,1,0,0:0:0:0:
256,192,72135,1,8,0:0:0:0:
256,192,72306,1,8,0:0:0:0:
256,192,72477,1,0,0:0:0:0:
256,192,72820,1,8,0:0:0:0:
256,192,73163,1,8,0:0:0:0:
256,192,73506,1,0,0:0:0:0:
256,192,73849,1,8,0:0:0:0:
256,192,74192,1,0,0:0:0:0:
256,192,74363,1,0,0:0:0:0:
256,192,74535,1,8,0:0:0:0:
256,192,74706,1,0,0:0:0:0:
256,192,74877,1,8,0:0:0:0:
256,192,75049,1,8,0:0:0:0:
256,192,75220,1,0,0:0:0:0:
256,192,75563,1,8,0:0:0:0:
256,192,75906,1,0,0:0:0:0:
256,192,76077,1,8,0:0:0:0:
256,192,76420,1,0,0:0:0:0:
256,192,76592,1,8,0:0:0:0:
256,192,76763,1,0,0:0:0:0:
256,192,77106,1,8,0:0:0:0:
256,192,77449,1,0,0:0:0:0:
256,192,77620,1,8,0:0:0:0:
256,192,77792,1,0,0:0:0:0:
256,192,77963,1,8,0:0:0:0:
256,192,78306,1,8,0:0:0:0:
256,192,78649,1,8,0:0:0:0:
256,192,78992,1,8,0:0:0:0:
256,192,79163,1,8,0:0:0:0:
256,192,79506,1,12,0:0:0:0:
256,192,79677,1,0,0:0:0:0:
256,192,79849,1,8,0:0:0:0:
256,192,80020,1,8,0:0:0:0:
256,192,80192,1,0,0:0:0:0:
256,192,80363,1,0,0:0:0:0:
256,192,80535,1,8,0:0:0:0:
256,192,80706,1,0,0:0:0:0:
256,192,81049,1,8,0:0:0:0:
256,192,81392,1,0,0:0:0:0:
256,192,81563,1,8,0:0:0:0:
256,192,81820,1,0,0:0:0:0:
256,192,81906,1,8,0:0:0:0:
256,192,82077,1,8,0:0:0:0:
256,192,82249,1,8,0:0:0:0:
256,192,82592,1,8,0:0:0:0:
256,192,82935,1,8,0:0:0:0:
256,192,83106,1,0,0:0:0:0:
256,192,83277,1,0,0:0:0:0:
256,192,83449,1,8,0:0:0:0:
256,192,83792,1,0,0:0:0:0:
256,192,84135,1,8,0:0:0:0:
256,192,84306,1,0,0:0:0:0:
256,192,84392,1,0,0:0:0:0:
256,192,84477,1,8,0:0:0:0:
256,192,84649,1,0,0:0:0:0:
256,192,84820,1,8,0:0:0:0:
256,192,84992,1,0,0:0:0:0:
256,192,85163,1,0,0:0:0:0:
256,192,85249,1,0,0:0:0:0:
256,192,85335,1,8,0:0:0:0:
256,192,85506,1,8,0:0:0:0:
256,192,85677,1,0,0:0:0:0:
256,192,85849,1,8,0:0:0:0:
256,192,85935,1,8,0:0:0:0:
256,192,86020,1,0,0:0:0:0:
256,192,86192,1,8,0:0:0:0:
256,192,86363,1,0,0:0:0:0:
256,192,86535,1,0,0:0:0:0:
256,192,86620,1,8,0:0:0:0:
256,192,86706,1,8,0:0:0:0:
256,192,86877,1,8,0:0:0:0:
256,192,87049,1,8,0:0:0:0:
256,192,87135,1,8,0:0:0:0:
256,192,87220,1,0,0:0:0:0:
256,192,87306,1,0,0:0:0:0:
256,192,87392,1,8,0:0:0:0:
256,192,87563,1,0,0:0:0:0:
256,192,87620,1,0,0:0:0:0:
256,192,87677,1,0,0:0:0:0:
256,192,87735,1,8,0:0:0:0:
256,192,87820,1,8,0:0:0:0:
256,192,87906,1,0,0:0:0:0:
256,192,87992,1,0,0:0:0:0:
256,192,88077,1,8,0:0:0:0:
256,192,88163,1,8,0:0:0:0:
256,192,88249,1,0,0:0:0:0:
256,192,88335,1,0,0:0:0:0:
256,192,88420,1,8,0:0:0:0:
256,192,88506,1,0,0:0:0:0:
256,192,88592,1,8,0:0:0:0:
256,192,88677,1,8,0:0:0:0:
256,192,88763,1,0,0:0:0:0:
256,192,88849,1,0,0:0:0:0:
256,192,88935,1,12,0:0:0:0:
256,192,89277,1,12,0:0:0:0:
256,192,89620,1,12,0:0:0:0:
256,192,89963,1,12,0:0:0:0:
256,192,90135,1,12,0:0:0:0:
256,192,90477,1,12,0:0:0:0:
256,192,90649,1,0,0:0:0:0:
256,192,90735,1,0,0:0:0:0:
256,192,90820,1,8,0:0:0:0:
256,192,90906,1,8,0:0:0:0:
256,192,90992,1,0,0:0:0:0:
256,192,91163,1,8,0:0:0:0:
256,192,91335,1,8,0:0:0:0:
256,192,91420,1,8,0:0:0:0:
256,192,91506,1,0,0:0:0:0:
256,192,91677,1,8,0:0:0:0:
256,192,91849,1,8,0:0:0:0:
256,192,92020,1,8,0:0:0:0:
256,192,92106,1,8,0:0:0:0:
256,192,92192,1,0,0:0:0:0:
256,192,92363,1,8,0:0:0:0:
256,192,92449,1,0,0:0:0:0:
256,192,92535,1,0,0:0:0:0:
256,192,92706,1,8,0:0:0:0:
256,192,92877,1,8,0:0:0:0:
256,192,93049,1,0,0:0:0:0:
256,192,93135,1,0,0:0:0:0:
256,192,93220,1,8,0:0:0:0:
256,192,93392,1,0,0:0:0:0:
256,192,93477,1,0,0:0:0:0:
256,192,93563,1,8,0:0:0:0:
256,192,93649,1,8,0:0:0:0:
256,192,93735,1,0,0:0:0:0:
256,192,93906,1,8,0:0:0:0:
256,192,94077,1,8,0:0:0:0:
256,192,94163,1,8,0:0:0:0:
256,192,94249,1,0,0:0:0:0:
256,192,94420,1,8,0:0:0:0:
256,192,94592,1,8,0:0:0:0:
256,192,94763,1,8,0:0:0:0:
256,192,94935,1,0,0:0:0:0:
256,192,95106,1,0,0:0:0:0:
256,192,95277,1,8,0:0:0:0:
256,192,95449,1,0,0:0:0:0:
256,192,95620,1,8,0:0:0:0:
256,192,95792,1,0,0:0:0:0:
256,192,95877,1,0,0:0:0:0:
256,192,95963,1,8,0:0:0:0:
256,192,96135,1,0,0:0:0:0:
256,192,96220,1,0,0:0:0:0:
256,192,96306,1,8,0:0:0:0:
256,192,96392,1,8,0:0:0:0:
256,192,96477,1,0,0:0:0:0:
256,192,96649,1,8,0:0:0:0:
256,192,96820,1,8,0:0:0:0:
256,192,96906,1,8,0:0:0:0:
256,192,96992,1,0,0:0:0:0:
256,192,97163,1,8,0:0:0:0:
256,192,97335,1,8,0:0:0:0:
256,192,97506,1,8,0:0:0:0:
256,192,97677,1,0,0:0:0:0:
256,192,97849,1,8,0:0:0:0:
256,192,98020,1,0,0:0:0:0:
256,192,98192,1,8,0:0:0:0:
256,192,98363,1,8,0:0:0:0:
256,192,98535,1,0,0:0:0:0:
256,192,98620,1,0,0:0:0:0:
256,192,98706,1,8,0:0:0:0:
256,192,98877,1,0,0:0:0:0:
256,192,98963,1,0,0:0:0:0:
256,192,99049,1,8,0:0:0:0:
256,192,99135,1,8,0:0:0:0:
256,192,99220,1,0,0:0:0:0:
256,192,99392,1,8,0:0:0:0:
256,192,99563,1,8,0:0:0:0:
256,192,99649,1,8,0:0:0:0:
256,192,99735,1,0,0:0:0:0:
256,192,99906,1,8,0:0:0:0:
256,192,100077,1,8,0:0:0:0:
256,192,100249,1,8,0:0:0:0:
256,192,100420,1,0,0:0:0:0:
256,192,100592,1,0,0:0:0:0:
256,192,100763,1,8,0:0:0:0:
256,192,100935,1,0,0:0:0:0:
256,192,101106,1,12,0:0:0:0:
256,192,101277,1,0,0:0:0:0:
256,192,101449,1,4,0:0:0:0:
256,192,101620,1,0,0:0:0:0:
256,192,101706,1,0,0:0:0:0:
256,192,101792,1,8,0:0:0:0:
256,192,101877,1,8,0:0:0:0:
256,192,101963,1,0,0:0:0:0:
256,192,102135,1,8,0:0:0:0:
256,192,102306,1,8,0:0:0:0:
256,192,102392,1,8,0:0:0:0:
256,192,102477,1,0,0:0:0:0:
256,192,102649,1,8,0:0:0:0:
256,192,102820,1,8,0:0:0:0:
256,192,102992,1,8,0:0:0:0:
256,192,103077,1,8,0:0:0:0:
256,192,103163,1,0,0:0:0:0:
256,192,103335,1,8,0:0:0:0:
256,192,103420,1,0,0:0:0:0:
256,192,103506,1,0,0:0:0:0:
256,192,103677,1,8,0:0:0:0:
256,192,103849,1,8,0:0:0:0:
256,192,104020,1,0,0:0:0:0:
256,192,104106,1,0,0:0:0:0:
256,192,104192,1,8,0:0:0:0:
256,192,104363,1,0,0:0:0:0:
256,192,104449,1,0,0:0:0:0:
256,192,104535,1,8,0:0:0:0:
256,192,104620,1,8,0:0:0:0:
256,192,104706,1,0,0:0:0:0:
256,192,104877,1,8,0:0:0:0:
256,192,105049,1,8,0:0:0:0:
256,192,105135,1,8,0:0:0:0:
256,192,105220,1,0,0:0:0:0:
256,192,105392,1,8,0:0:0:0:
256,192,105563,1,8,0:0:0:0:
256,192,105735,1,8,0:0:0:0:
256,192,105906,1,0,0:0:0:0:
256,192,106077,1,0,0:0:0:0:
256,192,106249,1,8,0:0:0:0:
256,192,106420,1,0,0:0:0:0:
256,192,106592,1,8,0:0:0:0:
256,192,106763,1,0,0:0:0:0:
256,192,106849,1,0,0:0:0:0:
256,192,106935,1,8,0:0:0:0:
256,192,107106,1,0,0:0:0:0:
256,192,107192,1,0,0:0:0:0:
256,192,107277,1,8,0:0:0:0:
256,192,107363,1,8,0:0:0:0:
256,192,107449,1,0,0:0:0:0:
256,192,107620,1,8,0:0:0:0:
256,192,107792,1,8,0:0:0:0:
256,192,107877,1,8,0:0:0:0:
256,192,107963,1,0,0:0:0:0:
256,192,108135,1,8,0:0:0:0:
256,192,108306,1,8,0:0:0:0:
256,192,108477,1,8,0:0:0:0:
256,192,108649,1,0,0:0:0:0:
256,192,108820,1,8,0:0:0:0:
256,192,108992,1,0,0:0:0:0:
256,192,109163,1,8,0:0:0:0:
256,192,109335,1,8,0:0:0:0:
256,192,109506,1,0,0:0:0:0:
256,192,109592,1,0,0:0:0:0:
256,192,109677,1,8,0:0:0:0:
256,192,110877,1,0,0:0:0:0:
256,192,111220,1,8,0:0:0:0:
256,192,111563,1,8,0:0:0:0:
256,192,111906,1,8,0:0:0:0:
256,192,112077,1,8,0:0:0:0:
256,192,112249,1,0,0:0:0:0:
256,192,112420,1,4,0:0:0:0:
256,192,112592,1,8,0:0:0:0:
256,192,112763,1,8,0:0:0:0:
256,192,112935,1,0,0:0:0:0:
256,192,113020,1,0,0:0:0:0:
256,192,113106,1,8,0:0:0:0:
256,192,113192,1,8,0:0:0:0:
256,192,113277,1,0,0:0:0:0:
256,192,113449,1,8,0:0:0:0:
256,192,113620,1,8,0:0:0:0:
256,192,113706,1,0,0:0:0:0:
256,192,113792,1,0,0:0:0:0:
256,192,113963,1,8,0:0:0:0:
256,192,114049,1,8,0:0:0:0:
256,192,114135,1,0,0:0:0:0:
256,192,114306,1,8,0:0:0:0:
256,192,114477,1,8,0:0:0:0:
256,192,114649,1,0,0:0:0:0:
256,192,114735,1,0,0:0:0:0:
256,192,114820,1,8,0:0:0:0:
256,192,114992,1,8,0:0:0:0:
256,192,115163,1,8,0:0:0:0:
256,192,115335,1,0,0:0:0:0:
256,192,115506,1,8,0:0:0:0:
256,192,115677,1,0,0:0:0:0:
256,192,115763,1,0,0:0:0:0:
256,192,115849,1,8,0:0:0:0:
256,192,115935,1,0,0:0:0:0:
256,192,116020,1,0,0:0:0:0:
256,192,116192,1,8,0:0:0:0:
256,192,116363,1,8,0:0:0:0:
256,192,116449,1,0,0:0:0:0:
256,192,116535,1,0,0:0:0:0:
256,192,116706,1,8,0:0:0:0:
256,192,116792,1,0,0:0:0:0:
256,192,116877,1,0,0:0:0:0:
256,192,117049,1,8,0:0:0:0:
256,192,117135,1,8,0:0:0:0:
256,192,117220,1,0,0:0:0:0:
256,192,117392,1,8,0:0:0:0:
256,192,117477,1,0,0:0:0:0:
256,192,117563,1,8,0:0:0:0:
256,192,117649,1,0,0:0:0:0:
256,192,117735,1,8,0:0:0:0:
256,192,117906,1,4,0:0:0:0:
256,192,118077,1,8,0:0:0:0:
256,192,118249,1,8,0:0:0:0:
256,192,118420,1,0,0:0:0:0:
256,192,118506,1,0,0:0:0:0:
256,192,118592,1,8,0:0:0:0:
256,192,118677,1,0,0:0:0:0:
256,192,118763,1,0,0:0:0:0:
256,192,118935,1,8,0:0:0:0:
256,192,119106,1,8,0:0:0:0:
256,192,119192,1,0,0:0:0:0:
256,192,119277,1,0,0:0:0:0:
256,192,119449,1,8,0:0:0:0:
256,192,119535,1,8,0:0:0:0:
256,192,119620,1,0,0:0:0:0:
256,192,119792,1,8,0:0:0:0:
256,192,119963,1,8,0:0:0:0:
256,192,120135,1,0,0:0:0:0:
256,192,120220,1,0,0:0:0:0:
256,192,120306,1,8,0:0:0:0:
256,192,120477,1,8,0:0:0:0:
256,192,120649,1,8,0:0:0:0:
256,192,120820,1,0,0:0:0:0:
256,192,120906,1,0,0:0:0:0:
256,192,120992,1,8,0:0:0:0:
256,192,121163,1,0,0:0:0:0:
256,192,121249,1,0,0:0:0:0:
256,192,121335,1,8,0:0:0:0:
256,192,121420,1,0,0:0:0:0:
256,192,121506,1,0,0:0:0:0:
256,192,121677,1,8,0:0:0:0:
256,192,121849,1,8,0:0:0:0:
256,192,122020,1,0,0:0:0:0:
256,192,122192,1,8,0:0:0:0:
256,192,122277,1,0,0:0:0:0:
256,192,122363,1,0,0:0:0:0:
256,192,122535,1,8,0:0:0:0:
256,192,122706,1,0,0:0:0:0:
256,192,122877,1,0,0:0:0:0:
256,192,123049,1,12,0:0:0:0:
256,192,123220,1,0,0:0:0:0:
256,192,123392,1,4,0:0:0:0:
256,192,123563,1,8,0:0:0:0:
256,192,123735,1,8,0:0:0:0:
256,192,123906,1,0,0:0:0:0:
256,192,123992,1,0,0:0:0:0:
256,192,124077,1,8,0:0:0:0:
256,192,124163,1,0,0:0:0:0:
256,192,124249,1,0,0:0:0:0:
256,192,124420,1,8,0:0:0:0:
256,192,124592,1,8,0:0:0:0:
256,192,124677,1,0,0:0:0:0:
256,192,124763,1,0,0:0:0:0:
256,192,124935,1,8,0:0:0:0:
256,192,125020,1,8,0:0:0:0:
256,192,125106,1,0,0:0:0:0:
256,192,125277,1,8,0:0:0:0:
256,192,125449,1,8,0:0:0:0:
256,192,125620,1,0,0:0:0:0:
256,192,125706,1,0,0:0:0:0:
256,192,125792,1,8,0:0:0:0:
256,192,125963,1,8,0:0:0:0:
256,192,126135,1,8,0:0:0:0:
256,192,126306,1,0,0:0:0:0:
256,192,126477,1,8,0:0:0:0:
256,192,126649,1,0,0:0:0:0:
256,192,126735,1,0,0:0:0:0:
256,192,126820,1,8,0:0:0:0:
256,192,126992,1,0,0:0:0:0:
256,192,127163,1,0,0:0:0:0:
256,192,127335,1,8,0:0:0:0:
256,192,127420,1,0,0:0:0:0:
256,192,127506,1,0,0:0:0:0:
256,192,127677,1,8,0:0:0:0:
256,192,127763,1,0,0:0:0:0:
256,192,127849,1,0,0:0:0:0:
256,192,128020,1,8,0:0:0:0:
256,192,128106,1,8,0:0:0:0:
256,192,128192,1,0,0:0:0:0:
256,192,128363,1,8,0:0:0:0:
256,192,128449,1,0,0:0:0:0:
256,192,128535,1,8,0:0:0:0:
256,192,128620,1,0,0:0:0:0:
256,192,128706,1,8,0:0:0:0:
256,192,128877,1,4,0:0:0:0:
256,192,129049,1,8,0:0:0:0:
256,192,129220,1,8,0:0:0:0:
256,192,129392,1,0,0:0:0:0:
256,192,129477,1,0,0:0:0:0:
256,192,129563,1,8,0:0:0:0:
256,192,129649,1,0,0:0:0:0:
256,192,129735,1,0,0:0:0:0:
256,192,129906,1,8,0:0:0:0:
256,192,130077,1,8,0:0:0:0:
256,192,130163,1,0,0:0:0:0:
256,192,130249,1,0,0:0:0:0:
256,192,130420,1,8,0:0:0:0:
256,192,130506,1,8,0:0:0:0:
256,192,130592,1,0,0:0:0:0:
256,192,130763,1,8,0:0:0:0:
256,192,130935,1,8,0:0:0:0:
256,192,131106,1,0,0:0:0:0:
256,192,131192,1,0,0:0:0:0:
256,192,131277,1,8,0:0:0:0:
256,192,131449,1,0,0:0:0:0:
256,192,131620,1,8,0:0:0:0:
256,192,131792,1,0,0:0:0:0:
256,192,131877,1,0,0:0:0:0:
256,192,131963,1,8,0:0:0:0:
256,192,132135,1,0,0:0:0:0:
256,192,132220,1,0,0:0:0:0:
256,192,132306,1,8,0:0:0:0:
256,192,132392,1,0,0:0:0:0:
256,192,132477,1,8,0:0:0:0:
256,192,132649,1,8,0:0:0:0:
256,192,132820,1,12,0:0:0:0:
256,192,133163,1,12,0:0:0:0:
256,192,133506,1,12,0:0:0:0:
256,192,133849,1,12,0:0:0:0:
256,192,134020,1,12,0:0:0:0:
256,192,134363,1,12,0:0:0:0:
256,192,134877,1,0,0:0:0:0:
256,192,135392,1,0,0:0:0:0:
256,192,135563,1,8,0:0:0:0:
256,192,135906,1,0,0:0:0:0:
256,192,136077,1,0,0:0:0:0:
256,192,136249,1,0,0:0:0:0:
256,192,136335,1,0,0:0:0:0:
256,192,136420,1,8,0:0:0:0:
256,192,136592,1,0,0:0:0:0:
256,192,136935,1,0,0:0:0:0:
256,192,137106,1,8,0:0:0:0:
256,192,137620,1,8,0:0:0:0:
256,192,138135,1,0,0:0:0:0:
256,192,138306,1,8,0:0:0:0:
256,192,138649,1,0,0:0:0:0:
256,192,138820,1,8,0:0:0:0:
256,192,138992,1,8,0:0:0:0:
256,192,139077,1,0,0:0:0:0:
256,192,139163,1,0,0:0:0:0:
256,192,139335,1,8,0:0:0:0:
256,192,139677,1,0,0:0:0:0:
256,192,139849,1,8,0:0:0:0:
256,192,140363,1,8,0:0:0:0:
256,192,140877,1,8,0:0:0:0:
256,192,141049,1,0,0:0:0:0:
256,192,141392,1,0,0:0:0:0:
256,192,141563,1,8,0:0:0:0:
256,192,141735,1,0,0:0:0:0:
256,192,141820,1,0,0:0:0:0:
256,192,141906,1,8,0:0:0:0:
256,192,142077,1,8,0:0:0:0:
256,192,142420,1,0,0:0:0:0:
256,192,142592,1,8,0:0:0:0:
256,192,143106,1,8,0:0:0:0:
256,192,143620,1,8,0:0:0:0:
256,192,143792,1,0,0:0:0:0:
256,192,144135,1,0,0:0:0:0:
256,192,144306,1,8,0:0:0:0:
256,192,144477,1,8,0:0:0:0:
256,192,144563,1,0,0:0:0:0:
256,192,144649,1,0,0:0:0:0:
256,192,144820,1,8,0:0:0:0:
256,192,145163,1,0,0:0:0:0:
256,192,145335,1,12,0:0:0:0:
256,192,145849,1,0,0:0:0:0:
256,192,146020,1,8,0:0:0:0:
256,192,146535,1,0,0:0:0:0:
256,192,146792,1,0,0:0:0:0:
256,192,147049,1,0,0:0:0:0:
256,192,147220,1,0,0:0:0:0:
256,192,147306,1,0,0:0:0:0:
256,192,147392,1,8,0:0:0:0:
256,192,148077,1,8,0:0:0:0:
256,192,148592,1,0,0:0:0:0:
256,192,148763,1,8,0:0:0:0:
256,192,149277,1,0,0:0:0:0:
256,192,149535,1,0,0:0:0:0:
256,192,149792,1,0,0:0:0:0:
256,192,149963,1,0,0:0:0:0:
256,192,150049,1,0,0:0:0:0:
256,192,150135,1,8,0:0:0:0:
256,192,150820,1,8,0:0:0:0:
256,192,151335,1,0,0:0:0:0:
256,192,151506,1,8,0:0:0:0:
256,192,152020,1,0,0:0:0:0:
256,192,152277,1,0,0:0:0:0:
256,192,152535,1,0,0:0:0:0:
256,192,152706,1,0,0:0:0:0:
256,192,152792,1,0,0:0:0:0:
256,192,152877,1,8,0:0:0:0:
256,192,153220,1,0,0:0:0:0:
256,192,153563,1,8,0:0:0:0:
256,192,153906,1,0,0:0:0:0:
256,192,154077,1,0,0:0:0:0:
256,192,154249,1,8,0:0:0:0:
256,192,154592,1,0,0:0:0:0:
256,192,154935,1,0,0:0:0:0:
256,192,155106,1,0,0:0:0:0:
256,192,155277,1,0,0:0:0:0:
256,192,155449,1,0,0:0:0:0:
256,192,155620,1,0,0:0:0:0:
256,192,155706,1,0,0:0:0:0:
256,192,155792,1,0,0:0:0:0:
256,192,155877,1,0,0:0:0:0:
256,192,155963,1,12,0:0:0:0:
256,192,156306,1,4,0:0:0:0:
256,192,156649,1,0,0:0:0:0:
256,192,156820,1,0,0:0:0:0:
256,192,156992,1,8,0:0:0:0:
256,192,157163,1,0,0:0:0:0:
256,192,157335,1,0,0:0:0:0:
256,192,157506,1,8,0:0:0:0:
256,192,157763,1,0,0:0:0:0:
256,192,157849,1,8,0:0:0:0:
256,192,158020,1,0,0:0:0:0:
256,192,158363,1,8,0:0:0:0:
256,192,158706,1,8,0:0:0:0:
256,192,158877,1,0,0:0:0:0:
256,192,159049,1,8,0:0:0:0:
256,192,159163,1,8,0:0:0:0:
256,192,159277,1,8,0:0:0:0:
256,192,159392,1,0,0:0:0:0:
256,192,159563,1,0,0:0:0:0:
256,192,159735,1,8,0:0:0:0:
256,192,159849,1,8,0:0:0:0:
256,192,159963,1,8,0:0:0:0:
256,192,160077,1,0,0:0:0:0:
256,192,160249,1,0,0:0:0:0:
256,192,160420,1,8,0:0:0:0:
256,192,160535,1,8,0:0:0:0:
256,192,160649,1,8,0:0:0:0:
256,192,160763,1,0,0:0:0:0:
256,192,160935,1,0,0:0:0:0:
256,192,161106,1,8,0:0:0:0:
256,192,161220,1,8,0:0:0:0:
256,192,161335,1,8,0:0:0:0:
256,192,161449,1,0,0:0:0:0:
256,192,161620,1,0,0:0:0:0:
256,192,161792,1,12,0:0:0:0:
256,192,162135,1,12,0:0:0:0:
256,192,162306,1,0,0:0:0:0:
256,192,162477,1,8,0:0:0:0:
256,192,162649,1,0,0:0:0:0:
256,192,162820,1,0,0:0:0:0:
256,192,162992,1,8,0:0:0:0:
256,192,163249,1,0,0:0:0:0:
256,192,163335,1,8,0:0:0:0:
256,192,163506,1,0,0:0:0:0:
256,192,163849,1,8,0:0:0:0:
256,192,164192,1,8,0:0:0:0:
256,192,164363,1,0,0:0:0:0:
256,192,164535,1,8,0:0:0:0:
256,192,164649,1,8,0:0:0:0:
256,192,164763,1,8,0:0:0:0:
256,192,164877,1,0,0:0:0:0:
256,192,165049,1,0,0:0:0:0:
256,192,165220,1,8,0:0:0:0:
256,192,165335,1,8,0:0:0:0:
256,192,165449,1,8,0:0:0:0:
256,192,165563,1,0,0:0:0:0:
256,192,165735,1,0,0:0:0:0:
256,192,165906,1,0,0:0:0:0:
256,192,166135,1,8,0:0:0:0:
256,192,166249,1,0,0:0:0:0:
256,192,166477,1,0,0:0:0:0:
256,192,166592,1,0,0:0:0:0:
256,192,166763,1,8,0:0:0:0:
256,192,166849,1,8,0:0:0:0:
256,192,166935,1,0,0:0:0:0:
256,192,167106,1,8,0:0:0:0:
256,192,167277,1,12,0:0:0:0:
256,192,167620,1,0,0:0:0:0:
256,192,167792,1,0,0:0:0:0:
256,192,167963,1,8,0:0:0:0:
256,192,168135,1,0,0:0:0:0:
256,192,168306,1,0,0:0:0:0:
256,192,168477,1,8,0:0:0:0:
256,192,168735,1,0,0:0:0:0:
256,192,168820,1,8,0:0:0:0:
256,192,168992,1,0,0:0:0:0:
256,192,169335,1,8,0:0:0:0:
256,192,169677,1,8,0:0:0:0:
256,192,169849,1,0,0:0:0:0:
256,192,170020,1,8,0:0:0:0:
256,192,170135,1,8,0:0:0:0:
256,192,170249,1,8,0:0:0:0:
256,192,170363,1,0,0:0:0:0:
256,192,170535,1,0,0:0:0:0:
256,192,170706,1,8,0:0:0:0:
256,192,170820,1,8,0:0:0:0:
256,192,170935,1,8,0:0:0:0:
256,192,171049,1,0,0:0:0:0:
256,192,171220,1,0,0:0:0:0:
256,192,171392,1,8,0:0:0:0:
256,192,171506,1,8,0:0:0:0:
256,192,171620,1,8,0:0:0:0:
256,192,171735,1,0,0:0:0:0:
256,192,171906,1,0,0:0:0:0:
256,192,172077,1,8,0:0:0:0:
256,192,172192,1,8,0:0:0:0:
256,192,172306,1,8,0:0:0:0:
256,192,172420,1,0,0:0:0:0:
256,192,172592,1,0,0:0:0:0:
256,192,172763,1,12,0:0:0:0:
256,192,173106,1,12,0:0:0:0:
256,192,173277,1,0,0:0:0:0:
256,192,173449,1,8,0:0:0:0:
256,192,173620,1,0,0:0:0:0:
256,192,173792,1,0,0:0:0:0:
256,192,173963,1,8,0:0:0:0:
256,192,174220,1,0,0:0:0:0:
256,192,174306,1,8,0:0:0:0:
256,192,174477,1,0,0:0:0:0:
256,192,174820,1,8,0:0:0:0:
256,192,175163,1,8,0:0:0:0:
256,192,175335,1,0,0:0:0:0:
256,192,175506,1,8,0:0:0:0:
256,192,175620,1,8,0:0:0:0:
256,192,175735,1,8,0:0:0:0:
256,192,175849,1,0,0:0:0:0:
256,192,176020,1,0,0:0:0:0:
256,192,176192,1,8,0:0:0:0:
256,192,176306,1,8,0:0:0:0:
256,192,176420,1,8,0:0:0:0:
256,192,176535,1,0,0:0:0:0:
256,192,176706,1,0,0:0:0:0:
256,192,176877,1,8,0:0:0:0:
256,192,177049,1,0,0:0:0:0:
256,192,177220,1,0,0:0:0:0:
256,192,177392,1,0,0:0:0:0:
256,192,177563,1,0,0:0:0:0:
256,192,177649,1,0,0:0:0:0:
256,192,177735,1,0,0:0:0:0:
256,192,177820,1,0,0:0:0:0:
256,192,177906,1,8,0:0:0:0:
256,192,178249,1,4,0:0:0:0:
256,192,178420,1,0,0:0:0:0:
256,192,178506,1,0,0:0:0:0:
256,192,178592,1,0,0:0:0:0:
256,192,178763,1,8,0:0:0:0:
256,192,179106,1,8,0:0:0:0:
256,192,179277,1,0,0:0:0:0:
256,192,179363,1,0,0:0:0:0:
256,192,179449,1,8,0:0:0:0:
256,192,179620,1,0,0:0:0:0:
256,192,179792,1,0,0:0:0:0:
256,192,179963,1,8,0:0:0:0:
256,192,180135,1,0,0:0:0:0:
256,192,180220,1,0,0:0:0:0:
256,192,180306,1,8,0:0:0:0:
256,192,180477,1,0,0:0:0:0:
256,192,180649,1,8,0:0:0:0:
256,192,180735,1,8,0:0:0:0:
256,192,180820,1,0,0:0:0:0:
256,192,180992,1,8,0:0:0:0:
256,192,181106,1,8,0:0:0:0:
256,192,181220,1,8,0:0:0:0:
256,192,181335,1,0,0:0:0:0:
256,192,181506,1,0,0:0:0:0:
256,192,181677,1,8,0:0:0:0:
256,192,181792,1,8,0:0:0:0:
256,192,181906,1,8,0:0:0:0:
256,192,182020,1,0,0:0:0:0:
256,192,182192,1,0,0:0:0:0:
256,192,182363,1,0,0:0:0:0:
256,192,182535,1,8,0:0:0:0:
256,192,182706,1,0,0:0:0:0:
256,192,182877,1,0,0:0:0:0:
256,192,183049,1,8,0:0:0:0:
256,192,183220,1,0,0:0:0:0:
256,192,183306,1,8,0:0:0:0:
256,192,183392,1,0,0:0:0:0:
256,192,183563,1,0,0:0:0:0:
256,192,183735,1,12,0:0:0:0:
256,192,184077,1,12,0:0:0:0:
256,192,184592,1,8,0:0:0:0:
256,192,184763,1,0,0:0:0:0:
256,192,184849,1,0,0:0:0:0:
256,192,184935,1,8,0:0:0:0:
256,192,185106,1,0,0:0:0:0:
256,192,185277,1,0,0:0:0:0:
256,192,185449,1,8,0:0:0:0:
256,192,185620,1,0,0:0:0:0:
256,192,185706,1,0,0:0:0:0:
256,192,185792,1,8,0:0:0:0:
256,192,185963,1,0,0:0:0:0:
256,192,186135,1,8,0:0:0:0:
256,192,186220,1,8,0:0:0:0:
256,192,186306,1,0,0:0:0:0:
256,192,186477,1,8,0:0:0:0:
256,192,186592,1,8,0:0:0:0:
256,192,186706,1,8,0:0:0:0:
256,192,186820,1,0,0:0:0:0:
256,192,186992,1,0,0:0:0:0:
256,192,187163,1,8,0:0:0:0:
256,192,187277,1,8,0:0:0:0:
256,192,187392,1,8,0:0:0:0:
256,192,187506,1,0,0:0:0:0:
256,192,187677,1,0,0:0:0:0:
256,192,187849,1,8,0:0:0:0:
256,192,188020,1,0,0:0:0:0:
256,192,188106,1,0,0:0:0:0:
256,192,188192,1,8,0:0:0:0:
256,192,188363,1,0,0:0:0:0:
256,192,188449,1,0,0:0:0:0:
256,192,188535,1,8,0:0:0:0:
256,192,188706,1,0,0:0:0:0:
256,192,188792,1,0,0:0:0:0:
256,192,188877,1,8,0:0:0:0:
256,192,188963,1,8,0:0:0:0:
256,192,189049,1,8,0:0:0:0:
256,192,189135,1,8,0:0:0:0:
256,192,189220,1,4,0:0:0:0:
256,192,189392,1,0,0:0:0:0:
256,192,189477,1,0,0:0:0:0:
256,192,189563,1,0,0:0:0:0:
256,192,189735,1,8,0:0:0:0:
256,192,190077,1,8,0:0:0:0:
256,192,190249,1,0,0:0:0:0:
256,192,190335,1,0,0:0:0:0:
256,192,190420,1,8,0:0:0:0:
256,192,190592,1,0,0:0:0:0:
256,192,190763,1,0,0:0:0:0:
256,192,190935,1,8,0:0:0:0:
256,192,191106,1,0,0:0:0:0:
256,192,191192,1,0,0:0:0:0:
256,192,191277,1,8,0:0:0:0:
256,192,191449,1,0,0:0:0:0:
256,192,191620,1,8,0:0:0:0:
256,192,191706,1,8,0:0:0:0:
256,192,191792,1,0,0:0:0:0:
256,192,191963,1,8,0:0:0:0:
256,192,192077,1,8,0:0:0:0:
256,192,192192,1,8,0:0:0:0:
256,192,192306,1,0,0:0:0:0:
256,192,192477,1,0,0:0:0:0:
256,192,192649,1,8,0:0:0:0:
256,192,192763,1,8,0:0:0:0:
256,192,192877,1,8,0:0:0:0:
256,192,192992,1,0,0:0:0:0:
256,192,193163,1,0,0:0:0:0:
256,192,193335,1,0,0:0:0:0:
256,192,193506,1,8,0:0:0:0:
256,192,193677,1,0,0:0:0:0:
256,192,193849,1,0,0:0:0:0:
256,192,194020,1,8,0:0:0:0:
256,192,194192,1,0,0:0:0:0:
256,192,194277,1,8,0:0:0:0:
256,192,194363,1,0,0:0:0:0:
256,192,194535,1,0,0:0:0:0:
256,192,194706,1,12,0:0:0:0:
256,192,195049,1,12,0:0:0:0:
256,192,195392,1,0,0:0:0:0:
256,192,195563,1,8,0:0:0:0:
256,192,195735,1,0,0:0:0:0:
256,192,195820,1,0,0:0:0:0:
256,192,195906,1,8,0:0:0:0:
256,192,196077,1,0,0:0:0:0:
256,192,196249,1,0,0:0:0:0:
256,192,196420,1,8,0:0:0:0:
256,192,196592,1,0,0:0:0:0:
256,192,196677,1,0,0:0:0:0:
256,192,196763,1,8,0:0:0:0:
256,192,196935,1,0,0:0:0:0:
256,192,197106,1,8,0:0:0:0:
256,192,197192,1,8,0:0:0:0:
256,192,197277,1,0,0:0:0:0:
256,192,197449,1,8,0:0:0:0:
256,192,197563,1,8,0:0:0:0:
256,192,197677,1,8,0:0:0:0:
256,192,197792,1,0,0:0:0:0:
256,192,197963,1,0,0:0:0:0:
256,192,198135,1,8,0:0:0:0:
256,192,198249,1,8,0:0:0:0:
256,192,198363,1,8,0:0:0:0:
256,192,198477,1,0,0:0:0:0:
256,192,198649,1,0,0:0:0:0:
256,192,198820,1,0,0:0:0:0:
256,192,198906,1,0,0:0:0:0:
256,192,198992,1,8,0:0:0:0:
256,192,199077,1,8,0:0:0:0:
256,192,199163,1,0,0:0:0:0:
256,192,199249,1,0,0:0:0:0:
256,192,199335,1,8,0:0:0:0:
256,192,199420,1,8,0:0:0:0:
256,192,199506,1,0,0:0:0:0:
256,192,199592,1,0,0:0:0:0:
256,192,199677,1,8,0:0:0:0:
256,192,199763,1,0,0:0:0:0:
256,192,199849,1,8,0:0:0:0:
256,192,200192,1,12,0:0:0:0:
256,192,200706,1,0,0:0:0:0:
256,192,201392,1,0,0:0:0:0:
256,192,202077,1,0,0:0:0:0:
256,192,202420,1,0,0:0:0:0:
256,192,202935,1,0,0:0:0:0:
256,192,203449,1,0,0:0:0:0:
256,192,204135,1,0,0:0:0:0:
256,192,204820,1,0,0:0:0:0:
256,192,205163,1,0,0:0:0:0:
256,192,205677,1,0,0:0:0:0:
256,192,206192,1,0,0:0:0:0:
256,192,206877,1,0,0:0:0:0:
256,192,207563,1,0,0:0:0:0:
256,192,207906,1,0,0:0:0:0:
256,192,208420,1,0,0:0:0:0:
256,192,208935,1,0,0:0:0:0:
256,192,209620,1,0,0:0:0:0:
256,192,209963,1,0,0:0:0:0:
256,192,210306,1,0,0:0:0:0:
256,192,210649,1,0,0:0:0:0:
256,192,210820,1,0,0:0:0:0:
256,192,211163,1,12,0:0:0:0:
256,192,211335,1,8,0:0:0:0:
256,192,211506,1,0,0:0:0:0:
256,192,211677,1,8,0:0:0:0:
256,192,211849,1,0,0:0:0:0:
256,192,212020,1,8,0:0:0:0:
256,192,212192,1,8,0:0:0:0:
256,192,212363,1,0,0:0:0:0:
256,192,212706,1,8,0:0:0:0:
256,192,213049,1,0,0:0:0:0:
256,192,213220,1,8,0:0:0:0:
256,192,213563,1,0,0:0:0:0:
256,192,213735,1,8,0:0:0:0:
256,192,213906,1,0,0:0:0:0:
256,192,214249,1,8,0:0:0:0:
256,192,214592,1,0,0:0:0:0:
256,192,214763,1,8,0:0:0:0:
256,192,214935,1,8,0:0:0:0:
256,192,215106,1,0,0:0:0:0:
256,192,215449,1,8,0:0:0:0:
256,192,215792,1,0,0:0:0:0:
256,192,216135,1,8,0:0:0:0:
256,192,216477,1,0,0:0:0:0:
256,192,216820,1,8,0:0:0:0:
256,192,216992,1,8,0:0:0:0:
256,192,217163,1,0,0:0:0:0:
256,192,217335,1,8,0:0:0:0:
256,192,217506,1,0,0:0:0:0:
256,192,217677,1,8,0:0:0:0:
256,192,217849,1,0,0:0:0:0:
256,192,218192,1,8,0:0:0:0:
256,192,218535,1,0,0:0:0:0:
256,192,218706,1,8,0:0:0:0:
256,192,219049,1,0,0:0:0:0:
256,192,219220,1,8,0:0:0:0:
256,192,219392,1,0,0:0:0:0:
256,192,219735,1,8,0:0:0:0:
256,192,220077,1,0,0:0:0:0:
256,192,220249,1,8,0:0:0:0:
256,192,220420,1,0,0:0:0:0:
256,192,220592,1,8,0:0:0:0:
256,192,220935,1,8,0:0:0:0:
256,192,221277,1,8,0:0:0:0:
256,192,221620,1,8,0:0:0:0:
256,192,221792,1,8,0:0:0:0:
256,192,222135,1,12,0:0:0:0:
256,192,222306,1,0,0:0:0:0:
256,192,222477,1,8,0:0:0:0:
256,192,222649,1,8,0:0:0:0:
256,192,222820,1,0,0:0:0:0:
256,192,222992,1,8,0:0:0:0:
256,192,223163,1,0,0:0:0:0:
256,192,223335,1,8,0:0:0:0:
256,192,223506,1,8,0:0:0:0:
256,192,223677,1,0,0:0:0:0:
256,192,223849,1,8,0:0:0:0:
256,192,224020,1,8,0:0:0:0:
256,192,224192,1,0,0:0:0:0:
256,192,224363,1,8,0:0:0:0:
256,192,224449,1,8,0:0:0:0:
256,192,224535,1,0,0:0:0:0:
256,192,224706,1,8,0:0:0:0:
256,192,224877,1,8,0:0:0:0:
256,192,225049,1,0,0:0:0:0:
256,192,225220,1,8,0:0:0:0:
256,192,225392,1,8,0:0:0:0:
256,192,225563,1,0,0:0:0:0:
256,192,225735,1,8,0:0:0:0:
256,192,225906,1,0,0:0:0:0:
256,192,226077,1,8,0:0:0:0:
256,192,226249,1,8,0:0:0:0:
256,192,226420,1,0,0:0:0:0:
256,192,226592,1,8,0:0:0:0:
256,192,226763,1,8,0:0:0:0:
256,192,226935,1,0,0:0:0:0:
256,192,227020,1,8,0:0:0:0:
256,192,227106,1,8,0:0:0:0:
256,192,227192,1,0,0:0:0:0:
256,192,227277,1,8,0:0:0:0:
256,192,227449,1,8,0:0:0:0:
256,192,227620,1,0,0:0:0:0:
256,192,227792,1,8,0:0:0:0:
256,192,227877,1,0,0:0:0:0:
256,192,227963,1,8,0:0:0:0:
256,192,228135,1,0,0:0:0:0:
256,192,228306,1,8,0:0:0:0:
256,192,228477,1,0,0:0:0:0:
256,192,228563,1,0,0:0:0:0:
256,192,228649,1,8,0:0:0:0:
256,192,228820,1,0,0:0:0:0:
256,192,228992,1,8,0:0:0:0:
256,192,229163,1,0,0:0:0:0:
256,192,229249,1,8,0:0:0:0:
256,192,229335,1,8,0:0:0:0:
256,192,229506,1,0,0:0:0:0:
256,192,229677,1,8,0:0:0:0:
256,192,229763,1,0,0:0:0:0:
256,192,229849,1,0,0:0:0:0:
256,192,229935,1,8,0:0:0:0:
256,192,230020,1,8,0:0:0:0:
256,192,230192,1,0,0:0:0:0:
256,192,230363,1,8,0:0:0:0:
256,192,230449,1,0,0:0:0:0:
256,192,230535,1,8,0:0:0:0:
256,192,230620,1,0,0:0:0:0:
256,192,230706,1,8,0:0:0:0:
256,192,230792,1,0,0:0:0:0:
256,192,230877,1,8,0:0:0:0:
256,192,230963,1,0,0:0:0:0:
256,192,231049,1,8,0:0:0:0:
256,192,231135,1,8,0:0:0:0:
256,192,231220,1,0,0:0:0:0:
256,192,231306,1,8,0:0:0:0:
256,192,231392,1,8,0:0:0:0:
256,192,231477,1,0,0:0:0:0:
256,192,231563,1,8,0:0:0:0:
256,192,231649,1,0,0:0:0:0:
256,192,231735,1,8,0:0:0:0:
256,192,231820,1,0,0:0:0:0:
256,192,231906,1,0,0:0:0:0:
256,192,231992,1,0,0:0:0:0:
256,192,232077,1,8,0:0:0:0:
256,192,232249,1,8,0:0:0:0:
256,192,232420,1,0,0:0:0:0:
256,192,232506,1,8,0:0:0:0:
256,192,232592,1,0,0:0:0:0:
256,192,232763,1,12,0:0:0:0:
256,192,233106,1,12,0:0:0:0:
256,192,233277,1,0,0:0:0:0:
256,192,233363,1,0,0:0:0:0:
256,192,233449,1,8,0:0:0:0:
256,192,233535,1,8,0:0:0:0:
256,192,233620,1,0,0:0:0:0:
256,192,233706,1,0,0:0:0:0:
256,192,233792,1,8,0:0:0:0:
256,192,233963,1,8,0:0:0:0:
256,192,234135,1,0,0:0:0:0:
256,192,234220,1,0,0:0:0:0:
256,192,234306,1,8,0:0:0:0:
256,192,234477,1,0,0:0:0:0:
256,192,234649,1,8,0:0:0:0:
256,192,234820,1,0,0:0:0:0:
256,192,234992,1,8,0:0:0:0:
256,192,235163,1,0,0:0:0:0:
256,192,235335,1,8,0:0:0:0:
256,192,235420,1,0,0:0:0:0:
256,192,235506,1,8,0:0:0:0:
256,192,235677,1,0,0:0:0:0:
256,192,235763,1,0,0:0:0:0:
256,192,235849,1,8,0:0:0:0:
256,192,236020,1,0,0:0:0:0:
256,192,236106,1,0,0:0:0:0:
256,192,236192,1,8,0:0:0:0:
256,192,236277,1,8,0:0:0:0:
256,192,236363,1,8,0:0:0:0:
256,192,236449,1,0,0:0:0:0:
256,192,236535,1,8,0:0:0:0:
256,192,236706,1,0,0:0:0:0:
256,192,236792,1,0,0:0:0:0:
256,192,236877,1,0,0:0:0:0:
256,192,237049,1,8,0:0:0:0:
256,192,237220,1,0,0:0:0:0:
256,192,237392,1,8,0:0:0:0:
256,192,237477,1,0,0:0:0:0:
256,192,237563,1,8,0:0:0:0:
256,192,237735,1,0,0:0:0:0:
256,192,237906,1,8,0:0:0:0:
256,192,238077,1,8,0:0:0:0:
256,192,238163,1,0,0:0:0:0:
256,192,238249,1,8,0:0:0:0:
256,192,238420,1,0,0:0:0:0:
256,192,238592,1,0,0:0:0:0:
256,192,238763,1,0,0:0:0:0:
256,192,238849,1,0,0:0:0:0:
256,192,238935,1,8,0:0:0:0:
256,192,239020,1,8,0:0:0:0:
256,192,239106,1,0,0:0:0:0:
256,192,239277,1,0,0:0:0:0:
256,192,239449,1,8,0:0:0:0:
256,192,239535,1,8,0:0:0:0:
256,192,239620,1,0,0:0:0:0:
256,192,239792,1,8,0:0:0:0:
256,192,239963,1,0,0:0:0:0:
256,192,240135,1,8,0:0:0:0:
256,192,240306,1,0,0:0:0:0:
256,192,240477,1,8,0:0:0:0:
256,192,240649,1,0,0:0:0:0:
256,192,240820,1,8,0:0:0:0:
256,192,240906,1,8,0:0:0:0:
256,192,240992,1,8,0:0:0:0:
256,192,241163,1,0,0:0:0:0:
256,192,241335,1,0,0:0:0:0:
256,192,241506,1,0,0:0:0:0:
256,192,241592,1,0,0:0:0:0:
256,192,241677,1,8,0:0:0:0:
256,192,241763,1,8,0:0:0:0:
256,192,241849,1,0,0:0:0:0:
256,192,242020,1,0,0:0:0:0:
256,192,242192,1,8,0:0:0:0:
256,192,242277,1,8,0:0:0:0:
256,192,242363,1,0,0:0:0:0:
256,192,242535,1,8,0:0:0:0:
256,192,242706,1,0,0:0:0:0:
256,192,242877,1,0,0:0:0:0:
256,192,242963,1,0,0:0:0:0:
256,192,243049,1,8,0:0:0:0:
256,192,243220,1,8,0:0:0:0:
256,192,243392,1,0,0:0:0:0:
256,192,243563,1,0,0:0:0:0:
256,192,243735,1,12,0:0:0:0:
256,192,243906,1,0,0:0:0:0:
256,192,244077,1,4,0:0:0:0:
256,192,244249,1,0,0:0:0:0:
256,192,244335,1,0,0:0:0:0:
256,192,244420,1,8,0:0:0:0:
256,192,244506,1,8,0:0:0:0:
256,192,244592,1,0,0:0:0:0:
256,192,244677,1,0,0:0:0:0:
256,192,244763,1,0,0:0:0:0:
256,192,244935,1,8,0:0:0:0:
256,192,245020,1,8,0:0:0:0:
256,192,245106,1,0,0:0:0:0:
256,192,245277,1,8,0:0:0:0:
256,192,245449,1,0,0:0:0:0:
256,192,245620,1,8,0:0:0:0:
256,192,245792,1,0,0:0:0:0:
256,192,245963,1,8,0:0:0:0:
256,192,246135,1,0,0:0:0:0:
256,192,246306,1,8,0:0:0:0:
256,192,246392,1,0,0:0:0:0:
256,192,246477,1,8,0:0:0:0:
256,192,246649,1,8,0:0:0:0:
256,192,246820,1,0,0:0:0:0:
256,192,246992,1,0,0:0:0:0:
256,192,247077,1,0,0:0:0:0:
256,192,247163,1,8,0:0:0:0:
256,192,247249,1,8,0:0:0:0:
256,192,247335,1,0,0:0:0:0:
256,192,247420,1,0,0:0:0:0:
256,192,247506,1,0,0:0:0:0:
256,192,247677,1,8,0:0:0:0:
256,192,247763,1,8,0:0:0:0:
256,192,247849,1,0,0:0:0:0:
256,192,248020,1,8,0:0:0:0:
256,192,248192,1,0,0:0:0:0:
256,192,248363,1,8,0:0:0:0:
256,192,248449,1,0,0:0:0:0:
256,192,248535,1,8,0:0:0:0:
256,192,248706,1,0,0:0:0:0:
256,192,248877,1,8,0:0:0:0:
256,192,249049,1,0,0:0:0:0:
256,192,249135,1,0,0:0:0:0:
256,192,249220,1,8,0:0:0:0:
256,192,249392,1,0,0:0:0:0:
256,192,249563,1,8,0:0:0:0:
256,192,249735,1,0,0:0:0:0:
256,192,249820,1,0,0:0:0:0:
256,192,249906,1,8,0:0:0:0:
256,192,249992,1,8,0:0:0:0:
256,192,250077,1,0,0:0:0:0:
256,192,250249,1,8,0:0:0:0:
256,192,250420,1,0,0:0:0:0:
256,192,250506,1,0,0:0:0:0:
256,192,250592,1,0,0:0:0:0:
256,192,250763,1,8,0:0:0:0:
256,192,250935,1,0,0:0:0:0:
256,192,251106,1,8,0:0:0:0:
256,192,251277,1,0,0:0:0:0:
256,192,251449,1,8,0:0:0:0:
256,192,251620,1,0,0:0:0:0:
256,192,251792,1,8,0:0:0:0:
256,192,251877,1,8,0:0:0:0:
256,192,251963,1,8,0:0:0:0:
256,192,252135,1,8,0:0:0:0:
256,192,252306,1,0,0:0:0:0:
256,192,253506,1,0,0:0:0:0:
256,192,253849,1,8,0:0:0:0:
256,192,254192,1,8,0:0:0:0:
256,192,254535,1,8,0:0:0:0:
256,192,254706,1,8,0:0:0:0:
256,192,254877,1,0,0:0:0:0:
256,192,255049,1,4,0:0:0:0:
256,192,255220,1,8,0:0:0:0:
256,192,255306,1,0,0:0:0:0:
256,192,255392,1,8,0:0:0:0:
256,192,255563,1,0,0:0:0:0:
256,192,255735,1,8,0:0:0:0:
256,192,255820,1,8,0:0:0:0:
256,192,255906,1,0,0:0:0:0:
256,192,255992,1,0,0:0:0:0:
256,192,256077,1,8,0:0:0:0:
256,192,256249,1,8,0:0:0:0:
256,192,256420,1,0,0:0:0:0:
256,192,256592,1,8,0:0:0:0:
256,192,256763,1,0,0:0:0:0:
256,192,256935,1,8,0:0:0:0:
256,192,257020,1,0,0:0:0:0:
256,192,257106,1,8,0:0:0:0:
256,192,257277,1,0,0:0:0:0:
256,192,257363,1,0,0:0:0:0:
256,192,257449,1,8,0:0:0:0:
256,192,257535,1,0,0:0:0:0:
256,192,257620,1,8,0:0:0:0:
256,192,257706,1,0,0:0:0:0:
256,192,257792,1,8,0:0:0:0:
256,192,257963,1,0,0:0:0:0:
256,192,258049,1,0,0:0:0:0:
256,192,258135,1,8,0:0:0:0:
256,192,258306,1,0,0:0:0:0:
256,192,258477,1,8,0:0:0:0:
256,192,258563,1,0,0:0:0:0:
256,192,258649,1,8,0:0:0:0:
256,192,258820,1,0,0:0:0:0:
256,192,258992,1,8,0:0:0:0:
256,192,259077,1,0,0:0:0:0:
256,192,259163,1,0,0:0:0:0:
256,192,259335,1,8,0:0:0:0:
256,192,259420,1,0,0:0:0:0:
256,192,259506,1,0,0:0:0:0:
256,192,259677,1,8,0:0:0:0:
256,192,259763,1,8,0:0:0:0:
256,192,259849,1,0,0:0:0:0:
256,192,260020,1,8,0:0:0:0:
256,192,260106,1,0,0:0:0:0:
256,192,260192,1,8,0:0:0:0:
256,192,260277,1,0,0:0:0:0:
256,192,260363,1,8,0:0:0:0:
256,192,260535,1,0,0:0:0:0:
256,192,260706,1,8,0:0:0:0:
256,192,260792,1,0,0:0:0:0:
256,192,260877,1,8,0:0:0:0:
256,192,261049,1,0,0:0:0:0:
256,192,261220,1,8,0:0:0:0:
256,192,261306,1,0,0:0:0:0:
256,192,261392,1,0,0:0:0:0:
256,192,261477,1,0,0:0:0:0:
256,192,261563,1,8,0:0:0:0:
256,192,261735,1,8,0:0:0:0:
256,192,261906,1,0,0:0:0:0:
256,192,262077,1,8,0:0:0:0:
256,192,262249,1,0,0:0:0:0:
256,192,262420,1,8,0:0:0:0:
256,192,262506,1,0,0:0:0:0:
256,192,262592,1,8,0:0:0:0:
256,192,262763,1,0,0:0:0:0:
256,192,262849,1,0,0:0:0:0:
256,192,262935,1,8,0:0:0:0:
256,192,263020,1,0,0:0:0:0:
256,192,263106,1,8,0:0:0:0:
256,192,263277,1,8,0:0:0:0:
256,192,263363,1,0,0:0:0:0:
256,192,263449,1,0,0:0:0:0:
256,192,263620,1,8,0:0:0:0:
256,192,263706,1,8,0:0:0:0:
256,192,263792,1,0,0:0:0:0:
256,192,263963,1,8,0:0:0:0:
256,192,264049,1,0,0:0:0:0:
256,192,264135,1,8,0:0:0:0:
256,192,264220,1,0,0:0:0:0:
256,192,264306,1,0,0:0:0:0:
256,192,264477,1,8,0:0:0:0:
256,192,264649,1,0,0:0:0:0:
256,192,264820,1,8,0:0:0:0:
256,192,264906,1,0,0:0:0:0:
256,192,264992,1,0,0:0:0:0:
256,192,265163,1,8,0:0:0:0:
256,192,265335,1,0,0:0:0:0:
256,192,265506,1,0,0:0:0:0:
256,192,265677,1,12,0:0:0:0:
256,192,265849,1,0,0:0:0:0:
256,192,266020,1,4,0:0:0:0:
256,192,266191,1,8,0:0:0:0:
256,192,266277,1,0,0:0:0:0:
256,192,266363,1,8,0:0:0:0:
256,192,266534,1,0,0:0:0:0:
256,192,266706,1,8,0:0:0:0:
256,192,266792,1,8,0:0:0:0:
256,192,266877,1,0,0:0:0:0:
256,192,266963,1,0,0:0:0:0:
256,192,267048,1,8,0:0:0:0:
256,192,267220,1,8,0:0:0:0:
256,192,267392,1,0,0:0:0:0:
256,192,267563,1,8,0:0:0:0:
256,192,267735,1,0,0:0:0:0:
256,192,267906,1,8,0:0:0:0:
256,192,267992,1,0,0:0:0:0:
256,192,268077,1,8,0:0:0:0:
256,192,268248,1,0,0:0:0:0:
256,192,268334,1,0,0:0:0:0:
256,192,268420,1,8,0:0:0:0:
256,192,268506,1,0,0:0:0:0:
256,192,268591,1,8,0:0:0:0:
256,192,268677,1,0,0:0:0:0:
256,192,268763,1,8,0:0:0:0:
256,192,268934,1,0,0:0:0:0:
256,192,269020,1,0,0:0:0:0:
256,192,269106,1,8,0:0:0:0:
256,192,269277,1,0,0:0:0:0:
256,192,269448,1,8,0:0:0:0:
256,192,269620,1,8,0:0:0:0:
256,192,269706,1,8,0:0:0:0:
256,192,269791,1,0,0:0:0:0:
256,192,269963,1,8,0:0:0:0:
256,192,270049,1,0,0:0:0:0:
256,192,270135,1,0,0:0:0:0:
256,192,270306,1,8,0:0:0:0:
256,192,270392,1,0,0:0:0:0:
256,192,270477,1,0,0:0:0:0:
256,192,270648,1,8,0:0:0:0:
256,192,270735,1,8,0:0:0:0:
256,192,270820,1,0,0:0:0:0:
256,192,270991,1,8,0:0:0:0:
256,192,271077,1,0,0:0:0:0:
256,192,271163,1,8,0:0:0:0:
256,192,271249,1,0,0:0:0:0:
256,192,271334,1,8,0:0:0:0:
256,192,271506,1,0,0:0:0:0:
256,192,271677,1,8,0:0:0:0:
256,192,271763,1,0,0:0:0:0:
256,192,271848,1,8,0:0:0:0:
256,192,272020,1,0,0:0:0:0:
256,192,272191,1,8,0:0:0:0:
256,192,272277,1,0,0:0:0:0:
256,192,272363,1,8,0:0:0:0:
256,192,272448,1,8,0:0:0:0:
256,192,272534,1,8,0:0:0:0:
256,192,272706,1,8,0:0:0:0:
256,192,272877,1,0,0:0:0:0:
256,192,273048,1,8,0:0:0:0:
256,192,273220,1,0,0:0:0:0:
256,192,273391,1,8,0:0:0:0:
256,192,273477,1,0,0:0:0:0:
256,192,273563,1,8,0:0:0:0:
256,192,273734,1,0,0:0:0:0:
256,192,273820,1,0,0:0:0:0:
256,192,273906,1,8,0:0:0:0:
256,192,273991,1,0,0:0:0:0:
256,192,274077,1,8,0:0:0:0:
256,192,274248,1,8,0:0:0:0:
256,192,274420,1,0,0:0:0:0:
256,192,274506,1,8,0:0:0:0:
256,192,274591,1,8,0:0:0:0:
256,192,274763,1,0,0:0:0:0:
256,192,274848,1,0,0:0:0:0:
256,192,274934,1,8,0:0:0:0:
256,192,275106,1,8,0:0:0:0:
256,192,275277,1,8,0:0:0:0:
256,192,275363,1,8,0:0:0:0:
256,192,275448,1,8,0:0:0:0:
256,192,275620,1,0,0:0:0:0:
256,192,275791,1,8,0:0:0:0:
256,192,275963,1,0,0:0:0:0:
256,192,276134,1,8,0:0:0:0:
256,192,276220,1,0,0:0:0:0:
256,192,276306,1,0,0:0:0:0:
256,192,276477,1,8,0:0:0:0:
256,192,276563,1,8,0:0:0:0:
256,192,276648,1,0,0:0:0:0:
256,192,276820,1,8,0:0:0:0:
256,192,276992,1,12,0:0:0:0:
256,192,277163,1,0,0:0:0:0:
256,192,277335,1,0,0:0:0:0:
256,192,277420,1,0,0:0:0:0:
256,192,277506,1,8,0:0:0:0:
256,192,277592,1,8,0:0:0:0:
256,192,277677,1,0,0:0:0:0:
256,192,277849,1,8,0:0:0:0:
256,192,278020,1,0,0:0:0:0:
256,192,278106,1,0,0:0:0:0:
256,192,278192,1,8,0:0:0:0:
256,192,278363,1,0,0:0:0:0:
256,192,278535,1,8,0:0:0:0:
256,192,278620,1,0,0:0:0:0:
256,192,278706,1,8,0:0:0:0:
256,192,278877,1,8,0:0:0:0:
256,192,278963,1,8,0:0:0:0:
256,192,279049,1,0,0:0:0:0:
256,192,279220,1,8,0:0:0:0:
256,192,279306,1,0,0:0:0:0:
256,192,279392,1,8,0:0:0:0:
256,192,279477,1,0,0:0:0:0:
256,192,279563,1,8,0:0:0:0:
256,192,279649,1,8,0:0:0:0:
256,192,279735,1,0,0:0:0:0:
256,192,279906,1,8,0:0:0:0:
256,192,280077,1,8,0:0:0:0:
256,192,280249,1,8,0:0:0:0:
256,192,280420,1,0,0:0:0:0:
256,192,280592,1,8,0:0:0:0:
256,192,280763,1,0,0:0:0:0:
256,192,280849,1,0,0:0:0:0:
256,192,280935,1,8,0:0:0:0:
256,192,281106,1,0,0:0:0:0:
256,192,281277,1,8,0:0:0:0:
256,192,281363,1,0,0:0:0:0:
256,192,281449,1,8,0:0:0:0:
256,192,281620,1,8,0:0:0:0:
256,192,281706,1,8,0:0:0:0:
256,192,281792,1,0,0:0:0:0:
256,192,281963,1,8,0:0:0:0:
256,192,282049,1,0,0:0:0:0:
256,192,282135,1,8,0:0:0:0:
256,192,282220,1,8,0:0:0:0:
256,192,282306,1,0,0:0:0:0:
256,192,282392,1,0,0:0:0:0:
256,192,282477,1,8,0:0:0:0:
256,192,282649,1,8,0:0:0:0:
256,192,282820,1,0,0:0:0:0:
256,192,282906,1,0,0:0:0:0:
256,192,282992,1,8,0:0:0:0:
256,192,283077,1,8,0:0:0:0:
256,192,283163,1,0,0:0:0:0:
256,192,283335,1,8,0:0:0:0:
256,192,283506,1,0,0:0:0:0:
256,192,283592,1,0,0:0:0:0:
256,192,283677,1,8,0:0:0:0:
256,192,283849,1,0,0:0:0:0:
256,192,284020,1,8,0:0:0:0:
256,192,284106,1,0,0:0:0:0:
256,192,284192,1,8,0:0:0:0:
256,192,284363,1,8,0:0:0:0:
256,192,284449,1,8,0:0:0:0:
256,192,284535,1,0,0:0:0:0:
256,192,284706,1,8,0:0:0:0:
256,192,284792,1,0,0:0:0:0:
256,192,284877,1,8,0:0:0:0:
256,192,284963,1,0,0:0:0:0:
256,192,285049,1,8,0:0:0:0:
256,192,285135,1,8,0:0:0:0:
256,192,285220,1,0,0:0:0:0:
256,192,285392,1,8,0:0:0:0:
256,192,285563,1,8,0:0:0:0:
256,192,285735,1,8,0:0:0:0:
256,192,285906,1,0,0:0:0:0:
256,192,286077,1,8,0:0:0:0:
256,192,286249,1,0,0:0:0:0:
256,192,286335,1,0,0:0:0:0:
256,192,286420,1,8,0:0:0:0:
256,192,286506,1,8,0:0:0:0:
256,192,286592,1,0,0:0:0:0:
256,192,286763,1,8,0:0:0:0:
256,192,286849,1,0,0:0:0:0:
256,192,286935,1,8,0:0:0:0:
256,192,287106,1,8,0:0:0:0:
256,192,287192,1,8,0:0:0:0:
256,192,287277,1,0,0:0:0:0:
256,192,287449,1,8,0:0:0:0:
256,192,287535,1,0,0:0:0:0:
256,192,287620,1,8,0:0:0:0:
256,192,287706,1,8,0:0:0:0:
256,192,287792,1,0,0:0:0:0:
256,192,287963,1,12,0:0:0:0:
256,192,288135,1,8,0:0:0:0:
256,192,288306,1,0,0:0:0:0:
256,192,288392,1,0,0:0:0:0:
256,192,288477,1,8,0:0:0:0:
256,192,288563,1,8,0:0:0:0:
256,192,288649,1,0,0:0:0:0:
256,192,288820,1,8,0:0:0:0:
256,192,288992,1,0,0:0:0:0:
256,192,289077,1,0,0:0:0:0:
256,192,289163,1,8,0:0:0:0:
256,192,289335,1,0,0:0:0:0:
256,192,289506,1,8,0:0:0:0:
256,192,289592,1,0,0:0:0:0:
256,192,289677,1,8,0:0:0:0:
256,192,289849,1,8,0:0:0:0:
256,192,289935,1,8,0:0:0:0:
256,192,290020,1,0,0:0:0:0:
256,192,290192,1,8,0:0:0:0:
256,192,290277,1,0,0:0:0:0:
256,192,290363,1,8,0:0:0:0:
256,192,290449,1,0,0:0:0:0:
256,192,290535,1,8,0:0:0:0:
256,192,290620,1,8,0:0:0:0:
256,192,290706,1,0,0:0:0:0:
256,192,290877,1,8,0:0:0:0:
256,192,291049,1,8,0:0:0:0:
256,192,291220,1,8,0:0:0:0:
256,192,291392,1,0,0:0:0:0:
256,192,291563,1,8,0:0:0:0:
256,192,291735,1,0,0:0:0:0:
256,192,291820,1,0,0:0:0:0:
256,192,291906,1,8,0:0:0:0:
256,192,292077,1,0,0:0:0:0:
256,192,292249,1,8,0:0:0:0:
256,192,292335,1,0,0:0:0:0:
256,192,292420,1,8,0:0:0:0:
256,192,292592,1,8,0:0:0:0:
256,192,292677,1,8,0:0:0:0:
256,192,292763,1,0,0:0:0:0:
256,192,292935,1,8,0:0:0:0:
256,192,293020,1,8,0:0:0:0:
256,192,293106,1,0,0:0:0:0:
256,192,293192,1,0,0:0:0:0:
256,192,293277,1,8,0:0:0:0:
256,192,293449,1,0,0:0:0:0:
256,192,293620,1,8,0:0:0:0:
256,192,293792,1,0,0:0:0:0:
256,192,293877,1,0,0:0:0:0:
256,192,293963,1,8,0:0:0:0:
256,192,294049,1,8,0:0:0:0:
256,192,294135,1,0,0:0:0:0:
256,192,294306,1,8,0:0:0:0:
256,192,294477,1,0,0:0:0:0:
256,192,294563,1,0,0:0:0:0:
256,192,294649,1,8,0:0:0:0:
256,192,294820,1,0,0:0:0:0:
256,192,294992,1,8,0:0:0:0:
256,192,295077,1,0,0:0:0:0:
256,192,295163,1,8,0:0:0:0:
256,192,295335,1,8,0:0:0:0:
256,192,295420,1,8,0:0:0:0:
256,192,295506,1,0,0:0:0:0:
256,192,295677,1,8,0:0:0:0:
256,192,295763,1,0,0:0:0:0:
256,192,295849,1,8,0:0:0:0:
256,192,295935,1,8,0:0:0:0:
256,192,296020,1,0,0:0:0:0:
256,192,296106,1,0,0:0:0:0:
256,192,296192,1,8,0:0:0:0:
256,192,296363,1,8,0:0:0:0:
256,192,296535,1,8,0:0:0:0:
256,192,296706,1,8,0:0:0:0:
256,192,296877,1,0,0:0:0:0:
256,192,297049,1,8,0:0:0:0:
256,192,297220,1,0,0:0:0:0:
256,192,297306,1,0,0:0:0:0:
256,192,297392,1,8,0:0:0:0:
256,192,297563,1,0,0:0:0:0:
256,192,297735,1,8,0:0:0:0:
256,192,297820,1,0,0:0:0:0:
256,192,297906,1,8,0:0:0:0:
256,192,298077,1,8,0:0:0:0:
256,192,298163,1,8,0:0:0:0:
256,192,298249,1,0,0:0:0:0:
256,192,298420,1,8,0:0:0:0:
256,192,298506,1,8,0:0:0:0:
256,192,298592,1,8,0:0:0:0:
256,192,298677,1,8,0:0:0:0:
256,192,298763,1,0,0:0:0:0:
256,192,298935,8,0,304420,0:0:0:0:
