osu file format v14

[General]
AudioFilename: Angelic Jelly.mp3
AudioLeadIn: 0
PreviewTime: 46704
Countdown: 0
SampleSet: Soft
StackLeniency: 0.7
Mode: 3
LetterboxInBreaks: 0
SpecialStyle: 0
WidescreenStoryboard: 0

[Editor]
DistanceSpacing: 0.5
BeatDivisor: 4
GridSize: 32
TimelineZoom: 3

[Metadata]
Title:Angelic Jelly
TitleUnicode:Angelic Jelly
Artist:t+pazolite
ArtistUnicode:t+pazolite
Creator:Dellvangel
Version:NOVICE
Source:SOUND VOLTEX III GRAVITY WARS
Tags:beatmania IIDX 23 copula jubeat qubel SDVX New Generation 夏の流星フェスタ2016 Critical_Star
BeatmapID:1239945
BeatmapSetID:577563

[Difficulty]
HPDrainRate:7.5
CircleSize:4
OverallDifficulty:7
ApproachRate:5
SliderMultiplier:1.4
SliderTickRate:1

[Events]
//Background and Video events
0,0,"BG.jpg",0,0
//Break Periods
//Storyboard Layer 0 (Background)
//Storyboard Layer 1 (Fail)
//Storyboard Layer 2 (Pass)
//Storyboard Layer 3 (Foreground)
//Storyboard Sound Samples

[TimingPoints]
1179,300,4,2,1,40,1,0
20379,-100,4,3,1,40,0,0
21579,-100,4,2,1,40,0,0
27579,-100,4,1,1,40,0,0
44379,-100,4,2,1,40,0,0
46779,-100,4,2,1,40,0,1
55179,-100,4,2,1,40,0,0
56379,-100,4,2,1,40,0,1
64779,-100,4,2,1,40,0,0
75579,-100,4,3,1,40,0,0
83379,-100,4,2,1,40,0,0
86379,-100,4,2,1,40,0,1
94779,-100,4,2,1,40,0,0
95979,-100,4,3,1,40,0,1
99579,-100,4,2,1,40,0,1
100779,-100,4,3,1,40,0,1
103779,-100,4,2,1,40,0,1
104379,-100,4,2,1,40,0,0

[HitObjects]
64,192,1179,5,0,0:0:0:0:
448,192,1179,1,0,0:0:0:0:
192,192,1479,1,0,0:0:0:0:
320,192,1629,1,0,0:0:0:0:
448,192,1854,1,0,0:0:0:0:
192,192,2079,1,0,0:0:0:0:
64,192,2229,1,0,0:0:0:0:
448,192,2379,1,0,0:0:0:0:
64,192,2604,128,0,2829:0:0:0:0:
320,192,2829,1,0,0:0:0:0:
448,192,3054,128,0,3279:0:0:0:0:
192,192,3279,1,0,0:0:0:0:
320,192,3429,1,0,0:0:0:0:
64,192,3579,1,0,0:0:0:0:
448,192,3579,1,2,0:0:0:0:
192,192,3879,1,8,0:0:0:0:
320,192,3879,1,0,0:0:0:0:
64,192,4179,1,2,0:0:0:0:
320,192,4329,1,0,0:0:0:0:
192,192,4479,1,0,0:0:0:0:
448,192,4629,128,0,4779:0:0:0:0:
64,192,4779,1,2,0:0:0:0:
320,192,5079,1,0,0:0:0:0:
448,192,5079,1,8,0:0:0:0:
192,192,5379,1,2,0:0:0:0:
448,192,5529,1,0,0:0:0:0:
64,192,5679,1,0,0:0:0:0:
320,192,5829,128,0,5979:0:0:0:0:
192,192,5979,1,2,0:0:0:0:
64,192,6279,1,8,0:0:0:0:
448,192,6279,1,0,0:0:0:0:
320,192,6579,1,2,0:0:0:0:
192,192,6879,1,0,0:0:0:0:
64,192,6879,1,8,0:0:0:0:
448,192,7179,1,2,0:0:0:0:
64,192,7329,1,0,0:0:0:0:
192,192,7479,128,0,7779:0:0:0:0:
320,192,7479,1,8,0:0:0:0:
448,192,7779,1,2,0:0:0:0:
64,192,8079,1,8,3:0:0:0:
320,192,8079,1,0,0:0:0:0:
192,192,8379,1,2,0:0:0:0:
448,192,8679,1,8,0:0:0:0:
64,192,8679,1,0,0:0:0:0:
192,192,8979,1,2,0:0:0:0:
320,192,9129,1,0,0:0:0:0:
64,192,9279,1,0,0:0:0:0:
448,192,9429,128,0,9579:0:0:0:0:
192,192,9579,1,2,0:0:0:0:
320,192,9879,1,8,0:0:0:0:
64,192,9879,1,0,0:0:0:0:
448,192,10179,1,2,0:0:0:0:
192,192,10329,1,0,0:0:0:0:
320,192,10479,1,0,0:0:0:0:
64,192,10629,128,0,10779:0:0:0:0:
448,192,10779,1,2,0:0:0:0:
192,192,11079,1,8,0:0:0:0:
320,192,11079,1,0,0:0:0:0:
64,192,11379,1,2,0:0:0:0:
320,192,11529,1,0,0:0:0:0:
448,192,11529,1,8,0:0:0:0:
192,192,11679,1,2,0:0:0:0:
448,192,11829,1,0,0:0:0:0:
320,192,11829,1,8,0:0:0:0:
64,192,11979,1,2,0:0:0:0:
192,192,12279,1,0,0:0:0:0:
320,192,12579,1,0,0:0:0:0:
448,192,12879,128,0,13179:0:0:0:0:
64,192,13179,1,0,0:0:0:0:
320,192,13179,1,8,0:0:0:0:
192,192,13479,1,0,0:0:0:0:
448,192,13479,1,8,0:0:0:0:
448,192,13779,1,0,0:0:0:0:
64,192,13779,1,8,0:0:0:0:
192,192,13929,1,0,0:0:0:0:
320,192,14079,1,0,0:0:0:0:
64,192,14229,128,0,14379:0:0:0:0:
320,192,14379,1,8,0:0:0:0:
448,192,14379,1,0,0:0:0:0:
64,192,14679,1,0,0:0:0:0:
192,192,14679,1,8,0:0:0:0:
448,192,14979,1,8,0:0:0:0:
192,192,14979,1,0,0:0:0:0:
64,192,15129,1,0,0:0:0:0:
320,192,15279,1,0,0:0:0:0:
192,192,15429,128,0,15579:0:0:0:0:
64,192,15579,1,0,0:0:0:0:
448,192,15579,1,8,0:0:0:0:
320,192,15879,1,0,0:0:0:0:
192,192,15879,1,8,0:0:0:0:
320,192,16179,1,8,0:0:0:0:
448,192,16179,1,0,0:0:0:0:
64,192,16479,1,0,0:0:0:0:
192,192,16479,1,8,0:0:0:0:
64,192,16779,1,8,0:0:0:0:
448,192,16779,1,0,0:0:0:0:
192,192,16929,1,0,0:0:0:0:
320,192,17079,128,0,17379:0:0:0:0:
448,192,17079,1,8,0:0:0:0:
192,192,17379,1,0,0:0:0:0:
64,192,17379,1,8,0:0:0:0:
192,192,17679,1,8,3:0:0:0:
448,192,17679,1,0,0:0:0:0:
320,192,17979,1,0,0:0:0:0:
64,192,17979,1,2,2:0:0:0:
64,192,18279,1,0,0:0:0:0:
448,192,18279,1,8,2:0:0:0:
192,192,18429,1,0,0:0:0:0:
448,192,18729,1,0,0:0:0:0:
192,192,18879,1,0,0:0:0:0:
64,192,18879,1,8,2:0:0:0:
320,192,19029,1,0,0:0:0:0:
64,192,19179,1,2,2:0:0:0:
192,192,19479,1,0,0:0:0:0:
448,192,19479,1,8,2:0:0:0:
320,192,19629,1,0,0:0:0:0:
64,192,19929,1,0,0:0:0:0:
320,192,20079,1,0,0:0:0:0:
448,192,20079,1,8,2:0:0:0:
192,192,20229,1,0,0:0:0:0:
64,192,20379,128,8,20679:2:0:0:0:
320,192,20529,1,2,2:0:0:0:
192,192,20679,128,8,20979:2:0:0:0:
448,192,20829,1,2,2:0:0:0:
320,192,20979,128,8,21279:2:0:0:0:
64,192,21129,1,2,2:0:0:0:
448,192,21279,128,8,21579:2:0:0:0:
192,192,21429,1,2,2:0:0:0:
64,192,21579,128,8,22779:0:0:0:0:
320,192,21729,1,8,0:0:0:0:
448,192,21879,1,8,0:0:0:0:
192,192,22029,1,8,0:0:0:0:
448,192,22179,1,8,0:0:0:0:
320,192,22329,1,8,0:0:0:0:
192,192,22479,1,8,0:0:0:0:
448,192,22629,1,8,0:0:0:0:
320,192,22779,1,2,0:0:0:0:
64,192,23679,1,0,0:0:0:0:
448,192,23979,1,0,0:0:0:0:
64,192,24279,1,0,0:0:0:0:
320,192,24579,1,0,0:0:0:0:
192,192,24879,1,0,0:0:0:0:
64,192,25179,1,0,0:0:0:0:
448,192,25479,1,0,0:0:0:0:
320,192,26079,1,0,0:0:0:0:
64,192,26379,1,0,0:0:0:0:
320,192,27279,1,0,0:0:0:0:
192,192,27429,1,0,0:0:0:0:
64,192,27579,1,2,1:0:0:0:
64,192,27879,1,2,1:0:0:0:
448,192,28179,1,8,0:0:0:0:
192,192,28479,1,0,0:0:0:0:
320,192,28629,1,0,0:0:0:0:
64,192,28779,1,0,0:0:0:0:
448,192,28929,1,0,0:0:0:0:
192,192,29079,1,8,0:0:0:0:
320,192,29379,1,0,0:0:0:0:
64,192,29529,1,0,0:0:0:0:
192,192,29679,1,8,0:0:0:0:
448,192,29979,1,2,0:0:0:0:
448,192,30279,1,2,0:0:0:0:
64,192,30429,1,0,0:0:0:0:
320,192,30579,1,8,0:0:0:0:
448,192,30879,1,0,0:0:0:0:
192,192,31029,1,0,0:0:0:0:
320,192,31179,1,0,0:0:0:0:
64,192,31329,1,0,0:0:0:0:
192,192,31479,1,8,0:0:0:0:
448,192,31629,128,0,31779:0:0:0:0:
320,192,31779,1,0,0:0:0:0:
192,192,31929,1,0,0:0:0:0:
64,192,32079,128,2,32379:2:0:0:0:
320,192,32229,1,0,0:0:0:0:
448,192,32379,128,2,33579:0:0:0:0:
192,192,32679,1,2,0:0:0:0:
64,192,32979,1,8,0:0:0:0:
320,192,33279,1,0,0:0:0:0:
192,192,33429,1,0,0:0:0:0:
64,192,33579,128,0,34779:0:0:0:0:
320,192,33729,1,0,0:0:0:0:
448,192,33879,1,8,0:0:0:0:
192,192,34179,1,0,0:0:0:0:
448,192,34329,1,0,0:0:0:0:
320,192,34479,1,8,0:0:0:0:
192,192,34779,128,2,35979:0:0:0:0:
448,192,35079,1,2,0:0:0:0:
320,192,35379,1,8,0:0:0:0:
448,192,35679,1,0,0:0:0:0:
64,192,35829,1,0,0:0:0:0:
448,192,35979,128,0,37179:0:0:0:0:
320,192,36129,1,0,0:0:0:0:
64,192,36279,1,8,0:0:0:0:
192,192,36579,1,0,0:0:0:0:
320,192,36729,1,0,0:0:0:0:
64,192,36879,1,2,0:0:0:0:
320,192,37029,1,0,0:0:0:0:
192,192,37179,128,2,38379:0:0:0:0:
320,192,37479,1,2,0:0:0:0:
448,192,37779,1,8,0:0:0:0:
320,192,38079,1,0,0:0:0:0:
64,192,38229,1,0,0:0:0:0:
320,192,38379,128,0,39579:0:0:0:0:
64,192,38529,1,0,0:0:0:0:
448,192,38679,1,8,0:0:0:0:
64,192,38979,1,0,0:0:0:0:
192,192,39129,1,0,0:0:0:0:
448,192,39279,1,8,0:0:0:0:
64,192,39579,128,2,40779:0:0:0:0:
448,192,39879,1,2,0:0:0:0:
192,192,40179,1,8,0:0:0:0:
320,192,40479,1,0,0:0:0:0:
192,192,40629,1,0,0:0:0:0:
448,192,40779,128,0,41979:0:0:0:0:
192,192,40929,1,0,0:0:0:0:
320,192,41079,1,8,0:0:0:0:
64,192,41379,1,0,0:0:0:0:
192,192,41529,1,0,0:0:0:0:
320,192,41679,128,2,41979:2:0:0:0:
64,192,41979,1,2,2:0:0:0:
192,192,44379,1,2,1:0:0:0:
448,192,44529,1,0,0:0:0:0:
320,192,44679,1,0,0:0:0:0:
192,192,44829,1,0,0:0:0:0:
64,192,44979,1,0,0:0:0:0:
448,192,45129,1,0,0:0:0:0:
320,192,45279,1,0,0:0:0:0:
192,192,45429,1,0,0:0:0:0:
64,192,45579,1,2,0:0:0:0:
448,192,45579,1,0,0:0:0:0:
320,192,45729,1,0,0:0:0:0:
192,192,45879,1,0,0:0:0:0:
448,192,46029,1,0,0:0:0:0:
64,192,46179,1,0,0:0:0:0:
192,192,46479,128,0,46779:0:0:0:0:
320,192,46779,1,0,0:0:0:0:
448,192,46779,1,2,0:0:0:0:
192,192,47079,1,0,0:0:0:0:
64,192,47079,1,8,0:0:0:0:
320,192,47379,128,2,47529:0:0:0:0:
64,192,47529,128,0,47679:0:0:0:0:
448,192,47679,128,8,47829:0:0:0:0:
192,192,47829,128,0,47979:0:0:0:0:
320,192,47979,1,2,0:0:0:0:
64,192,48279,1,0,0:0:0:0:
448,192,48279,1,8,0:0:0:0:
320,192,48579,128,2,48729:0:0:0:0:
192,192,48729,128,0,48879:0:0:0:0:
448,192,48879,128,0,49029:0:0:0:0:
64,192,49029,128,0,49179:0:0:0:0:
320,192,49179,1,2,0:0:0:0:
64,192,49479,1,0,0:0:0:0:
192,192,49479,1,8,0:0:0:0:
448,192,49779,128,2,49929:0:0:0:0:
320,192,49929,128,0,50079:0:0:0:0:
64,192,50079,128,8,50229:0:0:0:0:
192,192,50229,128,0,50379:0:0:0:0:
448,192,50379,1,2,0:0:0:0:
64,192,50679,1,8,0:0:0:0:
320,192,50679,128,0,50979:0:0:0:0:
192,192,50979,128,2,51279:0:0:0:0:
64,192,51279,128,0,51429:0:0:0:0:
448,192,51429,128,0,51579:0:0:0:0:
320,192,51579,1,2,0:0:0:0:
192,192,51579,1,0,0:0:0:0:
64,192,51879,1,0,0:0:0:0:
448,192,51879,1,8,0:0:0:0:
192,192,52179,128,2,52329:0:0:0:0:
448,192,52329,128,0,52479:0:0:0:0:
64,192,52479,128,8,52629:0:0:0:0:
320,192,52629,128,0,52779:0:0:0:0:
192,192,52779,1,2,0:0:0:0:
320,192,53079,1,0,0:0:0:0:
448,192,53079,1,8,0:0:0:0:
192,192,53379,128,2,53529:0:0:0:0:
320,192,53529,128,0,53679:0:0:0:0:
64,192,53679,128,0,53829:0:0:0:0:
448,192,53829,128,0,53979:0:0:0:0:
192,192,53979,1,2,0:0:0:0:
64,192,54279,1,8,0:0:0:0:
448,192,54279,1,0,0:0:0:0:
320,192,54579,1,2,0:0:0:0:
192,192,54729,1,8,0:0:0:0:
64,192,54729,1,0,0:0:0:0:
448,192,54879,1,2,0:0:0:0:
192,192,55029,1,0,0:0:0:0:
64,192,55029,1,8,0:0:0:0:
320,192,55179,128,0,55479:0:0:0:0:
64,192,55479,1,0,0:0:0:0:
448,192,55629,1,0,0:0:0:0:
192,192,55779,128,0,56079:0:0:0:0:
320,192,56079,1,0,0:0:0:0:
448,192,56229,1,0,0:0:0:0:
192,192,56379,1,2,0:0:0:0:
64,192,56379,1,0,0:0:0:0:
64,192,56679,1,0,0:0:0:0:
448,192,56679,1,8,0:0:0:0:
320,192,56979,1,2,0:0:0:0:
192,192,57279,1,8,0:0:0:0:
448,192,57279,128,0,57579:0:0:0:0:
64,192,57579,1,2,0:0:0:0:
448,192,57879,1,8,0:0:0:0:
320,192,57879,1,0,0:0:0:0:
192,192,58179,1,2,0:0:0:0:
64,192,58479,128,0,58629:0:0:0:0:
448,192,58629,128,0,58779:0:0:0:0:
192,192,58779,1,2,0:0:0:0:
64,192,59079,1,8,0:0:0:0:
448,192,59079,1,0,0:0:0:0:
320,192,59379,1,2,0:0:0:0:
192,192,59679,1,8,0:0:0:0:
64,192,59679,1,0,0:0:0:0:
448,192,59979,1,2,1:0:0:0:
448,192,60279,1,2,1:0:0:0:
320,192,60579,128,0,60729:0:0:0:0:
192,192,60729,128,0,60879:0:0:0:0:
448,192,60879,128,0,61179:0:0:0:0:
64,192,61179,1,0,0:0:0:0:
320,192,61179,1,2,0:0:0:0:
448,192,61479,1,0,0:0:0:0:
192,192,61479,1,8,0:0:0:0:
64,192,61779,128,2,61929:0:0:0:0:
192,192,61929,128,0,62079:0:0:0:0:
448,192,62079,128,8,62229:0:0:0:0:
320,192,62229,128,0,62379:0:0:0:0:
64,192,62379,1,2,0:0:0:0:
448,192,62679,1,8,0:0:0:0:
320,192,62679,1,0,0:0:0:0:
192,192,62979,128,2,63129:0:0:0:0:
320,192,63129,128,0,63279:0:0:0:0:
448,192,63279,128,8,63579:0:0:0:0:
64,192,63579,1,2,0:0:0:0:
320,192,63729,1,8,0:0:0:0:
448,192,63729,1,0,0:0:0:0:
192,192,63879,1,2,0:0:0:0:
320,192,64029,1,0,0:0:0:0:
448,192,64029,1,8,0:0:0:0:
64,192,64179,128,8,64479:0:0:0:0:
192,192,64329,1,8,0:0:0:0:
448,192,64479,128,8,64779:0:0:0:0:
320,192,64629,1,8,0:0:0:0:
64,192,64779,1,0,0:0:0:0:
320,192,65079,1,0,0:0:0:0:
192,192,65379,1,0,0:0:0:0:
448,192,65679,1,0,0:0:0:0:
320,192,65679,1,0,0:0:0:0:
192,192,65979,1,2,0:0:0:0:
64,192,65979,1,0,0:0:0:0:
448,192,66129,128,2,66279:0:0:0:0:
448,192,66429,128,2,66579:0:0:0:0:
64,192,66729,1,2,0:0:0:0:
320,192,66879,128,0,67179:0:0:0:0:
448,192,67179,1,2,0:0:0:0:
64,192,67329,128,2,67479:0:0:0:0:
64,192,67629,128,2,67779:0:0:0:0:
448,192,67929,1,2,0:0:0:0:
192,192,68079,128,0,68379:0:0:0:0:
64,192,68379,1,2,0:0:0:0:
320,192,68529,128,2,68679:0:0:0:0:
320,192,68829,128,2,68979:0:0:0:0:
64,192,69129,1,2,0:0:0:0:
448,192,69279,128,0,69579:0:0:0:0:
320,192,69579,1,2,0:0:0:0:
192,192,69729,1,0,0:0:0:0:
448,192,69879,1,8,0:0:0:0:
64,192,70029,1,0,0:0:0:0:
320,192,70179,1,2,0:0:0:0:
64,192,70329,1,0,0:0:0:0:
448,192,70479,1,8,0:0:0:0:
192,192,70629,1,0,0:0:0:0:
64,192,70779,1,0,0:0:0:0:
448,192,70779,1,2,0:0:0:0:
192,192,70929,128,2,71079:0:0:0:0:
192,192,71229,128,2,71379:0:0:0:0:
448,192,71529,1,2,0:0:0:0:
64,192,71679,128,0,71979:0:0:0:0:
192,192,71979,1,2,0:0:0:0:
448,192,72129,128,2,72279:0:0:0:0:
448,192,72429,128,2,72579:0:0:0:0:
192,192,72729,1,2,0:0:0:0:
320,192,72879,128,0,73179:0:0:0:0:
448,192,73179,1,2,0:0:0:0:
64,192,73329,128,2,73479:0:0:0:0:
64,192,73629,128,2,73779:0:0:0:0:
448,192,73929,1,2,0:0:0:0:
192,192,74079,128,0,74379:0:0:0:0:
64,192,74379,1,2,0:0:0:0:
448,192,74529,1,0,0:0:0:0:
320,192,74679,1,8,0:0:0:0:
64,192,74829,1,0,0:0:0:0:
448,192,74979,1,2,0:0:0:0:
64,192,75129,1,0,0:0:0:0:
320,192,75279,128,8,75429:0:0:0:0:
192,192,75429,128,0,75579:0:0:0:0:
64,192,75579,1,0,0:0:0:0:
448,192,75579,1,2,2:0:0:0:
320,192,75729,128,2,75879:2:0:0:0:
192,192,75879,1,0,0:0:0:0:
320,192,76029,128,2,76179:2:0:0:0:
192,192,76179,1,0,0:0:0:0:
64,192,76329,1,2,2:0:0:0:
448,192,76479,128,0,76779:0:0:0:0:
192,192,76629,1,0,0:0:0:0:
320,192,76779,1,2,2:0:0:0:
64,192,76929,128,2,77079:2:0:0:0:
448,192,77079,1,0,0:0:0:0:
64,192,77229,128,2,77379:2:0:0:0:
448,192,77379,1,0,0:0:0:0:
320,192,77529,1,2,2:0:0:0:
192,192,77679,128,0,77979:0:0:0:0:
448,192,77829,1,0,0:0:0:0:
64,192,77979,1,2,2:0:0:0:
448,192,78129,128,2,78279:2:0:0:0:
64,192,78279,1,0,0:0:0:0:
448,192,78429,128,2,78579:2:0:0:0:
64,192,78579,1,0,0:0:0:0:
192,192,78729,1,2,2:0:0:0:
320,192,78879,128,0,79179:0:0:0:0:
64,192,79029,1,0,0:0:0:0:
448,192,79179,1,2,2:0:0:0:
192,192,79329,1,0,0:0:0:0:
320,192,79479,1,8,2:0:0:0:
64,192,79629,1,0,0:0:0:0:
448,192,79779,1,2,2:0:0:0:
64,192,79929,1,0,0:0:0:0:
320,192,80079,1,8,2:0:0:0:
192,192,80229,1,0,0:0:0:0:
448,192,80379,1,2,2:0:0:0:
64,192,80379,1,0,0:0:0:0:
192,192,80529,1,2,2:0:0:0:
320,192,80679,128,0,80829:0:0:0:0:
192,192,80829,1,0,0:0:0:0:
64,192,80979,1,2,2:0:0:0:
448,192,80979,1,0,0:0:0:0:
320,192,81129,1,2,2:0:0:0:
64,192,81279,128,0,81429:0:0:0:0:
192,192,81429,1,0,0:0:0:0:
448,192,81579,1,2,2:0:0:0:
320,192,81579,1,0,0:0:0:0:
64,192,81729,1,2,2:0:0:0:
448,192,81879,128,0,82029:0:0:0:0:
320,192,82029,1,0,0:0:0:0:
192,192,82179,1,0,0:0:0:0:
64,192,82179,1,2,2:0:0:0:
448,192,82329,1,2,2:0:0:0:
192,192,82479,128,0,82629:0:0:0:0:
320,192,82629,1,0,0:0:0:0:
448,192,82779,1,8,2:0:0:0:
64,192,82779,1,0,0:0:0:0:
192,192,82929,1,2,2:0:0:0:
448,192,83079,1,0,0:0:0:0:
64,192,83079,1,8,2:0:0:0:
320,192,83229,1,2,2:0:0:0:
192,192,83379,128,8,83679:0:0:0:0:
448,192,83529,1,8,0:0:0:0:
320,192,83679,128,8,83979:0:0:0:0:
64,192,83829,1,8,0:0:0:0:
192,192,83979,1,2,0:0:0:0:
448,192,84279,1,0,0:0:0:0:
64,192,84579,1,0,0:0:0:0:
448,192,84879,128,0,85179:0:0:0:0:
64,192,85179,1,0,0:0:0:0:
320,192,85329,1,0,0:0:0:0:
192,192,85479,1,0,0:0:0:0:
64,192,85629,1,0,0:0:0:0:
448,192,85779,1,0,0:0:0:0:
320,192,85929,1,0,0:0:0:0:
64,192,86079,1,0,0:0:0:0:
192,192,86229,1,0,0:0:0:0:
320,192,86379,1,2,0:0:0:0:
448,192,86379,1,0,0:0:0:0:
192,192,86679,1,8,0:0:0:0:
64,192,86679,1,0,0:0:0:0:
448,192,86979,128,2,87129:0:0:0:0:
192,192,87129,128,0,87279:0:0:0:0:
320,192,87279,128,8,87429:0:0:0:0:
64,192,87429,128,0,87579:0:0:0:0:
448,192,87579,1,2,0:0:0:0:
320,192,87879,1,0,0:0:0:0:
192,192,87879,1,8,0:0:0:0:
448,192,88179,128,2,88329:0:0:0:0:
64,192,88329,128,0,88479:0:0:0:0:
320,192,88479,128,0,88629:0:0:0:0:
192,192,88629,128,0,88779:0:0:0:0:
448,192,88779,1,2,0:0:0:0:
320,192,89079,1,0,0:0:0:0:
64,192,89079,1,8,0:0:0:0:
448,192,89379,128,2,89529:0:0:0:0:
320,192,89529,1,0,0:0:0:0:
64,192,89679,1,8,0:0:0:0:
192,192,89679,1,0,0:0:0:0:
448,192,89829,1,0,0:0:0:0:
64,192,89979,128,0,90279:0:0:0:0:
448,192,90279,1,0,0:0:0:0:
320,192,90429,1,0,0:0:0:0:
192,192,90579,128,2,90879:0:0:0:0:
320,192,90879,128,0,91179:0:0:0:0:
64,192,91179,1,2,0:0:0:0:
448,192,91179,1,0,0:0:0:0:
192,192,91479,1,0,0:0:0:0:
320,192,91479,1,8,0:0:0:0:
64,192,91779,128,2,91929:0:0:0:0:
192,192,91929,128,0,92079:0:0:0:0:
448,192,92079,128,8,92229:0:0:0:0:
320,192,92229,128,0,92379:0:0:0:0:
64,192,92379,1,2,0:0:0:0:
192,192,92679,1,0,0:0:0:0:
448,192,92679,1,8,0:0:0:0:
320,192,92979,128,2,93129:0:0:0:0:
64,192,93129,128,0,93279:0:0:0:0:
448,192,93279,128,0,93429:0:0:0:0:
192,192,93429,128,0,93579:0:0:0:0:
320,192,93579,1,2,0:0:0:0:
64,192,93879,1,0,0:0:0:0:
448,192,93879,1,8,0:0:0:0:
192,192,94179,1,2,0:0:0:0:
320,192,94329,1,0,0:0:0:0:
448,192,94329,1,8,0:0:0:0:
64,192,94479,1,2,0:0:0:0:
320,192,94629,1,8,0:0:0:0:
448,192,94629,1,0,0:0:0:0:
192,192,94779,128,0,95079:0:0:0:0:
448,192,95079,1,0,0:0:0:0:
64,192,95229,1,0,0:0:0:0:
320,192,95379,128,0,95679:0:0:0:0:
192,192,95679,1,0,0:0:0:0:
64,192,95829,1,0,0:0:0:0:
448,192,95979,1,2,2:0:0:0:
320,192,95979,1,0,0:0:0:0:
192,192,96129,1,0,0:0:0:0:
448,192,96279,1,8,2:0:0:0:
320,192,96429,1,0,0:0:0:0:
64,192,96579,128,2,96729:2:0:0:0:
320,192,96729,128,0,96879:0:0:0:0:
192,192,96879,128,8,97029:2:0:0:0:
448,192,97029,128,0,97179:0:0:0:0:
64,192,97179,1,2,2:0:0:0:
320,192,97329,1,0,0:0:0:0:
192,192,97479,1,8,2:0:0:0:
448,192,97629,1,0,0:0:0:0:
64,192,97779,128,2,97929:2:0:0:0:
448,192,97929,128,0,98079:0:0:0:0:
192,192,98079,128,0,98229:0:0:0:0:
320,192,98229,128,0,98379:0:0:0:0:
448,192,98379,1,2,2:0:0:0:
64,192,98529,1,0,0:0:0:0:
192,192,98679,1,8,2:0:0:0:
448,192,98829,1,0,0:0:0:0:
320,192,98979,128,2,99129:2:0:0:0:
64,192,99129,1,0,0:0:0:0:
448,192,99279,1,8,2:0:0:0:
192,192,99429,1,0,0:0:0:0:
64,192,99579,128,0,99879:0:0:0:0:
448,192,99879,1,0,0:0:0:0:
320,192,100029,1,0,0:0:0:0:
192,192,100179,128,0,100479:0:0:0:0:
448,192,100479,128,0,100779:0:0:0:0:
320,192,100779,1,0,0:0:0:0:
64,192,100779,1,2,2:0:0:0:
192,192,100929,1,0,0:0:0:0:
448,192,101079,1,8,2:0:0:0:
448,192,101229,1,0,0:0:0:0:
64,192,101379,1,2,2:0:0:0:
320,192,101529,1,0,0:0:0:0:
192,192,101679,1,8,2:0:0:0:
192,192,101829,1,0,0:0:0:0:
448,192,101979,1,2,2:0:0:0:
64,192,102129,1,0,0:0:0:0:
320,192,102279,1,8,2:0:0:0:
320,192,102429,1,0,0:0:0:0:
192,192,102579,1,2,2:0:0:0:
448,192,102729,1,0,0:0:0:0:
64,192,102879,1,8,2:0:0:0:
64,192,103029,1,0,0:0:0:0:
448,192,103179,1,2,2:0:0:0:
64,192,103329,1,0,0:0:0:0:
192,192,103329,1,8,2:0:0:0:
320,192,103479,1,2,2:0:0:0:
192,192,103629,1,0,0:0:0:0:
64,192,103629,1,8,2:0:0:0:
448,192,103779,128,8,104379:0:0:0:0:
320,192,103929,1,8,0:0:0:0:
64,192,104079,1,8,0:0:0:0:
192,192,104229,1,8,0:0:0:0:
320,192,104379,1,0,0:0:0:0:
64,192,104679,1,0,0:0:0:0:
448,192,104979,1,0,0:0:0:0:
320,192,104979,1,0,0:0:0:0:
192,192,105279,1,0,0:0:0:0:
64,192,105579,1,2,0:0:0:0:
448,192,105579,1,0,0:0:0:0:
320,192,105729,1,8,0:0:0:0:
64,192,105879,1,2,0:0:0:0:
448,192,106029,1,8,0:0:0:0:
192,192,106179,1,2,0:0:0:0:
64,192,106329,1,8,0:0:0:0:
320,192,106479,1,2,0:0:0:0:
448,192,106629,1,8,0:0:0:0:
64,192,106779,1,2,0:0:0:0:
320,192,106929,1,8,0:0:0:0:
192,192,107079,1,2,0:0:0:0:
448,192,107229,1,8,0:0:0:0:
320,192,107379,1,2,0:0:0:0:
64,192,107529,1,8,0:0:0:0:
192,192,107679,1,2,0:0:0:0:
448,192,107829,1,8,0:0:0:0:
64,192,107979,1,2,0:0:0:0:
320,192,108129,1,8,0:0:0:0:
448,192,108279,1,2,0:0:0:0:
192,192,108429,1,8,0:0:0:0:
64,192,108579,1,2,0:0:0:0:
320,192,108729,1,8,0:0:0:0:
192,192,108879,1,2,0:0:0:0:
448,192,109029,1,8,0:0:0:0:
64,192,109179,1,2,0:0:0:0:
320,192,109329,1,8,0:0:0:0:
448,192,109479,1,2,0:0:0:0:
192,192,109629,1,8,0:0:0:0:
64,192,109779,128,8,110079:0:0:0:0:
320,192,109929,1,8,0:0:0:0:
448,192,110079,128,0,110379:0:0:0:0:
64,192,110379,128,8,112779:0:0:0:0:
320,192,110529,1,8,0:0:0:0:
192,192,110679,1,8,0:0:0:0:
448,192,110829,1,8,0:0:0:0:
192,192,110979,1,8,0:0:0:0:
320,192,111129,1,8,0:0:0:0:
448,192,111279,1,8,0:0:0:0:
192,192,111429,1,8,0:0:0:0:
448,192,111579,1,8,0:0:0:0:
320,192,111729,1,8,0:0:0:0:
192,192,111879,1,8,0:0:0:0:
448,192,112029,1,8,0:0:0:0:
192,192,112179,1,8,0:0:0:0:
320,192,112329,1,8,0:0:0:0:
448,192,112479,1,8,0:0:0:0:
192,192,112629,1,8,0:0:0:0:
448,192,112779,128,8,114579:0:0:0:0:
320,192,112929,1,8,0:0:0:0:
64,192,113079,1,8,0:0:0:0:
320,192,113229,1,8,0:0:0:0:
192,192,113379,1,8,0:0:0:0:
64,192,113529,1,8,0:0:0:0:
320,192,113679,1,8,0:0:0:0:
64,192,113829,1,8,0:0:0:0:
192,192,113979,1,8,0:0:0:0:
320,192,114129,1,8,0:0:0:0:
192,192,114279,128,8,114429:0:0:0:0:
64,192,114429,128,0,114579:0:0:0:0:
320,192,114579,1,2,0:0:0:0:
192,192,114729,1,8,0:0:0:0:
64,192,114729,1,0,0:0:0:0:
320,192,114879,1,2,0:0:0:0:
448,192,115029,128,8,115929:0:0:0:0:
64,192,115029,128,0,115929:0:0:0:0:
