osu file format v14

[General]
AudioFilename: Angelic Jelly.mp3
AudioLeadIn: 0
PreviewTime: 46704
Countdown: 0
SampleSet: Soft
StackLeniency: 0.7
Mode: 3
LetterboxInBreaks: 0
SpecialStyle: 0
WidescreenStoryboard: 0

[Editor]
DistanceSpacing: 0.5
BeatDivisor: 4
GridSize: 32
TimelineZoom: 2.600001

[Metadata]
Title:Angelic Jelly
TitleUnicode:Angelic Jelly
Artist:t+pazolite
ArtistUnicode:t+pazolite
Creator:Dellvangel
Version:CS' EXHAUST
Source:SOUND VOLTEX III GRAVITY WARS
Tags:beatmania IIDX 23 copula jubeat qubel SDVX New Generation 夏の流星フェスタ2016 Critical_Star
BeatmapID:1225425
BeatmapSetID:577563

[Difficulty]
HPDrainRate:8
CircleSize:4
OverallDifficulty:8
ApproachRate:5
SliderMultiplier:1.4
SliderTickRate:1

[Events]
//Background and Video events
0,0,"BG.jpg",0,0
//Break Periods
//Storyboard Layer 0 (Background)
//Storyboard Layer 1 (Fail)
//Storyboard Layer 2 (Pass)
//Storyboard Layer 3 (Foreground)
//Storyboard Sound Samples

[TimingPoints]
1179,300,4,2,1,40,1,0
20379,-100,4,3,1,40,0,0
21579,-100,4,2,1,40,0,0
27579,-100,4,1,1,40,0,0
44379,-100,4,2,1,40,0,0
46779,-100,4,2,1,40,0,1
55179,-100,4,2,1,40,0,0
56379,-100,4,2,1,40,0,1
64779,-100,4,2,1,40,0,0
75579,-100,4,3,1,40,0,0
83379,-100,4,2,1,40,0,0
86379,-100,4,2,1,40,0,1
94779,-100,4,2,1,40,0,0
95979,-100,4,3,1,40,0,1
99579,-100,4,2,1,40,0,1
100779,-100,4,3,1,40,0,1
103779,-100,4,2,1,40,0,1
104379,-100,4,2,1,40,0,0

[HitObjects]
448,192,1179,128,0,2379:0:0:0:0:
192,192,1179,1,0,0:0:0:0:
64,192,1179,1,0,0:0:0:0:
320,192,1479,1,0,0:0:0:0:
64,192,1629,1,0,0:0:0:0:
192,192,1854,1,0,0:0:0:0:
320,192,2079,1,0,0:0:0:0:
192,192,2229,1,0,0:0:0:0:
64,192,2379,1,0,0:0:0:0:
192,192,2454,1,0,0:0:0:0:
320,192,2529,1,0,0:0:0:0:
448,192,2604,1,0,0:0:0:0:
64,192,2679,1,0,0:0:0:0:
320,192,2754,1,0,0:0:0:0:
192,192,2829,1,0,0:0:0:0:
448,192,2904,1,0,0:0:0:0:
320,192,2979,1,0,0:0:0:0:
64,192,3054,1,0,0:0:0:0:
192,192,3054,1,0,0:0:0:0:
448,192,3129,1,0,0:0:0:0:
320,192,3129,1,0,0:0:0:0:
64,192,3204,1,0,0:0:0:0:
192,192,3204,1,0,0:0:0:0:
448,192,3279,1,0,0:0:0:0:
320,192,3279,1,0,0:0:0:0:
192,192,3429,1,0,0:0:0:0:
320,192,3429,1,0,0:0:0:0:
448,192,3579,1,0,0:0:0:0:
320,192,3579,1,0,0:0:0:0:
64,192,3579,1,2,0:0:0:0:
192,192,3729,128,0,3879:0:0:0:0:
320,192,3879,1,8,0:0:0:0:
448,192,3879,1,0,0:0:0:0:
192,192,4029,128,0,4179:0:0:0:0:
64,192,4179,1,2,0:0:0:0:
320,192,4179,1,0,0:0:0:0:
448,192,4329,128,0,4629:0:0:0:0:
192,192,4479,128,0,4779:0:0:0:0:
64,192,4479,1,0,0:0:0:0:
320,192,4629,128,0,4779:0:0:0:0:
448,192,4779,1,2,0:0:0:0:
64,192,4779,1,0,0:0:0:0:
192,192,4929,128,0,5079:0:0:0:0:
448,192,5079,1,0,0:0:0:0:
320,192,5079,1,8,0:0:0:0:
192,192,5229,128,0,5379:0:0:0:0:
64,192,5379,1,0,0:0:0:0:
448,192,5379,1,2,0:0:0:0:
320,192,5529,128,0,5679:0:0:0:0:
448,192,5679,128,0,5979:0:0:0:0:
64,192,5679,1,0,0:0:0:0:
64,192,5829,128,0,5979:0:0:0:0:
320,192,5979,1,0,0:0:0:0:
192,192,5979,1,2,0:0:0:0:
64,192,6129,128,0,6279:0:0:0:0:
448,192,6279,1,8,0:0:0:0:
320,192,6279,1,0,0:0:0:0:
64,192,6429,128,0,6579:0:0:0:0:
192,192,6579,1,0,0:0:0:0:
448,192,6579,1,2,0:0:0:0:
64,192,6654,1,0,0:0:0:0:
320,192,6729,1,0,0:0:0:0:
192,192,6804,1,0,0:0:0:0:
64,192,6879,1,8,0:0:0:0:
448,192,6879,1,0,0:0:0:0:
320,192,6954,1,0,0:0:0:0:
192,192,7029,1,0,0:0:0:0:
320,192,7104,1,0,0:0:0:0:
192,192,7179,128,0,7329:0:0:0:0:
448,192,7179,1,2,0:0:0:0:
64,192,7329,1,0,0:0:0:0:
192,192,7404,1,0,0:0:0:0:
448,192,7479,128,0,7704:0:0:0:0:
320,192,7479,128,0,7629:0:0:0:0:
64,192,7479,1,8,0:0:0:0:
192,192,7629,1,0,0:0:0:0:
320,192,7704,1,0,0:0:0:0:
448,192,7779,1,0,0:0:0:0:
64,192,7779,1,2,0:0:0:0:
320,192,7929,1,0,0:0:0:0:
192,192,8004,1,0,0:0:0:0:
320,192,8079,1,8,3:0:0:0:
448,192,8079,128,0,8229:3:0:0:0:
64,192,8079,128,0,8379:0:0:0:0:
192,192,8229,128,0,8379:0:0:0:0:
448,192,8379,1,0,0:0:0:0:
320,192,8379,1,2,0:0:0:0:
448,192,8529,128,0,8679:0:0:0:0:
192,192,8679,1,0,0:0:0:0:
64,192,8679,1,8,0:0:0:0:
448,192,8829,128,0,8979:0:0:0:0:
320,192,8979,1,2,0:0:0:0:
64,192,8979,1,0,0:0:0:0:
192,192,9129,128,0,9429:0:0:0:0:
448,192,9279,128,0,9579:0:0:0:0:
64,192,9279,1,0,0:0:0:0:
320,192,9429,128,0,9579:0:0:0:0:
192,192,9579,1,0,0:0:0:0:
64,192,9579,1,2,0:0:0:0:
64,192,9729,128,0,9879:0:0:0:0:
192,192,9879,1,0,0:0:0:0:
448,192,9879,1,8,0:0:0:0:
64,192,10029,128,0,10179:0:0:0:0:
320,192,10179,1,2,0:0:0:0:
448,192,10179,1,0,0:0:0:0:
192,192,10329,128,0,10479:0:0:0:0:
448,192,10479,1,0,0:0:0:0:
64,192,10479,128,0,10779:0:0:0:0:
448,192,10629,128,0,10779:0:0:0:0:
320,192,10779,1,2,0:0:0:0:
192,192,10779,1,0,0:0:0:0:
64,192,10929,128,0,11079:0:0:0:0:
448,192,11079,1,0,0:0:0:0:
320,192,11079,1,8,0:0:0:0:
448,192,11229,128,0,11379:0:0:0:0:
64,192,11379,1,2,0:0:0:0:
192,192,11379,1,0,0:0:0:0:
320,192,11454,1,0,0:0:0:0:
64,192,11529,1,0,0:0:0:0:
448,192,11529,1,8,0:0:0:0:
192,192,11604,1,0,0:0:0:0:
448,192,11679,1,0,0:0:0:0:
64,192,11679,1,2,0:0:0:0:
320,192,11754,1,0,0:0:0:0:
64,192,11829,1,0,0:0:0:0:
448,192,11829,1,8,0:0:0:0:
192,192,11904,1,0,0:0:0:0:
320,192,11979,1,0,0:0:0:0:
448,192,11979,1,2,0:0:0:0:
64,192,11979,1,0,0:0:0:0:
448,192,12279,1,0,0:0:0:0:
192,192,12279,1,0,0:0:0:0:
320,192,12279,1,0,0:0:0:0:
64,192,12579,1,0,0:0:0:0:
448,192,12579,1,0,0:0:0:0:
192,192,12579,1,0,0:0:0:0:
192,192,12879,128,0,13029:0:0:0:0:
64,192,12879,128,0,13104:0:0:0:0:
320,192,12879,128,0,12954:0:0:0:0:
448,192,12954,1,0,0:0:0:0:
320,192,13029,1,0,0:0:0:0:
192,192,13104,1,0,0:0:0:0:
64,192,13179,1,0,0:0:0:0:
320,192,13179,1,0,0:0:0:0:
448,192,13179,1,8,0:0:0:0:
192,192,13329,1,0,0:0:0:0:
320,192,13404,1,0,0:0:0:0:
448,192,13479,1,0,0:0:0:0:
64,192,13479,1,8,0:0:0:0:
320,192,13629,1,0,0:0:0:0:
192,192,13704,1,0,0:0:0:0:
64,192,13779,1,0,0:0:0:0:
448,192,13779,1,8,0:0:0:0:
192,192,13929,128,0,14004:0:0:0:0:
320,192,14079,128,0,14154:0:0:0:0:
448,192,14229,128,0,14304:0:0:0:0:
448,192,14379,1,0,0:0:0:0:
192,192,14379,1,0,0:0:0:0:
64,192,14379,1,8,0:0:0:0:
320,192,14529,1,0,0:0:0:0:
192,192,14604,1,0,0:0:0:0:
320,192,14679,1,0,0:0:0:0:
448,192,14679,1,8,0:0:0:0:
192,192,14829,1,0,0:0:0:0:
320,192,14904,1,0,0:0:0:0:
192,192,14979,1,0,0:0:0:0:
64,192,14979,1,8,0:0:0:0:
320,192,15129,128,0,15204:0:0:0:0:
64,192,15279,128,0,15354:0:0:0:0:
448,192,15279,128,0,15579:0:0:0:0:
64,192,15429,128,0,15579:0:0:0:0:
320,192,15579,1,8,0:0:0:0:
192,192,15579,1,0,0:0:0:0:
64,192,15729,1,0,0:0:0:0:
192,192,15804,1,0,0:0:0:0:
320,192,15879,1,0,0:0:0:0:
448,192,15879,1,8,0:0:0:0:
448,192,16029,1,0,0:0:0:0:
320,192,16104,1,0,0:0:0:0:
192,192,16179,1,8,0:0:0:0:
64,192,16179,1,0,0:0:0:0:
448,192,16254,1,0,0:0:0:0:
320,192,16329,1,0,0:0:0:0:
448,192,16404,1,0,0:0:0:0:
192,192,16479,1,0,0:0:0:0:
64,192,16479,1,8,0:0:0:0:
320,192,16629,1,0,0:0:0:0:
192,192,16629,1,0,0:0:0:0:
448,192,16779,128,0,16929:0:0:0:0:
320,192,16779,1,8,0:0:0:0:
64,192,16779,1,0,0:0:0:0:
192,192,16929,1,0,0:0:0:0:
320,192,17004,1,0,0:0:0:0:
448,192,17079,1,0,0:0:0:0:
64,192,17079,128,8,17304:0:0:0:0:
192,192,17079,128,0,17229:0:0:0:0:
320,192,17229,1,0,0:0:0:0:
192,192,17304,1,0,0:0:0:0:
320,192,17379,1,0,0:0:0:0:
448,192,17379,1,8,0:0:0:0:
64,192,17379,1,0,0:0:0:0:
192,192,17529,1,0,0:0:0:0:
320,192,17604,1,0,0:0:0:0:
448,192,17679,1,8,3:0:0:0:
64,192,17679,1,0,0:0:0:0:
192,192,17679,1,0,0:0:0:0:
448,192,17979,1,0,0:0:0:0:
320,192,17979,1,2,2:0:0:0:
64,192,17979,1,0,0:0:0:0:
320,192,18129,1,0,0:0:0:0:
192,192,18129,1,0,0:0:0:0:
192,192,18279,1,0,0:0:0:0:
448,192,18279,1,8,2:0:0:0:
64,192,18279,128,0,18354:0:0:0:0:
320,192,18429,128,0,18504:0:0:0:0:
192,192,18429,1,0,0:0:0:0:
64,192,18579,1,0,0:0:0:0:
448,192,18579,1,2,2:0:0:0:
448,192,18729,128,0,18804:0:0:0:0:
320,192,18729,1,0,0:0:0:0:
64,192,18879,128,0,18954:0:0:0:0:
192,192,18879,1,8,2:0:0:0:
448,192,18879,1,0,0:0:0:0:
320,192,19029,128,0,19104:0:0:0:0:
192,192,19029,1,0,0:0:0:0:
64,192,19179,1,2,2:0:0:0:
448,192,19179,1,0,0:0:0:0:
192,192,19179,1,0,0:0:0:0:
320,192,19329,1,0,0:0:0:0:
192,192,19329,1,0,0:0:0:0:
192,192,19479,128,0,19554:0:0:0:0:
448,192,19479,1,8,2:0:0:0:
64,192,19479,1,0,0:0:0:0:
448,192,19629,128,0,19704:0:0:0:0:
192,192,19629,1,0,0:0:0:0:
448,192,19779,1,0,2:0:0:0:
64,192,19779,1,2,0:0:0:0:
320,192,19929,1,0,0:0:0:0:
192,192,19929,128,0,20004:0:0:0:0:
448,192,20079,1,8,0:0:0:0:
64,192,20079,1,0,2:0:0:0:
320,192,20154,1,0,0:0:0:0:
448,192,20229,1,0,0:0:0:0:
320,192,20304,1,0,0:0:0:0:
64,192,20379,1,8,2:0:0:0:
192,192,20379,1,0,0:0:0:0:
448,192,20454,1,0,0:0:0:0:
320,192,20529,1,0,0:0:0:0:
64,192,20529,1,2,2:0:0:0:
192,192,20604,1,0,0:0:0:0:
320,192,20679,1,8,2:0:0:0:
448,192,20679,1,0,0:0:0:0:
192,192,20754,1,0,0:0:0:0:
64,192,20829,1,2,2:0:0:0:
448,192,20829,1,0,0:0:0:0:
320,192,20904,1,0,0:0:0:0:
192,192,20979,1,0,0:0:0:0:
64,192,20979,1,8,2:0:0:0:
448,192,21054,1,0,0:0:0:0:
320,192,21129,1,2,2:0:0:0:
192,192,21129,1,0,0:0:0:0:
64,192,21204,1,0,0:0:0:0:
320,192,21279,1,0,0:0:0:0:
448,192,21279,1,8,2:0:0:0:
64,192,21354,1,0,0:0:0:0:
192,192,21429,1,2,2:0:0:0:
320,192,21429,1,0,0:0:0:0:
448,192,21504,1,0,0:0:0:0:
192,192,21579,1,8,0:0:0:0:
64,192,21579,1,0,0:0:0:0:
320,192,21654,1,8,0:0:0:0:
448,192,21654,1,0,0:0:0:0:
64,192,21729,1,8,0:0:0:0:
192,192,21729,1,0,0:0:0:0:
320,192,21804,1,0,0:0:0:0:
448,192,21804,1,8,0:0:0:0:
192,192,21879,1,8,0:0:0:0:
64,192,21879,1,0,0:0:0:0:
320,192,21954,1,8,0:0:0:0:
448,192,21954,1,0,0:0:0:0:
192,192,22029,1,8,0:0:0:0:
64,192,22029,1,0,0:0:0:0:
320,192,22104,1,8,0:0:0:0:
448,192,22179,1,0,0:0:0:0:
64,192,22179,1,8,0:0:0:0:
192,192,22254,1,8,0:0:0:0:
320,192,22254,1,0,0:0:0:0:
64,192,22329,1,0,0:0:0:0:
448,192,22329,1,8,0:0:0:0:
320,192,22404,1,8,0:0:0:0:
192,192,22404,1,0,0:0:0:0:
448,192,22479,1,0,0:0:0:0:
64,192,22479,1,8,0:0:0:0:
192,192,22554,1,8,0:0:0:0:
320,192,22554,1,0,0:0:0:0:
64,192,22629,1,0,0:0:0:0:
448,192,22629,1,8,0:0:0:0:
320,192,22704,1,8,0:0:0:0:
192,192,22704,1,0,0:0:0:0:
448,192,22779,1,2,0:0:0:0:
64,192,22779,1,0,0:0:0:0:
64,192,23679,128,0,23754:0:0:0:0:
192,192,23979,128,0,24054:0:0:0:0:
448,192,24279,128,0,24354:0:0:0:0:
320,192,24579,128,0,24654:0:0:0:0:
192,192,24879,128,0,24954:0:0:0:0:
64,192,25179,128,0,25254:0:0:0:0:
448,192,25479,128,0,25554:0:0:0:0:
320,192,26079,128,0,26154:0:0:0:0:
192,192,26379,128,0,26454:0:0:0:0:
448,192,27279,128,0,27354:0:0:0:0:
320,192,27429,128,0,27504:0:0:0:0:
64,192,27579,1,2,0:0:0:0:
448,192,27579,128,0,27654:0:0:0:0:
320,192,27879,128,0,27954:0:0:0:0:
64,192,27879,1,2,0:0:0:0:
64,192,28179,1,0,0:0:0:0:
448,192,28179,1,8,0:0:0:0:
192,192,28479,128,0,28554:0:0:0:0:
448,192,28479,1,0,0:0:0:0:
64,192,28629,1,0,0:0:0:0:
320,192,28779,128,0,28854:0:0:0:0:
448,192,28779,1,0,0:0:0:0:
64,192,28929,1,0,0:0:0:0:
448,192,29079,128,0,29154:0:0:0:0:
192,192,29079,1,8,0:0:0:0:
320,192,29379,1,0,0:0:0:0:
64,192,29529,1,0,0:0:0:0:
64,192,29679,1,8,0:0:0:0:
448,192,29679,1,0,0:0:0:0:
192,192,29979,128,0,30054:0:0:0:0:
448,192,29979,1,2,0:0:0:0:
448,192,30279,1,2,0:0:0:0:
64,192,30429,128,0,30504:0:0:0:0:
448,192,30579,1,0,0:0:0:0:
320,192,30579,1,8,0:0:0:0:
320,192,30879,128,0,30954:0:0:0:0:
64,192,30879,1,0,0:0:0:0:
192,192,31029,1,0,0:0:0:0:
320,192,31179,128,0,31254:0:0:0:0:
64,192,31179,1,0,0:0:0:0:
192,192,31329,1,0,0:0:0:0:
448,192,31479,1,8,0:0:0:0:
64,192,31479,1,0,0:0:0:0:
320,192,31629,128,0,31704:0:0:0:0:
192,192,31704,128,0,31779:0:0:0:0:
64,192,31779,128,0,31854:0:0:0:0:
320,192,31929,1,0,0:0:0:0:
192,192,32079,1,0,0:0:0:0:
448,192,32079,1,2,2:0:0:0:
64,192,32154,1,0,0:0:0:0:
320,192,32229,1,0,0:0:0:0:
448,192,32229,1,0,0:0:0:0:
192,192,32304,1,0,0:0:0:0:
64,192,32379,1,2,0:0:0:0:
448,192,32379,128,0,32454:0:0:0:0:
192,192,32679,1,2,0:0:0:0:
320,192,32829,1,0,0:0:0:0:
448,192,32979,1,8,0:0:0:0:
64,192,32979,1,0,0:0:0:0:
192,192,33129,1,0,0:0:0:0:
448,192,33279,128,0,33354:0:0:0:0:
320,192,33279,1,0,0:0:0:0:
192,192,33429,1,0,0:0:0:0:
448,192,33579,1,0,0:0:0:0:
64,192,33579,128,0,33654:0:0:0:0:
192,192,33729,1,0,0:0:0:0:
64,192,33879,1,8,0:0:0:0:
448,192,33879,128,0,33954:0:0:0:0:
320,192,34029,1,0,0:0:0:0:
192,192,34179,128,0,34254:0:0:0:0:
64,192,34179,1,0,0:0:0:0:
448,192,34329,1,0,0:0:0:0:
320,192,34479,1,8,0:0:0:0:
64,192,34479,128,0,34554:0:0:0:0:
448,192,34554,1,0,0:0:0:0:
192,192,34629,1,0,0:0:0:0:
320,192,34704,1,0,0:0:0:0:
448,192,34779,128,0,34854:0:0:0:0:
64,192,34779,1,2,0:0:0:0:
192,192,34929,1,0,0:0:0:0:
64,192,35079,128,0,35154:0:0:0:0:
448,192,35079,1,2,0:0:0:0:
320,192,35229,1,0,0:0:0:0:
448,192,35379,1,0,0:0:0:0:
64,192,35379,1,8,0:0:0:0:
192,192,35529,1,0,0:0:0:0:
320,192,35679,128,0,35754:0:0:0:0:
64,192,35679,1,0,0:0:0:0:
192,192,35829,128,0,35904:0:0:0:0:
448,192,35829,1,0,0:0:0:0:
64,192,35979,128,0,36054:0:0:0:0:
320,192,35979,1,0,0:0:0:0:
192,192,36129,1,0,0:0:0:0:
448,192,36279,1,8,0:0:0:0:
320,192,36279,1,0,0:0:0:0:
64,192,36429,1,0,0:0:0:0:
192,192,36579,1,0,0:0:0:0:
320,192,36729,1,0,0:0:0:0:
192,192,36879,128,0,36954:0:0:0:0:
448,192,36879,1,2,0:0:0:0:
448,192,37029,128,0,37104:0:0:0:0:
64,192,37029,1,0,0:0:0:0:
192,192,37179,128,0,37254:0:0:0:0:
448,192,37179,1,2,0:0:0:0:
64,192,37329,1,0,0:0:0:0:
320,192,37479,128,0,37554:0:0:0:0:
448,192,37479,1,2,0:0:0:0:
192,192,37629,1,0,0:0:0:0:
64,192,37779,1,8,0:0:0:0:
448,192,37779,1,0,0:0:0:0:
320,192,37929,1,0,0:0:0:0:
64,192,38079,128,0,38154:0:0:0:0:
192,192,38079,1,0,0:0:0:0:
320,192,38229,1,0,0:0:0:0:
448,192,38379,128,0,38454:0:0:0:0:
64,192,38379,1,0,0:0:0:0:
192,192,38529,1,0,0:0:0:0:
64,192,38679,1,8,0:0:0:0:
320,192,38679,128,0,38754:0:0:0:0:
448,192,38829,1,0,0:0:0:0:
64,192,38979,1,0,0:0:0:0:
192,192,39129,1,0,0:0:0:0:
320,192,39279,1,8,0:0:0:0:
64,192,39279,1,0,0:0:0:0:
448,192,39354,1,0,0:0:0:0:
192,192,39429,1,0,0:0:0:0:
320,192,39504,1,0,0:0:0:0:
448,192,39579,128,0,39654:0:0:0:0:
64,192,39579,1,2,0:0:0:0:
192,192,39729,1,0,0:0:0:0:
64,192,39879,1,2,0:0:0:0:
192,192,40029,128,0,40104:0:0:0:0:
320,192,40029,1,0,0:0:0:0:
64,192,40179,1,0,0:0:0:0:
448,192,40179,1,8,0:0:0:0:
320,192,40329,1,0,0:0:0:0:
64,192,40479,128,0,40554:0:0:0:0:
192,192,40479,1,0,0:0:0:0:
448,192,40629,1,0,0:0:0:0:
320,192,40779,128,0,40854:0:0:0:0:
64,192,40779,1,0,0:0:0:0:
192,192,40929,1,0,0:0:0:0:
448,192,41079,1,8,0:0:0:0:
64,192,41079,1,0,0:0:0:0:
320,192,41229,1,0,0:0:0:0:
448,192,41379,128,0,41454:0:0:0:0:
64,192,41379,1,0,0:0:0:0:
192,192,41529,1,0,0:0:0:0:
448,192,41679,1,2,2:0:0:0:
64,192,41679,1,0,0:0:0:0:
320,192,41754,1,0,0:0:0:0:
192,192,41829,1,0,0:0:0:0:
64,192,41829,1,0,0:0:0:0:
320,192,41904,1,0,0:0:0:0:
192,192,41979,1,2,2:0:0:0:
448,192,41979,128,0,44379:0:0:0:0:
64,192,41979,128,0,42054:0:0:0:0:
320,192,42879,128,0,44379:0:0:0:0:
192,192,44379,1,2,1:0:0:0:
64,192,44529,128,0,45279:0:0:0:0:
192,192,44679,128,0,45129:0:0:0:0:
320,192,44829,128,0,44979:0:0:0:0:
448,192,44979,128,0,45504:0:0:0:0:
320,192,45129,128,0,45504:0:0:0:0:
192,192,45279,128,0,45504:0:0:0:0:
64,192,45429,128,0,45504:0:0:0:0:
320,192,45579,1,0,0:0:0:0:
192,192,45579,1,0,0:0:0:0:
64,192,45579,1,2,0:0:0:0:
448,192,45579,128,0,46404:0:0:0:0:
320,192,45729,128,0,46029:0:0:0:0:
64,192,45879,128,0,46404:0:0:0:0:
192,192,46029,128,0,46404:0:0:0:0:
320,192,46179,128,0,46404:0:0:0:0:
64,192,46479,1,0,0:0:0:0:
192,192,46479,1,0,0:0:0:0:
448,192,46479,1,0,0:0:0:0:
320,192,46479,1,0,0:0:0:0:
448,192,46779,1,0,0:0:0:0:
64,192,46779,1,2,0:0:0:0:
320,192,46779,1,0,0:0:0:0:
192,192,46929,1,0,0:0:0:0:
64,192,46929,1,0,0:0:0:0:
320,192,47004,1,0,0:0:0:0:
64,192,47079,1,0,0:0:0:0:
448,192,47079,1,8,0:0:0:0:
320,192,47154,1,0,0:0:0:0:
192,192,47154,1,0,0:0:0:0:
320,192,47304,1,0,0:0:0:0:
192,192,47304,1,0,0:0:0:0:
64,192,47379,1,2,0:0:0:0:
448,192,47379,1,0,0:0:0:0:
320,192,47529,1,0,0:0:0:0:
64,192,47529,1,0,0:0:0:0:
192,192,47679,1,8,0:0:0:0:
448,192,47679,1,0,0:0:0:0:
64,192,47829,1,0,0:0:0:0:
448,192,47829,1,0,0:0:0:0:
320,192,47979,1,0,0:0:0:0:
64,192,47979,1,2,0:0:0:0:
448,192,48054,1,0,0:0:0:0:
192,192,48129,1,0,0:0:0:0:
320,192,48204,1,0,0:0:0:0:
64,192,48279,1,0,0:0:0:0:
448,192,48279,1,8,0:0:0:0:
192,192,48354,1,0,0:0:0:0:
320,192,48429,1,0,0:0:0:0:
64,192,48504,1,0,0:0:0:0:
192,192,48579,1,2,0:0:0:0:
448,192,48579,128,0,48729:0:0:0:0:
320,192,48729,1,0,0:0:0:0:
192,192,48804,1,0,0:0:0:0:
64,192,48879,1,0,0:0:0:0:
448,192,48879,1,0,0:0:0:0:
64,192,49029,128,0,49179:0:0:0:0:
448,192,49029,128,0,49179:0:0:0:0:
192,192,49179,1,2,0:0:0:0:
320,192,49179,1,0,0:0:0:0:
448,192,49329,1,0,0:0:0:0:
64,192,49329,1,0,0:0:0:0:
192,192,49404,1,0,0:0:0:0:
320,192,49479,1,0,0:0:0:0:
448,192,49479,1,8,0:0:0:0:
192,192,49554,1,0,0:0:0:0:
64,192,49554,1,0,0:0:0:0:
320,192,49704,1,0,0:0:0:0:
192,192,49704,1,0,0:0:0:0:
448,192,49779,1,0,0:0:0:0:
64,192,49779,1,2,0:0:0:0:
448,192,49929,1,0,0:0:0:0:
320,192,49929,1,0,0:0:0:0:
64,192,50079,1,0,0:0:0:0:
192,192,50079,1,8,0:0:0:0:
448,192,50229,1,0,0:0:0:0:
192,192,50229,1,0,0:0:0:0:
64,192,50379,1,2,0:0:0:0:
448,192,50379,1,0,0:0:0:0:
320,192,50529,1,0,0:0:0:0:
192,192,50604,1,0,0:0:0:0:
64,192,50679,1,0,0:0:0:0:
448,192,50679,1,8,0:0:0:0:
320,192,50754,1,0,0:0:0:0:
192,192,50829,1,0,0:0:0:0:
320,192,50904,1,0,0:0:0:0:
448,192,50979,1,0,0:0:0:0:
64,192,50979,128,2,51129:0:0:0:0:
192,192,51054,128,0,51204:0:0:0:0:
320,192,51129,128,0,51279:0:0:0:0:
448,192,51204,128,0,51354:0:0:0:0:
64,192,51279,1,0,0:0:0:0:
192,192,51354,1,0,0:0:0:0:
320,192,51429,1,0,0:0:0:0:
448,192,51504,1,0,0:0:0:0:
192,192,51579,1,2,0:0:0:0:
64,192,51579,1,0,0:0:0:0:
320,192,51579,1,0,0:0:0:0:
448,192,51729,1,0,0:0:0:0:
64,192,51729,1,0,0:0:0:0:
320,192,51804,1,0,0:0:0:0:
64,192,51879,1,0,0:0:0:0:
192,192,51879,1,8,0:0:0:0:
320,192,51954,1,0,0:0:0:0:
448,192,51954,1,0,0:0:0:0:
192,192,52104,1,0,0:0:0:0:
320,192,52104,1,0,0:0:0:0:
448,192,52179,1,0,0:0:0:0:
64,192,52179,1,2,0:0:0:0:
64,192,52329,1,0,0:0:0:0:
320,192,52329,1,0,0:0:0:0:
448,192,52479,1,8,0:0:0:0:
192,192,52479,1,0,0:0:0:0:
192,192,52629,1,0,0:0:0:0:
320,192,52629,1,0,0:0:0:0:
448,192,52779,1,0,0:0:0:0:
64,192,52779,1,2,0:0:0:0:
320,192,52854,1,0,0:0:0:0:
448,192,52929,1,0,0:0:0:0:
64,192,53004,1,0,0:0:0:0:
192,192,53079,1,0,0:0:0:0:
448,192,53079,1,8,0:0:0:0:
320,192,53154,1,0,0:0:0:0:
192,192,53229,1,0,0:0:0:0:
320,192,53304,1,0,0:0:0:0:
448,192,53379,1,2,0:0:0:0:
64,192,53379,128,0,53529:0:0:0:0:
192,192,53529,1,0,0:0:0:0:
64,192,53604,1,0,0:0:0:0:
448,192,53679,1,0,0:0:0:0:
320,192,53679,1,0,0:0:0:0:
448,192,53829,128,0,53979:0:0:0:0:
320,192,53829,128,0,53979:0:0:0:0:
192,192,53979,1,0,0:0:0:0:
64,192,53979,1,2,0:0:0:0:
320,192,54129,1,0,0:0:0:0:
448,192,54129,1,0,0:0:0:0:
192,192,54204,1,0,0:0:0:0:
64,192,54279,1,0,0:0:0:0:
448,192,54279,1,8,0:0:0:0:
320,192,54354,1,0,0:0:0:0:
192,192,54354,1,0,0:0:0:0:
320,192,54504,1,0,0:0:0:0:
192,192,54504,1,0,0:0:0:0:
448,192,54579,1,0,0:0:0:0:
64,192,54579,1,2,0:0:0:0:
320,192,54654,1,0,0:0:0:0:
192,192,54729,1,8,0:0:0:0:
64,192,54729,1,0,0:0:0:0:
320,192,54804,1,0,0:0:0:0:
448,192,54879,1,0,0:0:0:0:
64,192,54879,1,2,0:0:0:0:
320,192,55029,1,8,0:0:0:0:
192,192,55029,1,0,0:0:0:0:
64,192,55179,128,0,55404:0:0:0:0:
448,192,55179,1,0,0:0:0:0:
64,192,55479,128,0,55554:0:0:0:0:
64,192,55629,128,0,55704:0:0:0:0:
64,192,55779,128,0,55854:0:0:0:0:
192,192,55854,128,0,55929:0:0:0:0:
320,192,55929,128,0,56004:0:0:0:0:
448,192,56004,128,0,56079:0:0:0:0:
192,192,56079,128,0,56304:0:0:0:0:
64,192,56079,128,0,56304:0:0:0:0:
320,192,56229,128,0,56304:0:0:0:0:
448,192,56229,128,0,56304:0:0:0:0:
448,192,56379,1,0,0:0:0:0:
320,192,56379,1,0,0:0:0:0:
192,192,56379,1,0,0:0:0:0:
64,192,56379,1,2,0:0:0:0:
64,192,56529,1,0,0:0:0:0:
192,192,56529,1,0,0:0:0:0:
448,192,56679,1,0,0:0:0:0:
320,192,56679,1,8,0:0:0:0:
64,192,56829,1,0,0:0:0:0:
448,192,56829,1,0,0:0:0:0:
192,192,56979,1,2,0:0:0:0:
320,192,56979,1,0,0:0:0:0:
320,192,57129,1,0,0:0:0:0:
64,192,57129,1,0,0:0:0:0:
192,192,57279,128,0,57354:0:0:0:0:
448,192,57279,1,8,0:0:0:0:
448,192,57429,1,0,0:0:0:0:
192,192,57429,1,0,0:0:0:0:
320,192,57579,128,0,57654:0:0:0:0:
64,192,57579,1,2,0:0:0:0:
64,192,57729,1,0,0:0:0:0:
320,192,57729,1,0,0:0:0:0:
448,192,57879,128,0,57954:0:0:0:0:
192,192,57879,1,8,0:0:0:0:
64,192,58029,1,0,0:0:0:0:
448,192,58029,1,0,0:0:0:0:
320,192,58179,128,0,58254:0:0:0:0:
192,192,58179,1,2,0:0:0:0:
64,192,58329,1,0,0:0:0:0:
320,192,58329,1,0,0:0:0:0:
192,192,58479,128,0,58554:0:0:0:0:
448,192,58479,128,0,58779:0:0:0:0:
320,192,58629,128,0,58779:0:0:0:0:
64,192,58779,128,0,58854:0:0:0:0:
192,192,58779,1,2,0:0:0:0:
320,192,58929,1,0,0:0:0:0:
448,192,58929,1,0,0:0:0:0:
64,192,59079,1,8,0:0:0:0:
448,192,59079,128,0,59154:0:0:0:0:
448,192,59229,1,0,0:0:0:0:
192,192,59229,1,0,0:0:0:0:
320,192,59379,1,2,0:0:0:0:
192,192,59379,1,0,0:0:0:0:
448,192,59529,1,0,0:0:0:0:
64,192,59529,1,0,0:0:0:0:
64,192,59679,1,8,0:0:0:0:
320,192,59679,128,0,59754:0:0:0:0:
320,192,59829,1,0,0:0:0:0:
448,192,59829,1,0,0:0:0:0:
64,192,59979,128,0,60054:0:0:0:0:
192,192,59979,1,2,1:0:0:0:
320,192,60129,128,0,60279:0:0:0:0:
192,192,60279,1,2,1:0:0:0:
320,192,60429,128,0,60579:0:0:0:0:
448,192,60579,1,0,0:0:0:0:
320,192,60654,1,0,0:0:0:0:
448,192,60729,128,0,60879:0:0:0:0:
64,192,60879,1,0,0:0:0:0:
192,192,60929,1,0,0:0:0:0:
320,192,60979,1,0,0:0:0:0:
448,192,61029,1,0,0:0:0:0:
64,192,61079,1,0,0:0:0:0:
192,192,61129,1,0,0:0:0:0:
320,192,61179,1,0,0:0:0:0:
448,192,61179,1,2,0:0:0:0:
64,192,61329,1,0,0:0:0:0:
192,192,61329,1,0,0:0:0:0:
320,192,61404,1,0,0:0:0:0:
64,192,61479,1,8,0:0:0:0:
448,192,61479,1,0,0:0:0:0:
320,192,61554,1,0,0:0:0:0:
192,192,61554,1,0,0:0:0:0:
448,192,61704,1,0,0:0:0:0:
192,192,61704,1,0,0:0:0:0:
320,192,61779,1,0,0:0:0:0:
64,192,61779,1,2,0:0:0:0:
320,192,61929,1,0,0:0:0:0:
192,192,61929,1,0,0:0:0:0:
448,192,62079,1,8,0:0:0:0:
192,192,62079,1,0,0:0:0:0:
448,192,62229,1,0,0:0:0:0:
64,192,62229,1,0,0:0:0:0:
192,192,62379,1,0,0:0:0:0:
64,192,62379,1,2,0:0:0:0:
448,192,62454,1,0,0:0:0:0:
192,192,62529,1,0,0:0:0:0:
320,192,62604,1,0,0:0:0:0:
448,192,62679,1,8,0:0:0:0:
64,192,62679,1,0,0:0:0:0:
320,192,62754,1,0,0:0:0:0:
192,192,62829,1,0,0:0:0:0:
64,192,62904,1,0,0:0:0:0:
320,192,62979,1,2,0:0:0:0:
448,192,62979,128,0,63129:0:0:0:0:
192,192,63129,1,0,0:0:0:0:
320,192,63204,1,0,0:0:0:0:
64,192,63279,128,0,63504:0:0:0:0:
448,192,63279,128,8,63504:0:0:0:0:
192,192,63429,128,0,63504:0:0:0:0:
320,192,63429,128,0,63504:0:0:0:0:
64,192,63579,1,2,0:0:0:0:
448,192,63579,1,0,0:0:0:0:
448,192,63729,1,8,0:0:0:0:
64,192,63729,1,0,0:0:0:0:
192,192,63879,1,2,0:0:0:0:
64,192,63879,1,0,0:0:0:0:
448,192,63879,1,0,0:0:0:0:
320,192,64029,1,8,0:0:0:0:
192,192,64029,1,0,0:0:0:0:
448,192,64179,1,8,0:0:0:0:
320,192,64179,1,0,0:0:0:0:
192,192,64254,1,0,0:0:0:0:
64,192,64254,1,8,0:0:0:0:
320,192,64329,1,0,0:0:0:0:
448,192,64329,1,8,0:0:0:0:
192,192,64404,1,8,0:0:0:0:
64,192,64404,1,0,0:0:0:0:
320,192,64479,1,8,0:0:0:0:
448,192,64479,1,0,0:0:0:0:
192,192,64554,1,8,0:0:0:0:
64,192,64554,1,0,0:0:0:0:
320,192,64629,1,0,0:0:0:0:
448,192,64629,1,8,0:0:0:0:
192,192,64704,1,0,0:0:0:0:
64,192,64704,1,8,0:0:0:0:
320,192,64779,1,0,0:0:0:0:
448,192,64779,1,0,0:0:0:0:
320,192,65079,1,0,0:0:0:0:
192,192,65079,1,0,0:0:0:0:
192,192,65379,1,0,0:0:0:0:
64,192,65379,1,0,0:0:0:0:
320,192,65679,128,0,65829:0:0:0:0:
448,192,65679,128,0,65829:0:0:0:0:
64,192,65679,128,0,65829:0:0:0:0:
64,192,65979,1,2,0:0:0:0:
192,192,65979,1,0,0:0:0:0:
448,192,65979,1,0,0:0:0:0:
192,192,66129,1,0,0:0:0:0:
64,192,66129,1,0,0:0:0:0:
448,192,66129,1,2,0:0:0:0:
320,192,66429,1,0,0:0:0:0:
192,192,66429,1,2,0:0:0:0:
448,192,66429,1,0,0:0:0:0:
320,192,66729,1,2,0:0:0:0:
192,192,66729,1,0,0:0:0:0:
64,192,66729,1,0,0:0:0:0:
448,192,66879,128,0,67104:0:0:0:0:
64,192,66879,128,0,67104:0:0:0:0:
448,192,67179,1,0,0:0:0:0:
320,192,67179,1,0,0:0:0:0:
64,192,67179,1,2,0:0:0:0:
320,192,67329,1,0,0:0:0:0:
64,192,67329,1,0,0:0:0:0:
448,192,67329,1,2,0:0:0:0:
320,192,67629,1,0,0:0:0:0:
192,192,67629,1,2,0:0:0:0:
64,192,67629,1,0,0:0:0:0:
192,192,67929,1,0,0:0:0:0:
320,192,67929,1,2,0:0:0:0:
448,192,67929,1,0,0:0:0:0:
448,192,68079,128,0,68304:0:0:0:0:
64,192,68079,128,0,68304:0:0:0:0:
320,192,68379,1,2,0:0:0:0:
192,192,68379,1,0,0:0:0:0:
64,192,68379,1,0,0:0:0:0:
192,192,68529,1,2,0:0:0:0:
320,192,68529,1,0,0:0:0:0:
64,192,68529,1,0,0:0:0:0:
448,192,68829,1,2,0:0:0:0:
64,192,68829,1,0,0:0:0:0:
320,192,68829,1,0,0:0:0:0:
192,192,69129,1,0,0:0:0:0:
64,192,69129,1,2,0:0:0:0:
448,192,69129,1,0,0:0:0:0:
64,192,69279,128,0,69504:0:0:0:0:
448,192,69279,128,0,69504:0:0:0:0:
448,192,69579,1,0,0:0:0:0:
64,192,69579,1,2,0:0:0:0:
192,192,69729,1,0,0:0:0:0:
320,192,69804,1,0,0:0:0:0:
448,192,69879,1,8,0:0:0:0:
64,192,69879,1,0,0:0:0:0:
320,192,70029,1,0,0:0:0:0:
64,192,70104,1,0,0:0:0:0:
448,192,70179,1,0,0:0:0:0:
320,192,70179,1,2,0:0:0:0:
192,192,70329,1,0,0:0:0:0:
448,192,70404,1,0,0:0:0:0:
192,192,70479,1,0,0:0:0:0:
64,192,70479,1,8,0:0:0:0:
320,192,70629,1,0,0:0:0:0:
448,192,70779,1,0,0:0:0:0:
192,192,70779,1,2,0:0:0:0:
64,192,70779,1,0,0:0:0:0:
192,192,70929,1,0,0:0:0:0:
64,192,70929,1,0,0:0:0:0:
448,192,70929,1,2,0:0:0:0:
192,192,71229,1,0,0:0:0:0:
320,192,71229,1,2,0:0:0:0:
448,192,71229,1,0,0:0:0:0:
448,192,71529,1,0,0:0:0:0:
64,192,71529,1,2,0:0:0:0:
320,192,71529,1,0,0:0:0:0:
192,192,71679,128,0,71904:0:0:0:0:
320,192,71679,128,0,71904:0:0:0:0:
448,192,71979,1,2,0:0:0:0:
320,192,71979,1,0,0:0:0:0:
64,192,71979,1,0,0:0:0:0:
64,192,72129,1,2,0:0:0:0:
448,192,72129,1,0,0:0:0:0:
320,192,72129,1,0,0:0:0:0:
192,192,72429,1,0,0:0:0:0:
64,192,72429,1,0,0:0:0:0:
320,192,72429,1,2,0:0:0:0:
448,192,72729,1,0,0:0:0:0:
64,192,72729,1,0,0:0:0:0:
192,192,72729,1,2,0:0:0:0:
320,192,72879,128,0,73104:0:0:0:0:
192,192,72879,128,0,73104:0:0:0:0:
448,192,73179,1,0,0:0:0:0:
320,192,73179,1,0,0:0:0:0:
192,192,73179,1,2,0:0:0:0:
448,192,73329,1,2,0:0:0:0:
192,192,73329,1,0,0:0:0:0:
320,192,73329,1,0,0:0:0:0:
448,192,73629,1,0,0:0:0:0:
192,192,73629,1,2,0:0:0:0:
64,192,73629,1,0,0:0:0:0:
320,192,73929,1,0,0:0:0:0:
192,192,73929,1,0,0:0:0:0:
64,192,73929,1,2,0:0:0:0:
192,192,74079,128,0,74304:0:0:0:0:
320,192,74079,128,0,74304:0:0:0:0:
320,192,74379,1,2,0:0:0:0:
64,192,74379,1,0,0:0:0:0:
448,192,74379,1,0,0:0:0:0:
192,192,74529,1,0,0:0:0:0:
320,192,74604,1,0,0:0:0:0:
64,192,74679,1,0,0:0:0:0:
448,192,74679,1,8,0:0:0:0:
448,192,74829,1,0,0:0:0:0:
320,192,74904,1,0,0:0:0:0:
64,192,74979,1,2,0:0:0:0:
192,192,74979,1,0,0:0:0:0:
192,192,75129,1,0,0:0:0:0:
320,192,75204,1,0,0:0:0:0:
64,192,75279,1,0,0:0:0:0:
448,192,75279,1,8,0:0:0:0:
320,192,75354,1,0,0:0:0:0:
192,192,75429,1,0,0:0:0:0:
64,192,75504,1,0,0:0:0:0:
448,192,75579,1,0,0:0:0:0:
320,192,75579,1,0,0:0:0:0:
192,192,75579,1,2,2:0:0:0:
64,192,75729,1,0,0:0:0:0:
448,192,75729,1,2,2:0:0:0:
320,192,75804,1,0,0:0:0:0:
192,192,75879,1,0,0:0:0:0:
64,192,75954,1,0,0:0:0:0:
320,192,76029,1,0,0:0:0:0:
448,192,76029,1,2,2:0:0:0:
64,192,76104,1,0,0:0:0:0:
192,192,76179,1,0,0:0:0:0:
320,192,76254,1,0,0:0:0:0:
448,192,76329,1,0,0:0:0:0:
64,192,76329,1,2,2:0:0:0:
320,192,76479,128,0,76779:0:0:0:0:
192,192,76479,128,0,76629:0:0:0:0:
64,192,76479,1,0,0:0:0:0:
448,192,76629,1,0,0:0:0:0:
192,192,76779,1,0,0:0:0:0:
448,192,76779,1,2,2:0:0:0:
64,192,76779,1,0,0:0:0:0:
448,192,76929,1,2,2:0:0:0:
64,192,76929,1,0,0:0:0:0:
192,192,77004,1,0,0:0:0:0:
320,192,77079,1,0,0:0:0:0:
448,192,77154,1,0,0:0:0:0:
192,192,77229,1,0,0:0:0:0:
64,192,77229,1,2,2:0:0:0:
448,192,77304,1,0,0:0:0:0:
320,192,77379,1,0,0:0:0:0:
192,192,77454,1,0,0:0:0:0:
64,192,77529,1,0,0:0:0:0:
448,192,77529,1,2,2:0:0:0:
192,192,77679,128,0,77979:0:0:0:0:
320,192,77679,128,0,77829:0:0:0:0:
64,192,77679,1,0,0:0:0:0:
448,192,77829,1,0,0:0:0:0:
448,192,77979,1,2,2:0:0:0:
320,192,77979,1,0,0:0:0:0:
64,192,77979,1,0,0:0:0:0:
448,192,78129,1,0,0:0:0:0:
64,192,78129,1,2,2:0:0:0:
192,192,78204,1,0,0:0:0:0:
320,192,78279,1,0,0:0:0:0:
192,192,78354,1,0,0:0:0:0:
448,192,78429,1,2,2:0:0:0:
64,192,78429,1,0,0:0:0:0:
320,192,78504,1,0,0:0:0:0:
192,192,78579,1,0,0:0:0:0:
320,192,78654,1,0,0:0:0:0:
448,192,78729,1,0,0:0:0:0:
64,192,78729,1,2,2:0:0:0:
448,192,78879,128,0,79179:0:0:0:0:
320,192,78879,128,0,79029:0:0:0:0:
64,192,78879,1,0,0:0:0:0:
192,192,79029,1,0,0:0:0:0:
320,192,79179,1,2,2:0:0:0:
64,192,79179,1,0,0:0:0:0:
192,192,79329,1,0,2:0:0:0:
320,192,79329,1,0,0:0:0:0:
448,192,79479,1,0,3:0:0:0:
64,192,79479,1,8,2:0:0:0:
320,192,79629,1,0,0:0:0:0:
448,192,79629,1,0,0:0:0:0:
192,192,79704,1,0,0:0:0:0:
64,192,79779,1,0,3:0:0:0:
448,192,79779,1,2,2:0:0:0:
192,192,79929,1,0,0:0:0:0:
64,192,79929,1,0,0:0:0:0:
320,192,80004,1,0,0:0:0:0:
64,192,80079,1,8,2:0:0:0:
448,192,80079,1,0,3:0:0:0:
192,192,80229,1,0,0:0:0:0:
320,192,80229,1,0,0:0:0:0:
192,192,80379,1,2,2:0:0:0:
448,192,80379,1,0,0:0:0:0:
64,192,80379,1,0,0:0:0:0:
448,192,80529,1,2,2:0:0:0:
320,192,80529,1,0,0:0:0:0:
192,192,80529,1,0,0:0:0:0:
64,192,80679,128,0,80904:0:0:0:0:
448,192,80679,128,0,80904:0:0:0:0:
192,192,80829,128,0,80904:0:0:0:0:
320,192,80829,128,0,80904:0:0:0:0:
448,192,80979,1,2,2:0:0:0:
320,192,80979,1,0,0:0:0:0:
64,192,80979,1,0,0:0:0:0:
64,192,81129,1,0,0:0:0:0:
192,192,81129,1,2,2:0:0:0:
320,192,81129,1,0,0:0:0:0:
448,192,81279,128,0,81504:0:0:0:0:
64,192,81279,128,0,81504:0:0:0:0:
192,192,81429,128,0,81504:0:0:0:0:
320,192,81429,128,0,81504:0:0:0:0:
64,192,81579,1,2,2:0:0:0:
192,192,81579,1,0,0:0:0:0:
448,192,81579,1,0,0:0:0:0:
320,192,81729,1,0,0:0:0:0:
64,192,81729,1,0,0:0:0:0:
448,192,81729,1,2,2:0:0:0:
448,192,81879,128,0,82104:0:0:0:0:
64,192,81879,128,0,82104:0:0:0:0:
192,192,82029,128,0,82104:0:0:0:0:
320,192,82029,128,0,82104:0:0:0:0:
448,192,82179,1,0,0:0:0:0:
64,192,82179,1,0,0:0:0:0:
320,192,82179,1,2,2:0:0:0:
320,192,82329,1,0,0:0:0:0:
192,192,82329,1,2,2:0:0:0:
64,192,82329,1,0,0:0:0:0:
448,192,82479,128,0,82704:0:0:0:0:
64,192,82479,128,0,82704:0:0:0:0:
320,192,82629,128,0,82704:0:0:0:0:
192,192,82629,128,0,82704:0:0:0:0:
192,192,82779,1,0,0:0:0:0:
64,192,82779,1,0,0:0:0:0:
448,192,82779,1,8,2:0:0:0:
192,192,82929,1,2,2:0:0:0:
320,192,82929,1,0,0:0:0:0:
64,192,83079,1,0,0:0:0:0:
320,192,83079,1,0,0:0:0:0:
448,192,83079,1,8,2:0:0:0:
192,192,83229,1,2,2:0:0:0:
320,192,83229,1,0,0:0:0:0:
448,192,83379,1,8,0:0:0:0:
64,192,83379,1,0,0:0:0:0:
192,192,83454,1,8,0:0:0:0:
64,192,83529,1,0,0:0:0:0:
320,192,83529,1,8,0:0:0:0:
192,192,83604,1,8,0:0:0:0:
448,192,83679,1,8,0:0:0:0:
64,192,83679,1,0,0:0:0:0:
320,192,83754,1,8,0:0:0:0:
192,192,83829,1,8,0:0:0:0:
448,192,83829,1,0,0:0:0:0:
320,192,83904,1,8,0:0:0:0:
448,192,83979,1,2,0:0:0:0:
64,192,83979,128,0,84054:0:0:0:0:
192,192,84279,128,0,84354:0:0:0:0:
320,192,84579,128,0,84654:0:0:0:0:
192,192,84879,1,0,0:0:0:0:
448,192,84954,1,0,0:0:0:0:
192,192,85029,1,0,0:0:0:0:
320,192,85104,1,0,0:0:0:0:
64,192,85179,1,0,0:0:0:0:
448,192,85179,1,0,0:0:0:0:
448,192,85329,128,0,86079:0:0:0:0:
320,192,85479,128,0,85929:0:0:0:0:
192,192,85629,128,0,85779:0:0:0:0:
64,192,85779,1,0,0:0:0:0:
192,192,85929,1,0,0:0:0:0:
320,192,86079,1,0,0:0:0:0:
64,192,86079,1,0,0:0:0:0:
448,192,86229,1,0,0:0:0:0:
192,192,86229,1,0,0:0:0:0:
320,192,86379,1,2,0:0:0:0:
448,192,86379,1,0,0:0:0:0:
64,192,86379,128,0,86454:0:0:0:0:
192,192,86529,1,0,0:0:0:0:
64,192,86529,1,0,0:0:0:0:
320,192,86604,1,0,0:0:0:0:
448,192,86679,1,8,0:0:0:0:
64,192,86679,1,0,0:0:0:0:
192,192,86754,1,0,0:0:0:0:
320,192,86754,1,0,0:0:0:0:
320,192,86904,1,0,0:0:0:0:
64,192,86904,1,0,0:0:0:0:
448,192,86979,1,0,0:0:0:0:
192,192,86979,1,2,0:0:0:0:
320,192,87129,1,0,0:0:0:0:
64,192,87129,1,0,0:0:0:0:
64,192,87279,1,8,0:0:0:0:
192,192,87279,128,0,87354:0:0:0:0:
320,192,87429,1,0,0:0:0:0:
448,192,87429,1,0,0:0:0:0:
448,192,87579,128,0,87654:0:0:0:0:
64,192,87579,1,2,0:0:0:0:
192,192,87654,1,0,0:0:0:0:
448,192,87729,1,0,0:0:0:0:
320,192,87804,1,0,0:0:0:0:
192,192,87879,1,8,0:0:0:0:
64,192,87879,128,0,87954:0:0:0:0:
320,192,87954,1,0,0:0:0:0:
448,192,88029,1,0,0:0:0:0:
192,192,88104,1,0,0:0:0:0:
64,192,88179,1,2,0:0:0:0:
448,192,88179,128,0,88254:0:0:0:0:
192,192,88329,1,0,0:0:0:0:
320,192,88404,1,0,0:0:0:0:
448,192,88479,1,0,0:0:0:0:
64,192,88479,128,0,88554:0:0:0:0:
64,192,88629,128,0,88779:0:0:0:0:
192,192,88629,1,0,0:0:0:0:
448,192,88779,128,0,88854:0:0:0:0:
320,192,88779,1,2,0:0:0:0:
192,192,88929,1,0,0:0:0:0:
64,192,88929,1,0,0:0:0:0:
320,192,89004,1,0,0:0:0:0:
448,192,89079,1,8,0:0:0:0:
64,192,89079,128,0,89154:0:0:0:0:
192,192,89154,1,0,0:0:0:0:
320,192,89154,1,0,0:0:0:0:
192,192,89304,1,0,0:0:0:0:
64,192,89304,1,0,0:0:0:0:
320,192,89379,1,2,0:0:0:0:
448,192,89379,1,0,0:0:0:0:
192,192,89529,1,0,0:0:0:0:
320,192,89604,1,0,0:0:0:0:
448,192,89679,1,8,0:0:0:0:
64,192,89679,128,0,89754:0:0:0:0:
320,192,89754,1,0,0:0:0:0:
192,192,89829,1,0,0:0:0:0:
64,192,89904,1,0,0:0:0:0:
448,192,89979,128,0,90054:0:0:0:0:
320,192,89979,1,0,0:0:0:0:
320,192,90129,1,0,0:0:0:0:
320,192,90279,1,0,0:0:0:0:
448,192,90354,1,0,0:0:0:0:
192,192,90429,1,0,0:0:0:0:
320,192,90504,1,0,0:0:0:0:
448,192,90579,128,0,90804:0:0:0:0:
64,192,90579,1,2,0:0:0:0:
448,192,90879,1,0,0:0:0:0:
64,192,90879,128,0,91104:0:0:0:0:
320,192,90954,1,0,0:0:0:0:
192,192,91029,1,0,0:0:0:0:
320,192,91104,1,0,0:0:0:0:
64,192,91179,1,2,0:0:0:0:
192,192,91179,128,0,91254:0:0:0:0:
448,192,91179,1,0,0:0:0:0:
320,192,91329,1,0,0:0:0:0:
448,192,91329,1,0,0:0:0:0:
192,192,91404,1,0,0:0:0:0:
448,192,91479,1,8,0:0:0:0:
64,192,91479,128,0,91554:0:0:0:0:
192,192,91554,1,0,0:0:0:0:
320,192,91554,1,0,0:0:0:0:
192,192,91704,1,0,0:0:0:0:
320,192,91704,1,0,0:0:0:0:
448,192,91779,1,2,0:0:0:0:
64,192,91779,1,0,0:0:0:0:
320,192,91929,1,0,0:0:0:0:
448,192,91929,1,0,0:0:0:0:
192,192,92079,1,8,0:0:0:0:
320,192,92079,128,0,92154:0:0:0:0:
64,192,92229,1,0,0:0:0:0:
192,192,92229,1,0,0:0:0:0:
64,192,92379,1,2,0:0:0:0:
448,192,92379,128,0,92454:0:0:0:0:
320,192,92454,1,0,0:0:0:0:
192,192,92529,1,0,0:0:0:0:
448,192,92604,1,0,0:0:0:0:
320,192,92679,128,0,92754:0:0:0:0:
64,192,92679,1,8,0:0:0:0:
192,192,92754,1,0,0:0:0:0:
448,192,92829,1,0,0:0:0:0:
320,192,92904,1,0,0:0:0:0:
192,192,92979,1,2,0:0:0:0:
64,192,92979,1,0,0:0:0:0:
320,192,93129,1,0,0:0:0:0:
192,192,93204,1,0,0:0:0:0:
448,192,93279,128,0,93354:0:0:0:0:
64,192,93279,1,0,0:0:0:0:
448,192,93429,128,0,93579:0:0:0:0:
320,192,93429,1,0,0:0:0:0:
192,192,93579,128,0,93654:0:0:0:0:
64,192,93579,1,2,0:0:0:0:
320,192,93729,1,0,0:0:0:0:
192,192,93804,1,0,0:0:0:0:
64,192,93879,1,0,0:0:0:0:
448,192,93879,1,8,0:0:0:0:
320,192,93954,1,0,0:0:0:0:
192,192,94029,1,0,0:0:0:0:
320,192,94104,1,0,0:0:0:0:
448,192,94179,1,0,0:0:0:0:
64,192,94179,1,2,0:0:0:0:
192,192,94254,1,0,0:0:0:0:
320,192,94329,1,0,0:0:0:0:
448,192,94329,1,8,0:0:0:0:
64,192,94404,1,0,0:0:0:0:
192,192,94479,1,0,0:0:0:0:
320,192,94479,1,2,0:0:0:0:
448,192,94554,1,0,0:0:0:0:
192,192,94629,1,8,0:0:0:0:
64,192,94629,1,0,0:0:0:0:
320,192,94704,1,0,0:0:0:0:
448,192,94779,1,0,0:0:0:0:
64,192,94779,128,0,95004:0:0:0:0:
64,192,95079,128,0,95154:0:0:0:0:
64,192,95229,128,0,95304:0:0:0:0:
320,192,95229,1,0,0:0:0:0:
192,192,95304,1,0,0:0:0:0:
64,192,95379,1,0,0:0:0:0:
448,192,95379,128,0,95454:0:0:0:0:
192,192,95454,128,0,95529:0:0:0:0:
320,192,95529,128,0,95604:0:0:0:0:
64,192,95604,128,0,95679:0:0:0:0:
448,192,95679,128,0,95904:0:0:0:0:
320,192,95679,128,0,95904:0:0:0:0:
192,192,95829,128,0,95904:0:0:0:0:
64,192,95829,128,0,95904:0:0:0:0:
320,192,95979,1,0,0:0:0:0:
64,192,95979,1,2,2:0:0:0:
192,192,95979,1,0,0:0:0:0:
448,192,95979,1,0,0:0:0:0:
192,192,96129,1,0,0:0:0:0:
64,192,96129,1,0,0:0:0:0:
320,192,96204,1,0,0:0:0:0:
448,192,96279,1,8,2:0:0:0:
64,192,96279,1,0,0:0:0:0:
320,192,96429,1,0,0:0:0:0:
192,192,96429,1,0,0:0:0:0:
448,192,96579,1,0,0:0:0:0:
64,192,96579,1,2,2:0:0:0:
320,192,96654,1,0,0:0:0:0:
192,192,96729,1,0,0:0:0:0:
64,192,96729,1,0,0:0:0:0:
192,192,96879,1,8,2:0:0:0:
320,192,96879,128,0,96954:0:0:0:0:
448,192,97029,1,0,0:0:0:0:
64,192,97029,1,0,0:0:0:0:
192,192,97179,128,0,97254:0:0:0:0:
320,192,97179,1,2,2:0:0:0:
64,192,97329,1,0,0:0:0:0:
448,192,97329,1,0,0:0:0:0:
192,192,97404,1,0,0:0:0:0:
448,192,97479,128,0,97554:0:0:0:0:
320,192,97479,1,8,2:0:0:0:
192,192,97629,1,0,0:0:0:0:
64,192,97629,1,0,0:0:0:0:
320,192,97704,1,0,0:0:0:0:
64,192,97779,128,0,97854:0:0:0:0:
448,192,97779,1,2,2:0:0:0:
320,192,97929,1,0,0:0:0:0:
192,192,98004,1,0,0:0:0:0:
320,192,98079,128,0,98154:0:0:0:0:
448,192,98079,1,0,0:0:0:0:
64,192,98079,1,8,2:0:0:0:
320,192,98229,128,0,98379:0:0:0:0:
192,192,98229,1,0,0:0:0:0:
448,192,98379,1,2,2:0:0:0:
64,192,98379,128,0,98454:0:0:0:0:
448,192,98529,1,0,0:0:0:0:
192,192,98529,1,0,0:0:0:0:
320,192,98604,1,0,0:0:0:0:
448,192,98679,1,0,0:0:0:0:
64,192,98679,1,8,2:0:0:0:
320,192,98829,1,0,0:0:0:0:
192,192,98829,1,0,0:0:0:0:
64,192,98979,1,0,0:0:0:0:
448,192,98979,1,2,2:0:0:0:
192,192,99054,1,0,0:0:0:0:
64,192,99129,1,0,0:0:0:0:
320,192,99129,1,0,0:0:0:0:
448,192,99279,128,0,99354:0:0:0:0:
192,192,99279,1,8,2:0:0:0:
64,192,99429,1,0,0:0:0:0:
320,192,99429,128,0,99504:0:0:0:0:
448,192,99579,1,0,0:0:0:0:
192,192,99579,128,0,99654:0:0:0:0:
448,192,99729,1,0,0:0:0:0:
320,192,99804,1,0,0:0:0:0:
448,192,99879,1,0,0:0:0:0:
64,192,99954,1,0,0:0:0:0:
320,192,100029,1,0,0:0:0:0:
64,192,100104,1,0,0:0:0:0:
448,192,100179,1,0,0:0:0:0:
192,192,100254,1,0,0:0:0:0:
64,192,100329,1,0,0:0:0:0:
448,192,100404,1,0,0:0:0:0:
192,192,100479,1,0,0:0:0:0:
320,192,100529,1,0,0:0:0:0:
448,192,100579,1,0,0:0:0:0:
64,192,100629,1,0,0:0:0:0:
192,192,100679,1,0,0:0:0:0:
320,192,100729,1,0,0:0:0:0:
448,192,100779,1,2,2:0:0:0:
64,192,100779,1,0,0:0:0:0:
192,192,100779,128,0,100829:0:0:0:0:
320,192,100929,1,0,0:0:0:0:
448,192,100929,1,0,0:0:0:0:
192,192,101004,1,0,0:0:0:0:
64,192,101079,1,8,2:0:0:0:
448,192,101079,128,0,101154:1:0:0:0:
320,192,101229,1,0,0:0:0:0:
192,192,101229,1,0,0:0:0:0:
448,192,101379,1,2,2:0:0:0:
64,192,101379,1,0,0:0:0:0:
448,192,101529,1,0,0:0:0:0:
192,192,101529,1,0,0:0:0:0:
320,192,101604,1,0,0:0:0:0:
192,192,101679,128,0,101754:0:0:0:0:
64,192,101679,1,8,2:0:0:0:
448,192,101829,1,0,0:0:0:0:
64,192,101829,1,0,0:0:0:0:
320,192,101979,128,2,102054:2:0:0:0:
192,192,102129,1,0,0:0:0:0:
64,192,102129,1,0,0:0:0:0:
320,192,102204,1,0,0:0:0:0:
448,192,102279,128,0,102354:0:0:0:0:
64,192,102279,1,8,2:0:0:0:
448,192,102429,1,0,0:0:0:0:
320,192,102429,1,0,0:0:0:0:
192,192,102579,1,0,0:0:0:0:
64,192,102579,1,2,2:0:0:0:
448,192,102654,1,0,0:0:0:0:
192,192,102729,1,0,0:0:0:0:
320,192,102804,1,0,0:0:0:0:
448,192,102879,1,8,2:0:0:0:
64,192,102879,1,0,0:0:0:0:
320,192,103029,1,0,0:0:0:0:
192,192,103029,1,0,0:0:0:0:
448,192,103179,1,0,0:0:0:0:
320,192,103179,1,2,2:0:0:0:
64,192,103254,1,0,0:0:0:0:
192,192,103329,1,0,0:0:0:0:
448,192,103329,1,8,2:0:0:0:
320,192,103404,1,0,0:0:0:0:
192,192,103479,1,0,0:0:0:0:
64,192,103479,1,2,2:0:0:0:
448,192,103554,1,0,0:0:0:0:
64,192,103629,1,0,0:0:0:0:
320,192,103629,1,8,2:0:0:0:
192,192,103704,1,0,0:0:0:0:
448,192,103779,1,8,0:0:0:0:
320,192,103779,1,0,0:0:0:0:
192,192,103854,1,0,0:0:0:0:
64,192,103854,1,8,0:0:0:0:
448,192,103929,1,8,0:0:0:0:
320,192,103929,1,0,0:0:0:0:
192,192,104004,1,8,0:0:0:0:
64,192,104004,1,0,0:0:0:0:
320,192,104079,1,8,0:0:0:0:
448,192,104079,1,0,0:0:0:0:
192,192,104154,1,8,0:0:0:0:
64,192,104154,1,0,0:0:0:0:
320,192,104229,1,0,0:0:0:0:
448,192,104229,1,8,0:0:0:0:
192,192,104304,1,0,0:0:0:0:
64,192,104304,1,8,0:0:0:0:
448,192,104379,1,0,0:0:0:0:
320,192,104379,1,0,0:0:0:0:
320,192,104679,1,0,0:0:0:0:
192,192,104679,1,0,0:0:0:0:
448,192,104979,128,0,105129:0:0:0:0:
64,192,104979,128,0,105129:0:0:0:0:
192,192,105279,128,0,105429:0:0:0:0:
448,192,105579,1,2,0:0:0:0:
320,192,105579,1,0,0:0:0:0:
64,192,105579,1,0,0:0:0:0:
320,192,105729,1,8,0:0:0:0:
448,192,105729,1,0,0:0:0:0:
192,192,105879,1,0,0:0:0:0:
64,192,105879,1,2,0:0:0:0:
192,192,106029,1,8,0:0:0:0:
64,192,106029,1,0,0:0:0:0:
448,192,106179,1,2,0:0:0:0:
320,192,106179,1,0,0:0:0:0:
448,192,106329,1,0,0:0:0:0:
64,192,106329,1,8,0:0:0:0:
192,192,106479,1,2,0:0:0:0:
64,192,106479,1,0,0:0:0:0:
320,192,106629,1,8,0:0:0:0:
64,192,106629,1,0,0:0:0:0:
448,192,106779,1,0,0:0:0:0:
192,192,106779,1,2,0:0:0:0:
448,192,106929,1,8,0:0:0:0:
192,192,106929,1,0,0:0:0:0:
64,192,107079,1,0,0:0:0:0:
320,192,107079,1,2,0:0:0:0:
64,192,107229,1,8,0:0:0:0:
320,192,107229,1,0,0:0:0:0:
192,192,107379,1,2,0:0:0:0:
320,192,107379,1,0,0:0:0:0:
192,192,107529,1,0,0:0:0:0:
64,192,107529,1,8,0:0:0:0:
448,192,107679,1,0,0:0:0:0:
320,192,107679,1,2,0:0:0:0:
448,192,107829,1,8,0:0:0:0:
192,192,107829,1,0,0:0:0:0:
320,192,107979,1,2,0:0:0:0:
64,192,107979,1,0,0:0:0:0:
320,192,108129,1,0,0:0:0:0:
64,192,108129,1,8,0:0:0:0:
192,192,108279,1,2,0:0:0:0:
448,192,108279,1,0,0:0:0:0:
192,192,108429,1,0,0:0:0:0:
448,192,108429,1,8,0:0:0:0:
192,192,108579,1,2,0:0:0:0:
64,192,108579,1,0,0:0:0:0:
320,192,108729,1,8,0:0:0:0:
192,192,108729,1,0,0:0:0:0:
320,192,108879,1,0,0:0:0:0:
448,192,108879,1,2,0:0:0:0:
64,192,109029,1,8,0:0:0:0:
192,192,109029,1,0,0:0:0:0:
64,192,109179,1,0,0:0:0:0:
448,192,109179,1,2,0:0:0:0:
64,192,109329,1,8,0:0:0:0:
448,192,109329,1,0,0:0:0:0:
320,192,109479,1,2,0:0:0:0:
192,192,109479,1,0,0:0:0:0:
320,192,109629,1,0,0:0:0:0:
192,192,109629,1,8,0:0:0:0:
192,192,109779,1,8,0:0:0:0:
64,192,109779,1,0,0:0:0:0:
320,192,109854,1,8,0:0:0:0:
448,192,109854,1,0,0:0:0:0:
64,192,109929,1,8,0:0:0:0:
192,192,109929,1,0,0:0:0:0:
448,192,110004,1,8,0:0:0:0:
320,192,110004,1,0,0:0:0:0:
64,192,110079,1,0,0:0:0:0:
192,192,110129,1,0,0:0:0:0:
448,192,110179,1,0,0:0:0:0:
320,192,110229,1,0,0:0:0:0:
192,192,110279,1,0,0:0:0:0:
64,192,110329,1,0,0:0:0:0:
320,192,110379,1,0,0:0:0:0:
448,192,110379,1,8,0:0:0:0:
64,192,110454,1,8,0:0:0:0:
192,192,110529,1,8,0:0:0:0:
320,192,110529,1,0,0:0:0:0:
448,192,110604,1,8,0:0:0:0:
64,192,110679,1,8,0:0:0:0:
320,192,110754,1,8,0:0:0:0:
192,192,110829,1,0,0:0:0:0:
448,192,110829,1,8,0:0:0:0:
64,192,110904,1,8,0:0:0:0:
320,192,110979,1,8,0:0:0:0:
192,192,111054,1,8,0:0:0:0:
448,192,111129,1,0,0:0:0:0:
320,192,111129,1,8,0:0:0:0:
64,192,111204,1,8,0:0:0:0:
320,192,111279,1,8,0:0:0:0:
192,192,111354,1,8,0:0:0:0:
64,192,111429,1,0,0:0:0:0:
448,192,111429,1,8,0:0:0:0:
320,192,111504,1,8,0:0:0:0:
64,192,111579,1,8,0:0:0:0:
320,192,111654,1,8,0:0:0:0:
448,192,111729,1,0,0:0:0:0:
192,192,111729,1,8,0:0:0:0:
64,192,111804,1,8,0:0:0:0:
320,192,111879,1,8,0:0:0:0:
192,192,111954,1,8,0:0:0:0:
64,192,112029,1,0,0:0:0:0:
448,192,112029,1,8,0:0:0:0:
320,192,112104,1,8,0:0:0:0:
448,192,112179,1,8,0:0:0:0:
192,192,112254,1,8,0:0:0:0:
320,192,112329,1,0,0:0:0:0:
64,192,112329,1,8,0:0:0:0:
448,192,112404,1,8,0:0:0:0:
192,192,112479,1,8,0:0:0:0:
320,192,112554,1,8,0:0:0:0:
64,192,112629,1,8,0:0:0:0:
448,192,112629,1,0,0:0:0:0:
192,192,112704,1,8,0:0:0:0:
64,192,112779,1,8,0:0:0:0:
448,192,112779,1,0,0:0:0:0:
320,192,112854,1,8,0:0:0:0:
192,192,112929,1,8,0:0:0:0:
64,192,112929,1,0,0:0:0:0:
320,192,113004,1,8,0:0:0:0:
448,192,113079,1,0,0:0:0:0:
64,192,113079,1,8,0:0:0:0:
192,192,113154,1,8,0:0:0:0:
320,192,113229,1,8,0:0:0:0:
448,192,113229,1,0,0:0:0:0:
192,192,113304,1,8,0:0:0:0:
64,192,113379,1,0,0:0:0:0:
320,192,113379,1,8,0:0:0:0:
448,192,113454,1,8,0:0:0:0:
192,192,113529,1,8,0:0:0:0:
64,192,113529,1,0,0:0:0:0:
320,192,113604,1,8,0:0:0:0:
448,192,113679,1,8,0:0:0:0:
192,192,113679,1,0,0:0:0:0:
64,192,113754,1,8,0:0:0:0:
448,192,113829,1,0,0:0:0:0:
320,192,113829,1,8,0:0:0:0:
192,192,113904,1,8,0:0:0:0:
320,192,113979,1,8,0:0:0:0:
64,192,113979,1,0,0:0:0:0:
448,192,114054,1,8,0:0:0:0:
192,192,114129,1,8,0:0:0:0:
64,192,114129,1,0,0:0:0:0:
320,192,114204,1,8,0:0:0:0:
64,192,114279,1,8,0:0:0:0:
192,192,114316,1,0,0:0:0:0:
320,192,114354,1,0,0:0:0:0:
448,192,114391,1,0,0:0:0:0:
64,192,114429,1,0,0:0:0:0:
192,192,114466,1,0,0:0:0:0:
320,192,114504,1,0,0:0:0:0:
448,192,114541,1,0,0:0:0:0:
192,192,114579,1,0,0:0:0:0:
64,192,114579,1,2,0:0:0:0:
192,192,114729,1,8,0:0:0:0:
64,192,114729,1,0,0:0:0:0:
192,192,114879,1,0,0:0:0:0:
64,192,114879,1,2,0:0:0:0:
64,192,115029,128,0,115929:0:0:0:0:
448,192,115029,128,0,115929:0:0:0:0:
320,192,115029,1,8,0:0:0:0:
192,192,115479,128,0,115929:0:0:0:0:
320,192,115479,128,0,115929:0:0:0:0:
