osu file format v14

[General]
AudioFilename: Angelic Jelly.mp3
AudioLeadIn: 0
PreviewTime: 46704
Countdown: 0
SampleSet: Soft
StackLeniency: 0.7
Mode: 3
LetterboxInBreaks: 0
SpecialStyle: 0
WidescreenStoryboard: 0

[Editor]
DistanceSpacing: 0.5
BeatDivisor: 4
GridSize: 32
TimelineZoom: 2.8

[Metadata]
Title:Angelic Jelly
TitleUnicode:Angelic Jelly
Artist:t+pazolite
ArtistUnicode:t+pazolite
Creator:Dellvangel
Version:BASIC
Source:SOUND VOLTEX III GRAVITY WARS
Tags:beatmania IIDX 23 copula jubeat qubel SDVX New Generation 夏の流星フェスタ2016 Critical_Star
BeatmapID:1223989
BeatmapSetID:577563

[Difficulty]
HPDrainRate:7
CircleSize:4
OverallDifficulty:7
ApproachRate:5
SliderMultiplier:1.4
SliderTickRate:1

[Events]
//Background and Video events
0,0,"BG.jpg",0,0
//Break Periods
//Storyboard Layer 0 (Background)
//Storyboard Layer 1 (Fail)
//Storyboard Layer 2 (Pass)
//Storyboard Layer 3 (Foreground)
//Storyboard Sound Samples

[TimingPoints]
1179,300,4,2,1,40,1,0
20379,-100,4,3,1,40,0,0
21579,-100,4,2,1,40,0,0
27579,-100,4,1,1,40,0,0
44379,-100,4,2,1,40,0,0
46779,-100,4,2,1,40,0,1
55179,-100,4,2,1,40,0,0
56379,-100,4,2,1,40,0,1
64779,-100,4,2,1,40,0,0
75579,-100,4,3,1,40,0,0
83379,-100,4,2,1,40,0,0
86379,-100,4,2,1,40,0,1
94779,-100,4,2,1,40,0,0
95979,-100,4,3,1,40,0,1
99579,-100,4,2,1,40,0,1
100779,-100,4,3,1,40,0,1
103779,-100,4,2,1,40,0,1
104379,-100,4,2,1,40,0,0

[HitObjects]
64,192,1179,5,0,0:0:0:0:
448,192,1179,1,0,0:0:0:0:
448,192,2379,1,0,0:0:0:0:
64,192,2604,128,0,2829:0:0:0:0:
320,192,2829,1,0,0:0:0:0:
448,192,3054,128,0,3279:0:0:0:0:
64,192,3279,1,0,0:0:0:0:
192,192,3429,1,0,0:0:0:0:
320,192,3579,1,0,0:0:0:0:
448,192,3579,1,2,0:0:0:0:
64,192,3879,1,8,0:0:0:0:
192,192,4179,1,2,0:0:0:0:
320,192,4329,1,0,0:0:0:0:
64,192,4479,1,0,0:0:0:0:
448,192,4629,1,0,0:0:0:0:
192,192,4779,1,2,0:0:0:0:
320,192,5079,1,8,0:0:0:0:
448,192,5379,1,2,0:0:0:0:
64,192,5529,1,0,0:0:0:0:
320,192,5679,1,0,0:0:0:0:
192,192,5829,1,0,0:0:0:0:
448,192,5979,1,2,0:0:0:0:
64,192,6279,1,8,0:0:0:0:
192,192,6579,1,2,0:0:0:0:
448,192,6879,1,8,0:0:0:0:
320,192,7179,1,2,0:0:0:0:
192,192,7329,1,0,0:0:0:0:
64,192,7479,128,8,7779:0:0:0:0:
448,192,7779,1,2,0:0:0:0:
64,192,8079,1,8,3:0:0:0:
192,192,8379,1,2,0:0:0:0:
448,192,8679,1,8,0:0:0:0:
64,192,8979,1,2,0:0:0:0:
448,192,9129,1,0,0:0:0:0:
192,192,9279,1,0,0:0:0:0:
320,192,9429,1,0,0:0:0:0:
64,192,9579,1,2,0:0:0:0:
448,192,9879,1,8,0:0:0:0:
320,192,10179,1,2,0:0:0:0:
192,192,10329,1,0,0:0:0:0:
448,192,10479,1,0,0:0:0:0:
64,192,10629,1,0,0:0:0:0:
320,192,10779,1,2,0:0:0:0:
448,192,11079,1,8,0:0:0:0:
64,192,11379,128,2,11679:0:0:0:0:
448,192,11679,128,2,11979:0:0:0:0:
320,192,11979,1,2,0:0:0:0:
64,192,12279,1,0,0:0:0:0:
192,192,12579,1,0,0:0:0:0:
320,192,12879,128,0,13179:0:0:0:0:
64,192,13179,1,0,0:0:0:0:
448,192,13179,1,8,0:0:0:0:
192,192,13479,1,8,0:0:0:0:
448,192,13779,1,8,0:0:0:0:
64,192,13929,1,0,0:0:0:0:
320,192,14079,1,0,0:0:0:0:
192,192,14229,1,0,0:0:0:0:
448,192,14379,1,8,0:0:0:0:
320,192,14679,1,8,0:0:0:0:
64,192,14979,1,8,0:0:0:0:
448,192,15129,1,0,0:0:0:0:
192,192,15279,1,0,0:0:0:0:
320,192,15429,1,0,0:0:0:0:
64,192,15579,1,8,0:0:0:0:
448,192,15879,1,8,0:0:0:0:
320,192,16179,1,8,0:0:0:0:
192,192,16479,1,8,0:0:0:0:
448,192,16779,1,8,0:0:0:0:
64,192,16929,1,0,0:0:0:0:
320,192,17079,128,8,17379:0:0:0:0:
192,192,17379,1,8,0:0:0:0:
448,192,17679,1,8,3:0:0:0:
64,192,17979,1,2,0:0:0:0:
448,192,18279,1,8,0:0:0:0:
192,192,18429,1,0,0:0:0:0:
64,192,18729,1,0,0:0:0:0:
320,192,18879,1,8,0:0:0:0:
448,192,19029,1,0,0:0:0:0:
192,192,19179,1,2,2:0:0:0:
320,192,19479,1,8,0:0:0:0:
64,192,19629,1,0,0:0:0:0:
192,192,19929,1,0,0:0:0:0:
320,192,20079,1,8,0:0:0:0:
448,192,20229,1,0,0:0:0:0:
64,192,20379,128,8,20679:2:0:0:0:
192,192,20679,128,8,20979:2:0:0:0:
320,192,20979,128,8,21279:2:0:0:0:
448,192,21279,128,8,21579:2:0:0:0:
64,192,21579,128,8,22779:0:0:0:0:
320,192,22779,1,2,0:0:0:0:
64,192,23679,1,0,0:0:0:0:
448,192,23979,1,0,0:0:0:0:
64,192,24279,1,0,0:0:0:0:
320,192,24579,1,0,0:0:0:0:
192,192,24879,1,0,0:0:0:0:
64,192,25179,1,0,0:0:0:0:
448,192,25479,1,0,0:0:0:0:
320,192,26079,1,0,0:0:0:0:
64,192,26379,1,0,0:0:0:0:
320,192,27279,1,0,0:0:0:0:
192,192,27429,1,0,0:0:0:0:
64,192,27579,1,2,1:0:0:0:
448,192,27879,1,2,1:0:0:0:
192,192,28479,1,0,0:0:0:0:
64,192,28779,1,0,0:0:0:0:
448,192,29079,1,8,0:0:0:0:
320,192,29979,1,2,0:0:0:0:
192,192,30429,1,0,0:0:0:0:
64,192,30879,1,0,0:0:0:0:
64,192,31179,1,0,0:0:0:0:
448,192,31629,1,0,0:0:0:0:
64,192,31779,1,0,0:0:0:0:
192,192,32079,1,2,2:0:0:0:
320,192,32229,1,0,0:0:0:0:
448,192,32379,128,2,33579:0:0:0:0:
64,192,33279,1,0,0:0:0:0:
320,192,33579,128,0,34779:0:0:0:0:
64,192,33879,1,8,0:0:0:0:
448,192,34179,1,0,0:0:0:0:
192,192,34479,1,8,0:0:0:0:
64,192,34779,128,2,35979:0:0:0:0:
448,192,35079,1,2,0:0:0:0:
320,192,35679,1,0,0:0:0:0:
192,192,35829,1,0,0:0:0:0:
448,192,35979,128,0,37179:0:0:0:0:
64,192,36879,1,2,0:0:0:0:
320,192,37029,1,0,0:0:0:0:
192,192,37179,128,2,38379:0:0:0:0:
448,192,37479,1,2,0:0:0:0:
320,192,38079,1,0,0:0:0:0:
64,192,38379,128,0,39579:0:0:0:0:
448,192,38679,1,8,0:0:0:0:
320,192,39579,128,2,40779:0:0:0:0:
192,192,40029,1,0,0:0:0:0:
448,192,40479,1,0,0:0:0:0:
64,192,40779,128,0,41979:0:0:0:0:
192,192,41379,1,0,0:0:0:0:
448,192,41979,1,2,2:0:0:0:
448,192,44379,128,2,45579:1:0:0:0:
64,192,45579,1,2,0:0:0:0:
320,192,45879,1,0,0:0:0:0:
192,192,46179,1,0,0:0:0:0:
448,192,46479,1,0,0:0:0:0:
192,192,46779,1,0,0:0:0:0:
64,192,46779,1,2,0:0:0:0:
320,192,47079,1,8,0:0:0:0:
192,192,47379,1,2,0:0:0:0:
448,192,47529,1,0,0:0:0:0:
64,192,47679,1,8,0:0:0:0:
320,192,47829,1,0,0:0:0:0:
192,192,47979,1,2,0:0:0:0:
448,192,48279,1,8,0:0:0:0:
320,192,48579,1,2,0:0:0:0:
64,192,48729,1,0,0:0:0:0:
448,192,48879,1,0,0:0:0:0:
192,192,49029,1,0,0:0:0:0:
320,192,49179,1,2,0:0:0:0:
64,192,49479,1,8,0:0:0:0:
448,192,49779,1,2,0:0:0:0:
320,192,49929,1,0,0:0:0:0:
64,192,50079,1,8,0:0:0:0:
448,192,50229,1,0,0:0:0:0:
192,192,50379,1,2,0:0:0:0:
320,192,50679,128,8,50979:0:0:0:0:
192,192,50979,128,2,51279:0:0:0:0:
64,192,51279,128,0,51579:0:0:0:0:
448,192,51579,1,2,0:0:0:0:
320,192,51579,1,0,0:0:0:0:
192,192,51879,1,8,0:0:0:0:
64,192,52179,1,2,0:0:0:0:
448,192,52329,1,0,0:0:0:0:
192,192,52479,1,8,0:0:0:0:
320,192,52629,1,0,0:0:0:0:
64,192,52779,1,2,0:0:0:0:
448,192,53079,1,8,0:0:0:0:
320,192,53379,1,2,0:0:0:0:
64,192,53529,1,0,0:0:0:0:
192,192,53679,1,0,0:0:0:0:
448,192,53829,1,0,0:0:0:0:
64,192,53979,1,2,0:0:0:0:
320,192,54279,1,8,0:0:0:0:
64,192,54579,1,2,0:0:0:0:
448,192,54729,1,8,0:0:0:0:
64,192,54879,1,2,0:0:0:0:
448,192,55029,1,8,0:0:0:0:
192,192,55179,128,0,55479:0:0:0:0:
320,192,55629,1,0,0:0:0:0:
448,192,55779,128,0,56079:0:0:0:0:
64,192,56079,1,0,0:0:0:0:
192,192,56229,1,0,0:0:0:0:
448,192,56379,1,2,0:0:0:0:
320,192,56379,1,0,0:0:0:0:
64,192,56679,1,8,0:0:0:0:
448,192,56979,1,2,0:0:0:0:
192,192,57279,1,8,0:0:0:0:
64,192,57579,1,2,0:0:0:0:
320,192,57879,1,8,0:0:0:0:
448,192,58179,1,2,0:0:0:0:
192,192,58479,1,0,0:0:0:0:
448,192,58629,1,0,0:0:0:0:
64,192,58779,1,2,0:0:0:0:
320,192,59079,1,8,0:0:0:0:
192,192,59379,1,2,0:0:0:0:
448,192,59679,1,8,0:0:0:0:
64,192,59979,1,2,1:0:0:0:
64,192,60279,1,2,1:0:0:0:
320,192,60579,1,0,0:0:0:0:
192,192,60879,128,0,61179:0:0:0:0:
448,192,61179,1,0,0:0:0:0:
64,192,61179,1,2,0:0:0:0:
320,192,61479,1,8,0:0:0:0:
192,192,61779,1,2,0:0:0:0:
448,192,61929,1,0,0:0:0:0:
320,192,62079,1,8,0:0:0:0:
64,192,62229,1,0,0:0:0:0:
448,192,62379,1,2,0:0:0:0:
64,192,62679,1,8,0:0:0:0:
192,192,62979,1,2,0:0:0:0:
448,192,63129,1,0,0:0:0:0:
64,192,63279,128,8,63579:0:0:0:0:
320,192,63579,128,2,63879:0:0:0:0:
192,192,63879,128,2,64179:0:0:0:0:
448,192,64179,128,8,64779:0:0:0:0:
64,192,64779,1,0,0:0:0:0:
320,192,65079,1,0,0:0:0:0:
192,192,65379,1,0,0:0:0:0:
448,192,65679,1,0,0:0:0:0:
64,192,65979,1,2,0:0:0:0:
320,192,66129,1,2,0:0:0:0:
320,192,66429,1,2,0:0:0:0:
64,192,66729,1,2,0:0:0:0:
448,192,66879,128,0,67179:0:0:0:0:
320,192,67179,1,2,0:0:0:0:
64,192,67329,1,2,0:0:0:0:
64,192,67629,1,2,0:0:0:0:
320,192,67929,1,2,0:0:0:0:
192,192,68079,128,0,68379:0:0:0:0:
64,192,68379,1,2,0:0:0:0:
448,192,68529,1,2,0:0:0:0:
448,192,68829,1,2,0:0:0:0:
64,192,69129,1,2,0:0:0:0:
320,192,69279,128,0,69579:0:0:0:0:
192,192,69579,1,2,0:0:0:0:
448,192,69879,1,8,0:0:0:0:
64,192,70179,1,2,0:0:0:0:
320,192,70479,1,8,0:0:0:0:
448,192,70779,1,2,0:0:0:0:
192,192,70929,1,2,0:0:0:0:
192,192,71229,1,2,0:0:0:0:
448,192,71529,1,2,0:0:0:0:
64,192,71679,128,0,71979:0:0:0:0:
192,192,71979,1,2,0:0:0:0:
320,192,72129,1,2,0:0:0:0:
320,192,72429,1,2,0:0:0:0:
192,192,72729,1,2,0:0:0:0:
448,192,72879,128,0,73179:0:0:0:0:
320,192,73179,1,2,0:0:0:0:
64,192,73329,1,2,0:0:0:0:
64,192,73629,1,2,0:0:0:0:
448,192,73929,1,2,0:0:0:0:
192,192,74079,128,0,74379:0:0:0:0:
320,192,74379,1,2,0:0:0:0:
64,192,74679,1,8,0:0:0:0:
448,192,74979,1,2,0:0:0:0:
320,192,75279,128,8,75579:0:0:0:0:
64,192,75579,1,2,2:0:0:0:
448,192,75729,1,2,2:0:0:0:
448,192,76029,1,2,2:0:0:0:
64,192,76329,1,2,2:0:0:0:
192,192,76479,128,0,76779:0:0:0:0:
448,192,76779,1,2,2:0:0:0:
64,192,76929,1,2,2:0:0:0:
64,192,77229,1,2,2:0:0:0:
448,192,77529,1,2,2:0:0:0:
320,192,77679,128,0,77979:0:0:0:0:
192,192,77979,1,2,2:0:0:0:
448,192,78129,1,2,2:0:0:0:
448,192,78429,1,2,2:0:0:0:
192,192,78729,1,2,2:0:0:0:
64,192,78879,128,0,79179:0:0:0:0:
448,192,79179,1,2,2:0:0:0:
192,192,79479,1,8,2:0:0:0:
320,192,79779,1,2,2:0:0:0:
64,192,80079,1,8,2:0:0:0:
192,192,80379,1,2,2:0:0:0:
448,192,80529,1,2,2:0:0:0:
64,192,80679,128,0,80979:0:0:0:0:
320,192,80979,1,2,2:0:0:0:
192,192,81129,1,2,2:0:0:0:
448,192,81279,128,0,81579:0:0:0:0:
64,192,81579,1,2,2:0:0:0:
320,192,81729,1,2,2:0:0:0:
192,192,81879,128,0,82179:0:0:0:0:
448,192,82179,1,2,2:0:0:0:
64,192,82329,1,2,2:0:0:0:
320,192,82479,128,0,82779:0:0:0:0:
64,192,82779,128,8,83079:2:0:0:0:
192,192,83079,128,8,83379:2:0:0:0:
448,192,83379,128,8,83679:0:0:0:0:
320,192,83679,128,8,83979:0:0:0:0:
64,192,83979,1,2,0:0:0:0:
448,192,84279,1,0,0:0:0:0:
192,192,84579,1,0,0:0:0:0:
64,192,84879,128,0,85179:0:0:0:0:
448,192,85179,1,0,0:0:0:0:
192,192,85479,1,0,0:0:0:0:
320,192,85779,1,0,0:0:0:0:
64,192,86079,1,0,0:0:0:0:
192,192,86229,1,0,0:0:0:0:
448,192,86379,1,2,0:0:0:0:
320,192,86379,1,0,0:0:0:0:
64,192,86679,1,8,0:0:0:0:
192,192,86979,1,2,0:0:0:0:
448,192,87129,1,0,0:0:0:0:
320,192,87279,1,8,0:0:0:0:
64,192,87429,1,0,0:0:0:0:
448,192,87579,1,2,0:0:0:0:
192,192,87879,1,8,0:0:0:0:
320,192,88179,1,2,0:0:0:0:
64,192,88329,1,0,0:0:0:0:
192,192,88479,1,0,0:0:0:0:
448,192,88629,1,0,0:0:0:0:
64,192,88779,1,2,0:0:0:0:
448,192,89079,1,8,0:0:0:0:
320,192,89379,1,2,0:0:0:0:
192,192,89529,1,0,0:0:0:0:
64,192,89679,128,8,89979:0:0:0:0:
448,192,89979,1,0,0:0:0:0:
320,192,90279,1,0,0:0:0:0:
192,192,90579,128,2,90879:0:0:0:0:
320,192,90879,128,0,91179:0:0:0:0:
64,192,91179,1,2,0:0:0:0:
448,192,91179,1,0,0:0:0:0:
192,192,91479,1,8,0:0:0:0:
320,192,91779,1,2,0:0:0:0:
64,192,91929,1,0,0:0:0:0:
448,192,92079,1,8,0:0:0:0:
192,192,92229,1,0,0:0:0:0:
320,192,92379,1,2,0:0:0:0:
64,192,92679,1,8,0:0:0:0:
448,192,92979,1,2,0:0:0:0:
64,192,93129,1,0,0:0:0:0:
320,192,93279,1,0,0:0:0:0:
192,192,93429,1,0,0:0:0:0:
448,192,93579,1,2,0:0:0:0:
64,192,93879,128,8,94179:0:0:0:0:
192,192,94179,128,2,94479:0:0:0:0:
320,192,94479,128,2,94779:0:0:0:0:
448,192,94779,128,0,95079:0:0:0:0:
192,192,95229,1,0,0:0:0:0:
64,192,95379,128,0,95679:0:0:0:0:
448,192,95679,1,0,0:0:0:0:
320,192,95829,1,0,0:0:0:0:
64,192,95979,1,2,2:0:0:0:
192,192,95979,1,0,0:0:0:0:
448,192,96279,1,8,2:0:0:0:
64,192,96579,1,2,2:0:0:0:
320,192,96729,1,0,0:0:0:0:
192,192,96879,1,8,2:0:0:0:
448,192,97029,1,0,0:0:0:0:
64,192,97179,1,2,2:0:0:0:
320,192,97479,1,8,2:0:0:0:
64,192,97779,1,2,2:0:0:0:
448,192,97929,1,0,0:0:0:0:
192,192,98079,1,0,0:0:0:0:
320,192,98229,1,0,0:0:0:0:
64,192,98379,1,2,2:0:0:0:
192,192,98679,1,8,2:0:0:0:
448,192,98979,1,2,2:0:0:0:
320,192,99129,1,0,0:0:0:0:
64,192,99279,128,8,99579:2:0:0:0:
192,192,99579,1,0,0:0:0:0:
320,192,99879,1,0,0:0:0:0:
448,192,100179,128,0,100479:0:0:0:0:
64,192,100479,128,0,100779:0:0:0:0:
448,192,100779,1,0,0:0:0:0:
192,192,100779,1,2,2:0:0:0:
320,192,101079,1,8,2:0:0:0:
192,192,101229,1,0,0:0:0:0:
64,192,101529,1,0,0:0:0:0:
448,192,101679,1,8,2:0:0:0:
64,192,101829,1,0,0:0:0:0:
320,192,101979,1,2,2:0:0:0:
192,192,102279,1,8,2:0:0:0:
320,192,102429,1,0,0:0:0:0:
448,192,102729,1,0,0:0:0:0:
64,192,102879,1,8,2:0:0:0:
448,192,103029,1,0,0:0:0:0:
192,192,103179,128,2,103479:2:0:0:0:
320,192,103479,128,2,103779:2:0:0:0:
448,192,103779,128,8,104079:0:0:0:0:
64,192,104079,128,8,104379:0:0:0:0:
320,192,104379,1,0,0:0:0:0:
192,192,104679,1,0,0:0:0:0:
448,192,104979,1,0,0:0:0:0:
64,192,104979,1,0,0:0:0:0:
320,192,105279,1,0,0:0:0:0:
192,192,105579,1,2,0:0:0:0:
64,192,105579,1,0,0:0:0:0:
448,192,105879,1,2,0:0:0:0:
64,192,106179,1,2,0:0:0:0:
320,192,106479,1,2,0:0:0:0:
192,192,106779,1,2,0:0:0:0:
448,192,107079,1,2,0:0:0:0:
320,192,107379,1,2,0:0:0:0:
64,192,107679,1,2,0:0:0:0:
192,192,107979,1,2,0:0:0:0:
448,192,108279,1,2,0:0:0:0:
64,192,108579,1,2,0:0:0:0:
320,192,108879,1,2,0:0:0:0:
448,192,109179,1,2,0:0:0:0:
192,192,109479,1,2,0:0:0:0:
320,192,109779,128,8,110079:0:0:0:0:
64,192,110079,128,0,110379:0:0:0:0:
448,192,110379,128,8,112779:0:0:0:0:
192,192,110679,1,8,0:0:0:0:
320,192,110979,1,8,0:0:0:0:
64,192,111279,1,8,0:0:0:0:
320,192,111579,1,8,0:0:0:0:
192,192,111879,1,8,0:0:0:0:
64,192,112179,1,8,0:0:0:0:
320,192,112479,1,8,0:0:0:0:
64,192,112779,128,8,114579:0:0:0:0:
320,192,113079,1,8,0:0:0:0:
192,192,113379,1,8,0:0:0:0:
448,192,113679,1,8,0:0:0:0:
320,192,113979,1,8,0:0:0:0:
192,192,114279,128,8,114579:0:0:0:0:
448,192,114579,1,2,0:0:0:0:
320,192,114729,1,8,0:0:0:0:
192,192,114879,1,2,0:0:0:0:
64,192,115029,128,8,115929:0:0:0:0:
448,192,115029,128,0,115929:0:0:0:0:
