osu file format v14

[General]
AudioFilename: audio.mp3
AudioLeadIn: 0
PreviewTime: 45379
Countdown: 0
SampleSet: Normal
StackLeniency: 0.7
Mode: 1
LetterboxInBreaks: 0
WidescreenStoryboard: 0

[Editor]
Bookmarks: 13692,28692,45379,87060
DistanceSpacing: 0.5
BeatDivisor: 2
GridSize: 32
TimelineZoom: 1.1

[Metadata]
Title:!!!Chaos Time!!!
TitleUnicode:!!!カオスタイム!!!
Artist:t+pazolite
ArtistUnicode:t+pazolite
Creator:Chromoxx
Version:Nardo's Futsuu
Source:太鼓の達人
Tags:ムラサキ taiko no tatsujin murasaki namco original chaostime sing216 nardoxyribonucleic judydanny tasuke912 midnaait
BeatmapID:1075861
BeatmapSetID:494993

[Difficulty]
HPDrainRate:7
CircleSize:5
OverallDifficulty:4
ApproachRate:5
SliderMultiplier:1.2
SliderTickRate:1

[Events]
//Background and Video events
0,0,"chaostime wallpaper.jpg",0,-130
//Break Periods
//Storyboard Layer 0 (Background)
//Storyboard Layer 1 (Fail)
//Storyboard Layer 2 (Pass)
//Storyboard Layer 3 (Foreground)
//Storyboard Sound Samples

[TimingPoints]
6192,234.375,4,1,0,100,1,0
33379,375,4,1,0,100,1,0
58879,375,4,1,0,100,1,8
58935,234.375,4,1,0,100,1,0
67372,-100,4,1,0,100,0,1
73817,-100,4,1,0,100,0,0
74872,-100,4,1,0,100,0,1
83310,-100,4,1,0,100,0,0
97841,226.415094339623,4,1,0,100,1,8
98293,226.415094339623,4,1,0,100,1,1
104519,-100,4,1,0,100,0,0
105538,219.78021978022,4,1,0,100,1,1
111691,206.896551724138,4,1,0,100,1,1
114173,-100,4,1,0,100,0,0
116656,-100,4,1,0,100,0,0

[HitObjects]
256,192,6192,5,4,0:0:0:0:
256,192,6660,1,8,0:0:0:0:
256,192,7129,1,0,0:0:0:0:
256,192,7363,1,0,0:0:0:0:
256,192,7598,1,8,0:0:0:0:
256,192,8067,1,0,0:0:0:0:
256,192,8535,1,8,0:0:0:0:
256,192,9004,1,0,0:0:0:0:
256,192,9473,1,8,0:0:0:0:
256,192,9707,1,8,0:0:0:0:
256,192,9942,1,0,0:0:0:0:
256,192,10410,1,8,0:0:0:0:
256,192,10879,1,0,0:0:0:0:
256,192,11348,1,8,0:0:0:0:
256,192,11817,1,0,0:0:0:0:
256,192,12051,1,0,0:0:0:0:
256,192,12285,1,8,0:0:0:0:
256,192,12520,1,8,0:0:0:0:
256,192,12754,1,0,0:0:0:0:
256,192,13223,1,8,0:0:0:0:
256,192,13692,1,4,0:0:0:0:
256,192,14629,1,0,0:0:0:0:
256,192,15098,1,8,0:0:0:0:
256,192,15567,1,0,0:0:0:0:
256,192,15801,1,8,0:0:0:0:
256,192,16035,1,0,0:0:0:0:
256,192,16504,1,8,0:0:0:0:
256,192,16738,1,0,0:0:0:0:
256,192,16973,1,8,0:0:0:0:
256,192,17442,1,0,0:0:0:0:
256,192,18379,1,0,0:0:0:0:
256,192,18848,1,8,0:0:0:0:
256,192,19317,1,0,0:0:0:0:
256,192,19551,1,8,0:0:0:0:
256,192,19785,1,0,0:0:0:0:
256,192,20254,1,8,0:0:0:0:
256,192,20488,1,0,0:0:0:0:
256,192,20723,1,8,0:0:0:0:
256,192,20957,1,8,0:0:0:0:
256,192,21192,1,0,0:0:0:0:
256,192,21660,1,8,0:0:0:0:
256,192,22363,1,0,0:0:0:0:
256,192,22598,1,8,0:0:0:0:
256,192,23067,1,0,0:0:0:0:
256,192,23535,1,8,0:0:0:0:
256,192,24238,1,0,0:0:0:0:
256,192,24473,1,8,0:0:0:0:
256,192,24707,1,8,0:0:0:0:
256,192,24942,1,0,0:0:0:0:
256,192,25410,1,8,0:0:0:0:
256,192,25879,1,0,0:0:0:0:
256,192,26113,1,0,0:0:0:0:
256,192,26348,1,8,0:0:0:0:
256,192,26817,1,0,0:0:0:0:
256,192,27051,1,0,0:0:0:0:
256,192,27285,1,8,0:0:0:0:
256,192,27402,1,8,0:0:0:0:
256,192,27520,1,8,0:0:0:0:
256,192,27754,12,0,28692,0:0:0:0:
256,192,29629,5,8,0:0:0:0:
256,192,30567,1,0,0:0:0:0:
256,192,31504,1,8,0:0:0:0:
256,192,31738,12,0,32910,0:0:0:0:
256,192,33379,5,4,0:0:0:0:
256,192,34129,1,8,0:0:0:0:
256,192,34504,1,0,0:0:0:0:
256,192,34691,1,0,0:0:0:0:
256,192,34879,1,0,0:0:0:0:
256,192,35254,1,0,0:0:0:0:
256,192,35629,1,8,0:0:0:0:
256,192,36379,1,0,0:0:0:0:
256,192,36754,1,0,0:0:0:0:
256,192,37129,1,8,0:0:0:0:
256,192,37316,1,8,0:0:0:0:
256,192,37504,1,8,0:0:0:0:
256,192,37879,1,0,0:0:0:0:
256,192,38629,1,8,0:0:0:0:
256,192,39379,1,4,0:0:0:0:
256,192,40129,1,8,0:0:0:0:
256,192,40504,1,0,0:0:0:0:
256,192,40691,1,0,0:0:0:0:
256,192,40879,1,0,0:0:0:0:
256,192,41254,1,0,0:0:0:0:
256,192,41629,1,8,0:0:0:0:
256,192,42379,1,0,0:0:0:0:
256,192,42754,1,0,0:0:0:0:
256,192,43129,1,8,0:0:0:0:
256,192,43316,1,8,0:0:0:0:
256,192,43504,1,8,0:0:0:0:
256,192,43879,1,0,0:0:0:0:
256,192,44254,1,8,0:0:0:0:
256,192,44629,1,0,0:0:0:0:
256,192,45004,1,8,0:0:0:0:
256,192,45191,1,8,0:0:0:0:
256,192,45379,1,4,0:0:0:0:
256,192,46129,1,8,0:0:0:0:
256,192,46879,1,0,0:0:0:0:
256,192,47254,1,0,0:0:0:0:
256,192,47441,1,0,0:0:0:0:
256,192,47629,1,8,0:0:0:0:
256,192,48004,1,8,0:0:0:0:
256,192,48379,1,0,0:0:0:0:
256,192,49129,1,8,0:0:0:0:
256,192,49504,1,8,0:0:0:0:
256,192,49691,1,8,0:0:0:0:
256,192,49879,1,0,0:0:0:0:
256,192,50254,1,0,0:0:0:0:
256,192,50629,1,8,0:0:0:0:
256,192,51379,1,4,0:0:0:0:
256,192,52129,1,8,0:0:0:0:
256,192,52879,1,0,0:0:0:0:
256,192,53066,1,8,0:0:0:0:
256,192,53254,1,0,0:0:0:0:
256,192,53629,1,8,0:0:0:0:
256,192,54004,1,8,0:0:0:0:
256,192,54379,1,0,0:0:0:0:
256,192,55129,1,8,0:0:0:0:
256,192,55316,1,0,0:0:0:0:
256,192,55504,1,8,0:0:0:0:
256,192,55879,1,0,0:0:0:0:
256,192,56254,1,0,0:0:0:0:
256,192,56629,1,8,0:0:0:0:
256,192,57004,1,8,0:0:0:0:
256,192,57191,1,8,0:0:0:0:
256,192,57379,1,4,0:0:0:0:
256,192,58935,1,8,0:0:0:0:
256,192,59169,1,8,0:0:0:0:
256,192,59403,1,8,0:0:0:0:
256,192,59520,1,8,0:0:0:0:
256,192,59638,1,8,0:0:0:0:
256,192,59872,1,4,0:0:0:0:
256,192,60341,1,8,0:0:0:0:
256,192,60810,1,0,0:0:0:0:
256,192,61161,1,0,0:0:0:0:
256,192,61513,1,0,0:0:0:0:
256,192,61747,1,0,0:0:0:0:
256,192,62216,1,8,0:0:0:0:
256,192,62685,1,0,0:0:0:0:
256,192,63036,1,0,0:0:0:0:
256,192,63388,1,0,0:0:0:0:
256,192,63622,1,0,0:0:0:0:
256,192,64091,1,8,0:0:0:0:
256,192,64560,1,0,0:0:0:0:
256,192,64794,1,0,0:0:0:0:
256,192,65028,1,8,0:0:0:0:
256,192,65497,1,0,0:0:0:0:
256,192,65614,1,0,0:0:0:0:
256,192,65731,1,0,0:0:0:0:
256,192,65966,1,8,0:0:0:0:
256,192,66200,1,8,0:0:0:0:
256,192,66435,1,0,0:0:0:0:
256,192,67138,1,8,0:0:0:0:
256,192,67372,1,4,0:0:0:0:
256,192,67606,1,8,0:0:0:0:
256,192,67841,1,0,0:0:0:0:
256,192,67958,1,0,0:0:0:0:
256,192,68192,1,8,0:0:0:0:
256,192,68427,1,8,0:0:0:0:
256,192,68544,1,8,0:0:0:0:
256,192,68661,1,8,0:0:0:0:
256,192,69247,1,0,0:0:0:0:
256,192,69481,1,8,0:0:0:0:
256,192,69716,1,0,0:0:0:0:
256,192,69833,1,0,0:0:0:0:
256,192,70067,1,8,0:0:0:0:
256,192,70302,1,0,0:0:0:0:
256,192,70536,1,8,0:0:0:0:
256,192,70653,1,8,0:0:0:0:
256,192,70888,1,0,0:0:0:0:
256,192,71122,1,8,0:0:0:0:
256,192,71591,1,8,0:0:0:0:
256,192,71708,1,8,0:0:0:0:
256,192,71942,1,0,0:0:0:0:
256,192,72177,1,0,0:0:0:0:
256,192,72411,1,8,0:0:0:0:
256,192,72997,1,0,0:0:0:0:
256,192,73231,1,8,0:0:0:0:
256,192,73466,1,0,0:0:0:0:
256,192,73583,1,0,0:0:0:0:
256,192,73817,1,8,0:0:0:0:
256,192,74052,1,8,0:0:0:0:
256,192,74286,1,0,0:0:0:0:
256,192,74520,1,8,0:0:0:0:
256,192,74872,1,4,0:0:0:0:
256,192,75106,1,8,0:0:0:0:
256,192,75341,1,0,0:0:0:0:
256,192,75458,1,0,0:0:0:0:
256,192,75692,1,8,0:0:0:0:
256,192,75927,1,8,0:0:0:0:
256,192,76044,1,8,0:0:0:0:
256,192,76161,1,8,0:0:0:0:
256,192,76747,1,0,0:0:0:0:
256,192,76981,1,8,0:0:0:0:
256,192,77216,1,0,0:0:0:0:
256,192,77333,1,0,0:0:0:0:
256,192,77567,1,8,0:0:0:0:
256,192,77802,1,0,0:0:0:0:
256,192,78036,1,8,0:0:0:0:
256,192,78153,1,8,0:0:0:0:
256,192,78388,1,0,0:0:0:0:
256,192,78622,1,8,0:0:0:0:
256,192,79091,1,8,0:0:0:0:
256,192,79208,1,8,0:0:0:0:
256,192,79442,1,0,0:0:0:0:
256,192,79677,1,0,0:0:0:0:
256,192,79911,1,8,0:0:0:0:
256,192,80145,1,0,0:0:0:0:
256,192,80263,1,0,0:0:0:0:
256,192,80497,1,8,0:0:0:0:
256,192,80849,1,8,0:0:0:0:
256,192,81083,1,0,0:0:0:0:
256,192,81200,1,0,0:0:0:0:
256,192,81435,12,0,82372,0:0:0:0:
256,192,83310,5,4,0:0:0:0:
256,192,84247,1,8,0:0:0:0:
256,192,85185,1,0,0:0:0:0:
256,192,86122,1,8,0:0:0:0:
256,192,86591,1,8,0:0:0:0:
256,192,87060,1,4,0:0:0:0:
256,192,87294,1,8,0:0:0:0:
256,192,87763,1,8,0:0:0:0:
256,192,87997,1,0,0:0:0:0:
256,192,88114,1,0,0:0:0:0:
256,192,88231,1,0,0:0:0:0:
256,192,88466,1,8,0:0:0:0:
256,192,88935,1,0,0:0:0:0:
256,192,89169,1,8,0:0:0:0:
256,192,89638,1,8,0:0:0:0:
256,192,89872,1,8,0:0:0:0:
256,192,90106,1,0,0:0:0:0:
256,192,90341,1,8,0:0:0:0:
256,192,90458,1,8,0:0:0:0:
256,192,90575,1,8,0:0:0:0:
256,192,90810,1,4,0:0:0:0:
256,192,91278,1,0,0:0:0:0:
256,192,91630,1,8,0:0:0:0:
256,192,91981,1,8,0:0:0:0:
256,192,92216,1,8,0:0:0:0:
256,192,92450,1,0,0:0:0:0:
256,192,92685,1,8,0:0:0:0:
256,192,93153,1,0,0:0:0:0:
256,192,93505,1,8,0:0:0:0:
256,192,93856,1,0,0:0:0:0:
256,192,94091,1,8,0:0:0:0:
256,192,94325,1,8,0:0:0:0:
256,192,94560,1,0,0:0:0:0:
256,192,95028,1,0,0:0:0:0:
256,192,95380,1,8,0:0:0:0:
256,192,95731,1,8,0:0:0:0:
256,192,95966,1,8,0:0:0:0:
256,192,96200,1,0,0:0:0:0:
256,192,96435,1,0,0:0:0:0:
256,192,96669,1,8,0:0:0:0:
256,192,96786,1,8,0:0:0:0:
256,192,97020,1,0,0:0:0:0:
256,192,97255,1,8,0:0:0:0:
256,192,97841,1,8,0:0:0:0:
256,192,98067,1,8,0:0:0:0:
256,192,98293,1,4,0:0:0:0:
256,192,98745,1,0,0:0:0:0:
256,192,99085,1,8,0:0:0:0:
256,192,99425,1,8,0:0:0:0:
256,192,99538,1,8,0:0:0:0:
256,192,99651,1,8,0:0:0:0:
256,192,99877,1,0,0:0:0:0:
256,192,100104,1,8,0:0:0:0:
256,192,100557,1,0,0:0:0:0:
256,192,100896,1,8,0:0:0:0:
256,192,101236,1,0,0:0:0:0:
256,192,101349,1,0,0:0:0:0:
256,192,101462,1,0,0:0:0:0:
256,192,101689,1,8,0:0:0:0:
256,192,101915,1,0,0:0:0:0:
256,192,102368,1,0,0:0:0:0:
256,192,102708,1,8,0:0:0:0:
256,192,102934,1,8,0:0:0:0:
256,192,103047,1,8,0:0:0:0:
256,192,103160,1,8,0:0:0:0:
256,192,103500,1,0,0:0:0:0:
256,192,103726,1,8,0:0:0:0:
256,192,104179,1,0,0:0:0:0:
256,192,104519,1,0,0:0:0:0:
256,192,105085,1,8,0:0:0:0:
256,192,105311,1,8,0:0:0:0:
256,192,105538,1,4,0:0:0:0:
256,192,105977,1,0,0:0:0:0:
256,192,106307,1,8,0:0:0:0:
256,192,106636,1,8,0:0:0:0:
256,192,106746,1,8,0:0:0:0:
256,192,106856,1,8,0:0:0:0:
256,192,107076,1,0,0:0:0:0:
256,192,107296,1,8,0:0:0:0:
256,192,107735,1,0,0:0:0:0:
256,192,108065,1,8,0:0:0:0:
256,192,108395,1,0,0:0:0:0:
256,192,108505,1,0,0:0:0:0:
256,192,108614,1,0,0:0:0:0:
256,192,108834,1,0,0:0:0:0:
256,192,109054,1,8,0:0:0:0:
256,192,109494,1,0,0:0:0:0:
256,192,109823,1,8,0:0:0:0:
256,192,110153,1,0,0:0:0:0:
256,192,110263,1,0,0:0:0:0:
256,192,110373,1,0,0:0:0:0:
256,192,110592,1,8,0:0:0:0:
256,192,110812,1,0,0:0:0:0:
256,192,111032,1,0,0:0:0:0:
256,192,111252,1,8,0:0:0:0:
256,192,111472,1,8,0:0:0:0:
256,192,111691,1,0,0:0:0:0:
256,192,112104,1,8,0:0:0:0:
256,192,112518,1,0,0:0:0:0:
256,192,112622,1,0,0:0:0:0:
256,192,112725,1,0,0:0:0:0:
256,192,112932,1,8,0:0:0:0:
256,192,113346,1,8,0:0:0:0:
256,192,113553,1,0,0:0:0:0:
256,192,113759,1,8,0:0:0:0:
256,192,113966,1,8,0:0:0:0:
256,192,114173,1,4,0:0:0:0:
256,192,116656,12,0,118311,0:0:0:0:
