osu file format v14

[General]
AudioFilename: audio.mp3
AudioLeadIn: 0
PreviewTime: 45379
Countdown: 0
SampleSet: Normal
StackLeniency: 0.7
Mode: 1
LetterboxInBreaks: 0
WidescreenStoryboard: 1

[Editor]
DistanceSpacing: 0.1
BeatDivisor: 4
GridSize: 32
TimelineZoom: 1.5

[Metadata]
Title:!!!Chaos Time!!!
TitleUnicode:!!!カオスタイム!!!
Artist:t+pazolite
ArtistUnicode:t+pazolite
Creator:Chromoxx
Version:Mid's Muzukashii
Source:太鼓の達人
Tags:ムラサキ taiko no tatsujin murasaki namco original chaostime sing216 nardoxyribonucleic judydanny tasuke912 midnaait
BeatmapID:1097553
BeatmapSetID:494993

[Difficulty]
HPDrainRate:6
CircleSize:2
OverallDifficulty:5
ApproachRate:5
SliderMultiplier:1.4
SliderTickRate:1

[Events]
//Background and Video events
0,0,"chaostime wallpaper.jpg",0,-130
//Break Periods
//Storyboard Layer 0 (Background)
//Storyboard Layer 1 (Fail)
//Storyboard Layer 2 (Pass)
//Storyboard Layer 3 (Foreground)
//Storyboard Sound Samples

[TimingPoints]
6192,234.375,4,1,0,100,1,0
33379,375,4,1,0,100,1,0
58879,375,4,1,0,100,1,8
58935,234.375,4,1,0,100,1,0
67372,-100,4,1,0,100,0,1
73817,-100,4,1,0,100,0,0
74872,-100,4,1,0,100,0,1
82489,-100,4,1,0,100,0,1
83310,-100,4,1,0,100,0,0
97841,226.415094339623,4,1,0,100,1,8
98293,226.415094339623,4,1,0,100,1,1
105538,219.78021978022,4,1,0,100,1,1
111691,206.896551724138,4,1,0,100,1,1
114173,-100,4,1,0,100,0,0

[HitObjects]
256,192,6192,5,4,0:0:0:0:
256,192,6426,1,4,0:0:0:0:
256,192,6660,1,8,0:0:0:0:
256,192,7012,1,0,0:0:0:0:
256,192,7363,1,0,0:0:0:0:
256,192,7598,1,8,0:0:0:0:
256,192,8067,1,4,0:0:0:0:
256,192,8301,1,4,0:0:0:0:
256,192,8535,1,8,0:0:0:0:
256,192,8887,1,0,0:0:0:0:
256,192,9238,1,8,0:0:0:0:
256,192,9473,1,0,0:0:0:0:
256,192,9590,1,8,0:0:0:0:
256,192,9707,1,0,0:0:0:0:
256,192,9942,1,4,0:0:0:0:
256,192,10176,1,4,0:0:0:0:
256,192,10410,1,8,0:0:0:0:
256,192,10762,1,4,0:0:0:0:
256,192,10996,1,4,0:0:0:0:
256,192,11348,1,8,0:0:0:0:
256,192,11582,1,0,0:0:0:0:
256,192,11817,1,0,0:0:0:0:
256,192,11934,1,0,0:0:0:0:
256,192,12051,1,0,0:0:0:0:
256,192,12285,1,8,0:0:0:0:
256,192,12402,1,8,0:0:0:0:
256,192,12520,1,8,0:0:0:0:
256,192,12754,1,0,0:0:0:0:
256,192,13692,1,4,0:0:0:0:
256,192,13926,1,8,0:0:0:0:
256,192,14160,1,0,0:0:0:0:
288,256,14277,1,0,0:0:0:0:
256,192,14395,1,8,0:0:0:0:
288,288,14629,1,0,0:0:0:0:
256,192,14863,1,8,0:0:0:0:
256,192,14981,1,8,0:0:0:0:
288,288,15098,1,0,0:0:0:0:
256,192,15567,1,0,0:0:0:0:
256,192,15801,1,0,0:0:0:0:
256,192,16035,1,8,0:0:0:0:
256,192,16152,1,8,0:0:0:0:
256,192,16387,1,0,0:0:0:0:
256,192,16738,1,0,0:0:0:0:
256,192,16973,1,8,0:0:0:0:
256,192,17442,1,0,0:0:0:0:
256,192,17676,1,8,0:0:0:0:
256,192,17910,1,0,0:0:0:0:
288,288,18027,1,0,0:0:0:0:
256,192,18145,1,8,0:0:0:0:
256,192,18379,1,0,0:0:0:0:
256,192,18613,1,8,0:0:0:0:
256,192,18731,1,8,0:0:0:0:
256,192,18848,1,0,0:0:0:0:
256,192,19317,1,0,0:0:0:0:
256,192,19551,1,0,0:0:0:0:
256,192,19785,1,8,0:0:0:0:
256,192,19902,1,8,0:0:0:0:
256,192,20137,1,0,0:0:0:0:
256,192,20488,1,8,0:0:0:0:
256,192,20606,1,8,0:0:0:0:
256,192,20723,1,0,0:0:0:0:
256,192,21192,5,0,0:0:0:0:
256,192,21426,1,0,0:0:0:0:
256,192,21660,1,8,0:0:0:0:
256,192,22012,1,0,0:0:0:0:
256,192,22363,1,0,0:0:0:0:
256,192,22598,1,8,0:0:0:0:
256,192,23067,1,0,0:0:0:0:
256,192,23301,1,0,0:0:0:0:
256,192,23535,1,8,0:0:0:0:
256,192,23887,1,0,0:0:0:0:
256,192,24238,1,8,0:0:0:0:
256,192,24473,1,8,0:0:0:0:
256,192,24942,1,0,0:0:0:0:
256,192,25176,1,0,0:0:0:0:
256,192,25410,1,8,0:0:0:0:
256,192,25527,1,8,0:0:0:0:
256,192,25879,1,0,0:0:0:0:
256,192,26113,1,0,0:0:0:0:
256,192,26348,1,8,0:0:0:0:
256,192,26465,1,8,0:0:0:0:
256,192,26582,1,8,0:0:0:0:
256,192,26817,1,0,0:0:0:0:
256,192,27051,1,8,0:0:0:0:
256,192,27168,1,8,0:0:0:0:
256,192,27285,1,0,0:0:0:0:
256,192,27520,1,8,0:0:0:0:
256,192,27754,1,0,0:0:0:0:
256,224,27988,1,0,0:0:0:0:
256,192,28106,1,0,0:0:0:0:
256,224,28223,1,8,0:0:0:0:
256,224,28457,1,0,0:0:0:0:
256,192,28692,1,12,0:0:0:0:
256,192,29160,1,8,0:0:0:0:
256,192,29512,1,8,0:0:0:0:
256,192,29863,1,8,0:0:0:0:
256,192,30098,1,8,0:0:0:0:
256,192,30567,1,8,0:0:0:0:
256,192,31035,1,8,0:0:0:0:
256,192,31387,1,8,0:0:0:0:
256,192,31738,12,0,33145,0:0:0:0:
256,192,33379,5,0,0:0:0:0:
256,192,33660,1,0,0:0:0:0:
256,192,33941,1,0,0:0:0:0:
256,192,34129,1,8,0:0:0:0:
256,192,34504,1,0,0:0:0:0:
256,192,34879,1,0,0:0:0:0:
256,192,35066,1,0,0:0:0:0:
256,192,35160,1,0,0:0:0:0:
256,192,35254,1,0,0:0:0:0:
256,192,35441,1,0,0:0:0:0:
256,192,35629,1,8,0:0:0:0:
256,192,36004,1,8,0:0:0:0:
256,192,36379,5,0,0:0:0:0:
256,192,36660,1,0,0:0:0:0:
256,192,36941,1,0,0:0:0:0:
256,192,37129,1,8,0:0:0:0:
256,192,37504,1,0,0:0:0:0:
256,192,37879,1,0,0:0:0:0:
256,192,38066,1,0,0:0:0:0:
256,192,38160,1,0,0:0:0:0:
256,192,38254,1,0,0:0:0:0:
256,192,38441,1,0,0:0:0:0:
256,192,38629,1,8,0:0:0:0:
256,192,39004,1,8,0:0:0:0:
256,192,39379,5,4,0:0:0:0:
256,224,39754,1,8,0:0:0:0:
224,224,39941,1,0,0:0:0:0:
256,192,40129,1,8,0:0:0:0:
256,192,40504,1,8,0:0:0:0:
256,192,40879,1,0,0:0:0:0:
256,192,41066,1,8,0:0:0:0:
256,192,41160,1,8,0:0:0:0:
256,192,41254,1,8,0:0:0:0:
256,192,41441,1,0,0:0:0:0:
256,192,41629,1,8,0:0:0:0:
256,192,42004,1,8,0:0:0:0:
256,192,42379,5,0,0:0:0:0:
256,192,42754,1,0,0:0:0:0:
256,192,42847,1,0,0:0:0:0:
256,192,42941,1,0,0:0:0:0:
256,192,43129,1,8,0:0:0:0:
256,192,43504,1,0,0:0:0:0:
256,192,43879,1,8,0:0:0:0:
256,192,43972,1,8,0:0:0:0:
256,192,44066,1,8,0:0:0:0:
256,192,44254,1,0,0:0:0:0:
256,192,44629,1,8,0:0:0:0:
256,192,44816,1,0,0:0:0:0:
256,192,44910,1,0,0:0:0:0:
256,192,45004,1,8,0:0:0:0:
256,192,45379,5,4,0:0:0:0:
256,192,45754,1,8,0:0:0:0:
256,192,45941,1,0,0:0:0:0:
256,192,46129,1,0,0:0:0:0:
256,192,46222,1,0,0:0:0:0:
256,192,46316,1,0,0:0:0:0:
256,192,46504,1,8,0:0:0:0:
256,192,46597,1,8,0:0:0:0:
256,192,46691,1,8,0:0:0:0:
256,192,46879,1,0,0:0:0:0:
256,192,47254,1,0,0:0:0:0:
256,192,47441,1,8,0:0:0:0:
256,192,47629,1,8,0:0:0:0:
256,192,47722,1,8,0:0:0:0:
256,192,47816,1,8,0:0:0:0:
256,192,48004,1,0,0:0:0:0:
256,192,48379,1,0,0:0:0:0:
256,192,48472,1,0,0:0:0:0:
256,192,48566,1,0,0:0:0:0:
256,192,48754,1,0,0:0:0:0:
256,192,48941,1,0,0:0:0:0:
256,192,49129,1,8,0:0:0:0:
256,192,49504,1,8,0:0:0:0:
256,192,49879,1,0,0:0:0:0:
256,192,49972,1,0,0:0:0:0:
256,192,50066,1,0,0:0:0:0:
256,192,50160,1,0,0:0:0:0:
256,192,50254,1,0,0:0:0:0:
256,192,50441,1,0,0:0:0:0:
256,192,50629,1,8,0:0:0:0:
256,192,50816,1,8,0:0:0:0:
256,192,50910,1,8,0:0:0:0:
256,192,51004,1,8,0:0:0:0:
256,192,51191,1,0,0:0:0:0:
256,192,51379,1,12,0:0:0:0:
256,192,52129,5,8,0:0:0:0:
256,192,52316,1,0,0:0:0:0:
256,192,52410,1,0,0:0:0:0:
256,192,52504,1,0,0:0:0:0:
256,192,52691,1,8,0:0:0:0:
256,192,52879,1,0,0:0:0:0:
256,192,53254,1,0,0:0:0:0:
256,192,53441,1,8,0:0:0:0:
256,192,53629,1,0,0:0:0:0:
256,192,53816,1,8,0:0:0:0:
256,192,53910,1,8,0:0:0:0:
256,192,54004,1,8,0:0:0:0:
256,192,54191,1,8,0:0:0:0:
256,192,54379,1,0,0:0:0:0:
256,192,54754,1,8,0:0:0:0:
256,192,54941,1,8,0:0:0:0:
256,192,55129,1,0,0:0:0:0:
256,192,55222,1,0,0:0:0:0:
256,192,55316,1,0,0:0:0:0:
256,192,55504,1,8,0:0:0:0:
256,192,55691,1,8,0:0:0:0:
256,192,55879,1,0,0:0:0:0:
256,192,56254,1,0,0:0:0:0:
256,192,56441,1,0,0:0:0:0:
256,192,56629,1,8,0:0:0:0:
256,192,56816,1,8,0:0:0:0:
256,192,56910,1,8,0:0:0:0:
256,192,57004,1,0,0:0:0:0:
256,192,57379,1,12,0:0:0:0:
256,192,58935,1,4,0:0:0:0:
256,192,59169,1,4,0:0:0:0:
256,192,59403,1,12,0:0:0:0:
256,192,59638,1,12,0:0:0:0:
256,192,59872,1,4,0:0:0:0:
256,192,60810,1,0,0:0:0:0:
288,256,60927,1,0,0:0:0:0:
256,192,61044,1,0,0:0:0:0:
256,192,61278,1,8,0:0:0:0:
288,256,61395,1,8,0:0:0:0:
256,192,61513,1,8,0:0:0:0:
256,192,61747,1,4,0:0:0:0:
256,192,62685,1,0,0:0:0:0:
256,224,62802,1,0,0:0:0:0:
256,192,62919,1,0,0:0:0:0:
256,224,63036,1,0,0:0:0:0:
256,192,63153,1,8,0:0:0:0:
256,192,63388,1,8,0:0:0:0:
256,192,63622,1,4,0:0:0:0:
288,224,64091,1,4,0:0:0:0:
256,192,64560,1,8,0:0:0:0:
256,192,64677,1,8,0:0:0:0:
256,192,64794,1,8,0:0:0:0:
256,192,65028,1,0,0:0:0:0:
256,192,65145,1,0,0:0:0:0:
256,192,65263,1,0,0:0:0:0:
256,192,65497,1,4,0:0:0:0:
256,192,65731,1,4,0:0:0:0:
256,192,65966,1,12,0:0:0:0:
256,192,66200,1,12,0:0:0:0:
256,192,67138,1,12,0:0:0:0:
256,192,67372,1,0,0:0:0:0:
256,192,67606,1,8,0:0:0:0:
256,192,67841,1,0,0:0:0:0:
256,192,67958,1,0,0:0:0:0:
256,192,68075,1,8,0:0:0:0:
256,192,68310,1,0,0:0:0:0:
256,192,68427,1,8,0:0:0:0:
256,192,68544,1,8,0:0:0:0:
256,192,68661,1,0,0:0:0:0:
256,192,68895,1,0,0:0:0:0:
320,256,69013,1,8,0:0:0:0:
288,256,69247,1,0,0:0:0:0:
256,192,69481,1,8,0:0:0:0:
256,192,69716,1,0,0:0:0:0:
256,192,69833,1,8,0:0:0:0:
256,192,69950,1,8,0:0:0:0:
192,160,70185,1,8,0:0:0:0:
192,160,70302,1,8,0:0:0:0:
224,224,70536,1,0,0:0:0:0:
256,192,70653,1,0,0:0:0:0:
256,192,71122,1,8,0:0:0:0:
256,192,71356,1,8,0:0:0:0:
256,192,71591,1,0,0:0:0:0:
256,256,71708,1,0,0:0:0:0:
256,192,71942,1,12,0:0:0:0:
256,192,72177,1,12,0:0:0:0:
256,192,72411,1,12,0:0:0:0:
256,192,72997,1,0,0:0:0:0:
256,192,73231,1,0,0:0:0:0:
256,192,73466,1,0,0:0:0:0:
288,224,73583,1,0,0:0:0:0:
256,192,73817,1,12,0:0:0:0:
256,192,74052,1,12,0:0:0:0:
256,192,74286,1,12,0:0:0:0:
256,192,74872,1,0,0:0:0:0:
256,192,75106,1,8,0:0:0:0:
256,192,75341,1,0,0:0:0:0:
256,192,75458,1,0,0:0:0:0:
256,192,75575,1,8,0:0:0:0:
256,192,75810,1,0,0:0:0:0:
320,256,75927,1,0,0:0:0:0:
288,192,76044,1,8,0:0:0:0:
256,192,76161,1,8,0:0:0:0:
288,256,76395,1,8,0:0:0:0:
256,192,76513,1,0,0:0:0:0:
192,128,76747,1,8,0:0:0:0:
192,128,76981,1,0,0:0:0:0:
256,192,77216,1,8,0:0:0:0:
256,192,77333,1,8,0:0:0:0:
224,224,77450,1,0,0:0:0:0:
256,192,77685,1,8,0:0:0:0:
256,192,77802,1,8,0:0:0:0:
192,96,78036,1,0,0:0:0:0:
256,192,78153,1,0,0:0:0:0:
256,192,78622,1,8,0:0:0:0:
256,192,78856,1,8,0:0:0:0:
256,192,79091,1,0,0:0:0:0:
256,256,79208,1,0,0:0:0:0:
256,192,79442,1,12,0:0:0:0:
256,192,79677,1,12,0:0:0:0:
256,192,79911,1,12,0:0:0:0:
224,192,80263,1,0,0:0:0:0:
224,192,80497,1,8,0:0:0:0:
224,192,80614,1,0,0:0:0:0:
224,192,80849,1,8,0:0:0:0:
224,192,81083,1,0,0:0:0:0:
224,192,81200,1,8,0:0:0:0:
224,192,81317,1,0,0:0:0:0:
224,192,81435,1,8,0:0:0:0:
224,192,81669,1,0,0:0:0:0:
224,192,81903,1,8,0:0:0:0:
224,160,82020,1,8,0:0:0:0:
224,192,82138,1,8,0:0:0:0:
224,192,82372,1,0,0:0:0:0:
256,192,83310,5,4,0:0:0:0:
256,192,83778,1,8,0:0:0:0:
256,192,84130,1,8,0:0:0:0:
256,192,84481,1,8,0:0:0:0:
256,192,84716,1,8,0:0:0:0:
256,192,85185,1,8,0:0:0:0:
256,192,85653,1,8,0:0:0:0:
256,192,86005,1,8,0:0:0:0:
256,192,86591,1,12,0:0:0:0:
256,192,87060,1,0,0:0:0:0:
256,192,87294,1,8,0:0:0:0:
256,192,87528,1,0,0:0:0:0:
256,192,87880,1,0,0:0:0:0:
256,192,88231,1,8,0:0:0:0:
256,192,88349,1,8,0:0:0:0:
256,192,88466,1,0,0:0:0:0:
256,192,88700,1,8,0:0:0:0:
256,192,88935,1,0,0:0:0:0:
256,192,89052,1,0,0:0:0:0:
256,192,89169,1,0,0:0:0:0:
256,192,89403,1,8,0:0:0:0:
256,192,89755,1,0,0:0:0:0:
256,192,90575,1,12,0:0:0:0:
256,192,90810,1,4,0:0:0:0:
256,192,91044,1,8,0:0:0:0:
224,192,91278,1,0,0:0:0:0:
224,192,91395,1,0,0:0:0:0:
256,192,91513,1,8,0:0:0:0:
288,224,91747,1,0,0:0:0:0:
256,192,91981,1,8,0:0:0:0:
256,192,92099,1,8,0:0:0:0:
256,192,92216,1,0,0:0:0:0:
224,192,92450,1,8,0:0:0:0:
256,192,92685,1,0,0:0:0:0:
256,192,92919,1,8,0:0:0:0:
256,192,93153,1,0,0:0:0:0:
256,192,93270,1,0,0:0:0:0:
256,192,93388,1,8,0:0:0:0:
256,192,93505,1,0,0:0:0:0:
256,192,93856,1,0,0:0:0:0:
256,192,94560,5,0,0:0:0:0:
256,192,94794,1,8,0:0:0:0:
256,192,95028,1,0,0:0:0:0:
256,192,95145,1,0,0:0:0:0:
288,288,95263,1,8,0:0:0:0:
256,192,95497,1,0,0:0:0:0:
256,192,95731,1,8,0:0:0:0:
256,192,95849,1,8,0:0:0:0:
256,192,95966,1,0,0:0:0:0:
224,160,96200,1,8,0:0:0:0:
256,192,96435,1,0,0:0:0:0:
256,192,96669,1,8,0:0:0:0:
256,192,96903,1,0,0:0:0:0:
288,224,97138,1,8,0:0:0:0:
256,192,97255,1,0,0:0:0:0:
256,192,97841,5,8,0:0:0:0:
256,192,98067,1,8,0:0:0:0:
256,192,98293,1,0,0:0:0:0:
256,192,98519,1,8,0:0:0:0:
256,192,98745,1,0,0:0:0:0:
224,160,98972,1,8,0:0:0:0:
256,192,99085,1,8,0:0:0:0:
256,192,99425,1,8,0:0:0:0:
256,192,99538,1,8,0:0:0:0:
256,192,99651,1,0,0:0:0:0:
256,160,99877,1,8,0:0:0:0:
256,192,100104,1,0,0:0:0:0:
256,192,100330,1,8,0:0:0:0:
256,192,100557,1,0,0:0:0:0:
256,192,100783,1,8,0:0:0:0:
256,192,100896,1,8,0:0:0:0:
256,192,101123,1,0,0:0:0:0:
256,192,101236,1,0,0:0:0:0:
256,192,101462,1,8,0:0:0:0:
256,192,101915,5,8,0:0:0:0:
256,192,102142,1,8,0:0:0:0:
256,192,102368,1,0,0:0:0:0:
224,160,102594,1,8,0:0:0:0:
256,192,102708,1,8,0:0:0:0:
256,192,103047,1,0,0:0:0:0:
256,192,103160,1,8,0:0:0:0:
256,192,103274,1,8,0:0:0:0:
224,160,103500,1,0,0:0:0:0:
256,192,103726,1,8,0:0:0:0:
256,192,103953,1,8,0:0:0:0:
256,192,104179,1,0,0:0:0:0:
256,192,104293,1,0,0:0:0:0:
256,192,104519,1,8,0:0:0:0:
256,192,105538,1,4,0:0:0:0:
256,192,105757,1,8,0:0:0:0:
256,192,105977,1,0,0:0:0:0:
256,192,106087,1,0,0:0:0:0:
256,192,106197,1,8,0:0:0:0:
256,192,106417,1,0,0:0:0:0:
256,192,106527,1,0,0:0:0:0:
320,224,106636,1,0,0:0:0:0:
256,192,106856,1,8,0:0:0:0:
256,192,107296,1,0,0:0:0:0:
256,192,107516,1,8,0:0:0:0:
256,192,107735,1,0,0:0:0:0:
256,192,107955,1,8,0:0:0:0:
256,192,108065,1,8,0:0:0:0:
256,160,108285,1,0,0:0:0:0:
256,160,108395,1,0,0:0:0:0:
256,160,108614,1,8,0:0:0:0:
256,192,109054,5,8,0:0:0:0:
224,192,109164,1,8,0:0:0:0:
256,192,109274,1,8,0:0:0:0:
256,192,109494,1,0,0:0:0:0:
288,256,109603,1,0,0:0:0:0:
256,192,109713,1,0,0:0:0:0:
256,192,109933,1,8,0:0:0:0:
256,192,110153,1,0,0:0:0:0:
256,192,110263,1,0,0:0:0:0:
256,192,110373,1,8,0:0:0:0:
256,192,110812,1,8,0:0:0:0:
256,192,111032,1,8,0:0:0:0:
256,192,111252,1,8,0:0:0:0:
256,192,111362,1,8,0:0:0:0:
256,192,111472,1,8,0:0:0:0:
256,192,111691,1,0,0:0:0:0:
224,224,112518,1,0,0:0:0:0:
224,224,112622,1,0,0:0:0:0:
224,224,112725,1,0,0:0:0:0:
224,224,112932,1,8,0:0:0:0:
224,224,113035,1,8,0:0:0:0:
224,224,113139,1,8,0:0:0:0:
256,192,113242,1,8,0:0:0:0:
256,192,113346,1,0,0:0:0:0:
256,192,113553,1,0,0:0:0:0:
256,192,113759,1,8,0:0:0:0:
256,192,113966,1,8,0:0:0:0:
288,192,114173,1,4,0:0:0:0:
256,192,116656,12,0,118311,0:0:0:0:
