osu file format v14

[General]
AudioFilename: audio.mp3
AudioLeadIn: 0
PreviewTime: 45379
Countdown: 0
SampleSet: Normal
StackLeniency: 0.7
Mode: 1
LetterboxInBreaks: 0
WidescreenStoryboard: 0

[Editor]
Bookmarks: 6192,6660,7114,7129,7144,7598,8535,8989,9004,9019,9473,10410,11348,12051,12520,12754,13234,15332,17207,19082,20723,20957,21192,21660,22598,23535,24473,28692,30567,31856,33379,34129,34504,34879,35629,36754,37129,37504,37879,38629,39379,40129,40504,40879,41629,42754,43129,43504,43879,44629,45379,45754,45941,46129,46191,46254,46316,46379,46441,46504,46566,46629,46691,46754,46816,46879,47066,47160,47254,47441,47629,47691,47754,47816,47879,47941,48004,48191,48441,48504,48566,48660,48754,48941,49035,49129,49191,49254,49316,49410,49504,49566,49629,49691,49879,49972,50066,50160,50254,50316,50379,50441,50535,50629,50816,50879,50941,51004,51191,51254,51316,51379,52191,52254,52316,52379,52441,52504,52566,52629,52691,52785,52972,53066,53254,53316,53379,53441,53629,53691,53754,53816,53879,53941,54004,54066,54191,54379,54441,54504,54566,54660,54754,54941,55035,55129,55191,55254,55316,55410,55504,55566,55629,55691,55879,55972,56066,56160,56254,56316,56379,56441,56535,56629,56816,56879,56941,57004,57191,57254,57316,57379,59872,59883,60117,60352,60586,60821,61758,61992,62227,62461,62696,63633,63867,64102,64336,64571,64688,64805,64922,65039,65156,65274,65391,65508,65742,65977,66211,66446,66563,66680,66797,66914,66944,66973,67031,67149,67163,67178,67193,67207,67222,67266,67372,68321,69258,70196,70664,70899,71133,71719,71778,71836,72656,72715,72774,72891,73242,73360,73477,73594,73711,73828,73946,74063,74180,74297,74414,74531,74590,74619,74649,74663,74678,74693,74707,74722,74737,74751,74766,74872,80508,80625,80742,80860,80977,81094,81211,81328,81446,81504,81563,81621,81680,81738,81797,81856,81914,81973,82031,82090,82149,82207,82266,82324,82383,82617,82852,83086,83310,86602,86631,86660,86690,86719,86748,86778,86807,86836,86865,86895,86924,86953,86983,87012,87041,87071,87305,87422,87656,87774,88008,88067,88125,88184,88242,88360,88477,88535,88594,88653,88711,88946,89004,89063,89121,89180,89297,89414,89473,89531,89649,89766,89883,90352,90586,90810,92930,92988,93047,93076,93106,93135,93164,98080,98293,98760,99213,99440,99553,99666,99723,99779,99836,99892,99949,100006,100062,100119,100175,100232,100289,100345,100402,100458,100487,100515,100543,100572,100600,100628,100657,100685,100713,100741,100770,100798,100826,100855,100883,100911,100940,100968,100996,101024,101081,101138,101194,101251,101308,101364,101421,101477,101591,101704,101817,101930,102383,102836,103062,103175,103289,103402,103458,103515,103572,103628,103685,103741,103798,103855,104874,104987,105100,105213,105326,105440,105539,106212,107091,109728,110168,110827,111047,111267,111692,112119,113361,113568,113774,113981,114174,114188,116657,118312
DistanceSpacing: 0.5
BeatDivisor: 2
GridSize: 32
TimelineZoom: 0.9

[Metadata]
Title:!!!Chaos Time!!!
TitleUnicode:!!!カオスタイム!!!
Artist:t+pazolite
ArtistUnicode:t+pazolite
Creator:Chromoxx
Version:JuDa's Kantan
Source:太鼓の達人
Tags:ムラサキ taiko no tatsujin murasaki namco original chaostime sing216 nardoxyribonucleic judydanny tasuke912 midnaait
BeatmapID:1070065
BeatmapSetID:494993

[Difficulty]
HPDrainRate:8
CircleSize:5
OverallDifficulty:4
ApproachRate:5
SliderMultiplier:1
SliderTickRate:1

[Events]
//Background and Video events
0,0,"chaostime wallpaper.jpg",0,-130
//Break Periods
//Storyboard Layer 0 (Background)
//Storyboard Layer 1 (Fail)
//Storyboard Layer 2 (Pass)
//Storyboard Layer 3 (Foreground)
//Storyboard Sound Samples

[TimingPoints]
6192,234.375,4,1,0,100,1,0
33379,375,4,1,0,100,1,0
58879,375,4,1,0,100,1,8
58935,234.375,4,1,0,100,1,0
67372,-100,4,1,0,100,0,1
73817,-100,4,1,0,100,0,0
74872,-100,4,1,0,100,0,1
83310,-100,4,1,0,100,0,0
97841,226.415094339623,4,1,0,100,1,8
98293,226.415094339623,4,1,0,100,1,1
104519,-100,4,1,0,100,0,0
105538,219.78021978022,4,1,0,100,1,1
111691,206.896551724138,4,1,0,100,1,1
114173,-100,4,1,0,100,0,0

[HitObjects]
256,192,6192,5,4,0:0:0:0:
256,192,8067,1,0,0:0:0:0:
256,192,9942,1,0,0:0:0:0:
256,192,10879,1,0,0:0:0:0:
256,192,11817,1,0,0:0:0:0:
256,192,12285,1,0,0:0:0:0:
249,120,12754,1,8,0:0:0:0:
210,39,13223,1,8,0:0:0:0:
263,189,13692,1,4,0:0:0:0:
263,189,14629,1,0,0:0:0:0:
263,189,15098,1,0,0:0:0:0:
263,190,15567,1,8,0:0:0:0:
262,190,16504,1,8,0:0:0:0:
171,38,16973,1,8,0:0:0:0:
262,190,17442,1,0,0:0:0:0:
262,190,18379,1,0,0:0:0:0:
262,190,18848,1,0,0:0:0:0:
262,190,19317,1,8,0:0:0:0:
262,190,20254,1,8,0:0:0:0:
262,190,20723,1,0,0:0:0:0:
262,190,20957,1,0,0:0:0:0:
262,190,21192,5,0,0:0:0:0:
262,190,22129,1,8,0:0:0:0:
262,190,23067,1,0,0:0:0:0:
262,190,24004,1,8,0:0:0:0:
262,190,24942,1,0,0:0:0:0:
262,190,25410,1,8,0:0:0:0:
262,190,25879,1,0,0:0:0:0:
262,190,26348,1,8,0:0:0:0:
262,190,26817,1,0,0:0:0:0:
181,33,27051,1,0,0:0:0:0:
262,190,27285,1,8,0:0:0:0:
256,192,27754,12,0,28692,0:0:0:0:
256,192,31856,12,8,32910,0:0:0:0:
192,62,33379,5,4,0:0:0:0:
200,68,34129,1,8,0:0:0:0:
193,63,34879,1,0,0:0:0:0:
177,50,35629,1,8,0:0:0:0:
176,59,36004,1,8,0:0:0:0:
200,68,36379,1,0,0:0:0:0:
178,49,37129,1,8,0:0:0:0:
200,68,37879,1,0,0:0:0:0:
200,68,38629,1,0,0:0:0:0:
200,68,39004,1,8,0:0:0:0:
200,68,39379,1,4,0:0:0:0:
200,68,40129,1,8,0:0:0:0:
198,68,40879,1,0,0:0:0:0:
196,58,41629,1,8,0:0:0:0:
181,49,42004,1,8,0:0:0:0:
198,68,42379,1,0,0:0:0:0:
196,57,43129,1,8,0:0:0:0:
195,57,43879,1,8,0:0:0:0:
196,51,44254,1,8,0:0:0:0:
198,68,44629,1,0,0:0:0:0:
198,68,45004,1,8,0:0:0:0:
198,68,45379,5,4,0:0:0:0:
209,49,46129,1,8,0:0:0:0:
217,41,46504,1,8,0:0:0:0:
209,49,46879,1,0,0:0:0:0:
208,48,47629,1,8,0:0:0:0:
208,48,48379,1,0,0:0:0:0:
209,38,49129,1,0,0:0:0:0:
211,38,49504,1,8,0:0:0:0:
208,48,49879,1,0,0:0:0:0:
200,49,50629,1,8,0:0:0:0:
187,45,51004,1,8,0:0:0:0:
207,48,51379,1,4,0:0:0:0:
206,48,52129,1,8,0:0:0:0:
217,48,52504,1,0,0:0:0:0:
206,48,52879,1,8,0:0:0:0:
206,48,53629,1,8,0:0:0:0:
206,48,54004,1,8,0:0:0:0:
206,48,54379,1,0,0:0:0:0:
206,48,55129,1,8,0:0:0:0:
206,48,55879,1,0,0:0:0:0:
201,41,56254,1,0,0:0:0:0:
201,41,56629,1,8,0:0:0:0:
205,48,57004,1,8,0:0:0:0:
205,48,57379,1,0,0:0:0:0:
205,49,58935,1,8,0:0:0:0:
178,33,59169,1,8,0:0:0:0:
206,53,59403,1,8,0:0:0:0:
205,51,59872,5,4,0:0:0:0:
205,51,60810,1,0,0:0:0:0:
205,51,61747,1,4,0:0:0:0:
205,51,62685,1,0,0:0:0:0:
205,51,63622,1,4,0:0:0:0:
205,51,64091,1,0,0:0:0:0:
205,51,64560,1,0,0:0:0:0:
205,51,65028,1,0,0:0:0:0:
205,51,65497,1,0,0:0:0:0:
205,51,65731,1,0,0:0:0:0:
205,51,65966,1,0,0:0:0:0:
205,51,66200,1,0,0:0:0:0:
181,37,66435,1,8,0:0:0:0:
204,51,67372,5,4,0:0:0:0:
197,63,67841,1,0,0:0:0:0:
197,63,68310,1,8,0:0:0:0:
196,63,68778,1,0,0:0:0:0:
196,63,69013,1,0,0:0:0:0:
196,63,69247,1,8,0:0:0:0:
196,64,69716,1,0,0:0:0:0:
196,63,70185,1,8,0:0:0:0:
196,63,70653,1,8,0:0:0:0:
196,63,70888,1,8,0:0:0:0:
196,63,71122,1,0,0:0:0:0:
196,63,71942,1,0,0:0:0:0:
196,63,72177,1,0,0:0:0:0:
196,63,72411,1,0,0:0:0:0:
188,60,72997,1,8,0:0:0:0:
191,62,73817,1,8,0:0:0:0:
191,62,74052,1,8,0:0:0:0:
191,62,74286,1,8,0:0:0:0:
187,60,74872,1,4,0:0:0:0:
187,60,75341,1,0,0:0:0:0:
187,60,75810,1,8,0:0:0:0:
181,55,76278,1,8,0:0:0:0:
181,37,76513,1,0,0:0:0:0:
181,37,76747,1,8,0:0:0:0:
178,54,77216,1,8,0:0:0:0:
178,54,77685,1,0,0:0:0:0:
184,57,78153,1,8,0:0:0:0:
184,57,78388,1,8,0:0:0:0:
184,57,78622,1,0,0:0:0:0:
176,54,79442,1,0,0:0:0:0:
176,54,79677,1,0,0:0:0:0:
176,54,79911,1,0,0:0:0:0:
174,53,80497,1,8,0:0:0:0:
174,53,80966,1,8,0:0:0:0:
183,37,81200,1,8,0:0:0:0:
256,192,81435,12,0,82372,0:0:0:0:
186,79,83310,5,4,0:0:0:0:
169,68,86591,1,8,0:0:0:0:
169,68,87060,1,0,0:0:0:0:
151,60,87997,1,0,0:0:0:0:
151,60,88935,1,0,0:0:0:0:
168,67,89872,1,8,0:0:0:0:
174,52,90341,1,8,0:0:0:0:
160,63,90575,1,8,0:0:0:0:
162,65,90810,1,0,0:0:0:0:
150,58,91747,1,0,0:0:0:0:
150,58,92216,1,0,0:0:0:0:
150,58,92685,1,0,0:0:0:0:
150,58,93505,1,0,0:0:0:0:
149,58,94091,1,8,0:0:0:0:
139,53,94325,1,8,0:0:0:0:
149,58,94560,1,0,0:0:0:0:
149,58,95497,1,0,0:0:0:0:
139,53,95966,1,0,0:0:0:0:
148,58,96435,1,0,0:0:0:0:
148,58,97255,1,8,0:0:0:0:
131,46,97841,1,8,0:0:0:0:
454,317,98293,5,0,0:0:0:0:
468,289,98519,5,0,0:0:0:0:
475,282,98745,5,0,0:0:0:0:
458,282,99198,5,0,0:0:0:0:
472,314,99651,5,0,0:0:0:0:
457,331,100104,5,0,0:0:0:0:
472,288,100330,5,0,0:0:0:0:
498,291,100557,5,0,0:0:0:0:
476,311,100783,5,0,0:0:0:0:
479,319,101009,5,0,0:0:0:0:
452,315,101915,5,0,0:0:0:0:
492,278,102142,5,0,0:0:0:0:
492,278,102368,5,0,0:0:0:0:
462,339,102821,5,0,0:0:0:0:
492,278,103047,5,0,0:0:0:0:
463,339,103274,5,0,0:0:0:0:
492,278,103500,5,0,0:0:0:0:
467,347,103726,5,0,0:0:0:0:
449,312,104519,5,0,0:0:0:0:
143,53,105538,5,0,0:0:0:0:
157,36,105977,1,8,0:0:0:0:
158,38,106197,1,0,0:0:0:0:
143,53,106417,1,0,0:0:0:0:
156,34,106856,1,8,0:0:0:0:
143,53,107296,1,0,0:0:0:0:
167,21,107735,1,8,0:0:0:0:
136,35,107955,1,8,0:0:0:0:
143,53,108175,1,0,0:0:0:0:
143,53,109054,1,0,0:0:0:0:
161,32,109494,1,8,0:0:0:0:
161,32,109713,1,0,0:0:0:0:
161,32,109933,1,0,0:0:0:0:
151,40,110373,1,8,0:0:0:0:
172,14,110592,1,8,0:0:0:0:
143,52,110812,1,0,0:0:0:0:
151,48,111252,1,0,0:0:0:0:
143,52,111691,1,8,0:0:0:0:
176,12,112104,1,8,0:0:0:0:
160,34,112518,1,0,0:0:0:0:
172,18,112725,1,0,0:0:0:0:
145,20,112932,1,8,0:0:0:0:
143,51,113346,1,0,0:0:0:0:
160,32,113553,1,0,0:0:0:0:
151,46,113759,1,8,0:0:0:0:
166,23,113966,1,8,0:0:0:0:
140,49,114173,1,0,0:0:0:0:
256,192,116656,12,0,118311,0:0:0:0:
