osu file format v14

[General]
AudioFilename: audio.mp3
AudioLeadIn: 0
PreviewTime: 45379
Countdown: 0
SampleSet: Normal
StackLeniency: 0.7
Mode: 1
LetterboxInBreaks: 0
WidescreenStoryboard: 0

[Editor]
DistanceSpacing: 0.1
BeatDivisor: 4
GridSize: 32
TimelineZoom: 2.3

[Metadata]
Title:!!!Chaos Time!!!
TitleUnicode:!!!カオスタイム!!!
Artist:t+pazolite
ArtistUnicode:t+pazolite
Creator:Chromoxx
Version:Inner Oni
Source:太鼓の達人
Tags:ムラサキ taiko no tatsujin murasaki namco original chaostime sing216 nardoxyribonucleic judydanny tasuke912 midnaait
BeatmapID:1053861
BeatmapSetID:494993

[Difficulty]
HPDrainRate:6
CircleSize:5
OverallDifficulty:7
ApproachRate:5
SliderMultiplier:1.4
SliderTickRate:1

[Events]
//Background and Video events
0,0,"chaostime wallpaper.jpg",0,-130
//Break Periods
//Storyboard Layer 0 (Background)
//Storyboard Layer 1 (Fail)
//Storyboard Layer 2 (Pass)
//Storyboard Layer 3 (Foreground)
//Storyboard Sound Samples

[TimingPoints]
6192,234.375,4,1,0,100,1,0
6192,-50,4,1,0,100,0,0
6660,-100,4,1,0,100,0,0
8067,-50,4,1,0,100,0,0
8535,-100,4,1,0,100,0,0
9942,-50,4,1,0,100,0,0
10410,-100,4,1,0,100,0,0
10762,-50,4,1,0,100,0,0
11231,-100,4,1,0,100,0,0
11875,-98.0392156862745,4,1,0,100,0,0
11933,-96.1538461538461,4,1,0,100,0,0
11992,-94.3396226415094,4,1,0,100,0,0
12050,-92.5925925925926,4,1,0,100,0,0
12109,-90.9090909090909,4,1,0,100,0,0
12167,-89.2857142857143,4,1,0,100,0,0
12226,-87.719298245614,4,1,0,100,0,0
12285,-86.2068965517241,4,1,0,100,0,0
12344,-84.7457627118644,4,1,0,100,0,0
12402,-83.3333333333333,4,1,0,100,0,0
12461,-81.9672131147541,4,1,0,100,0,0
12520,-80.6451612903226,4,1,0,100,0,0
12578,-79.3650793650794,4,1,0,100,0,0
12637,-78.125,4,1,0,100,0,0
12695,-76.9230769230769,4,1,0,100,0,0
12754,-75.7575757575758,4,1,0,100,0,0
12871,-78.125,4,1,0,100,0,0
12988,-80.6451612903226,4,1,0,100,0,0
13106,-83.3333333333333,4,1,0,100,0,0
13223,-86.2068965517241,4,1,0,100,0,0
13340,-89.2857142857143,4,1,0,100,0,0
13457,-92.5925925925926,4,1,0,100,0,0
13574,-96.1538461538461,4,1,0,100,0,0
13692,-100,4,1,0,100,0,0
24942,-50,4,1,0,100,0,0
25410,-100,4,1,0,100,0,0
25879,-50,4,1,0,100,0,0
26348,-100,4,1,0,100,0,0
26875,-99.009900990099,4,1,0,100,0,0
26934,-98.0392156862745,4,1,0,100,0,0
26992,-97.0873786407767,4,1,0,100,0,0
27051,-96.1538461538461,4,1,0,100,0,0
27109,-95.2380952380952,4,1,0,100,0,0
27168,-94.3396226415094,4,1,0,100,0,0
27227,-93.4579439252336,4,1,0,100,0,0
27285,-92.5925925925926,4,1,0,100,0,0
27344,-91.743119266055,4,1,0,100,0,0
27402,-90.9090909090909,4,1,0,100,0,0
27461,-90.0900900900901,4,1,0,100,0,0
27520,-89.2857142857143,4,1,0,100,0,0
27578,-88.4955752212389,4,1,0,100,0,0
27637,-87.719298245614,4,1,0,100,0,0
27695,-86.9565217391304,4,1,0,100,0,0
27754,-86.2068965517241,4,1,0,100,0,0
27813,-85.4700854700855,4,1,0,100,0,0
27871,-84.7457627118644,4,1,0,100,0,0
27930,-84.0336134453781,4,1,0,100,0,0
27988,-83.3333333333333,4,1,0,100,0,0
28047,-82.6446280991736,4,1,0,100,0,0
28106,-81.9672131147541,4,1,0,100,0,0
28164,-81.3008130081301,4,1,0,100,0,0
28223,-80.6451612903226,4,1,0,100,0,0
28281,-80,4,1,0,100,0,0
28340,-79.3650793650794,4,1,0,100,0,0
28399,-78.7401574803149,4,1,0,100,0,0
28457,-78.125,4,1,0,100,0,0
28516,-77.5193798449612,4,1,0,100,0,0
28574,-76.9230769230769,4,1,0,100,0,0
28633,-76.3358778625954,4,1,0,100,0,0
28692,-75.7575757575758,4,1,0,100,0,0
28926,-100,4,1,0,100,0,0
33379,375,4,1,0,100,1,0
58879,375,4,1,0,100,1,8
58935,234.375,4,1,0,100,1,0
65556,-98.0392156862745,4,1,0,100,0,0
65614,-96.1538461538461,4,1,0,100,0,0
65673,-94.3396226415094,4,1,0,100,0,0
65731,-92.5925925925926,4,1,0,100,0,0
65790,-90.9090909090909,4,1,0,100,0,0
65849,-89.2857142857143,4,1,0,100,0,0
65907,-87.719298245614,4,1,0,100,0,0
65966,-86.2068965517241,4,1,0,100,0,0
66024,-84.7457627118644,4,1,0,100,0,0
66083,-83.3333333333333,4,1,0,100,0,0
66142,-81.9672131147541,4,1,0,100,0,0
66200,-80.6451612903226,4,1,0,100,0,0
66259,-79.3650793650794,4,1,0,100,0,0
66317,-78.125,4,1,0,100,0,0
66376,-76.9230769230769,4,1,0,100,0,0
66435,-75.7575757575758,4,1,0,100,0,0
66552,-78.125,4,1,0,100,0,0
66669,-80.6451612903226,4,1,0,100,0,0
66786,-83.3333333333333,4,1,0,100,0,0
66903,-86.2068965517241,4,1,0,100,0,0
67138,-50,4,1,0,100,0,0
67372,-100,4,1,0,100,0,1
73817,-100,4,1,0,100,0,0
74872,-100,4,1,0,100,0,1
81493,-98.0392156862745,4,1,0,100,0,1
81552,-96.1538461538461,4,1,0,100,0,1
81610,-94.3396226415094,4,1,0,100,0,1
81669,-92.5925925925926,4,1,0,100,0,1
81727,-90.9090909090909,4,1,0,100,0,1
81786,-89.2857142857143,4,1,0,100,0,1
81845,-87.719298245614,4,1,0,100,0,1
81903,-86.2068965517241,4,1,0,100,0,1
81962,-84.7457627118644,4,1,0,100,0,1
82020,-83.3333333333333,4,1,0,100,0,1
82079,-81.9672131147541,4,1,0,100,0,1
82138,-80.6451612903226,4,1,0,100,0,1
82196,-79.3650793650794,4,1,0,100,0,1
82255,-78.125,4,1,0,100,0,1
82313,-76.9230769230769,4,1,0,100,0,1
82372,-75.7575757575758,4,1,0,100,0,1
82489,-25,4,1,0,100,0,1
83310,-100,4,1,0,100,0,0
86591,-66.6666666666667,4,1,0,100,0,0
87060,-100,4,1,0,100,0,0
97841,226.415094339623,4,1,0,100,1,8
98293,226.415094339623,4,1,0,100,1,1
104519,-100,4,1,0,100,0,0
105538,219.78021978022,4,1,0,100,1,1
111691,206.896551724138,4,1,0,100,1,1
114173,-100,4,1,0,100,0,0
114277,-25,4,1,0,100,0,0
116656,-100,4,1,0,100,0,0

[HitObjects]
128,160,6192,5,4,0:0:0:0:
128,160,6426,1,4,0:0:0:0:
320,224,6660,1,8,0:0:0:0:
320,224,6777,1,8,0:0:0:0:
288,192,7012,1,0,0:0:0:0:
288,256,7246,1,0,0:0:0:0:
288,256,7363,1,8,0:0:0:0:
192,96,7481,1,8,0:0:0:0:
192,96,7598,1,0,0:0:0:0:
192,96,7832,1,8,0:0:0:0:
192,96,8067,1,4,0:0:0:0:
192,96,8301,1,4,0:0:0:0:
192,96,8535,1,8,0:0:0:0:
192,96,8652,1,8,0:0:0:0:
192,96,8887,1,0,0:0:0:0:
192,96,9121,1,8,0:0:0:0:
192,96,9180,1,8,0:0:0:0:
192,96,9238,1,8,0:0:0:0:
192,96,9356,1,8,0:0:0:0:
192,96,9473,1,0,0:0:0:0:
192,96,9590,1,8,0:0:0:0:
192,96,9707,1,0,0:0:0:0:
192,96,9824,1,8,0:0:0:0:
320,224,9942,1,4,0:0:0:0:
320,224,10176,1,4,0:0:0:0:
320,192,10410,1,8,0:0:0:0:
320,192,10527,1,8,0:0:0:0:
160,160,10762,1,4,0:0:0:0:
160,160,10996,1,4,0:0:0:0:
288,256,11231,1,8,0:0:0:0:
288,256,11348,1,8,0:0:0:0:
256,256,11582,1,0,0:0:0:0:
320,256,11817,1,8,0:0:0:0:
320,256,11875,1,8,0:0:0:0:
320,256,11934,1,0,0:0:0:0:
320,256,11992,1,0,0:0:0:0:
320,256,12051,1,8,0:0:0:0:
320,256,12109,1,8,0:0:0:0:
320,256,12168,1,0,0:0:0:0:
320,256,12227,1,0,0:0:0:0:
320,256,12285,1,8,0:0:0:0:
320,256,12344,1,8,0:0:0:0:
320,256,12402,1,0,0:0:0:0:
320,256,12461,1,0,0:0:0:0:
320,256,12520,1,8,0:0:0:0:
320,256,12578,1,8,0:0:0:0:
320,256,12637,1,8,0:0:0:0:
320,256,12695,1,8,0:0:0:0:
320,256,12754,1,0,0:0:0:0:
256,224,12871,1,0,0:0:0:0:
256,224,12988,1,8,0:0:0:0:
256,224,13106,1,8,0:0:0:0:
256,224,13223,1,0,0:0:0:0:
256,224,13340,1,8,0:0:0:0:
256,224,13457,1,8,0:0:0:0:
256,224,13574,1,0,0:0:0:0:
352,288,13692,1,8,0:0:0:0:
160,96,13750,1,8,0:0:0:0:
160,96,13809,1,8,0:0:0:0:
160,96,13926,1,0,0:0:0:0:
160,96,14043,1,0,0:0:0:0:
160,96,14160,1,8,0:0:0:0:
160,96,14277,1,0,0:0:0:0:
160,96,14395,1,8,0:0:0:0:
160,96,14512,1,8,0:0:0:0:
96,128,14629,1,0,0:0:0:0:
96,128,14688,1,0,0:0:0:0:
96,128,14746,1,0,0:0:0:0:
96,128,14863,1,8,0:0:0:0:
96,128,14981,1,0,0:0:0:0:
96,128,15098,1,8,0:0:0:0:
96,128,15215,1,8,0:0:0:0:
96,128,15332,1,0,0:0:0:0:
96,128,15449,1,8,0:0:0:0:
320,224,15567,1,4,0:0:0:0:
256,256,15801,1,8,0:0:0:0:
256,256,15918,1,0,0:0:0:0:
192,160,16035,1,8,0:0:0:0:
256,288,16094,1,8,0:0:0:0:
192,160,16152,1,8,0:0:0:0:
192,160,16270,1,0,0:0:0:0:
192,160,16387,1,8,0:0:0:0:
288,256,16621,1,0,0:0:0:0:
192,192,16738,1,8,0:0:0:0:
192,192,16856,1,8,0:0:0:0:
192,224,16973,1,0,0:0:0:0:
160,224,17207,1,0,0:0:0:0:
160,160,17442,1,8,0:0:0:0:
192,256,17500,1,8,0:0:0:0:
192,256,17559,1,8,0:0:0:0:
160,160,17676,1,0,0:0:0:0:
160,160,17793,1,0,0:0:0:0:
160,160,17910,1,8,0:0:0:0:
160,160,18027,1,0,0:0:0:0:
160,160,18145,1,8,0:0:0:0:
160,160,18262,1,8,0:0:0:0:
160,160,18379,1,0,0:0:0:0:
160,160,18438,1,0,0:0:0:0:
160,160,18496,1,0,0:0:0:0:
256,192,18613,1,8,0:0:0:0:
256,192,18731,1,0,0:0:0:0:
256,192,18848,1,8,0:0:0:0:
256,192,18965,1,8,0:0:0:0:
256,192,19082,1,0,0:0:0:0:
256,192,19199,1,8,0:0:0:0:
237,237,19317,1,4,0:0:0:0:
321,229,19551,1,8,0:0:0:0:
321,229,19668,1,0,0:0:0:0:
321,229,19785,1,8,0:0:0:0:
321,229,19844,1,8,0:0:0:0:
321,229,19902,1,8,0:0:0:0:
321,229,20020,1,0,0:0:0:0:
325,232,20137,1,8,0:0:0:0:
325,232,20371,1,0,0:0:0:0:
325,232,20488,1,8,0:0:0:0:
96,160,20527,1,0,0:0:0:0:
224,160,20567,1,0,0:0:0:0:
325,232,20606,1,8,0:0:0:0:
329,285,20723,1,4,0:0:0:0:
329,285,20957,1,4,0:0:0:0:
346,233,21192,1,8,0:0:0:0:
160,166,21426,1,8,0:0:0:0:
338,242,21582,1,0,0:0:0:0:
338,242,21660,1,8,0:0:0:0:
269,213,21817,1,8,0:0:0:0:
218,153,22051,1,0,0:0:0:0:
296,220,22285,1,0,0:0:0:0:
296,220,22363,1,8,0:0:0:0:
299,224,22520,1,8,0:0:0:0:
301,224,22598,1,0,0:0:0:0:
302,225,22832,1,0,0:0:0:0:
430,266,23067,1,8,0:0:0:0:
430,266,23301,1,8,0:0:0:0:
298,279,23457,1,0,0:0:0:0:
298,279,23535,1,8,0:0:0:0:
215,169,23692,1,8,0:0:0:0:
317,292,23926,1,0,0:0:0:0:
218,244,24160,1,8,0:0:0:0:
235,240,24238,1,0,0:0:0:0:
215,169,24395,1,0,0:0:0:0:
215,169,24473,1,8,0:0:0:0:
233,257,24707,1,0,0:0:0:0:
189,116,24942,1,12,0:0:0:0:
189,116,25176,1,12,0:0:0:0:
319,262,25410,1,0,0:0:0:0:
319,262,25527,1,0,0:0:0:0:
297,283,25645,1,8,0:0:0:0:
297,283,25762,1,0,0:0:0:0:
325,217,25879,1,12,0:0:0:0:
325,217,26113,1,12,0:0:0:0:
330,250,26348,1,0,0:0:0:0:
330,250,26465,1,8,0:0:0:0:
330,250,26582,1,0,0:0:0:0:
330,250,26699,1,0,0:0:0:0:
300,213,26817,1,8,0:0:0:0:
302,213,26875,1,8,0:0:0:0:
306,186,26934,1,8,0:0:0:0:
306,186,26992,1,8,0:0:0:0:
306,186,27051,1,0,0:0:0:0:
306,186,27109,1,0,0:0:0:0:
305,212,27168,1,0,0:0:0:0:
305,212,27227,1,0,0:0:0:0:
305,212,27285,1,8,0:0:0:0:
313,178,27344,1,8,0:0:0:0:
305,212,27402,1,0,0:0:0:0:
305,212,27461,1,0,0:0:0:0:
305,212,27520,1,8,0:0:0:0:
313,178,27578,1,8,0:0:0:0:
220,264,27637,1,8,0:0:0:0:
213,273,27695,1,8,0:0:0:0:
212,260,27754,1,0,0:0:0:0:
274,276,27813,1,0,0:0:0:0:
280,262,27871,1,0,0:0:0:0:
312,133,27930,1,0,0:0:0:0:
312,133,27988,1,0,0:0:0:0:
282,264,28047,1,0,0:0:0:0:
312,133,28106,1,0,0:0:0:0:
312,133,28164,1,0,0:0:0:0:
304,290,28223,1,8,0:0:0:0:
304,290,28281,1,8,0:0:0:0:
304,290,28340,1,8,0:0:0:0:
304,290,28399,1,8,0:0:0:0:
304,290,28457,1,8,0:0:0:0:
304,290,28516,1,8,0:0:0:0:
304,290,28574,1,8,0:0:0:0:
304,290,28633,1,8,0:0:0:0:
304,290,28692,1,0,0:0:0:0:
386,282,28926,1,8,0:0:0:0:
410,287,29160,1,0,0:0:0:0:
410,287,29277,1,0,0:0:0:0:
410,287,29395,1,0,0:0:0:0:
410,287,29512,1,8,0:0:0:0:
320,226,29746,1,8,0:0:0:0:
320,226,29863,1,8,0:0:0:0:
126,124,29981,1,0,0:0:0:0:
135,125,30098,1,0,0:0:0:0:
301,200,30567,1,8,0:0:0:0:
304,194,30801,1,8,0:0:0:0:
295,194,31035,1,0,0:0:0:0:
220,187,31152,1,0,0:0:0:0:
220,187,31270,1,0,0:0:0:0:
220,187,31387,1,8,0:0:0:0:
367,234,31621,1,8,0:0:0:0:
241,178,31738,1,8,0:0:0:0:
241,178,31797,1,8,0:0:0:0:
241,178,31856,1,8,0:0:0:0:
241,178,31914,1,8,0:0:0:0:
241,178,31973,1,8,0:0:0:0:
241,178,32031,1,8,0:0:0:0:
241,178,32090,1,8,0:0:0:0:
241,178,32149,1,8,0:0:0:0:
241,178,32207,1,0,0:0:0:0:
322,228,32442,1,8,0:0:0:0:
322,228,32500,1,8,0:0:0:0:
322,228,32559,1,8,0:0:0:0:
322,228,32617,1,8,0:0:0:0:
368,231,32852,1,8,0:0:0:0:
383,257,33027,1,8,0:0:0:0:
202,186,33262,1,8,0:0:0:0:
260,239,33379,1,4,0:0:0:0:
309,123,33566,1,0,0:0:0:0:
307,96,33660,1,0,0:0:0:0:
293,98,33754,1,8,0:0:0:0:
302,166,33847,1,0,0:0:0:0:
316,180,33941,1,0,0:0:0:0:
310,217,34129,1,8,0:0:0:0:
256,124,34316,1,0,0:0:0:0:
192,162,34410,1,0,0:0:0:0:
191,211,34504,1,8,0:0:0:0:
202,241,34597,1,0,0:0:0:0:
202,241,34785,1,0,0:0:0:0:
194,240,34879,1,8,0:0:0:0:
171,200,34972,1,0,0:0:0:0:
200,251,35066,1,0,0:0:0:0:
200,251,35160,1,0,0:0:0:0:
171,211,35254,1,8,0:0:0:0:
230,182,35441,1,0,0:0:0:0:
230,182,35535,1,0,0:0:0:0:
230,182,35629,1,8,0:0:0:0:
230,182,35722,1,8,0:0:0:0:
230,182,35910,1,0,0:0:0:0:
0,192,36004,2,0,L|32:192,4,17.5
195,170,36379,1,0,0:0:0:0:
203,215,36472,1,0,0:0:0:0:
268,243,36660,1,8,0:0:0:0:
260,243,36847,1,0,0:0:0:0:
235,226,36941,1,0,0:0:0:0:
245,233,37129,1,8,0:0:0:0:
224,160,37222,1,0,0:0:0:0:
224,160,37316,1,0,0:0:0:0:
224,160,37410,1,0,0:0:0:0:
224,160,37504,1,8,0:0:0:0:
224,224,37597,1,0,0:0:0:0:
224,224,37785,1,8,0:0:0:0:
288,224,37972,1,0,0:0:0:0:
288,224,38066,1,0,0:0:0:0:
288,224,38160,1,0,0:0:0:0:
288,224,38254,1,8,0:0:0:0:
288,224,38441,1,0,0:0:0:0:
352,256,38535,1,0,0:0:0:0:
352,256,38629,1,8,0:0:0:0:
352,256,38722,1,0,0:0:0:0:
320,256,38910,1,0,0:0:0:0:
64,160,39004,2,0,L|96:160,4,17.5
288,192,39379,1,4,0:0:0:0:
288,256,39566,1,0,0:0:0:0:
288,256,39660,1,0,0:0:0:0:
224,224,39754,1,8,0:0:0:0:
224,256,39847,1,0,0:0:0:0:
224,224,40035,1,0,0:0:0:0:
224,256,40129,1,8,0:0:0:0:
224,256,40222,1,0,0:0:0:0:
224,256,40316,1,0,0:0:0:0:
224,256,40410,1,0,0:0:0:0:
224,256,40504,1,8,0:0:0:0:
224,256,40597,1,8,0:0:0:0:
256,96,40785,1,8,0:0:0:0:
288,160,40972,1,0,0:0:0:0:
288,160,41066,1,0,0:0:0:0:
256,160,41160,1,0,0:0:0:0:
192,192,41254,1,8,0:0:0:0:
320,192,41441,1,0,0:0:0:0:
320,192,41535,1,0,0:0:0:0:
320,192,41629,1,8,0:0:0:0:
320,224,41722,1,0,0:0:0:0:
320,224,41910,1,0,0:0:0:0:
96,192,42004,2,0,L|128:192,4,17.5
224,160,42379,1,0,0:0:0:0:
224,160,42472,1,0,0:0:0:0:
224,160,42660,1,8,0:0:0:0:
224,160,42847,1,0,0:0:0:0:
224,160,42941,1,0,0:0:0:0:
352,256,43129,1,8,0:0:0:0:
256,256,43222,1,0,0:0:0:0:
288,256,43316,1,0,0:0:0:0:
256,256,43410,1,0,0:0:0:0:
256,256,43504,1,8,0:0:0:0:
256,256,43597,1,0,0:0:0:0:
288,256,43785,1,8,0:0:0:0:
288,256,43879,1,0,0:0:0:0:
256,256,43972,1,0,0:0:0:0:
288,256,44066,1,0,0:0:0:0:
288,256,44160,1,0,0:0:0:0:
288,256,44254,1,8,0:0:0:0:
288,256,44347,1,8,0:0:0:0:
288,256,44441,1,8,0:0:0:0:
288,256,44535,1,8,0:0:0:0:
288,256,44629,1,0,0:0:0:0:
288,256,44722,1,0,0:0:0:0:
288,256,44816,1,0,0:0:0:0:
288,256,44910,1,0,0:0:0:0:
288,256,45004,1,8,0:0:0:0:
288,256,45097,1,8,0:0:0:0:
288,256,45191,1,8,0:0:0:0:
288,256,45379,1,4,0:0:0:0:
160,192,45754,1,8,0:0:0:0:
160,192,45941,1,0,0:0:0:0:
192,160,46129,1,0,0:0:0:0:
192,160,46191,1,0,0:0:0:0:
192,160,46254,1,8,0:0:0:0:
192,160,46316,1,0,0:0:0:0:
192,160,46379,1,8,0:0:0:0:
192,160,46441,1,8,0:0:0:0:
192,160,46504,1,0,0:0:0:0:
192,160,46566,1,0,0:0:0:0:
192,160,46629,1,8,0:0:0:0:
192,160,46691,1,0,0:0:0:0:
192,160,46754,1,8,0:0:0:0:
192,160,46816,1,8,0:0:0:0:
192,160,46879,1,0,0:0:0:0:
288,96,47066,1,8,0:0:0:0:
288,96,47160,1,8,0:0:0:0:
288,96,47254,1,0,0:0:0:0:
320,224,47441,1,0,0:0:0:0:
224,128,47629,1,8,0:0:0:0:
224,128,47691,1,0,0:0:0:0:
224,128,47754,1,8,0:0:0:0:
224,128,47816,1,8,0:0:0:0:
224,128,47879,1,0,0:0:0:0:
256,224,47941,1,8,0:0:0:0:
224,256,48004,1,0,0:0:0:0:
256,192,48191,1,8,0:0:0:0:
384,224,48379,1,0,0:0:0:0:
384,224,48441,1,0,0:0:0:0:
384,224,48504,1,8,0:0:0:0:
384,224,48566,1,0,0:0:0:0:
384,224,48629,1,8,0:0:0:0:
384,224,48691,1,8,0:0:0:0:
384,224,48754,1,0,0:0:0:0:
384,64,48941,1,0,0:0:0:0:
384,64,49035,1,0,0:0:0:0:
384,64,49129,1,8,0:0:0:0:
320,96,49191,1,0,0:0:0:0:
256,192,49254,1,0,0:0:0:0:
288,288,49316,1,8,0:0:0:0:
160,64,49379,1,8,0:0:0:0:
160,128,49441,1,0,0:0:0:0:
256,192,49504,1,8,0:0:0:0:
115,149,49597,1,0,0:0:0:0:
115,149,49691,1,8,0:0:0:0:
261,207,49879,1,0,0:0:0:0:
281,240,49972,1,0,0:0:0:0:
281,240,50066,1,8,0:0:0:0:
283,243,50160,1,8,0:0:0:0:
79,144,50254,1,0,0:0:0:0:
96,128,50316,1,8,0:0:0:0:
160,128,50379,1,8,0:0:0:0:
160,128,50441,1,0,0:0:0:0:
256,128,50535,1,0,0:0:0:0:
256,128,50629,1,8,0:0:0:0:
345,136,50816,1,8,0:0:0:0:
345,136,50879,1,8,0:0:0:0:
345,136,50941,1,8,0:0:0:0:
345,136,51004,1,0,0:0:0:0:
345,136,51191,1,0,0:0:0:0:
345,136,51254,1,0,0:0:0:0:
327,274,51316,1,8,0:0:0:0:
345,136,51379,1,8,0:0:0:0:
182,92,51566,1,0,0:0:0:0:
186,92,51660,1,0,0:0:0:0:
186,92,51754,1,8,0:0:0:0:
188,93,51847,1,0,0:0:0:0:
128,224,51941,1,0,0:0:0:0:
385,220,52129,1,8,0:0:0:0:
334,78,52191,1,8,0:0:0:0:
334,78,52254,1,0,0:0:0:0:
334,78,52316,1,8,0:0:0:0:
334,78,52379,1,0,0:0:0:0:
334,78,52441,1,0,0:0:0:0:
334,78,52504,1,8,0:0:0:0:
332,85,52566,1,8,0:0:0:0:
329,83,52629,1,0,0:0:0:0:
329,83,52691,1,8,0:0:0:0:
437,256,52785,1,0,0:0:0:0:
327,70,52972,1,8,0:0:0:0:
327,72,53066,1,8,0:0:0:0:
323,60,53254,1,0,0:0:0:0:
323,60,53316,1,0,0:0:0:0:
323,60,53379,1,8,0:0:0:0:
323,60,53441,1,0,0:0:0:0:
256,166,53629,1,8,0:0:0:0:
256,166,53691,1,8,0:0:0:0:
256,166,53754,1,0,0:0:0:0:
256,166,53816,1,8,0:0:0:0:
258,171,53910,1,0,0:0:0:0:
258,171,54004,1,8,0:0:0:0:
294,213,54191,1,8,0:0:0:0:
269,190,54379,1,0,0:0:0:0:
269,189,54441,1,0,0:0:0:0:
269,189,54504,1,0,0:0:0:0:
243,178,54566,1,8,0:0:0:0:
332,105,54660,1,0,0:0:0:0:
332,105,54754,1,8,0:0:0:0:
352,256,54941,1,0,0:0:0:0:
384,224,55035,1,0,0:0:0:0:
384,96,55129,1,8,0:0:0:0:
288,32,55191,1,0,0:0:0:0:
288,32,55254,1,0,0:0:0:0:
288,32,55316,1,8,0:0:0:0:
288,32,55379,1,8,0:0:0:0:
288,32,55441,1,0,0:0:0:0:
288,32,55504,1,8,0:0:0:0:
192,256,55597,1,0,0:0:0:0:
224,256,55691,1,8,0:0:0:0:
352,96,55879,1,0,0:0:0:0:
352,96,55972,1,0,0:0:0:0:
352,96,56066,1,8,0:0:0:0:
352,96,56160,1,8,0:0:0:0:
352,96,56254,1,0,0:0:0:0:
384,96,56316,1,8,0:0:0:0:
256,192,56379,1,8,0:0:0:0:
384,96,56441,1,0,0:0:0:0:
160,96,56535,1,0,0:0:0:0:
384,96,56629,1,8,0:0:0:0:
384,96,56816,1,8,0:0:0:0:
384,96,56879,1,8,0:0:0:0:
384,96,56941,1,8,0:0:0:0:
384,96,57004,1,0,0:0:0:0:
384,128,57191,1,0,0:0:0:0:
384,128,57254,1,0,0:0:0:0:
384,128,57316,1,0,0:0:0:0:
384,128,57379,1,8,0:0:0:0:
339,234,57754,1,0,0:0:0:0:
339,234,58129,1,8,0:0:0:0:
339,234,58504,1,8,0:0:0:0:
287,162,58935,1,4,0:0:0:0:
287,162,59169,1,4,0:0:0:0:
287,162,59403,1,12,0:0:0:0:
287,162,59638,1,12,0:0:0:0:
204,202,59872,1,4,0:0:0:0:
272,206,59989,1,0,0:0:0:0:
272,206,60106,1,8,0:0:0:0:
272,206,60224,1,0,0:0:0:0:
272,206,60341,1,8,0:0:0:0:
260,198,60458,1,8,0:0:0:0:
260,198,60575,1,0,0:0:0:0:
260,198,60692,1,0,0:0:0:0:
273,247,60810,1,8,0:0:0:0:
257,235,60868,1,8,0:0:0:0:
274,264,60927,1,8,0:0:0:0:
273,247,61044,1,0,0:0:0:0:
164,153,61161,1,8,0:0:0:0:
164,153,61220,1,8,0:0:0:0:
164,153,61278,1,0,0:0:0:0:
164,153,61395,1,0,0:0:0:0:
164,153,61513,1,8,0:0:0:0:
164,153,61630,1,8,0:0:0:0:
358,262,61747,1,4,0:0:0:0:
229,247,61864,1,0,0:0:0:0:
138,115,61981,1,8,0:0:0:0:
138,115,62099,1,0,0:0:0:0:
138,115,62216,1,8,0:0:0:0:
138,115,62274,1,8,0:0:0:0:
138,115,62333,1,8,0:0:0:0:
138,115,62450,1,0,0:0:0:0:
223,242,62567,1,8,0:0:0:0:
327,246,62685,1,0,0:0:0:0:
215,231,62743,1,0,0:0:0:0:
327,246,62802,1,0,0:0:0:0:
215,231,62919,1,8,0:0:0:0:
233,154,63036,1,0,0:0:0:0:
233,154,63095,1,0,0:0:0:0:
233,154,63153,1,8,0:0:0:0:
233,154,63270,1,0,0:0:0:0:
233,154,63388,1,8,0:0:0:0:
233,154,63505,1,0,0:0:0:0:
250,234,63622,1,8,0:0:0:0:
250,234,63681,1,8,0:0:0:0:
203,188,63739,1,8,0:0:0:0:
203,188,63856,1,0,0:0:0:0:
203,188,63974,1,0,0:0:0:0:
203,188,64091,1,8,0:0:0:0:
203,188,64149,1,8,0:0:0:0:
203,188,64208,1,8,0:0:0:0:
203,188,64325,1,0,0:0:0:0:
291,260,64442,1,8,0:0:0:0:
226,146,64560,1,0,0:0:0:0:
226,146,64618,1,0,0:0:0:0:
226,146,64677,1,0,0:0:0:0:
226,146,64794,1,8,0:0:0:0:
226,146,64911,1,0,0:0:0:0:
226,146,65028,1,0,0:0:0:0:
226,146,65087,1,0,0:0:0:0:
226,146,65145,1,0,0:0:0:0:
226,146,65263,1,8,0:0:0:0:
301,171,65380,1,8,0:0:0:0:
259,269,65497,1,0,0:0:0:0:
225,280,65556,1,0,0:0:0:0:
240,229,65614,1,8,0:0:0:0:
208,219,65673,1,8,0:0:0:0:
274,186,65731,1,0,0:0:0:0:
274,186,65790,1,0,0:0:0:0:
178,259,65849,1,8,0:0:0:0:
183,252,65907,1,8,0:0:0:0:
236,193,65966,1,0,0:0:0:0:
236,193,66024,1,0,0:0:0:0:
202,207,66083,1,0,0:0:0:0:
216,213,66142,1,0,0:0:0:0:
236,193,66200,1,8,0:0:0:0:
208,203,66259,1,8,0:0:0:0:
225,149,66317,1,8,0:0:0:0:
213,161,66376,1,8,0:0:0:0:
230,176,66435,1,0,0:0:0:0:
329,256,66552,1,0,0:0:0:0:
315,290,66669,1,8,0:0:0:0:
315,290,66786,1,8,0:0:0:0:
308,285,66903,1,0,0:0:0:0:
307,285,67138,1,12,0:0:0:0:
320,267,67372,1,4,0:0:0:0:
237,133,67489,1,0,0:0:0:0:
257,129,67548,1,0,0:0:0:0:
257,129,67606,1,8,0:0:0:0:
257,129,67724,1,0,0:0:0:0:
257,129,67782,1,0,0:0:0:0:
257,129,67841,1,8,0:0:0:0:
257,129,67958,1,0,0:0:0:0:
257,129,68075,1,8,0:0:0:0:
235,237,68192,1,8,0:0:0:0:
256,128,68251,1,8,0:0:0:0:
256,128,68310,1,0,0:0:0:0:
340,273,68427,1,0,0:0:0:0:
346,279,68544,1,8,0:0:0:0:
184,142,68661,1,0,0:0:0:0:
184,142,68720,1,0,0:0:0:0:
184,142,68778,1,8,0:0:0:0:
184,142,68895,1,0,0:0:0:0:
184,142,69013,1,8,0:0:0:0:
184,142,69130,1,0,0:0:0:0:
301,268,69247,1,8,0:0:0:0:
301,268,69306,1,8,0:0:0:0:
205,280,69364,1,0,0:0:0:0:
281,207,69481,1,0,0:0:0:0:
281,207,69599,1,8,0:0:0:0:
281,207,69657,1,8,0:0:0:0:
281,207,69716,1,0,0:0:0:0:
281,207,69833,1,0,0:0:0:0:
281,207,69950,1,8,0:0:0:0:
281,207,70009,1,8,0:0:0:0:
281,207,70067,1,0,0:0:0:0:
281,207,70185,1,0,0:0:0:0:
322,272,70302,1,0,0:0:0:0:
212,143,70419,1,8,0:0:0:0:
212,143,70536,1,8,0:0:0:0:
212,143,70653,1,0,0:0:0:0:
241,215,70888,1,8,0:0:0:0:
250,205,71122,1,4,0:0:0:0:
291,210,71239,1,0,0:0:0:0:
291,210,71298,1,0,0:0:0:0:
296,253,71356,1,8,0:0:0:0:
297,223,71474,1,0,0:0:0:0:
297,223,71591,1,0,0:0:0:0:
297,223,71649,1,0,0:0:0:0:
297,223,71708,1,0,0:0:0:0:
297,223,71825,1,8,0:0:0:0:
297,223,71942,1,4,0:0:0:0:
297,224,72177,1,4,0:0:0:0:
389,250,72411,1,12,0:0:0:0:
283,246,72645,1,0,0:0:0:0:
283,246,72704,1,0,0:0:0:0:
283,246,72763,1,8,0:0:0:0:
283,246,72880,1,0,0:0:0:0:
283,246,72997,1,8,0:0:0:0:
336,235,73231,1,0,0:0:0:0:
295,271,73349,1,8,0:0:0:0:
291,263,73407,1,8,0:0:0:0:
288,260,73466,1,0,0:0:0:0:
289,260,73583,1,0,0:0:0:0:
288,259,73700,1,8,0:0:0:0:
288,259,73817,1,4,0:0:0:0:
156,164,74052,1,4,0:0:0:0:
156,164,74286,1,4,0:0:0:0:
158,170,74520,1,12,0:0:0:0:
214,147,74872,1,4,0:0:0:0:
214,147,74989,1,0,0:0:0:0:
214,147,75048,1,0,0:0:0:0:
214,147,75106,1,8,0:0:0:0:
218,150,75224,1,0,0:0:0:0:
218,150,75341,1,8,0:0:0:0:
218,150,75399,1,8,0:0:0:0:
218,150,75458,1,0,0:0:0:0:
218,150,75575,1,8,0:0:0:0:
311,201,75692,1,0,0:0:0:0:
305,221,75751,1,0,0:0:0:0:
291,213,75810,1,0,0:0:0:0:
305,221,75927,1,0,0:0:0:0:
169,156,76044,1,8,0:0:0:0:
169,156,76161,1,0,0:0:0:0:
287,281,76220,1,0,0:0:0:0:
289,273,76278,1,8,0:0:0:0:
296,249,76395,1,0,0:0:0:0:
296,250,76513,1,8,0:0:0:0:
214,144,76630,1,0,0:0:0:0:
236,148,76747,1,8,0:0:0:0:
236,148,76806,1,8,0:0:0:0:
236,148,76864,1,0,0:0:0:0:
238,149,76981,1,0,0:0:0:0:
238,149,77099,1,8,0:0:0:0:
238,149,77157,1,8,0:0:0:0:
238,149,77216,1,0,0:0:0:0:
238,150,77333,1,0,0:0:0:0:
238,150,77450,1,8,0:0:0:0:
238,150,77509,1,8,0:0:0:0:
238,150,77567,1,0,0:0:0:0:
236,148,77685,1,0,0:0:0:0:
316,260,77802,1,0,0:0:0:0:
316,260,77860,1,0,0:0:0:0:
316,260,77919,1,8,0:0:0:0:
450,258,78036,1,8,0:0:0:0:
316,260,78153,1,0,0:0:0:0:
326,237,78388,1,8,0:0:0:0:
224,160,78622,1,4,0:0:0:0:
224,160,78739,1,0,0:0:0:0:
256,224,78798,1,0,0:0:0:0:
224,160,78856,1,8,0:0:0:0:
224,160,78974,1,0,0:0:0:0:
224,160,79091,1,0,0:0:0:0:
224,160,79149,1,0,0:0:0:0:
224,160,79208,1,0,0:0:0:0:
224,160,79325,1,8,0:0:0:0:
224,160,79442,1,4,0:0:0:0:
224,160,79677,1,4,0:0:0:0:
224,160,79911,1,12,0:0:0:0:
256,192,80145,1,0,0:0:0:0:
256,192,80263,1,8,0:0:0:0:
256,192,80380,1,0,0:0:0:0:
256,192,80497,1,8,0:0:0:0:
256,192,80556,1,8,0:0:0:0:
256,192,80614,1,0,0:0:0:0:
256,192,80731,1,8,0:0:0:0:
256,192,80849,1,8,0:0:0:0:
256,192,80966,1,0,0:0:0:0:
160,160,81024,1,0,0:0:0:0:
160,160,81083,1,0,0:0:0:0:
288,224,81200,1,8,0:0:0:0:
128,96,81317,1,0,0:0:0:0:
256,160,81435,1,8,0:0:0:0:
256,160,81493,1,8,0:0:0:0:
256,160,81552,1,8,0:0:0:0:
256,160,81610,1,8,0:0:0:0:
320,224,81669,1,0,0:0:0:0:
320,224,81727,1,0,0:0:0:0:
320,224,81786,1,8,0:0:0:0:
320,224,81845,1,8,0:0:0:0:
320,224,81903,1,0,0:0:0:0:
320,224,81962,1,0,0:0:0:0:
320,224,82020,1,0,0:0:0:0:
320,224,82079,1,0,0:0:0:0:
320,224,82138,1,8,0:0:0:0:
320,224,82196,1,8,0:0:0:0:
320,224,82255,1,8,0:0:0:0:
320,224,82313,1,8,0:0:0:0:
320,224,82372,1,0,0:0:0:0:
256,192,82489,12,0,83192,0:0:0:0:
320,160,83310,5,8,0:0:0:0:
288,160,83544,1,8,0:0:0:0:
160,96,83778,1,0,0:0:0:0:
256,96,83895,1,0,0:0:0:0:
256,96,84013,1,0,0:0:0:0:
256,96,84130,1,8,0:0:0:0:
256,96,84364,1,8,0:0:0:0:
256,96,84481,1,8,0:0:0:0:
256,96,84599,1,0,0:0:0:0:
256,96,84716,1,0,0:0:0:0:
160,128,85185,1,8,0:0:0:0:
160,96,85419,1,8,0:0:0:0:
160,96,85653,1,0,0:0:0:0:
160,96,85770,1,0,0:0:0:0:
160,96,85888,1,0,0:0:0:0:
160,96,86005,1,8,0:0:0:0:
96,192,86591,2,0,L|160:192,4,52.5000020027161
256,160,87060,1,4,0:0:0:0:
256,160,87294,1,8,0:0:0:0:
160,128,87411,1,0,0:0:0:0:
160,160,87528,1,0,0:0:0:0:
192,160,87587,1,0,0:0:0:0:
192,160,87704,1,0,0:0:0:0:
192,160,87763,1,8,0:0:0:0:
352,192,87880,1,0,0:0:0:0:
150,178,87997,1,8,0:0:0:0:
150,175,88056,1,8,0:0:0:0:
150,175,88114,1,0,0:0:0:0:
150,175,88173,1,0,0:0:0:0:
150,175,88231,1,8,0:0:0:0:
151,175,88349,1,0,0:0:0:0:
150,175,88466,1,0,0:0:0:0:
152,172,88524,1,0,0:0:0:0:
153,171,88583,1,0,0:0:0:0:
153,171,88642,1,0,0:0:0:0:
153,171,88700,1,8,0:0:0:0:
359,123,88935,1,0,0:0:0:0:
359,123,89013,1,0,0:0:0:0:
359,123,89091,1,0,0:0:0:0:
359,123,89169,1,8,0:0:0:0:
441,84,89286,1,0,0:0:0:0:
260,131,89403,1,8,0:0:0:0:
260,131,89481,1,0,0:0:0:0:
260,131,89560,1,0,0:0:0:0:
260,131,89638,1,8,0:0:0:0:
293,114,89755,1,8,0:0:0:0:
408,247,89872,1,8,0:0:0:0:
408,247,89931,1,0,0:0:0:0:
406,241,89989,1,0,0:0:0:0:
406,241,90048,1,8,0:0:0:0:
406,241,90106,1,0,0:0:0:0:
406,241,90165,1,0,0:0:0:0:
406,241,90224,1,8,0:0:0:0:
406,241,90282,1,0,0:0:0:0:
406,241,90341,1,8,0:0:0:0:
406,241,90399,1,8,0:0:0:0:
407,240,90458,1,0,0:0:0:0:
407,240,90517,1,8,0:0:0:0:
407,241,90575,1,0,0:0:0:0:
302,206,90810,1,4,0:0:0:0:
251,149,90927,1,8,0:0:0:0:
251,149,90985,1,8,0:0:0:0:
251,149,91044,1,0,0:0:0:0:
251,149,91161,1,8,0:0:0:0:
251,149,91278,1,0,0:0:0:0:
251,149,91337,1,0,0:0:0:0:
251,149,91395,1,8,0:0:0:0:
251,149,91513,1,0,0:0:0:0:
309,264,91630,1,8,0:0:0:0:
307,237,91747,1,0,0:0:0:0:
307,237,91806,1,0,0:0:0:0:
208,216,91864,1,8,0:0:0:0:
307,237,91981,1,0,0:0:0:0:
307,237,92099,1,8,0:0:0:0:
307,237,92157,1,8,0:0:0:0:
307,237,92216,1,0,0:0:0:0:
307,237,92450,1,8,0:0:0:0:
361,256,92685,1,4,0:0:0:0:
188,144,92802,1,0,0:0:0:0:
198,146,92860,1,0,0:0:0:0:
198,146,92919,1,8,0:0:0:0:
200,145,93036,1,0,0:0:0:0:
202,146,93153,1,0,0:0:0:0:
203,146,93212,1,0,0:0:0:0:
203,146,93270,1,0,0:0:0:0:
203,146,93388,1,8,0:0:0:0:
203,146,93505,1,4,0:0:0:0:
256,192,93622,12,0,94442,0:0:0:0:
193,90,94560,5,4,0:0:0:0:
339,211,94677,1,8,0:0:0:0:
339,211,94794,1,0,0:0:0:0:
339,211,94852,1,0,0:0:0:0:
339,211,94911,1,8,0:0:0:0:
339,211,95028,1,0,0:0:0:0:
339,211,95145,1,8,0:0:0:0:
339,211,95204,1,8,0:0:0:0:
339,211,95263,1,0,0:0:0:0:
339,211,95380,1,8,0:0:0:0:
339,211,95497,1,0,0:0:0:0:
339,211,95556,1,0,0:0:0:0:
339,211,95614,1,8,0:0:0:0:
339,211,95673,1,8,0:0:0:0:
339,211,95731,1,0,0:0:0:0:
366,226,95849,1,8,0:0:0:0:
366,226,95966,1,0,0:0:0:0:
360,204,96200,1,8,0:0:0:0:
363,217,96435,1,4,0:0:0:0:
294,186,96552,1,0,0:0:0:0:
294,186,96610,1,0,0:0:0:0:
294,186,96669,1,8,0:0:0:0:
294,186,96786,1,0,0:0:0:0:
294,186,96903,1,8,0:0:0:0:
294,186,96962,1,8,0:0:0:0:
294,186,97020,1,0,0:0:0:0:
294,186,97138,1,0,0:0:0:0:
294,186,97255,1,12,0:0:0:0:
346,217,97606,1,4,0:0:0:0:
346,206,97841,1,12,0:0:0:0:
346,206,98067,1,12,0:0:0:0:
247,185,98293,1,4,0:0:0:0:
131,115,98406,1,8,0:0:0:0:
131,115,98462,1,8,0:0:0:0:
131,115,98519,1,0,0:0:0:0:
137,116,98632,1,8,0:0:0:0:
137,116,98745,1,0,0:0:0:0:
137,116,98802,1,0,0:0:0:0:
137,116,98859,1,8,0:0:0:0:
137,116,98972,1,0,0:0:0:0:
137,116,99085,1,8,0:0:0:0:
138,116,99198,1,0,0:0:0:0:
138,116,99255,1,0,0:0:0:0:
138,117,99311,1,8,0:0:0:0:
138,117,99425,1,0,0:0:0:0:
67,165,99538,1,8,0:0:0:0:
67,165,99594,1,8,0:0:0:0:
67,165,99651,1,0,0:0:0:0:
322,222,99877,1,8,0:0:0:0:
325,254,99991,1,0,0:0:0:0:
202,189,100047,1,0,0:0:0:0:
325,254,100104,1,0,0:0:0:0:
211,194,100217,1,0,0:0:0:0:
213,195,100274,1,0,0:0:0:0:
213,195,100330,1,8,0:0:0:0:
217,199,100443,1,0,0:0:0:0:
217,199,100557,1,0,0:0:0:0:
217,199,100613,1,0,0:0:0:0:
217,199,100670,1,0,0:0:0:0:
217,200,100783,1,8,0:0:0:0:
217,200,100896,1,4,0:0:0:0:
281,162,101123,1,0,0:0:0:0:
281,162,101179,1,0,0:0:0:0:
281,162,101236,1,8,0:0:0:0:
281,162,101349,1,0,0:0:0:0:
281,162,101462,1,0,0:0:0:0:
281,162,101519,1,0,0:0:0:0:
281,162,101576,1,0,0:0:0:0:
281,162,101632,1,0,0:0:0:0:
281,162,101689,1,8,0:0:0:0:
303,207,101915,1,4,0:0:0:0:
344,112,102028,1,8,0:0:0:0:
344,112,102142,1,0,0:0:0:0:
344,112,102198,1,0,0:0:0:0:
344,112,102255,1,8,0:0:0:0:
344,112,102368,1,0,0:0:0:0:
344,112,102481,1,8,0:0:0:0:
344,112,102538,1,8,0:0:0:0:
344,112,102594,1,0,0:0:0:0:
344,112,102708,1,8,0:0:0:0:
344,112,102821,1,0,0:0:0:0:
344,112,102877,1,0,0:0:0:0:
344,112,102934,1,8,0:0:0:0:
344,112,102991,1,8,0:0:0:0:
344,112,103047,1,0,0:0:0:0:
344,112,103160,1,0,0:0:0:0:
344,112,103274,1,8,0:0:0:0:
320,192,103500,1,0,0:0:0:0:
384,256,103613,1,0,0:0:0:0:
160,160,103670,1,0,0:0:0:0:
384,256,103726,1,0,0:0:0:0:
160,160,103840,1,0,0:0:0:0:
160,160,103896,1,0,0:0:0:0:
160,160,103953,1,8,0:0:0:0:
160,160,104066,1,0,0:0:0:0:
160,160,104179,1,0,0:0:0:0:
160,160,104236,1,0,0:0:0:0:
160,160,104293,1,0,0:0:0:0:
160,160,104406,1,8,0:0:0:0:
160,160,104519,1,4,0:0:0:0:
288,224,104859,1,4,0:0:0:0:
128,128,105085,1,12,0:0:0:0:
128,128,105311,1,12,0:0:0:0:
128,128,105538,1,4,0:0:0:0:
256,128,105647,1,8,0:0:0:0:
256,128,105702,1,8,0:0:0:0:
256,128,105757,1,0,0:0:0:0:
256,128,105867,1,8,0:0:0:0:
256,128,105977,1,0,0:0:0:0:
256,128,106032,1,0,0:0:0:0:
256,128,106087,1,0,0:0:0:0:
256,128,106142,1,0,0:0:0:0:
256,128,106197,1,8,0:0:0:0:
256,192,106307,1,0,0:0:0:0:
288,224,106417,1,0,0:0:0:0:
288,224,106472,1,0,0:0:0:0:
288,224,106527,1,8,0:0:0:0:
288,224,106581,1,0,0:0:0:0:
288,224,106636,1,8,0:0:0:0:
288,256,106691,1,8,0:0:0:0:
288,256,106746,1,0,0:0:0:0:
288,256,106801,1,0,0:0:0:0:
288,256,106856,1,8,0:0:0:0:
352,256,106966,1,0,0:0:0:0:
352,256,107076,1,8,0:0:0:0:
256,224,107131,1,8,0:0:0:0:
256,224,107186,1,0,0:0:0:0:
256,288,107296,1,8,0:0:0:0:
416,192,107406,1,0,0:0:0:0:
416,192,107461,1,0,0:0:0:0:
416,192,107516,1,8,0:0:0:0:
384,224,107625,1,8,0:0:0:0:
384,224,107735,1,0,0:0:0:0:
384,224,107790,1,0,0:0:0:0:
384,224,107845,1,0,0:0:0:0:
384,224,107900,1,0,0:0:0:0:
384,224,107955,1,8,0:0:0:0:
320,224,108065,1,8,0:0:0:0:
320,224,108175,1,4,0:0:0:0:
320,224,108395,1,0,0:0:0:0:
320,224,108614,1,8,0:0:0:0:
64,128,108834,1,8,0:0:0:0:
352,224,109054,1,8,0:0:0:0:
352,192,109109,1,8,0:0:0:0:
352,192,109164,1,8,0:0:0:0:
352,192,109219,1,0,0:0:0:0:
352,192,109274,1,0,0:0:0:0:
352,192,109384,1,8,0:0:0:0:
288,224,109494,1,0,0:0:0:0:
288,224,109548,1,0,0:0:0:0:
256,224,109603,1,8,0:0:0:0:
256,224,109658,1,8,0:0:0:0:
256,224,109713,1,0,0:0:0:0:
256,224,109823,1,8,0:0:0:0:
160,192,109933,1,0,0:0:0:0:
320,224,109988,1,8,0:0:0:0:
320,224,110043,1,8,0:0:0:0:
320,224,110098,1,0,0:0:0:0:
320,224,110153,1,8,0:0:0:0:
320,224,110208,1,8,0:0:0:0:
320,224,110263,1,0,0:0:0:0:
320,224,110318,1,0,0:0:0:0:
320,224,110373,1,8,0:0:0:0:
320,256,110483,1,0,0:0:0:0:
320,256,110592,1,8,0:0:0:0:
288,256,110647,1,0,0:0:0:0:
320,256,110702,1,8,0:0:0:0:
288,224,110812,1,0,0:0:0:0:
288,160,110867,1,0,0:0:0:0:
288,160,110922,1,8,0:0:0:0:
288,160,110977,1,0,0:0:0:0:
288,160,111032,1,8,0:0:0:0:
288,160,111087,1,8,0:0:0:0:
288,192,111142,1,0,0:0:0:0:
288,192,111197,1,0,0:0:0:0:
288,192,111252,1,8,0:0:0:0:
288,192,111307,1,0,0:0:0:0:
288,192,111362,1,8,0:0:0:0:
288,192,111417,1,8,0:0:0:0:
288,192,111472,1,0,0:0:0:0:
288,192,111527,1,0,0:0:0:0:
288,192,111581,1,8,0:0:0:0:
288,192,111636,1,8,0:0:0:0:
288,192,111691,1,0,0:0:0:0:
320,224,111794,1,0,0:0:0:0:
320,224,111897,1,8,0:0:0:0:
320,224,112001,1,8,0:0:0:0:
320,224,112104,1,0,0:0:0:0:
320,192,112208,1,0,0:0:0:0:
288,160,112311,1,8,0:0:0:0:
288,160,112415,1,0,0:0:0:0:
320,224,112518,1,8,0:0:0:0:
320,224,112622,1,0,0:0:0:0:
320,224,112725,1,8,0:0:0:0:
320,224,112828,1,8,0:0:0:0:
320,224,112932,1,0,0:0:0:0:
320,224,113035,1,0,0:0:0:0:
320,224,113139,1,8,0:0:0:0:
320,224,113242,1,0,0:0:0:0:
352,192,113346,1,12,0:0:0:0:
320,192,113553,1,4,0:0:0:0:
352,192,113759,1,12,0:0:0:0:
352,192,113966,1,12,0:0:0:0:
352,192,114173,1,4,0:0:0:0:
256,192,114277,12,0,116553,0:0:0:0:
256,128,116656,5,0,0:0:0:0:
256,128,116708,1,0,0:0:0:0:
288,128,116759,1,0,0:0:0:0:
288,96,116811,1,0,0:0:0:0:
320,96,116863,1,0,0:0:0:0:
320,96,116915,1,0,0:0:0:0:
320,96,116966,1,0,0:0:0:0:
352,96,117018,1,0,0:0:0:0:
352,96,117070,1,0,0:0:0:0:
352,96,117122,1,0,0:0:0:0:
384,96,117173,1,0,0:0:0:0:
384,96,117225,1,0,0:0:0:0:
384,96,117277,1,0,0:0:0:0:
384,96,117328,1,0,0:0:0:0:
384,96,117380,1,0,0:0:0:0:
416,96,117432,1,0,0:0:0:0:
416,96,117484,1,0,0:0:0:0:
416,96,117535,1,0,0:0:0:0:
416,96,117587,1,0,0:0:0:0:
416,96,117639,1,0,0:0:0:0:
416,96,117691,1,0,0:0:0:0:
416,96,117742,1,0,0:0:0:0:
416,96,117794,1,0,0:0:0:0:
416,96,117846,1,0,0:0:0:0:
416,96,117897,1,0,0:0:0:0:
416,96,117949,1,0,0:0:0:0:
416,96,118001,1,0,0:0:0:0:
416,96,118053,1,0,0:0:0:0:
416,96,118104,1,0,0:0:0:0:
416,96,118156,1,0,0:0:0:0:
416,96,118208,1,0,0:0:0:0:
416,96,118259,1,0,0:0:0:0:
416,96,118311,1,0,0:0:0:0:
