osu file format v14

[General]
AudioFilename: audio.mp3
AudioLeadIn: 0
PreviewTime: 168984
Countdown: 1
SampleSet: Soft
StackLeniency: 0.3
Mode: 0
LetterboxInBreaks: 0
WidescreenStoryboard: 1

[Editor]
Bookmarks: 18467,24984,36984,48984,60984,72984,74765,96984,117234,120984,144984,156984,168984,192984,216984,240984,264984
DistanceSpacing: 1.5
BeatDivisor: 4
GridSize: 4
TimelineZoom: 2.499999

[Metadata]
Title:Chambarising
TitleUnicode:Chambarising
Artist:t+pazolite with siromaru
ArtistUnicode:t+pazolite with siromaru
Creator:Renumi
Version:Advanced
Source:
Tags:絢爛喧騒オリエント oriental instrumental electronic schranz j-core c.h.s. cutie headshaking sounds beauty-noizy-orient Kenran Kensou Oriental featured artist mappers' guild mpg fa
BeatmapID:4461982
BeatmapSetID:1969979

[Difficulty]
HPDrainRate:5
CircleSize:3.7
OverallDifficulty:5
ApproachRate:7
SliderMultiplier:1.1
SliderTickRate:1

[Events]
//Background and Video events
0,0,"bg.jpg",0,0
//Break Periods
2,120984,137784
//Storyboard Layer 0 (Background)
//Storyboard Layer 1 (Fail)
//Storyboard Layer 2 (Pass)
//Storyboard Layer 3 (Foreground)
//Storyboard Layer 4 (Overlay)
//Storyboard Sound Samples

[TimingPoints]
1023,750,4,2,1,35,1,0
1023,-71.4285714285715,4,2,1,35,0,0
23523,730.593607305936,4,2,1,35,1,0
24984,375,4,2,1,65,1,0
36984,-100,4,2,1,65,0,0
48984,-100,4,2,1,90,0,0
72984,-90.9090909090909,4,2,1,90,0,0
96984,-100,4,2,1,90,0,0
138984,-100,4,2,1,5,0,0
139077,-100,4,2,1,6,0,0
139171,-100,4,2,1,7,0,0
139265,-100,4,2,1,8,0,0
139359,-100,4,2,1,9,0,0
139453,-100,4,2,1,10,0,0
139546,-100,4,2,1,11,0,0
139641,-100,4,2,1,12,0,0
139735,-100,4,2,1,13,0,0
139828,-100,4,2,1,14,0,0
139922,-100,4,2,1,15,0,0
140016,-100,4,2,1,16,0,0
140110,-100,4,2,1,17,0,0
140204,-100,4,2,1,18,0,0
140298,-100,4,2,1,19,0,0
140392,-100,4,2,1,20,0,0
140486,-100,4,2,1,21,0,0
140579,-100,4,2,1,22,0,0
140673,-100,4,2,1,23,0,0
140767,-100,4,2,1,24,0,0
140861,-100,4,2,1,25,0,0
140955,-100,4,2,1,26,0,0
141049,-100,4,2,1,27,0,0
141143,-100,4,2,1,28,0,0
141237,-100,4,2,1,29,0,0
141330,-100,4,2,1,30,0,0
141424,-100,4,2,1,31,0,0
141518,-100,4,2,1,32,0,0
141612,-100,4,2,1,33,0,0
141706,-100,4,2,1,34,0,0
141800,-100,4,2,1,35,0,0
141894,-100,4,2,1,36,0,0
141988,-100,4,2,1,37,0,0
142081,-100,4,2,1,38,0,0
142175,-100,4,2,1,39,0,0
142269,-100,4,2,1,40,0,0
142363,-100,4,2,1,41,0,0
142457,-100,4,2,1,42,0,0
142551,-100,4,2,1,43,0,0
142645,-100,4,2,1,44,0,0
142739,-100,4,2,1,45,0,0
142832,-100,4,2,1,46,0,0
142926,-100,4,2,1,47,0,0
143020,-100,4,2,1,48,0,0
143114,-100,4,2,1,49,0,0
143208,-100,4,2,1,50,0,0
143302,-100,4,2,1,51,0,0
143396,-100,4,2,1,52,0,0
143490,-100,4,2,1,53,0,0
143583,-100,4,2,1,54,0,0
143677,-100,4,2,1,55,0,0
143771,-100,4,2,1,56,0,0
143865,-100,4,2,1,57,0,0
143959,-100,4,2,1,58,0,0
144046,-100,4,2,1,59,0,0
144140,-100,4,2,1,60,0,0
144234,-100,4,2,1,61,0,0
144984,-100,4,2,1,65,0,0
156984,-100,4,2,1,85,0,0
168984,-90.9090909090909,4,2,1,90,0,1
192609,-90.9090909090909,4,2,1,90,0,0
192984,-90.9090909090909,4,2,1,90,0,1
216984,-100,4,2,1,90,0,0
240984,-90.9090909090909,4,2,1,90,0,0
264984,-90.9090909090909,4,2,1,65,0,0

[Colours]
Combo1 : 92,207,138
Combo2 : 243,71,71
Combo3 : 189,251,98
Combo4 : 145,124,237

[HitObjects]
511,319,1023,6,0,B|410:300|337:275|337:275|308:255|308:255|269:270|269:270|242:267|214:255,1,307.999990600586,2|2,2:0|2:0,2:0:0:0:
137,108,3273,1,0,2:0:0:0:
270,6,4023,2,0,P|329:41|421:29,1,153.999995300293,2|2,2:0|2:0,2:0:0:0:
494,14,5148,1,0,2:0:0:0:
495,98,5523,1,2,2:0:0:0:
193,252,7023,6,0,P|183:222|164:89,1,153.999995300293,2|0,2:0|2:0,2:0:0:0:
347,101,8523,2,0,B|342:150|333:178|333:178|340:203|340:203|329:224|319:252,1,153.999995300293,2|0,2:0|2:0,2:0:0:0:
176,338,10023,2,0,P|99:340|113:218,1,230.99999295044,2|0,2:0|2:0,2:0:0:0:
193,252,11523,1,2,2:0:0:0:
426,6,13023,6,0,B|426:65|418:161|418:161|434:187|434:187|419:206|419:206|427:254|419:312,1,307.999990600586,2|2,2:0|2:0,2:0:0:0:
258,354,15273,1,0,2:0:0:0:
108,274,16023,2,0,P|104:208|116:106,1,153.999995300293,2|2,2:0|2:0,2:0:0:0:
161,51,17148,1,0,2:0:0:0:
245,57,17523,1,2,2:0:0:0:
325,358,19023,6,0,P|407:369|494:360,1,153.999995300293,2|0,2:0|2:0,2:0:0:0:
489,194,20523,2,0,B|433:196|433:196|415:183|415:183|402:192|402:192|368:184|326:181,1,153.999995300293,2|0,2:0|2:0,2:0:0:0:
185,245,22023,2,0,P|161:170|196:18,1,230.99999295044,2|0,2:0|2:0,2:0:0:0:
276,30,23523,1,0,0:0:0:0:
305,1,24984,6,0,P|298:47|294:95,1,82.5,6|0,2:0|2:0,0:0:0:0:
219,133,25546,1,0,2:0:0:0:
219,133,25734,2,0,P|236:176|256:219,1,82.5,2|0,2:0|2:0,0:0:0:0:
211,290,26296,1,0,2:0:0:0:
211,290,26484,2,0,P|247:318|286:346,1,82.5,2|0,2:0|2:0,0:0:0:0:
371,335,27046,1,0,2:0:0:0:
371,335,27234,2,0,L|393:393,2,55,2|0|2,2:0|2:0|2:0,0:0:0:0:
322,224,27984,6,0,P|280:215|232:200,1,82.5,2|0,2:0|2:0,0:0:0:0:
168,248,28546,1,0,2:0:0:0:
168,248,28734,2,0,P|136:219|102:182,1,82.5,2|0,2:0|2:0,0:0:0:0:
22,192,29296,1,0,2:0:0:0:
22,192,29484,2,0,P|8:151|-2:102,1,82.5,2|0,2:0|2:0,0:0:0:0:
66,51,30046,1,0,2:0:0:0:
66,51,30234,2,0,P|77:17|85:-22,2,55,2|0|2,2:0|2:0|2:0,0:0:0:0:
120,159,30984,6,0,L|215:142,1,82.5,2|0,2:0|2:0,0:0:0:0:
266,207,31546,1,0,2:0:0:0:
266,207,31734,2,0,L|353:165,1,82.5,2|0,2:0|2:0,0:0:0:0:
420,215,32296,1,0,2:0:0:0:
420,215,32484,2,0,L|493:152,1,82.5,2|0,2:0|2:0,0:0:0:0:
457,79,33046,1,0,2:0:0:0:
457,79,33234,2,0,L|469:18,2,55,2|0|2,2:0|2:0|2:0,0:0:0:0:
334,89,33984,6,0,L|342:191,1,82.5,2|0,2:0|2:0,0:0:0:0:
262,217,34546,1,0,2:0:0:0:
262,217,34734,2,0,L|296:313,1,82.5,2|0,2:0|2:0,0:0:0:0:
240,372,35296,1,0,2:0:0:0:
240,372,35484,2,0,L|193:303,1,82.5,2|0,2:0|2:0,0:0:0:0:
123,255,36046,1,0,2:0:0:0:
123,255,36234,2,0,L|47:242,2,55,2|0|2,2:0|2:0|2:0,0:0:0:0:
228,196,36984,6,0,P|242:145|220:79,1,110,14|8,3:2|2:0,2:0:0:0:
104,95,37734,1,10,2:0:0:0:
70,213,38109,1,8,2:0:0:0:
172,282,38484,1,10,2:0:0:0:
269,206,38859,1,8,2:0:0:0:
227,90,39234,2,0,L|211:24,2,55,10|2|10,2:0|2:0|2:0,0:0:0:0:
285,106,39796,1,10,2:0:0:0:
285,106,39984,6,0,P|341:108|410:86,1,110,10|8,2:0|2:0,2:0:0:0:
478,179,40734,1,10,2:0:0:0:
512,297,41109,1,8,2:0:0:0:
410,366,41484,1,10,2:0:0:0:
313,290,41859,1,8,2:0:0:0:
355,174,42234,2,0,P|363:147|371:108,1,55,10|2,2:0|2:0,0:0:0:0:
347,64,42609,2,0,P|320:56|281:48,1,55,10|10,2:0|2:0,0:0:0:0:
240,21,42984,5,10,2:0:0:0:
119,28,43359,1,8,2:0:0:0:
18,95,43734,1,10,2:0:0:0:
25,216,44109,1,8,2:0:0:0:
92,317,44484,1,10,2:0:0:0:
213,310,44859,1,8,2:0:0:0:
314,243,45234,2,0,L|287:167,1,55,10|8,2:0|2:0,0:0:0:0:
249,152,45609,2,0,P|259:122|276:76,1,55,10|10,2:0|2:0,0:0:0:0:
300,49,45984,6,0,P|331:52|374:65,1,55,10|8,2:0|2:0,2:0:0:0:
403,102,46359,1,10,2:0:0:0:
398,222,46734,2,0,P|367:219|324:206,1,55,10|8,2:0|2:0,2:0:0:0:
295,169,47109,1,10,2:0:0:0:
191,106,47484,2,0,B|159:119|159:119|131:110|131:110|105:124|22:103,1,165,10|8,2:1|2:1,2:0:0:0:
0,160,48234,1,2,2:3:0:0:
1,280,48609,1,6,2:0:0:0:
89,362,48984,6,0,B|122:375|122:375|208:357,1,110,6|2,3:0|2:3,2:0:0:0:
223,308,49546,1,2,2:0:0:0:
279,285,49734,2,0,B|312:272|312:272|398:290,1,110,2|2,2:3|2:3,2:0:0:0:
466,377,50484,2,0,P|496:336|513:275,1,110,2|2,2:3|2:3,2:0:0:0:
479,229,51046,1,2,2:0:0:0:
457,172,51234,2,0,P|471:119|503:74,1,110,2|2,2:3|2:3,2:0:0:0:
397,15,51984,5,2,2:3:0:0:
316,105,52359,2,0,P|320:136|329:163,2,55,2|2|2,2:3|2:0|2:3,0:0:0:0:
206,52,53109,2,0,P|210:20|219:-6,2,55,2|2|2,2:3|2:0|2:3,0:0:0:0:
105,120,53859,2,0,P|109:151|118:178,1,55,2|2,2:3|2:0,0:0:0:0:
164,210,54234,1,2,1:3:0:0:
107,317,54609,1,2,1:3:0:0:
10,248,54984,6,0,B|18:207|18:207|0:117,1,110,2|2,2:3|2:3,2:0:0:0:
18,81,55546,1,2,2:0:0:0:
73,57,55734,2,0,B|114:65|114:65|204:47,1,110,2|2,2:3|2:3,2:0:0:0:
294,9,56484,2,0,P|327:61|343:133,1,110,2|2,2:3|2:3,2:0:0:0:
342,167,57046,1,2,2:0:0:0:
389,205,57234,2,0,P|441:188|487:158,1,110,2|2,2:3|2:3,2:0:0:0:
467,277,57984,5,2,2:3:0:0:
354,322,58359,2,0,P|319:332|289:352,2,55,2|2|2,2:3|2:0|2:3,0:0:0:0:
389,205,59109,2,0,P|423:194|453:174,1,55,2|2,2:3|2:0,0:0:0:0:
482,142,59484,2,0,B|469:88|469:88|486:29,1,110,2|2,1:3|1:3,2:0:0:0:
368,1,60234,1,2,1:3:0:0:
250,29,60609,2,0,L|251:83,1,55,2|8,1:3|1:0,2:0:0:0:
226,139,60984,6,0,P|176:152|112:150,1,110,6|2,3:0|2:3,2:0:0:0:
83,101,61546,1,2,2:0:0:0:
52,48,61734,2,0,P|24:49|-1:56,2,55,2|0|2,2:3|2:0|2:3,2:0:0:0:
23,165,62484,2,0,B|11:219|11:219|28:271,1,110,2|2,2:3|2:3,2:0:0:0:
78,305,63046,1,2,2:0:0:0:
136,321,63234,2,0,P|166:313|192:303,2,55,2|0|2,2:3|2:0|2:3,2:0:0:0:
140,199,63984,6,0,P|199:177|260:161,1,110,2|2,2:3|2:3,2:0:0:0:
302,183,64546,1,2,2:0:0:0:
355,211,64734,2,0,P|370:239|380:267,2,55,2|0|2,2:3|2:0|2:3,2:0:0:0:
347,90,65484,1,2,2:3:0:0:
467,74,65859,2,0,P|476:99|490:123,1,55,2|2,2:3|2:0,2:0:0:0:
481,183,66234,1,2,1:3:0:0:
508,300,66609,1,2,1:3:0:0:
400,354,66984,6,0,B|366:331|366:331|283:322,1,110,2|2,2:3|2:3,2:0:0:0:
241,345,67546,1,2,2:0:0:0:
183,364,67734,2,0,P|149:360|111:345,2,55,2|0|2,2:3|2:0|2:3,2:0:0:0:
225,250,68484,2,0,P|235:207|223:135,1,110,2|2,2:3|2:3,2:0:0:0:
193,91,69046,1,2,2:0:0:0:
140,60,69234,2,0,L|146:5,2,55,2|0|2,2:3|2:0|2:3,2:0:0:0:
37,125,69984,6,0,P|27:178|38:232,1,110,2|2,2:3|2:3,2:0:0:0:
84,270,70546,1,2,2:0:0:0:
130,309,70734,2,0,L|194:302,1,55,2|2,1:3|1:3,2:0:0:0:
231,341,71109,2,0,L|295:334,1,55,2|2,1:3|1:3,2:0:0:0:
327,290,71484,1,2,1:3:0:0:
426,220,71859,2,0,L|494:225,2,55,2|2|2,2:1|1:3|1:3,0:0:0:0:
364,115,72609,1,2,2:1:0:0:
233,138,72984,6,0,B|199:144|199:144|125:126,1,90.7500027694703,6|0,3:0|2:0,2:0:0:0:
59,89,73546,1,2,2:0:0:0:
59,89,73734,2,0,B|65:123|65:123|47:197,1,90.7500027694703,2|0,2:3|2:0,2:0:0:0:
10,263,74296,1,2,2:0:0:0:
10,263,74484,2,0,B|44:257|44:257|118:275,1,90.7500027694703,2|0,2:3|2:0,2:0:0:0:
179,337,75046,1,2,2:0:0:0:
179,337,75234,2,0,B|234:356|234:356|311:343,1,121.000003692627,2|2,2:3|2:3,2:0:0:0:
387,249,75984,6,0,P|348:234|284:232,1,90.7500027694703,2|0,2:3|2:0,2:0:0:0:
199,223,76546,1,2,2:0:0:0:
199,223,76734,2,0,P|214:184|216:120,1,90.7500027694703,2|0,2:3|2:0,2:0:0:0:
225,35,77296,1,2,2:0:0:0:
225,35,77484,2,0,P|264:50|328:52,1,90.7500027694703,2|0,2:3|2:0,2:0:0:0:
413,61,78046,1,2,2:0:0:0:
413,61,78234,2,0,P|402:88|401:132,2,60.5000018463135,2|8|2,1:3|1:0|1:3,2:0:0:0:
486,172,78984,6,0,B|500:209|500:209|486:260,1,90.7500027694703,2|0,2:3|2:0,2:0:0:0:
430,341,79546,1,2,2:0:0:0:
430,341,79734,2,0,B|393:355|393:355|342:341,1,90.7500027694703,2|0,2:3|2:0,2:0:0:0:
261,285,80296,1,2,2:0:0:0:
261,285,80484,2,0,B|247:248|247:248|261:197,1,90.7500027694703,2|0,2:3|2:0,2:0:0:0:
317,116,81046,1,2,2:0:0:0:
317,116,81234,2,0,B|370:95|370:95|443:116,1,121.000003692627,2|2,2:3|2:3,2:0:0:0:
348,217,81984,6,0,P|296:210|242:189,1,90.7500027694703,2|0,2:3|2:0,2:0:0:0:
194,130,82546,1,2,2:0:0:0:
194,130,82734,2,0,P|142:137|88:158,1,90.7500027694703,2|0,2:3|2:0,2:0:0:0:
35,220,83296,1,2,2:0:0:0:
34,220,83484,2,0,P|16:286|40:338,2,121.000003692627,2|2|2,1:3|1:3|1:3,2:0:0:0:
164,247,84609,2,0,L|161:321,1,60.5000018463135,2|8,1:3|1:0,2:0:0:0:
212,351,84984,6,0,P|264:344|318:323,1,90.7500027694703,6|0,3:0|2:0,2:0:0:0:
329,239,85546,1,2,2:0:0:0:
329,239,85734,2,0,P|370:206|406:161,1,90.7500027694703,2|0,2:3|2:0,2:0:0:0:
374,85,86296,1,2,2:0:0:0:
374,85,86484,2,0,P|393:36|402:-20,1,90.7500027694703,2|0,2:3|2:0,2:0:0:0:
305,10,87046,1,2,2:0:0:0:
305,10,87234,2,0,P|279:71|268:144,1,121.000003692627,2|2,2:3|2:3,2:0:0:0:
182,226,87984,6,0,B|137:234|137:234|72:212,1,90.7500027694703,2|0,2:3|2:0,2:0:0:0:
13,309,88546,1,2,2:0:0:0:
13,309,88734,2,0,B|58:301|58:301|123:323,1,90.7500027694703,2|0,2:3|2:0,2:0:0:0:
203,328,89296,1,2,2:0:0:0:
203,328,89484,2,0,B|245:342|245:342|290:334,1,90.7500027694703,2|0,2:3|2:0,2:0:0:0:
381,293,90046,1,2,2:0:0:0:
381,293,90234,2,0,L|457:298,2,60.5000018463135,2|8|2,1:3|1:0|1:3,2:0:0:0:
261,235,90984,6,0,P|213:207|161:195,1,90.7500027694703,2|0,3:0|2:0,2:0:0:0:
83,209,91546,1,2,2:0:0:0:
83,209,91734,2,0,P|55:161|43:109,1,90.7500027694703,2|0,2:3|2:0,2:0:0:0:
95,23,92296,1,2,2:0:0:0:
95,23,92484,2,0,P|123:71|135:123,1,90.7500027694703,2|0,2:3|2:0,2:0:0:0:
179,197,93046,1,2,2:0:0:0:
179,197,93234,2,0,P|168:250|136:328,1,121.000003692627,2|2,2:3|2:3,2:0:0:0:
266,366,93984,6,0,B|307:347|307:347|371:356,1,90.7500027694703,2|0,2:3|2:0,2:0:0:0:
455,367,94546,1,2,2:0:0:0:
455,367,94734,2,0,L|445:302,1,60.5000018463135,2|2,1:3|1:3,2:0:0:0:
395,263,95109,2,0,L|405:198,1,60.5000018463135,2|2,1:3|1:3,2:0:0:0:
464,175,95484,2,0,P|453:126|400:67,1,121.000003692627,2|2,1:3|2:1,2:0:0:0:
299,141,96234,1,2,1:3:0:0:
174,94,96609,2,0,L|164:153,1,60.5000018463135,2|0,2:1|2:1,2:0:0:0:
111,182,96984,6,0,P|114:238|125:307,1,110,6|2,1:3|2:3,2:0:0:0:
165,340,97546,1,2,2:3:0:0:
165,340,97734,1,8,2:0:0:0:
258,263,98109,1,2,2:3:0:0:
360,336,98484,1,2,2:3:0:0:
360,336,98671,2,0,B|395:340|395:340|463:323,2,82.5,0|0|8,2:0|2:0|2:0,2:0:0:0:
258,263,99609,1,2,2:0:0:0:
276,143,99984,6,0,P|298:111|379:80,1,110,6|2,1:3|2:3,2:0:0:0:
424,96,100546,1,2,2:3:0:0:
424,96,100734,1,8,2:0:0:0:
472,206,101109,1,2,2:3:0:0:
381,285,101484,1,2,2:3:0:0:
381,285,101671,2,0,B|377:320|377:320|394:388,2,82.5,0|0|2,2:0|2:0|1:3,2:0:0:0:
258,263,102609,1,2,1:3:0:0:
158,332,102984,6,0,P|97:351|37:327,1,110,6|2,1:3|2:3,2:0:0:0:
16,299,103546,1,2,2:3:0:0:
16,299,103734,1,8,2:0:0:0:
87,201,104109,1,2,2:3:0:0:
26,102,104484,1,2,2:3:0:0:
26,102,104671,2,0,B|17:60|17:60|30:4,2,82.5,0|0|8,2:0|2:0|2:0,2:0:0:0:
89,205,105609,1,2,2:0:0:0:
194,146,105984,6,0,P|223:138|266:138,1,55,6|0,1:3|1:0,2:0:0:0:
295,174,106359,1,2,2:1:0:0:
290,294,106734,2,0,P|261:302|218:302,1,55,6|0,1:3|1:0,2:0:0:0:
189,266,107109,1,2,2:3:0:0:
89,205,107484,2,0,P|73:142|97:89,1,110,2|2,1:3|1:3,2:0:0:0:
178,21,108234,1,2,1:3:0:0:
284,78,108609,1,2,1:3:0:0:
399,41,108984,6,0,L|414:161,1,110,6|2,1:3|2:3,2:0:0:0:
459,196,109546,1,2,2:3:0:0:
459,196,109734,1,8,2:0:0:0:
382,289,110109,1,2,2:3:0:0:
261,277,110484,1,2,2:3:0:0:
261,277,110671,2,0,B|218:270|218:270|171:286,2,82.5,0|0|8,2:0|2:0|2:0,2:0:0:0:
382,289,111609,1,2,2:0:0:0:
343,174,111984,6,0,P|284:147|248:106,1,110,6|2,1:3|2:3,2:0:0:0:
233,63,112546,1,2,2:3:0:0:
233,63,112734,1,8,2:0:0:0:
117,27,113109,1,2,2:3:0:0:
58,134,113484,1,2,2:3:0:0:
58,134,113671,2,0,P|31:193|-10:229,1,110,0|2,2:0|2:1,0:0:0:0:
6,283,114234,1,2,1:3:0:0:
114,336,114609,1,2,1:3:0:0:
203,254,114984,6,0,P|244:251|315:275,1,110,6|2,1:3|2:3,0:0:0:0:
341,328,115546,1,0,0:0:0:0:
341,328,115734,2,2,P|392:346|447:345,1,110,8|2,2:0|2:3,2:0:0:0:
504,240,116484,1,2,2:3:0:0:
504,240,116671,2,0,B|498:197|498:197|511:145,2,82.5,0|0|8,2:0|2:0|2:0,2:0:0:0:
447,345,117609,1,2,2:0:0:0:
351,270,117984,6,0,P|315:225|301:163,1,110,6|2,1:3|2:3,2:0:0:0:
297,118,118546,1,2,2:3:0:0:
297,118,118734,2,0,P|305:74|317:54,2,55,8|2|2,2:0|2:3|2:3,0:0:0:0:
215,207,119484,2,0,L|139:197,1,55,2|2,2:3|2:3,2:0:0:0:
127,148,119859,2,0,L|72:155,1,55,2|2,2:3|2:1,2:0:0:0:
26,194,120234,1,2,2:3:0:0:
43,313,120609,1,8,2:1:0:0:
256,192,138984,12,0,144234,0:0:0:0:
161,301,144984,6,0,P|187:239|191:211,1,82.5,6|2,3:2|2:0,2:0:0:0:
279,200,145546,1,2,2:0:0:0:
279,200,145734,2,0,P|341:226|369:230,1,82.5,2|2,3:2|2:0,0:0:0:0:
446,230,146296,1,2,3:2:0:0:
446,230,146484,2,0,P|462:156|448:110,1,110,2|8,3:2|2:0,2:0:0:0:
421,73,147046,1,2,3:2:0:0:
421,73,147234,1,2,2:0:0:0:
314,17,147609,1,10,2:0:0:0:
244,117,147984,6,0,B|202:121|202:121|149:103,1,82.5,2|2,3:2|2:0,2:0:0:0:
103,48,148546,1,2,2:0:0:0:
103,48,148734,2,0,B|61:44|61:44|8:62,1,82.5,2|2,3:2|2:0,2:0:0:0:
0,159,149296,1,2,3:2:0:0:
0,159,149484,2,0,P|-11:213|17:272,1,110,2|8,3:2|2:0,2:0:0:0:
60,303,150046,1,2,3:2:0:0:
60,303,150234,2,0,L|52:368,2,55,2|0|10,3:2|3:0|2:0,2:0:0:0:
140,212,150984,6,0,P|164:231|222:257,1,82.5,2|2,3:2|2:0,2:0:0:0:
289,307,151546,1,2,2:0:0:0:
289,307,151734,2,0,P|308:283|334:225,1,82.5,2|2,3:2|0:0,2:0:0:0:
321,150,152296,1,2,3:2:0:0:
321,150,152484,2,0,P|286:152|196:117,1,110,2|8,3:2|2:0,2:0:0:0:
174,93,153046,1,2,3:2:0:0:
174,93,153234,1,2,2:0:0:0:
275,27,153609,1,10,2:0:0:0:
386,72,153984,6,0,L|483:63,1,82.5,2|2,3:2|2:0,2:0:0:0:
508,151,154546,1,2,2:0:0:0:
508,151,154734,2,0,L|425:158,1,82.5,2|2,3:2|0:0,2:0:0:0:
366,227,155296,1,2,3:2:0:0:
366,227,155484,2,0,P|354:282|383:338,1,110,2|8,3:2|2:0,2:0:0:0:
431,362,156046,1,2,3:2:0:0:
431,362,156234,2,0,L|498:350,2,55,2|0|10,3:2|3:0|2:0,2:0:0:0:
315,332,156984,6,0,B|263:343|263:343|188:325,1,110,2|8,3:0|2:0,0:0:0:0:
116,251,157734,2,0,B|105:199|105:199|123:124,1,110,8|8,2:0|2:0,0:0:0:0:
197,52,158484,2,0,B|249:41|249:41|324:59,1,110,8|8,2:0|2:0,0:0:0:0:
396,133,159234,2,0,B|407:185|407:185|389:260,1,110,8|8,2:0|2:0,0:0:0:0:
379,298,159796,1,8,2:0:0:0:
379,298,159984,6,0,P|319:297|254:281,1,110,8|8,2:0|2:0,0:0:0:0:
150,315,160734,2,0,P|151:255|167:190,1,110,8|8,2:0|2:0,0:0:0:0:
133,86,161484,2,0,P|193:87|258:103,1,110,8|8,2:0|2:0,0:0:0:0:
362,69,162234,2,0,P|361:129|345:194,1,110,8|8,2:0|2:0,0:0:0:0:
330,234,162796,1,8,2:0:0:0:
330,234,162984,5,8,2:0:0:0:
213,266,163359,1,8,2:0:0:0:
181,149,163734,1,8,2:0:0:0:
298,117,164109,1,8,2:0:0:0:
330,234,164484,1,8,2:0:0:0:
213,265,164859,1,8,2:0:0:0:
244,382,165234,1,8,2:0:0:0:
361,351,165609,1,8,2:0:0:0:
330,234,165984,6,0,L|387:222,1,55,8|8,2:0|2:0,2:0:0:0:
424,177,166359,1,8,2:0:0:0:
392,60,166734,2,0,L|335:72,1,55,8|8,2:0|2:0,2:0:0:0:
298,117,167109,1,8,2:0:0:0:
181,149,167484,2,0,L|193:206,1,55,8|8,2:1|2:1,2:0:0:0:
238,243,167859,2,0,L|250:300,1,55,8|8,2:1|2:1,2:0:0:0:
217,348,168234,1,8,2:1:0:0:
119,276,168609,1,4,2:0:0:0:
24,369,168984,6,0,B|6:327|6:327|19:265,2,90.7500027694703,2|0|2,3:0|2:0|2:0,2:0:0:0:
90,374,169734,2,0,P|137:373|191:351,1,90.7500027694703,2|0,2:3|2:0,2:0:0:0:
248,288,170296,1,2,2:0:0:0:
248,288,170484,2,0,P|295:289|349:311,1,90.7500027694703,2|0,2:3|2:0,2:0:0:0:
430,349,171046,1,2,2:0:0:0:
430,349,171234,2,0,P|437:280|423:208,1,121.000003692627,2|2,2:3|2:3,0:0:0:0:
362,114,171984,6,0,B|351:71|351:71|364:18,2,90.7500027694703,2|0|2,2:3|2:0|2:0,2:0:0:0:
330,172,172734,2,0,L|233:164,1,90.7500027694703,2|0,2:3|2:0,2:0:0:0:
177,93,173296,1,2,2:0:0:0:
177,93,173484,2,0,L|80:101,1,90.7500027694703,2|0,2:3|2:0,2:0:0:0:
21,176,174046,1,2,2:0:0:0:
21,176,174234,2,0,P|12:230|47:288,1,121.000003692627,2|2,1:2|1:2,0:0:0:0:
175,266,174984,6,0,B|179:221|179:221|156:171,2,90.7500027694703,2|0|2,2:3|2:0|2:0,2:0:0:0:
148,327,175734,2,0,P|204:346|260:337,1,90.7500027694703,2|0,2:3|2:0,2:0:0:0:
317,287,176296,1,2,2:0:0:0:
317,287,176484,2,0,P|336:231|327:175,1,90.7500027694703,2|0,2:3|2:0,2:0:0:0:
307,104,177046,1,2,2:0:0:0:
307,104,177234,2,0,P|370:106|454:109,1,121.000003692627,2|2,1:2|1:2,0:0:0:0:
492,224,177984,6,0,B|488:269|488:269|511:319,2,90.7500027694703,2|0|2,2:3|2:0|2:0,2:0:0:0:
491,157,178734,1,2,2:3:0:0:
381,233,179109,1,2,2:3:0:0:
262,173,179484,2,0,P|240:231|267:298,1,121.000003692627,2|2,1:3|2:1,1:0:0:0:
153,369,180234,2,0,L|81:360,1,60.5000018463135,2|2,1:3|1:3,0:0:0:0:
52,308,180609,1,2,2:0:0:0:
76,177,180984,6,0,L|90:62,2,90.7500027694703,6|0|2,3:0|2:0|2:0,2:0:0:0:
110,234,181734,2,0,P|152:249|199:242,1,90.7500027694703,2|0,2:3|2:0,2:0:0:0:
271,176,182296,1,2,2:0:0:0:
271,176,182484,2,0,P|315:170|358:185,1,90.7500027694703,2|0,2:3|2:0,2:0:0:0:
414,274,183046,1,2,2:0:0:0:
414,274,183234,2,0,P|350:281|289:260,1,121.000003692627,2|2,2:3|2:3,0:0:0:0:
181,198,183984,6,0,B|176:152|176:152|206:89,2,90.7500027694703,2|0|2,2:3|2:0|2:0,2:0:0:0:
152,258,184734,2,0,P|101:264|49:238,1,90.7500027694703,2|0,2:3|2:0,2:0:0:0:
19,167,185296,1,2,2:0:0:0:
19,167,185484,2,0,P|13:116|39:64,1,90.7500027694703,2|0,2:3|2:0,2:0:0:0:
109,23,186046,1,2,2:0:0:0:
109,23,186234,2,0,L|241:38,1,121.000003692627,2|2,1:2|1:2,0:0:0:0:
358,69,186984,6,0,B|404:74|404:74|465:59,2,90.7500027694703,2|0|2,2:3|2:0|2:0,2:0:0:0:
304,109,187734,1,2,2:3:0:0:
378,215,188109,1,2,1:2:0:0:
321,335,188484,2,0,B|275:330|275:330|214:345,2,90.7500027694703,2|0|2,2:3|2:0|2:0,2:0:0:0:
375,295,189234,1,2,2:3:0:0:
301,189,189609,1,2,1:2:0:0:
227,77,189984,6,0,P|221:41|243:-16,2,90.7500027694703,2|0|2,2:3|2:0|2:0,2:0:0:0:
203,139,190734,1,2,1:3:0:0:
72,131,191109,2,0,L|59:197,1,60.5000018463135,2|2,1:2|1:2,2:0:0:0:
0,219,191484,1,2,1:3:0:0:
125,263,191859,2,0,L|119:385,1,121.000003692627,2|2,1:3|1:3,2:0:0:0:
261,384,192609,1,2,2:0:0:0:
292,254,192984,6,2,P|272:204|237:176,2,90.7500027694703,6|0|2,3:0|2:0|2:0,2:0:0:0:
347,290,193734,2,0,P|397:270|425:235,1,90.7500027694703,2|0,2:3|2:0,2:0:0:0:
439,148,194296,1,2,2:0:0:0:
439,148,194484,2,2,P|406:116|391:74,2,90.7500027694703,2|0|2,2:3|2:0|2:0,2:0:0:0:
504,137,195234,2,2,P|515:72|490:11,1,121.000003692627,2|2,2:3|2:3,0:0:0:0:
365,36,195984,6,2,L|266:51,2,90.7500027694703,2|0|2,2:3|2:0|2:0,2:0:0:0:
423,3,196734,1,2,2:3:0:0:
491,116,197109,1,2,2:3:0:0:
424,231,197484,2,2,P|470:245|527:236,2,90.7500027694703,2|0|2,2:3|2:0|2:0,2:0:0:0:
370,191,198234,1,2,1:2:0:0:
238,212,198609,1,2,1:2:0:0:
121,147,198984,6,2,P|114:107|123:49,2,90.7500027694703,2|0|2,2:3|2:0|2:0,2:0:0:0:
162,199,199734,2,2,P|169:239|160:297,1,90.7500027694703,2|0,2:3|2:0,2:0:0:0:
258,334,200296,1,2,2:0:0:0:
258,334,200484,2,2,P|298:327|356:336,2,90.7500027694703,2|2|2,2:3|2:0|2:0,2:0:0:0:
206,375,201234,1,2,1:3:0:0:
72,371,201609,1,2,1:3:0:0:
31,244,201984,6,2,L|38:143,2,90.7500027694703,2|0|2,2:3|2:0|2:0,2:0:0:0:
24,310,202734,1,2,1:3:0:0:
145,370,203109,2,0,L|205:374,1,60.5000018463135,2|2,1:3|1:3,2:0:0:0:
267,349,203484,2,0,P|317:323|354:266,1,121.000003692627,2|2,1:3|2:1,2:0:0:0:
401,146,204234,2,0,L|383:82,1,60.5000018463135,2|2,1:3|1:3,1:0:0:0:
335,42,204609,1,2,2:0:0:0:
218,107,204984,6,2,L|239:215,2,90.7500027694703,6|0|2,2:3|2:0|2:0,2:0:0:0:
163,68,205734,2,0,P|121:67|76:90,1,90.7500027694703,2|0,2:3|2:0,2:0:0:0:
85,191,206296,1,2,2:0:0:0:
85,191,206484,2,2,P|45:211|0:211,2,90.7500027694703,2|0|2,2:3|2:0|2:0,2:0:0:0:
150,177,207234,2,2,B|167:239|167:239|154:303,1,121.000003692627,2|2,2:3|2:3,0:0:0:0:
269,364,207984,6,2,L|366:358,2,90.7500027694703,2|0|2,2:3|2:0|2:0,2:0:0:0:
202,358,208734,1,2,2:3:0:0:
230,228,209109,1,2,2:3:0:0:
178,105,209484,2,2,L|81:99,2,90.7500027694703,2|0|2,2:3|2:0|2:0,2:0:0:0:
233,68,210234,1,2,1:2:0:0:
362,100,210609,1,2,1:2:0:0:
487,55,210984,6,2,B|500:101|500:101|488:142,2,90.7500027694703,2|0|2,2:3|2:0|2:0,2:0:0:0:
422,39,211734,2,2,P|385:79|401:151,1,121.000003692627,2|2,2:3|1:2,2:0:0:0:
302,239,212484,2,2,B|256:252|256:252|214:240,2,90.7500027694703,2|0|2,2:3|2:0|2:0,2:0:0:0:
318,174,213234,2,2,P|278:137|206:153,1,121.000003692627,2|2,2:3|1:2,2:0:0:0:
122,240,213984,6,2,L|118:331,2,90.7500027694703,2|0|2,2:3|2:0|2:0,2:0:0:0:
68,199,214734,1,2,1:3:0:0:
157,100,215109,2,0,L|154:39,1,60.5000018463135,2|2,1:2|1:2,2:0:0:0:
210,4,215484,1,2,2:3:0:0:
335,47,215859,1,2,1:3:0:0:
293,173,216234,2,0,L|295:233,1,60.5000018463135,2|2,1:3|3:0,0:0:0:0:
240,269,216609,1,2,2:0:0:0:
319,360,216984,6,0,P|369:371|440:341,1,110,6|2,3:0|2:3,2:0:0:0:
467,312,217546,1,2,2:0:0:0:
479,252,217734,2,0,L|467:190,2,55,2|2|2,2:3|2:0|0:3,2:0:0:0:
355,275,218484,2,0,B|298:267|298:267|226:289,1,110,2|2,2:3|2:3,2:0:0:0:
194,311,219046,1,2,2:0:0:0:
135,295,219234,1,2,2:3:0:0:
62,198,219609,1,2,2:3:0:0:
109,86,219984,6,0,P|163:65|227:86,1,110,2|2,2:3|2:3,2:0:0:0:
267,100,220546,1,2,2:0:0:0:
306,145,220734,2,0,P|302:177|295:222,2,55,2|2|2,2:3|2:0|2:3,2:0:0:0:
397,65,221484,1,2,2:3:0:0:
490,147,221859,2,0,P|493:177|497:202,1,55,2|2,2:3|2:0,2:0:0:0:
494,262,222234,1,2,1:3:0:0:
415,353,222609,1,2,1:3:0:0:
294,350,222984,6,0,P|253:329|201:269,1,110,2|2,2:3|2:3,2:0:0:0:
196,224,223546,1,2,2:0:0:0:
213,165,223734,2,0,P|237:147|272:132,2,55,2|2|2,2:3|2:0|0:3,2:0:0:0:
119,242,224484,2,0,P|81:237|3:202,1,110,2|2,2:3|2:3,2:0:0:0:
3,150,225046,1,2,2:0:0:0:
24,93,225234,1,2,1:3:0:0:
111,9,225609,1,2,1:3:0:0:
217,66,225984,6,0,B|236:100|236:100|224:173,1,110,2|2,2:3|2:3,2:0:0:0:
281,191,226546,1,2,2:0:0:0:
340,178,226734,2,0,L|352:113,2,55,2|2|2,1:3|1:3|1:3,0:0:0:0:
455,215,227484,2,0,L|449:331,1,110,2|2,1:3|2:1,2:0:0:0:
337,370,228234,2,0,L|340:304,1,55,2|2,1:3|3:0,1:0:0:0:
292,276,228609,1,2,2:1:0:0:
192,344,228984,6,0,B|152:354|152:354|82:322,1,110,6|2,2:3|2:3,2:0:0:0:
50,279,229546,1,2,2:0:0:0:
45,218,229734,2,0,P|50:191|66:163,2,55,2|2|2,2:3|2:0|0:3,2:0:0:0:
166,222,230484,2,0,P|185:188|177:106,1,110,2|2,2:3|2:3,2:0:0:0:
162,61,231046,1,2,2:0:0:0:
104,41,231234,1,2,2:3:0:0:
10,118,231609,1,2,2:3:0:0:
59,228,231984,6,0,B|111:238|111:238|178:218,1,110,2|2,2:3|2:3,2:0:0:0:
206,177,232546,1,2,2:0:0:0:
260,149,232734,2,0,L|319:141,2,55,2|2|2,2:3|2:0|2:3,2:0:0:0:
239,268,233484,1,2,2:3:0:0:
285,379,233859,2,0,L|344:371,1,55,2|2,2:3|2:0,2:0:0:0:
387,334,234234,1,2,1:3:0:0:
412,215,234609,1,2,1:3:0:0:
314,141,234984,6,0,B|292:88|292:88|309:29,1,110,2|2,2:3|2:3,2:0:0:0:
358,6,235546,1,2,2:0:0:0:
417,15,235734,1,2,2:3:0:0:
500,102,236109,2,0,L|511:164,1,55,2|8,1:3|1:0,2:0:0:0:
470,202,236484,2,0,B|417:224|417:224|358:207,1,110,2|2,2:3|2:3,2:0:0:0:
312,182,237046,1,2,2:0:0:0:
267,217,237234,1,2,2:3:0:0:
215,107,237609,2,0,L|153:118,1,55,2|8,1:3|1:0,2:0:0:0:
104,138,237984,6,0,B|93:191|93:191|123:253,1,110,2|2,2:3|2:3,2:0:0:0:
173,262,238546,1,2,2:0:0:0:
172,322,238734,1,2,2:3:0:0:
286,362,239109,2,0,L|355:341,1,55,2|2,1:3|1:3,2:0:0:0:
373,296,239484,1,2,1:3:0:0:
321,186,239859,2,0,L|309:113,1,55,2|8,1:0|1:0,2:0:0:0:
334,75,240234,1,2,2:3:0:0:
226,19,240609,1,2,2:1:0:0:
132,113,240984,6,0,P|161:143|212:186,1,90.7500027694703,6|0,3:0|2:0,2:0:0:0:
238,266,241546,1,2,2:0:0:0:
238,266,241734,2,0,P|278:277|343:289,1,90.7500027694703,2|0,2:3|2:0,2:0:0:0:
407,353,242296,1,2,2:0:0:0:
407,353,242484,2,0,P|447:342|510:320,1,90.7500027694703,2|0,2:3|2:0,2:0:0:0:
441,251,243046,1,2,2:0:0:0:
441,251,243234,2,0,P|392:263|316:290,1,121.000003692627,2|2,2:3|2:3,2:0:0:0:
210,354,243984,6,0,P|190:312|190:258,1,90.7500027694703,2|0,2:3|2:0,2:0:0:0:
111,212,244546,1,2,2:0:0:0:
111,212,244734,2,0,P|69:232|15:232,1,90.7500027694703,2|0,2:3|2:0,2:0:0:0:
4,141,245296,1,2,2:0:0:0:
4,141,245484,2,0,P|46:121|100:121,1,90.7500027694703,2|0,2:3|2:0,2:0:0:0:
187,138,246046,1,2,2:0:0:0:
187,138,246234,2,0,L|251:125,2,60.5000018463135,2|8|2,1:3|1:0|1:3,2:0:0:0:
130,258,246984,6,0,P|151:292|185:334,1,90.7500027694703,2|0,2:3|2:0,2:0:0:0:
285,323,247546,1,2,2:0:0:0:
285,323,247734,2,0,P|303:287|323:237,1,90.7500027694703,2|0,2:3|2:0,2:0:0:0:
263,156,248296,1,2,2:0:0:0:
263,156,248484,2,0,P|223:157|169:165,1,90.7500027694703,2|0,2:3|2:0,2:0:0:0:
130,258,249046,1,2,2:0:0:0:
130,258,249234,2,0,P|184:256|257:244,1,121.000003692627,2|2,2:3|2:3,2:0:0:0:
357,167,249984,6,0,P|395:127|420:85,1,90.7500027694703,2|0,2:3|2:0,2:0:0:0:
318,85,250546,1,2,2:0:0:0:
318,85,250734,2,0,P|283:121|260:159,1,90.7500027694703,2|0,2:3|2:0,2:0:0:0:
250,246,251296,1,2,2:0:0:0:
250,246,251484,2,0,L|273:379,2,121.000003692627,2|2|2,1:3|1:3|2:3,2:0:0:0:
156,150,252609,2,0,L|166:90,1,60.5000018463135,2|8,1:3|1:0,2:0:0:0:
168,23,252984,6,0,P|122:20|71:6,1,90.7500027694703,6|0,3:0|2:0,2:0:0:0:
14,85,253546,1,2,2:0:0:0:
14,85,253734,2,0,P|11:131|-3:182,1,90.7500027694703,2|0,2:3|2:0,2:0:0:0:
34,272,254296,1,2,2:0:0:0:
34,272,254484,2,0,P|80:275|131:289,1,90.7500027694703,2|0,2:3|2:0,2:0:0:0:
221,252,255046,1,2,2:0:0:0:
221,252,255234,2,0,P|225:185|245:112,1,121.000003692627,2|2,2:3|2:3,2:0:0:0:
359,78,255984,6,0,B|402:94|402:94|459:86,1,90.7500027694703,2|0,2:3|2:0,2:0:0:0:
492,176,256546,1,2,2:0:0:0:
492,176,256734,2,0,B|476:219|476:219|484:276,1,90.7500027694703,2|0,2:3|2:0,2:0:0:0:
394,309,257296,1,2,2:0:0:0:
394,309,257484,2,0,B|351:293|351:293|294:301,1,90.7500027694703,2|0,2:3|2:0,2:0:0:0:
224,350,258046,1,2,2:0:0:0:
224,350,258234,2,0,P|196:355|159:346,2,60.5000018463135,2|8|2,1:3|1:0|1:3,2:0:0:0:
200,219,258984,6,0,L|206:109,1,90.7500027694703,2|0,2:3|2:0,2:0:0:0:
301,95,259546,1,2,2:0:0:0:
301,95,259734,2,0,L|307:205,1,90.7500027694703,2|0,2:3|2:0,2:0:0:0:
402,219,260296,1,2,2:0:0:0:
402,219,260484,2,0,L|408:109,1,90.7500027694703,2|0,2:3|2:0,2:0:0:0:
500,87,261046,1,2,2:0:0:0:
500,87,261234,2,0,L|507:222,1,121.000003692627,2|2,2:3|2:3,2:0:0:0:
460,332,261984,6,0,P|413:344|361:338,1,90.7500027694703,2|0,2:3|2:0,2:0:0:0:
285,289,262546,1,2,2:0:0:0:
285,289,262734,2,0,L|293:215,1,60.5000018463135,2|2,1:3|1:3,0:0:0:0:
337,180,263109,2,0,L|329:106,1,60.5000018463135,2|2,1:3|1:3,0:0:0:0:
306,57,263484,2,0,B|265:69|265:69|169:53,1,121.000003692627,2|2,1:3|2:1,2:0:0:0:
56,36,264234,1,2,1:3:0:0:
74,167,264609,2,0,L|80:227,1,60.5000018463135,2|0,2:1|2:1,2:0:0:0:
35,276,264984,5,6,3:0:0:0:
