osu file format v14

[General]
AudioFilename: audio.mp3
AudioLeadIn: 0
PreviewTime: 168280
Countdown: 0
SampleSet: Soft
StackLeniency: 0.7
Mode: 3
LetterboxInBreaks: 0
SpecialStyle: 0
WidescreenStoryboard: 0

[Editor]
Bookmarks: 49030,61030,73030,85030,97030,121030,145030,169030,181030,193030,205030,217030,241030,265030,277030,288655
DistanceSpacing: 1
BeatDivisor: 4
GridSize: 4
TimelineZoom: 3.099999

[Metadata]
Title:Chambarising
TitleUnicode:Chambarising
Artist:t+pazolite with siromaru
ArtistUnicode:t+pazolite with siromaru
Creator:Hoto Cocoa
Version:Cherish
Source:
Tags:Wonki Lude Interlude- Reba ucreba Lass Electronic Instrumental Kenran Kensou Orient Beauty-Noizy-Orient C.H.S 絢爛喧騒オリエント CHS-0015 とぱぞらいと 浜田知幸 Tomoyuki Hamada Doujin Indie Comic Market 85 コミックマーケット85 comiket c85
BeatmapID:2038453
BeatmapSetID:973750

[Difficulty]
HPDrainRate:9.1
CircleSize:7
OverallDifficulty:8.7
ApproachRate:5
SliderMultiplier:1.4
SliderTickRate:1

[Events]
//Background and Video events
0,0,"chambarising.jpg",0,0
//Break Periods
//Storyboard Layer 0 (Background)
//Storyboard Layer 1 (Fail)
//Storyboard Layer 2 (Pass)
//Storyboard Layer 3 (Foreground)
//Storyboard Layer 4 (Overlay)
//Storyboard Sound Samples

[TimingPoints]
1030,375,4,2,1,40,1,0
156655,-66.6666666666667,4,2,1,40,0,0
156748,-80,4,2,1,40,0,0
156842,-133.333333333333,4,2,1,40,0,0
156936,-200,4,2,1,40,0,0
157030,-100,4,2,1,40,0,0
168280,-200,4,2,1,40,0,0
168373,-66.6666666666667,4,2,1,40,0,0
168467,-200,4,2,1,40,0,0
168560,-66.6666666666667,4,2,1,40,0,0
168655,-200,4,2,1,40,0,0
168748,-133.333333333333,4,2,1,40,0,0
168842,-100,4,2,1,40,0,0
168889,-90.9090909090909,4,2,1,40,0,0
168936,-83.3333333333333,4,2,1,40,0,0
168959,-76.9230769230769,4,2,1,40,0,0
168983,-71.4285714285714,4,2,1,40,0,0
169006,-66.6666666666667,4,2,1,40,0,0
169030,-100,4,2,1,40,0,1
180280,-200,4,2,1,40,0,1
180373,-66.6666666666667,4,2,1,40,0,1
180467,-200,4,2,1,40,0,1
180560,-66.6666666666667,4,2,1,40,0,1
180655,-200,4,2,1,40,0,1
180748,-133.333333333333,4,2,1,40,0,1
180842,-100,4,2,1,40,0,1
180889,-90.9090909090909,4,2,1,40,0,1
180936,-83.3333333333333,4,2,1,40,0,1
180959,-76.9230769230769,4,2,1,40,0,1
180983,-71.4285714285714,4,2,1,40,0,1
181006,-66.6666666666667,4,2,1,40,0,1
181030,-100,4,2,1,40,0,1
192280,-200,4,2,1,40,0,1
192373,-66.6666666666667,4,2,1,40,0,1
192467,-200,4,2,1,40,0,1
192560,-66.6666666666667,4,2,1,40,0,1
192655,-200,4,2,1,40,0,1
192748,-133.333333333333,4,2,1,40,0,1
192842,-100,4,2,1,40,0,1
192889,-90.9090909090909,4,2,1,40,0,1
192936,-83.3333333333333,4,2,1,40,0,1
192959,-76.9230769230769,4,2,1,40,0,1
192983,-71.4285714285714,4,2,1,40,0,1
193006,-66.6666666666667,4,2,1,40,0,1
193030,-100,4,2,1,40,0,1
204280,-200,4,2,1,40,0,1
204373,-66.6666666666667,4,2,1,40,0,1
204467,-200,4,2,1,40,0,1
204560,-66.6666666666667,4,2,1,40,0,1
204655,-200,4,2,1,40,0,1
204748,-133.333333333333,4,2,1,40,0,1
204842,-100,4,2,1,40,0,1
204889,-90.9090909090909,4,2,1,40,0,1
204936,-83.3333333333333,4,2,1,40,0,1
204959,-76.9230769230769,4,2,1,40,0,1
204983,-71.4285714285714,4,2,1,40,0,1
205006,-66.6666666666667,4,2,1,40,0,1
205030,-100,4,2,1,40,0,1
216655,-200,4,2,1,40,0,1
216748,-133.333333333333,4,2,1,40,0,1
216842,-100,4,2,1,40,0,1
216889,-90.9090909090909,4,2,1,40,0,1
216936,-83.3333333333333,4,2,1,40,0,1
216959,-76.9230769230769,4,2,1,40,0,1
216983,-71.4285714285714,4,2,1,40,0,1
217006,-66.6666666666667,4,2,1,40,0,1
217030,-100,4,2,1,40,0,0

[HitObjects]
182,192,1030,128,0,2530:0:0:0:0:
329,192,2155,128,0,2248:0:0:0:0:
329,192,2530,128,0,3280:0:0:0:0:
475,192,3280,128,0,4030:0:0:0:0:
329,192,4030,128,0,4780:0:0:0:0:
182,192,4780,128,0,5155:0:0:0:0:
475,192,5155,128,0,5530:0:0:0:0:
329,192,5530,128,0,6655:0:0:0:0:
182,192,7030,128,0,7780:0:0:0:0:
402,192,7780,128,0,8530:0:0:0:0:
329,192,8530,128,0,9280:0:0:0:0:
36,192,9280,128,0,10030:0:0:0:0:
182,192,10030,128,0,10967:0:0:0:0:
329,192,11155,128,0,11530:0:0:0:0:
182,192,11530,128,0,12280:0:0:0:0:
329,192,13030,128,0,14530:0:0:0:0:
182,192,14155,128,0,14248:0:0:0:0:
182,192,14530,128,0,15280:0:0:0:0:
475,192,15280,128,0,16030:0:0:0:0:
329,192,16030,128,0,16780:0:0:0:0:
36,192,16780,128,0,17155:0:0:0:0:
402,192,17155,128,0,17530:0:0:0:0:
329,192,17530,128,0,18280:0:0:0:0:
182,192,19030,128,0,19780:0:0:0:0:
329,192,19780,128,0,20530:0:0:0:0:
36,192,20530,128,0,21280:0:0:0:0:
182,192,21280,128,0,22030:0:0:0:0:
329,192,22030,128,0,22780:0:0:0:0:
182,192,23155,128,0,23530:0:0:0:0:
329,192,23530,128,0,25030:0:0:0:0:
109,192,25030,1,0,0:0:0:0:
36,192,25030,1,0,0:0:0:0:
256,192,25030,1,0,0:0:0:0:
402,192,25030,1,0,0:0:0:0:
475,192,25030,1,0,0:0:0:0:
182,192,25217,1,0,0:0:0:0:
182,192,25311,1,0,0:0:0:0:
475,192,25405,1,0,0:0:0:0:
182,192,25498,1,0,0:0:0:0:
182,192,25592,1,0,0:0:0:0:
182,192,25780,1,0,0:0:0:0:
182,192,25967,1,0,0:0:0:0:
182,192,26061,1,0,0:0:0:0:
475,192,26155,1,0,0:0:0:0:
182,192,26248,1,0,0:0:0:0:
182,192,26342,1,0,0:0:0:0:
182,192,26530,1,0,0:0:0:0:
182,192,26717,1,0,0:0:0:0:
182,192,26811,1,0,0:0:0:0:
402,192,26905,1,0,0:0:0:0:
182,192,26998,1,0,0:0:0:0:
329,192,27092,1,0,0:0:0:0:
475,192,27280,1,0,0:0:0:0:
182,192,27467,1,0,0:0:0:0:
329,192,27655,1,0,0:0:0:0:
182,192,27842,1,0,0:0:0:0:
329,192,28030,1,0,0:0:0:0:
329,192,28217,1,0,0:0:0:0:
329,192,28311,1,0,0:0:0:0:
109,192,28405,1,0,0:0:0:0:
329,192,28498,1,0,0:0:0:0:
329,192,28592,1,0,0:0:0:0:
329,192,28780,1,0,0:0:0:0:
329,192,28967,1,0,0:0:0:0:
329,192,29061,1,0,0:0:0:0:
109,192,29155,1,0,0:0:0:0:
329,192,29248,1,0,0:0:0:0:
329,192,29342,1,0,0:0:0:0:
329,192,29530,1,0,0:0:0:0:
329,192,29717,1,0,0:0:0:0:
329,192,29811,1,0,0:0:0:0:
36,192,29905,1,0,0:0:0:0:
329,192,29998,1,0,0:0:0:0:
182,192,30092,1,0,0:0:0:0:
329,192,30280,1,0,0:0:0:0:
256,192,30467,1,0,0:0:0:0:
182,192,30655,1,0,0:0:0:0:
329,192,30842,1,0,0:0:0:0:
182,192,31030,1,0,0:0:0:0:
182,192,31217,1,0,0:0:0:0:
182,192,31311,1,0,0:0:0:0:
329,192,31405,1,0,0:0:0:0:
182,192,31498,1,0,0:0:0:0:
182,192,31592,1,0,0:0:0:0:
182,192,31780,1,0,0:0:0:0:
182,192,31967,1,0,0:0:0:0:
182,192,32061,1,0,0:0:0:0:
402,192,32155,1,0,0:0:0:0:
182,192,32248,1,0,0:0:0:0:
182,192,32342,1,0,0:0:0:0:
182,192,32530,1,0,0:0:0:0:
182,192,32717,1,0,0:0:0:0:
182,192,32811,1,0,0:0:0:0:
475,192,32905,1,0,0:0:0:0:
182,192,32998,1,0,0:0:0:0:
329,192,33092,1,0,0:0:0:0:
256,192,33280,1,0,0:0:0:0:
182,192,33467,1,0,0:0:0:0:
329,192,33655,1,0,0:0:0:0:
182,192,33842,1,0,0:0:0:0:
329,192,34030,1,0,0:0:0:0:
329,192,34217,1,0,0:0:0:0:
329,192,34311,1,0,0:0:0:0:
109,192,34405,1,0,0:0:0:0:
329,192,34498,1,0,0:0:0:0:
329,192,34592,1,0,0:0:0:0:
329,192,34780,1,0,0:0:0:0:
329,192,34967,1,0,0:0:0:0:
329,192,35061,1,0,0:0:0:0:
109,192,35155,1,0,0:0:0:0:
329,192,35248,1,0,0:0:0:0:
329,192,35342,1,0,0:0:0:0:
329,192,35530,1,0,0:0:0:0:
329,192,35717,1,0,0:0:0:0:
329,192,35811,1,0,0:0:0:0:
109,192,35905,1,0,0:0:0:0:
329,192,35998,1,0,0:0:0:0:
182,192,36092,1,0,0:0:0:0:
329,192,36280,1,0,0:0:0:0:
256,192,36467,1,0,0:0:0:0:
182,192,36655,1,0,0:0:0:0:
329,192,36842,1,0,0:0:0:0:
109,192,37030,1,0,0:0:0:0:
36,192,37030,1,0,0:0:0:0:
256,192,37030,1,0,0:0:0:0:
475,192,37030,1,0,0:0:0:0:
329,192,37217,1,0,0:0:0:0:
329,192,37311,1,0,0:0:0:0:
36,192,37405,1,0,0:0:0:0:
475,192,37405,1,0,0:0:0:0:
182,192,37405,1,0,0:0:0:0:
402,192,37405,1,0,0:0:0:0:
329,192,37498,1,0,0:0:0:0:
329,192,37592,1,0,0:0:0:0:
329,192,37780,1,0,0:0:0:0:
475,192,37780,1,0,0:0:0:0:
182,192,37780,1,0,0:0:0:0:
36,192,37780,1,0,0:0:0:0:
329,192,37967,1,0,0:0:0:0:
329,192,38061,1,0,0:0:0:0:
109,192,38155,1,0,0:0:0:0:
36,192,38155,1,0,0:0:0:0:
402,192,38155,1,0,0:0:0:0:
475,192,38155,1,0,0:0:0:0:
329,192,38248,1,0,0:0:0:0:
329,192,38342,1,0,0:0:0:0:
182,192,38530,1,0,0:0:0:0:
109,192,38530,1,0,0:0:0:0:
329,192,38530,1,0,0:0:0:0:
402,192,38530,1,0,0:0:0:0:
329,192,38717,1,0,0:0:0:0:
329,192,38811,1,0,0:0:0:0:
109,192,38905,1,0,0:0:0:0:
36,192,38905,1,0,0:0:0:0:
475,192,38905,1,0,0:0:0:0:
402,192,38905,1,0,0:0:0:0:
329,192,38998,1,0,0:0:0:0:
182,192,39092,1,0,0:0:0:0:
402,192,39092,1,0,0:0:0:0:
36,192,39280,1,0,0:0:0:0:
329,192,39280,1,0,0:0:0:0:
475,192,39280,1,0,0:0:0:0:
182,192,39280,1,0,0:0:0:0:
109,192,39467,1,0,0:0:0:0:
36,192,39467,1,0,0:0:0:0:
402,192,39467,1,0,0:0:0:0:
475,192,39467,1,0,0:0:0:0:
256,192,39561,1,0,0:0:0:0:
182,192,39655,1,0,0:0:0:0:
109,192,39655,1,0,0:0:0:0:
402,192,39655,1,0,0:0:0:0:
329,192,39655,1,0,0:0:0:0:
182,192,39842,1,0,0:0:0:0:
256,192,39842,1,0,0:0:0:0:
475,192,39842,1,0,0:0:0:0:
402,192,39842,1,0,0:0:0:0:
256,192,40030,1,0,0:0:0:0:
329,192,40030,1,0,0:0:0:0:
109,192,40030,1,0,0:0:0:0:
36,192,40030,1,0,0:0:0:0:
182,192,40217,1,0,0:0:0:0:
182,192,40311,1,0,0:0:0:0:
109,192,40405,1,0,0:0:0:0:
36,192,40405,1,0,0:0:0:0:
329,192,40405,1,0,0:0:0:0:
475,192,40405,1,0,0:0:0:0:
182,192,40498,1,0,0:0:0:0:
182,192,40592,1,0,0:0:0:0:
182,192,40780,1,0,0:0:0:0:
329,192,40780,1,0,0:0:0:0:
475,192,40780,1,0,0:0:0:0:
109,192,40780,1,0,0:0:0:0:
182,192,40967,1,0,0:0:0:0:
182,192,41061,1,0,0:0:0:0:
329,192,41155,1,0,0:0:0:0:
475,192,41155,1,0,0:0:0:0:
256,192,41155,1,0,0:0:0:0:
109,192,41155,1,0,0:0:0:0:
182,192,41248,1,0,0:0:0:0:
182,192,41342,1,0,0:0:0:0:
182,192,41530,1,0,0:0:0:0:
36,192,41530,1,0,0:0:0:0:
329,192,41530,1,0,0:0:0:0:
402,192,41530,1,0,0:0:0:0:
182,192,41717,1,0,0:0:0:0:
182,192,41811,1,0,0:0:0:0:
109,192,41905,1,0,0:0:0:0:
36,192,41905,1,0,0:0:0:0:
402,192,41905,1,0,0:0:0:0:
475,192,41905,1,0,0:0:0:0:
182,192,41998,1,0,0:0:0:0:
329,192,42092,1,0,0:0:0:0:
475,192,42092,1,0,0:0:0:0:
182,192,42280,1,0,0:0:0:0:
109,192,42280,1,0,0:0:0:0:
36,192,42280,1,0,0:0:0:0:
402,192,42280,1,0,0:0:0:0:
329,192,42467,1,0,0:0:0:0:
109,192,42467,1,0,0:0:0:0:
475,192,42467,1,0,0:0:0:0:
256,192,42467,1,0,0:0:0:0:
182,192,42655,1,0,0:0:0:0:
36,192,42655,1,0,0:0:0:0:
402,192,42655,1,0,0:0:0:0:
475,192,42655,1,0,0:0:0:0:
329,192,42842,1,0,0:0:0:0:
109,192,42842,1,0,0:0:0:0:
182,192,42842,1,0,0:0:0:0:
475,192,42842,1,0,0:0:0:0:
36,192,43030,5,0,0:0:0:0:
109,192,43030,1,0,0:0:0:0:
256,192,43030,1,0,0:0:0:0:
402,192,43030,1,0,0:0:0:0:
475,192,43030,1,0,0:0:0:0:
329,192,43217,1,0,0:0:0:0:
182,192,43217,1,0,0:0:0:0:
109,192,43217,1,0,0:0:0:0:
36,192,43217,1,0,0:0:0:0:
329,192,43311,1,0,0:0:0:0:
36,192,43405,1,0,0:0:0:0:
256,192,43405,1,0,0:0:0:0:
402,192,43405,1,0,0:0:0:0:
109,192,43405,1,0,0:0:0:0:
329,192,43498,1,0,0:0:0:0:
329,192,43592,1,0,0:0:0:0:
182,192,43592,1,0,0:0:0:0:
109,192,43592,1,0,0:0:0:0:
36,192,43592,1,0,0:0:0:0:
329,192,43780,1,0,0:0:0:0:
109,192,43780,1,0,0:0:0:0:
36,192,43780,1,0,0:0:0:0:
256,192,43780,1,0,0:0:0:0:
329,192,43967,1,0,0:0:0:0:
182,192,43967,1,0,0:0:0:0:
109,192,43967,1,0,0:0:0:0:
36,192,43967,1,0,0:0:0:0:
329,192,44061,1,0,0:0:0:0:
36,192,44155,1,0,0:0:0:0:
109,192,44155,1,0,0:0:0:0:
256,192,44155,1,0,0:0:0:0:
402,192,44155,1,0,0:0:0:0:
329,192,44248,1,0,0:0:0:0:
329,192,44342,1,0,0:0:0:0:
182,192,44342,1,0,0:0:0:0:
109,192,44342,1,0,0:0:0:0:
36,192,44342,1,0,0:0:0:0:
329,192,44530,1,0,0:0:0:0:
109,192,44530,1,0,0:0:0:0:
256,192,44530,1,0,0:0:0:0:
36,192,44530,1,0,0:0:0:0:
329,192,44717,1,0,0:0:0:0:
182,192,44717,1,0,0:0:0:0:
109,192,44717,1,0,0:0:0:0:
36,192,44717,1,0,0:0:0:0:
329,192,44811,1,0,0:0:0:0:
402,192,44905,1,0,0:0:0:0:
109,192,44905,1,0,0:0:0:0:
256,192,44905,1,0,0:0:0:0:
36,192,44905,1,0,0:0:0:0:
329,192,44998,1,0,0:0:0:0:
329,192,45092,1,0,0:0:0:0:
182,192,45092,1,0,0:0:0:0:
109,192,45092,1,0,0:0:0:0:
36,192,45092,1,0,0:0:0:0:
36,192,45280,1,0,0:0:0:0:
256,192,45280,1,0,0:0:0:0:
402,192,45280,1,0,0:0:0:0:
109,192,45280,1,0,0:0:0:0:
182,192,45467,1,0,0:0:0:0:
109,192,45467,1,0,0:0:0:0:
329,192,45467,1,0,0:0:0:0:
36,192,45467,1,0,0:0:0:0:
402,192,45561,1,0,0:0:0:0:
329,192,45655,1,0,0:0:0:0:
36,192,45655,1,0,0:0:0:0:
109,192,45655,1,0,0:0:0:0:
256,192,45655,1,0,0:0:0:0:
182,192,45842,1,0,0:0:0:0:
109,192,45842,1,0,0:0:0:0:
402,192,45842,1,0,0:0:0:0:
36,192,45842,1,0,0:0:0:0:
36,192,46030,1,0,0:0:0:0:
109,192,46030,1,0,0:0:0:0:
329,192,46030,1,0,0:0:0:0:
475,192,46030,1,0,0:0:0:0:
329,192,46123,1,0,0:0:0:0:
475,192,46123,1,0,0:0:0:0:
182,192,46217,1,0,0:0:0:0:
36,192,46217,1,0,0:0:0:0:
256,192,46217,1,0,0:0:0:0:
182,192,46311,1,0,0:0:0:0:
36,192,46311,1,0,0:0:0:0:
329,192,46405,1,0,0:0:0:0:
475,192,46405,1,0,0:0:0:0:
109,192,46405,1,0,0:0:0:0:
329,192,46498,1,0,0:0:0:0:
475,192,46498,1,0,0:0:0:0:
182,192,46592,1,0,0:0:0:0:
36,192,46592,1,0,0:0:0:0:
256,192,46592,1,0,0:0:0:0:
182,192,46686,1,0,0:0:0:0:
36,192,46686,1,0,0:0:0:0:
329,192,46780,1,0,0:0:0:0:
402,192,46780,1,0,0:0:0:0:
475,192,46780,1,0,0:0:0:0:
402,192,46873,1,0,0:0:0:0:
475,192,46873,1,0,0:0:0:0:
109,192,46967,1,0,0:0:0:0:
36,192,46967,1,0,0:0:0:0:
182,192,46967,1,0,0:0:0:0:
36,192,47061,1,0,0:0:0:0:
109,192,47061,1,0,0:0:0:0:
256,192,47155,1,0,0:0:0:0:
475,192,47155,1,0,0:0:0:0:
402,192,47155,1,0,0:0:0:0:
402,192,47248,1,0,0:0:0:0:
475,192,47248,1,0,0:0:0:0:
109,192,47342,1,0,0:0:0:0:
36,192,47342,1,0,0:0:0:0:
329,192,47342,1,0,0:0:0:0:
182,192,47436,1,0,0:0:0:0:
256,192,47436,1,0,0:0:0:0:
36,192,47530,5,0,0:0:0:0:
109,192,47530,1,0,0:0:0:0:
329,192,47530,1,0,0:0:0:0:
402,192,47530,1,0,0:0:0:0:
475,192,47530,1,0,0:0:0:0:
402,192,47623,1,0,0:0:0:0:
475,192,47623,1,0,0:0:0:0:
329,192,47623,1,0,0:0:0:0:
36,192,47717,1,0,0:0:0:0:
109,192,47717,1,0,0:0:0:0:
256,192,47717,1,0,0:0:0:0:
329,192,47811,1,0,0:0:0:0:
402,192,47811,1,0,0:0:0:0:
182,192,47811,1,0,0:0:0:0:
109,192,47905,1,0,0:0:0:0:
36,192,47905,1,0,0:0:0:0:
256,192,47905,1,0,0:0:0:0:
109,192,47998,1,0,0:0:0:0:
36,192,47998,1,0,0:0:0:0:
256,192,47998,1,0,0:0:0:0:
182,192,48092,1,0,0:0:0:0:
475,192,48092,1,0,0:0:0:0:
402,192,48092,1,0,0:0:0:0:
256,192,48186,1,0,0:0:0:0:
109,192,48186,1,0,0:0:0:0:
329,192,48186,1,0,0:0:0:0:
36,192,48280,1,0,0:0:0:0:
182,192,48280,1,0,0:0:0:0:
402,192,48280,1,0,0:0:0:0:
475,192,48280,1,0,0:0:0:0:
182,192,48467,1,0,0:0:0:0:
109,192,48655,1,0,0:0:0:0:
402,192,48655,1,0,0:0:0:0:
329,192,48842,1,0,0:0:0:0:
36,192,49030,1,0,0:0:0:0:
109,192,49030,1,0,0:0:0:0:
256,192,49030,1,0,0:0:0:0:
402,192,49030,1,0,0:0:0:0:
475,192,49030,1,0,0:0:0:0:
182,192,49030,1,0,0:0:0:0:
329,192,49030,1,0,0:0:0:0:
182,192,49123,1,0,0:0:0:0:
329,192,49217,1,0,0:0:0:0:
402,192,49217,1,0,0:0:0:0:
402,192,49311,1,0,0:0:0:0:
329,192,49311,1,0,0:0:0:0:
182,192,49405,1,0,0:0:0:0:
36,192,49405,1,0,0:0:0:0:
256,192,49405,1,0,0:0:0:0:
475,192,49405,1,0,0:0:0:0:
329,192,49498,1,0,0:0:0:0:
109,192,49592,1,0,0:0:0:0:
182,192,49592,1,0,0:0:0:0:
402,192,49592,1,0,0:0:0:0:
182,192,49686,1,0,0:0:0:0:
109,192,49686,1,0,0:0:0:0:
36,192,49780,1,0,0:0:0:0:
256,192,49780,1,0,0:0:0:0:
329,192,49780,1,0,0:0:0:0:
475,192,49780,1,0,0:0:0:0:
182,192,49873,1,0,0:0:0:0:
109,192,49967,1,0,0:0:0:0:
329,192,49967,1,0,0:0:0:0:
329,192,50061,1,0,0:0:0:0:
109,192,50061,1,0,0:0:0:0:
256,192,50155,1,0,0:0:0:0:
475,192,50155,1,0,0:0:0:0:
36,192,50155,1,0,0:0:0:0:
182,192,50155,1,0,0:0:0:0:
329,192,50248,1,0,0:0:0:0:
256,192,50342,1,0,0:0:0:0:
402,192,50342,1,0,0:0:0:0:
109,192,50342,1,0,0:0:0:0:
402,192,50436,1,0,0:0:0:0:
256,192,50436,1,0,0:0:0:0:
182,192,50530,1,0,0:0:0:0:
36,192,50530,1,0,0:0:0:0:
329,192,50530,1,0,0:0:0:0:
475,192,50530,1,0,0:0:0:0:
109,192,50623,1,0,0:0:0:0:
329,192,50717,1,0,0:0:0:0:
402,192,50717,1,0,0:0:0:0:
402,192,50811,1,0,0:0:0:0:
329,192,50811,1,0,0:0:0:0:
256,192,50905,1,0,0:0:0:0:
109,192,50905,1,0,0:0:0:0:
36,192,50905,1,0,0:0:0:0:
475,192,50905,1,0,0:0:0:0:
329,192,50998,1,0,0:0:0:0:
109,192,51092,1,0,0:0:0:0:
402,192,51092,1,0,0:0:0:0:
182,192,51092,1,0,0:0:0:0:
182,192,51186,1,0,0:0:0:0:
109,192,51186,1,0,0:0:0:0:
36,192,51280,1,0,0:0:0:0:
256,192,51280,1,0,0:0:0:0:
329,192,51280,1,0,0:0:0:0:
475,192,51280,1,0,0:0:0:0:
182,192,51373,1,0,0:0:0:0:
256,192,51467,1,0,0:0:0:0:
402,192,51467,1,0,0:0:0:0:
256,192,51561,1,0,0:0:0:0:
402,192,51561,1,0,0:0:0:0:
329,192,51655,1,0,0:0:0:0:
475,192,51655,1,0,0:0:0:0:
109,192,51655,1,0,0:0:0:0:
36,192,51655,1,0,0:0:0:0:
182,192,51748,1,0,0:0:0:0:
109,192,51842,1,0,0:0:0:0:
329,192,51842,1,0,0:0:0:0:
402,192,51842,1,0,0:0:0:0:
329,192,51936,1,0,0:0:0:0:
109,192,51936,1,0,0:0:0:0:
256,192,52030,1,0,0:0:0:0:
475,192,52030,1,0,0:0:0:0:
36,192,52030,1,0,0:0:0:0:
182,192,52030,1,0,0:0:0:0:
329,192,52123,1,0,0:0:0:0:
182,192,52217,1,0,0:0:0:0:
109,192,52217,1,0,0:0:0:0:
109,192,52311,1,0,0:0:0:0:
182,192,52311,1,0,0:0:0:0:
329,192,52405,1,0,0:0:0:0:
475,192,52405,1,0,0:0:0:0:
256,192,52405,1,0,0:0:0:0:
36,192,52405,1,0,0:0:0:0:
182,192,52498,1,0,0:0:0:0:
109,192,52592,1,0,0:0:0:0:
329,192,52592,1,0,0:0:0:0:
402,192,52592,1,0,0:0:0:0:
329,192,52686,1,0,0:0:0:0:
402,192,52686,1,0,0:0:0:0:
256,192,52780,1,0,0:0:0:0:
475,192,52780,1,0,0:0:0:0:
36,192,52780,1,0,0:0:0:0:
109,192,52780,1,0,0:0:0:0:
182,192,52873,1,0,0:0:0:0:
256,192,52967,1,0,0:0:0:0:
402,192,52967,1,0,0:0:0:0:
402,192,53061,1,0,0:0:0:0:
256,192,53061,1,0,0:0:0:0:
182,192,53155,1,0,0:0:0:0:
329,192,53155,1,0,0:0:0:0:
475,192,53155,1,0,0:0:0:0:
109,192,53155,1,0,0:0:0:0:
256,192,53248,1,0,0:0:0:0:
182,192,53342,1,0,0:0:0:0:
109,192,53342,1,0,0:0:0:0:
402,192,53342,1,0,0:0:0:0:
182,192,53436,1,0,0:0:0:0:
109,192,53436,1,0,0:0:0:0:
36,192,53530,1,0,0:0:0:0:
256,192,53530,1,0,0:0:0:0:
329,192,53530,1,0,0:0:0:0:
475,192,53530,1,0,0:0:0:0:
182,192,53623,1,0,0:0:0:0:
329,192,53717,1,0,0:0:0:0:
402,192,53717,1,0,0:0:0:0:
329,192,53811,1,0,0:0:0:0:
402,192,53811,1,0,0:0:0:0:
256,192,53905,1,0,0:0:0:0:
109,192,53905,1,0,0:0:0:0:
36,192,53905,1,0,0:0:0:0:
475,192,53905,1,0,0:0:0:0:
182,192,53998,1,0,0:0:0:0:
329,192,54092,1,0,0:0:0:0:
109,192,54092,1,0,0:0:0:0:
402,192,54092,1,0,0:0:0:0:
329,192,54186,1,0,0:0:0:0:
109,192,54186,1,0,0:0:0:0:
36,192,54280,1,0,0:0:0:0:
182,192,54280,1,0,0:0:0:0:
256,192,54280,1,0,0:0:0:0:
402,192,54280,1,0,0:0:0:0:
475,192,54280,1,0,0:0:0:0:
109,192,54373,1,0,0:0:0:0:
402,192,54467,1,0,0:0:0:0:
475,192,54467,1,0,0:0:0:0:
329,192,54467,1,0,0:0:0:0:
182,192,54467,1,0,0:0:0:0:
329,192,54561,1,0,0:0:0:0:
402,192,54561,1,0,0:0:0:0:
475,192,54561,1,0,0:0:0:0:
256,192,54655,1,0,0:0:0:0:
109,192,54655,1,0,0:0:0:0:
36,192,54655,1,0,0:0:0:0:
329,192,54748,1,0,0:0:0:0:
36,192,54842,1,0,0:0:0:0:
182,192,54842,1,0,0:0:0:0:
109,192,54842,1,0,0:0:0:0:
402,192,54842,1,0,0:0:0:0:
182,192,54936,1,0,0:0:0:0:
109,192,54936,1,0,0:0:0:0:
36,192,54936,1,0,0:0:0:0:
256,192,55030,1,0,0:0:0:0:
329,192,55030,1,0,0:0:0:0:
475,192,55030,1,0,0:0:0:0:
182,192,55123,1,0,0:0:0:0:
109,192,55217,1,0,0:0:0:0:
402,192,55217,1,0,0:0:0:0:
329,192,55311,1,0,0:0:0:0:
182,192,55311,1,0,0:0:0:0:
256,192,55405,1,0,0:0:0:0:
475,192,55405,1,0,0:0:0:0:
109,192,55405,1,0,0:0:0:0:
36,192,55405,1,0,0:0:0:0:
182,192,55498,1,0,0:0:0:0:
109,192,55592,1,0,0:0:0:0:
329,192,55592,1,0,0:0:0:0:
402,192,55592,1,0,0:0:0:0:
256,192,55686,1,0,0:0:0:0:
182,192,55686,1,0,0:0:0:0:
329,192,55780,1,0,0:0:0:0:
475,192,55780,1,0,0:0:0:0:
109,192,55780,1,0,0:0:0:0:
36,192,55780,1,0,0:0:0:0:
182,192,55873,1,0,0:0:0:0:
256,192,55967,1,0,0:0:0:0:
402,192,55967,1,0,0:0:0:0:
329,192,56061,1,0,0:0:0:0:
182,192,56061,1,0,0:0:0:0:
109,192,56155,1,0,0:0:0:0:
36,192,56155,1,0,0:0:0:0:
256,192,56155,1,0,0:0:0:0:
475,192,56155,1,0,0:0:0:0:
182,192,56248,1,0,0:0:0:0:
109,192,56342,1,0,0:0:0:0:
256,192,56342,1,0,0:0:0:0:
36,192,56342,1,0,0:0:0:0:
182,192,56436,1,0,0:0:0:0:
329,192,56436,1,0,0:0:0:0:
256,192,56530,1,0,0:0:0:0:
402,192,56530,1,0,0:0:0:0:
475,192,56530,1,0,0:0:0:0:
36,192,56530,1,0,0:0:0:0:
182,192,56623,1,0,0:0:0:0:
109,192,56717,1,0,0:0:0:0:
402,192,56717,1,0,0:0:0:0:
182,192,56811,1,0,0:0:0:0:
109,192,56905,1,0,0:0:0:0:
36,192,56905,1,0,0:0:0:0:
256,192,56905,1,0,0:0:0:0:
475,192,56905,1,0,0:0:0:0:
329,192,56998,1,0,0:0:0:0:
402,192,57092,1,0,0:0:0:0:
256,192,57092,1,0,0:0:0:0:
109,192,57092,1,0,0:0:0:0:
182,192,57186,1,0,0:0:0:0:
329,192,57280,1,0,0:0:0:0:
475,192,57280,1,0,0:0:0:0:
109,192,57280,1,0,0:0:0:0:
36,192,57280,1,0,0:0:0:0:
256,192,57373,1,0,0:0:0:0:
182,192,57467,1,0,0:0:0:0:
109,192,57467,1,0,0:0:0:0:
329,192,57561,1,0,0:0:0:0:
256,192,57561,1,0,0:0:0:0:
475,192,57655,1,0,0:0:0:0:
36,192,57655,1,0,0:0:0:0:
109,192,57655,1,0,0:0:0:0:
182,192,57655,1,0,0:0:0:0:
329,192,57748,1,0,0:0:0:0:
256,192,57842,1,0,0:0:0:0:
402,192,57842,1,0,0:0:0:0:
109,192,57842,1,0,0:0:0:0:
182,192,57936,1,0,0:0:0:0:
329,192,57936,1,0,0:0:0:0:
256,192,58030,1,0,0:0:0:0:
475,192,58030,1,0,0:0:0:0:
109,192,58030,1,0,0:0:0:0:
36,192,58030,1,0,0:0:0:0:
182,192,58123,1,0,0:0:0:0:
329,192,58217,1,0,0:0:0:0:
402,192,58217,1,0,0:0:0:0:
109,192,58311,1,0,0:0:0:0:
256,192,58311,1,0,0:0:0:0:
182,192,58405,1,0,0:0:0:0:
402,192,58405,1,0,0:0:0:0:
36,192,58405,1,0,0:0:0:0:
475,192,58405,1,0,0:0:0:0:
329,192,58498,1,0,0:0:0:0:
256,192,58592,1,0,0:0:0:0:
109,192,58592,1,0,0:0:0:0:
402,192,58592,1,0,0:0:0:0:
329,192,58686,1,0,0:0:0:0:
182,192,58686,1,0,0:0:0:0:
109,192,58780,1,0,0:0:0:0:
36,192,58780,1,0,0:0:0:0:
256,192,58780,1,0,0:0:0:0:
475,192,58780,1,0,0:0:0:0:
182,192,58873,1,0,0:0:0:0:
329,192,58967,1,0,0:0:0:0:
402,192,58967,1,0,0:0:0:0:
256,192,59061,1,0,0:0:0:0:
109,192,59061,1,0,0:0:0:0:
36,192,59155,1,0,0:0:0:0:
182,192,59155,1,0,0:0:0:0:
402,192,59155,1,0,0:0:0:0:
475,192,59155,1,0,0:0:0:0:
329,192,59248,1,0,0:0:0:0:
256,192,59342,1,0,0:0:0:0:
109,192,59342,1,0,0:0:0:0:
402,192,59342,1,0,0:0:0:0:
329,192,59436,1,0,0:0:0:0:
182,192,59436,1,0,0:0:0:0:
109,192,59530,1,0,0:0:0:0:
36,192,59530,1,0,0:0:0:0:
402,192,59530,1,0,0:0:0:0:
475,192,59530,1,0,0:0:0:0:
182,192,59576,1,0,0:0:0:0:
329,192,59623,1,0,0:0:0:0:
256,192,59670,1,0,0:0:0:0:
182,192,59717,1,0,0:0:0:0:
109,192,59717,1,0,0:0:0:0:
329,192,59811,1,0,0:0:0:0:
402,192,59811,1,0,0:0:0:0:
475,192,59905,1,0,0:0:0:0:
36,192,59905,1,0,0:0:0:0:
109,192,59905,1,0,0:0:0:0:
256,192,59905,1,0,0:0:0:0:
402,192,59951,1,0,0:0:0:0:
329,192,59998,1,0,0:0:0:0:
182,192,59998,1,0,0:0:0:0:
256,192,60045,1,0,0:0:0:0:
109,192,60092,1,0,0:0:0:0:
402,192,60139,1,0,0:0:0:0:
329,192,60186,1,0,0:0:0:0:
182,192,60186,1,0,0:0:0:0:
256,192,60233,1,0,0:0:0:0:
109,192,60280,1,0,0:0:0:0:
475,192,60280,1,0,0:0:0:0:
36,192,60280,1,0,0:0:0:0:
402,192,60373,1,0,0:0:0:0:
182,192,60373,1,0,0:0:0:0:
256,192,60467,1,0,0:0:0:0:
329,192,60467,1,0,0:0:0:0:
182,192,60655,1,0,0:0:0:0:
109,192,60655,1,0,0:0:0:0:
36,192,60655,1,0,0:0:0:0:
402,192,60655,1,0,0:0:0:0:
182,192,60748,1,0,0:0:0:0:
36,192,60748,1,0,0:0:0:0:
109,192,60748,1,0,0:0:0:0:
329,192,60842,1,0,0:0:0:0:
475,192,60842,1,0,0:0:0:0:
402,192,60842,1,0,0:0:0:0:
329,192,60936,1,0,0:0:0:0:
402,192,60936,1,0,0:0:0:0:
475,192,60936,1,0,0:0:0:0:
475,192,61030,1,0,0:0:0:0:
256,192,61030,1,0,0:0:0:0:
109,192,61030,1,0,0:0:0:0:
36,192,61030,1,0,0:0:0:0:
402,192,61030,1,0,0:0:0:0:
182,192,61123,1,0,0:0:0:0:
109,192,61217,1,0,0:0:0:0:
329,192,61217,1,0,0:0:0:0:
475,192,61217,1,0,0:0:0:0:
36,192,61217,1,0,0:0:0:0:
256,192,61311,1,0,0:0:0:0:
182,192,61405,1,0,0:0:0:0:
36,192,61405,1,0,0:0:0:0:
402,192,61405,1,0,0:0:0:0:
475,192,61405,1,0,0:0:0:0:
329,192,61498,1,0,0:0:0:0:
256,192,61592,1,0,0:0:0:0:
109,192,61592,1,0,0:0:0:0:
36,192,61592,1,0,0:0:0:0:
475,192,61592,1,0,0:0:0:0:
329,192,61686,1,0,0:0:0:0:
402,192,61780,1,0,0:0:0:0:
475,192,61780,1,0,0:0:0:0:
256,192,61780,1,0,0:0:0:0:
109,192,61780,1,0,0:0:0:0:
182,192,61873,1,0,0:0:0:0:
36,192,61873,1,0,0:0:0:0:
329,192,61967,1,0,0:0:0:0:
475,192,61967,1,0,0:0:0:0:
256,192,62061,1,0,0:0:0:0:
182,192,62061,1,0,0:0:0:0:
109,192,62061,1,0,0:0:0:0:
36,192,62061,1,0,0:0:0:0:
402,192,62155,1,0,0:0:0:0:
475,192,62155,1,0,0:0:0:0:
109,192,62248,1,0,0:0:0:0:
36,192,62248,1,0,0:0:0:0:
182,192,62342,1,0,0:0:0:0:
329,192,62342,1,0,0:0:0:0:
402,192,62342,1,0,0:0:0:0:
475,192,62342,1,0,0:0:0:0:
36,192,62436,1,0,0:0:0:0:
109,192,62436,1,0,0:0:0:0:
256,192,62530,1,0,0:0:0:0:
329,192,62530,1,0,0:0:0:0:
402,192,62530,1,0,0:0:0:0:
475,192,62530,1,0,0:0:0:0:
182,192,62623,1,0,0:0:0:0:
109,192,62717,1,0,0:0:0:0:
36,192,62717,1,0,0:0:0:0:
329,192,62717,1,0,0:0:0:0:
475,192,62717,1,0,0:0:0:0:
256,192,62811,1,0,0:0:0:0:
182,192,62905,1,0,0:0:0:0:
36,192,62905,1,0,0:0:0:0:
402,192,62905,1,0,0:0:0:0:
475,192,62905,1,0,0:0:0:0:
256,192,62998,1,0,0:0:0:0:
329,192,63092,1,0,0:0:0:0:
109,192,63092,1,0,0:0:0:0:
36,192,63092,1,0,0:0:0:0:
475,192,63092,1,0,0:0:0:0:
182,192,63186,1,0,0:0:0:0:
256,192,63280,1,0,0:0:0:0:
402,192,63280,1,0,0:0:0:0:
475,192,63280,1,0,0:0:0:0:
36,192,63280,1,0,0:0:0:0:
182,192,63373,1,0,0:0:0:0:
109,192,63467,1,0,0:0:0:0:
329,192,63467,1,0,0:0:0:0:
475,192,63467,1,0,0:0:0:0:
36,192,63467,1,0,0:0:0:0:
256,192,63561,1,0,0:0:0:0:
182,192,63655,1,0,0:0:0:0:
109,192,63655,1,0,0:0:0:0:
36,192,63655,1,0,0:0:0:0:
402,192,63655,1,0,0:0:0:0:
182,192,63748,1,0,0:0:0:0:
109,192,63748,1,0,0:0:0:0:
36,192,63748,1,0,0:0:0:0:
402,192,63842,1,0,0:0:0:0:
475,192,63842,1,0,0:0:0:0:
329,192,63842,1,0,0:0:0:0:
475,192,63936,1,0,0:0:0:0:
402,192,63936,1,0,0:0:0:0:
329,192,63936,1,0,0:0:0:0:
256,192,64030,1,0,0:0:0:0:
182,192,64030,1,0,0:0:0:0:
109,192,64030,1,0,0:0:0:0:
36,192,64030,1,0,0:0:0:0:
329,192,64123,1,0,0:0:0:0:
402,192,64217,1,0,0:0:0:0:
475,192,64217,1,0,0:0:0:0:
182,192,64217,1,0,0:0:0:0:
36,192,64217,1,0,0:0:0:0:
256,192,64311,1,0,0:0:0:0:
109,192,64405,1,0,0:0:0:0:
36,192,64405,1,0,0:0:0:0:
329,192,64405,1,0,0:0:0:0:
475,192,64405,1,0,0:0:0:0:
182,192,64498,1,0,0:0:0:0:
256,192,64592,1,0,0:0:0:0:
402,192,64592,1,0,0:0:0:0:
475,192,64592,1,0,0:0:0:0:
109,192,64592,1,0,0:0:0:0:
329,192,64686,1,0,0:0:0:0:
256,192,64780,1,0,0:0:0:0:
182,192,64780,1,0,0:0:0:0:
109,192,64780,1,0,0:0:0:0:
36,192,64780,1,0,0:0:0:0:
329,192,64873,1,0,0:0:0:0:
475,192,64873,1,0,0:0:0:0:
36,192,64967,1,0,0:0:0:0:
182,192,64967,1,0,0:0:0:0:
256,192,65061,1,0,0:0:0:0:
329,192,65061,1,0,0:0:0:0:
402,192,65061,1,0,0:0:0:0:
475,192,65061,1,0,0:0:0:0:
182,192,65155,1,0,0:0:0:0:
36,192,65155,1,0,0:0:0:0:
109,192,65155,1,0,0:0:0:0:
256,192,65155,1,0,0:0:0:0:
475,192,65248,1,0,0:0:0:0:
329,192,65248,1,0,0:0:0:0:
402,192,65342,1,0,0:0:0:0:
182,192,65342,1,0,0:0:0:0:
36,192,65342,1,0,0:0:0:0:
109,192,65342,1,0,0:0:0:0:
256,192,65436,1,0,0:0:0:0:
109,192,65530,1,0,0:0:0:0:
36,192,65530,1,0,0:0:0:0:
475,192,65530,1,0,0:0:0:0:
402,192,65576,1,0,0:0:0:0:
329,192,65623,1,0,0:0:0:0:
36,192,65670,1,0,0:0:0:0:
109,192,65717,1,0,0:0:0:0:
182,192,65764,1,0,0:0:0:0:
475,192,65811,1,0,0:0:0:0:
256,192,65811,1,0,0:0:0:0:
402,192,65858,1,0,0:0:0:0:
329,192,65905,1,0,0:0:0:0:
109,192,65905,1,0,0:0:0:0:
36,192,65905,1,0,0:0:0:0:
182,192,65905,1,0,0:0:0:0:
182,192,65998,1,0,0:0:0:0:
109,192,65998,1,0,0:0:0:0:
329,192,66092,1,0,0:0:0:0:
402,192,66092,1,0,0:0:0:0:
475,192,66092,1,0,0:0:0:0:
329,192,66186,1,0,0:0:0:0:
402,192,66186,1,0,0:0:0:0:
256,192,66280,1,0,0:0:0:0:
109,192,66280,1,0,0:0:0:0:
475,192,66280,1,0,0:0:0:0:
36,192,66280,1,0,0:0:0:0:
182,192,66373,1,0,0:0:0:0:
329,192,66373,1,0,0:0:0:0:
256,192,66467,1,0,0:0:0:0:
475,192,66467,1,0,0:0:0:0:
109,192,66467,1,0,0:0:0:0:
36,192,66467,1,0,0:0:0:0:
36,192,66561,1,0,0:0:0:0:
109,192,66561,1,0,0:0:0:0:
256,192,66561,1,0,0:0:0:0:
182,192,66655,1,0,0:0:0:0:
329,192,66655,1,0,0:0:0:0:
109,192,66748,1,0,0:0:0:0:
256,192,66748,1,0,0:0:0:0:
402,192,66842,1,0,0:0:0:0:
475,192,66842,1,0,0:0:0:0:
329,192,66842,1,0,0:0:0:0:
182,192,66842,1,0,0:0:0:0:
329,192,66936,1,0,0:0:0:0:
475,192,66936,1,0,0:0:0:0:
402,192,66936,1,0,0:0:0:0:
109,192,67030,1,0,0:0:0:0:
36,192,67030,1,0,0:0:0:0:
256,192,67030,1,0,0:0:0:0:
182,192,67030,1,0,0:0:0:0:
329,192,67123,1,0,0:0:0:0:
402,192,67217,1,0,0:0:0:0:
475,192,67217,1,0,0:0:0:0:
182,192,67217,1,0,0:0:0:0:
36,192,67217,1,0,0:0:0:0:
256,192,67311,1,0,0:0:0:0:
109,192,67405,1,0,0:0:0:0:
36,192,67405,1,0,0:0:0:0:
329,192,67405,1,0,0:0:0:0:
475,192,67405,1,0,0:0:0:0:
182,192,67498,1,0,0:0:0:0:
256,192,67592,1,0,0:0:0:0:
402,192,67592,1,0,0:0:0:0:
475,192,67592,1,0,0:0:0:0:
36,192,67592,1,0,0:0:0:0:
182,192,67686,1,0,0:0:0:0:
109,192,67780,1,0,0:0:0:0:
36,192,67780,1,0,0:0:0:0:
329,192,67780,1,0,0:0:0:0:
256,192,67780,1,0,0:0:0:0:
402,192,67873,1,0,0:0:0:0:
475,192,67873,1,0,0:0:0:0:
182,192,67967,1,0,0:0:0:0:
36,192,67967,1,0,0:0:0:0:
256,192,68061,1,0,0:0:0:0:
329,192,68061,1,0,0:0:0:0:
402,192,68061,1,0,0:0:0:0:
475,192,68061,1,0,0:0:0:0:
109,192,68155,1,0,0:0:0:0:
36,192,68155,1,0,0:0:0:0:
329,192,68248,1,0,0:0:0:0:
475,192,68248,1,0,0:0:0:0:
182,192,68342,1,0,0:0:0:0:
109,192,68342,1,0,0:0:0:0:
256,192,68342,1,0,0:0:0:0:
36,192,68342,1,0,0:0:0:0:
329,192,68436,1,0,0:0:0:0:
475,192,68436,1,0,0:0:0:0:
402,192,68530,1,0,0:0:0:0:
182,192,68530,1,0,0:0:0:0:
109,192,68530,1,0,0:0:0:0:
36,192,68530,1,0,0:0:0:0:
256,192,68623,1,0,0:0:0:0:
329,192,68717,1,0,0:0:0:0:
475,192,68717,1,0,0:0:0:0:
109,192,68717,1,0,0:0:0:0:
36,192,68717,1,0,0:0:0:0:
182,192,68811,1,0,0:0:0:0:
256,192,68905,1,0,0:0:0:0:
402,192,68905,1,0,0:0:0:0:
475,192,68905,1,0,0:0:0:0:
36,192,68905,1,0,0:0:0:0:
182,192,68998,1,0,0:0:0:0:
109,192,69092,1,0,0:0:0:0:
36,192,69092,1,0,0:0:0:0:
329,192,69092,1,0,0:0:0:0:
475,192,69092,1,0,0:0:0:0:
182,192,69186,1,0,0:0:0:0:
256,192,69280,1,0,0:0:0:0:
402,192,69280,1,0,0:0:0:0:
475,192,69280,1,0,0:0:0:0:
36,192,69280,1,0,0:0:0:0:
329,192,69373,1,0,0:0:0:0:
109,192,69467,1,0,0:0:0:0:
36,192,69467,1,0,0:0:0:0:
256,192,69467,1,0,0:0:0:0:
475,192,69467,1,0,0:0:0:0:
329,192,69561,1,0,0:0:0:0:
36,192,69655,1,0,0:0:0:0:
109,192,69655,1,0,0:0:0:0:
182,192,69655,1,0,0:0:0:0:
402,192,69655,1,0,0:0:0:0:
182,192,69748,1,0,0:0:0:0:
109,192,69748,1,0,0:0:0:0:
36,192,69748,1,0,0:0:0:0:
402,192,69842,1,0,0:0:0:0:
329,192,69842,1,0,0:0:0:0:
475,192,69842,1,0,0:0:0:0:
475,192,69936,1,0,0:0:0:0:
329,192,69936,1,0,0:0:0:0:
402,192,69936,1,0,0:0:0:0:
36,192,70030,1,0,0:0:0:0:
109,192,70030,1,0,0:0:0:0:
182,192,70030,1,0,0:0:0:0:
256,192,70030,1,0,0:0:0:0:
329,192,70123,1,0,0:0:0:0:
402,192,70217,1,0,0:0:0:0:
475,192,70217,1,0,0:0:0:0:
182,192,70217,1,0,0:0:0:0:
36,192,70217,1,0,0:0:0:0:
256,192,70311,1,0,0:0:0:0:
329,192,70405,1,0,0:0:0:0:
402,192,70405,1,0,0:0:0:0:
109,192,70405,1,0,0:0:0:0:
36,192,70405,1,0,0:0:0:0:
256,192,70498,1,0,0:0:0:0:
182,192,70592,1,0,0:0:0:0:
36,192,70592,1,0,0:0:0:0:
402,192,70592,1,0,0:0:0:0:
475,192,70592,1,0,0:0:0:0:
329,192,70686,1,0,0:0:0:0:
182,192,70780,1,0,0:0:0:0:
36,192,70780,1,0,0:0:0:0:
475,192,70780,1,0,0:0:0:0:
182,192,70873,1,0,0:0:0:0:
109,192,70967,1,0,0:0:0:0:
329,192,70967,1,0,0:0:0:0:
36,192,70967,1,0,0:0:0:0:
475,192,70967,1,0,0:0:0:0:
329,192,71061,1,0,0:0:0:0:
256,192,71155,1,0,0:0:0:0:
402,192,71155,1,0,0:0:0:0:
182,192,71155,1,0,0:0:0:0:
475,192,71155,1,0,0:0:0:0:
182,192,71248,1,0,0:0:0:0:
329,192,71342,1,0,0:0:0:0:
109,192,71342,1,0,0:0:0:0:
36,192,71342,1,0,0:0:0:0:
475,192,71342,1,0,0:0:0:0:
329,192,71436,1,0,0:0:0:0:
36,192,71530,1,0,0:0:0:0:
182,192,71530,1,0,0:0:0:0:
109,192,71530,1,0,0:0:0:0:
475,192,71530,1,0,0:0:0:0:
109,192,71623,1,0,0:0:0:0:
182,192,71623,1,0,0:0:0:0:
109,192,71717,1,0,0:0:0:0:
182,192,71717,1,0,0:0:0:0:
109,192,71811,1,0,0:0:0:0:
182,192,71811,1,0,0:0:0:0:
475,192,71905,1,0,0:0:0:0:
402,192,71905,1,0,0:0:0:0:
329,192,71905,1,0,0:0:0:0:
36,192,72092,1,0,0:0:0:0:
475,192,72092,1,0,0:0:0:0:
402,192,72139,1,0,0:0:0:0:
109,192,72139,1,0,0:0:0:0:
182,192,72186,1,0,0:0:0:0:
329,192,72186,1,0,0:0:0:0:
256,192,72233,1,0,0:0:0:0:
109,192,72280,1,0,0:0:0:0:
36,192,72280,1,0,0:0:0:0:
402,192,72280,1,0,0:0:0:0:
475,192,72280,1,0,0:0:0:0:
329,192,72467,1,0,0:0:0:0:
182,192,72467,1,0,0:0:0:0:
256,192,72467,1,0,0:0:0:0:
182,192,72655,1,0,0:0:0:0:
36,192,72655,1,0,0:0:0:0:
329,192,72748,1,0,0:0:0:0:
475,192,72748,1,0,0:0:0:0:
182,192,72842,1,0,0:0:0:0:
36,192,72842,1,0,0:0:0:0:
329,192,72936,1,0,0:0:0:0:
256,192,73030,1,0,0:0:0:0:
402,192,73030,1,0,0:0:0:0:
475,192,73030,1,0,0:0:0:0:
109,192,73030,1,0,0:0:0:0:
36,192,73030,1,0,0:0:0:0:
182,192,73123,1,0,0:0:0:0:
329,192,73217,1,0,0:0:0:0:
402,192,73217,1,0,0:0:0:0:
475,192,73217,1,0,0:0:0:0:
475,192,73311,1,0,0:0:0:0:
402,192,73311,1,0,0:0:0:0:
329,192,73311,1,0,0:0:0:0:
256,192,73405,1,0,0:0:0:0:
109,192,73405,1,0,0:0:0:0:
36,192,73405,1,0,0:0:0:0:
329,192,73498,1,0,0:0:0:0:
402,192,73498,1,0,0:0:0:0:
475,192,73498,1,0,0:0:0:0:
475,192,73592,1,0,0:0:0:0:
402,192,73592,1,0,0:0:0:0:
329,192,73592,1,0,0:0:0:0:
256,192,73686,1,0,0:0:0:0:
182,192,73780,1,0,0:0:0:0:
109,192,73780,1,0,0:0:0:0:
36,192,73780,1,0,0:0:0:0:
402,192,73780,1,0,0:0:0:0:
329,192,73873,1,0,0:0:0:0:
182,192,73967,1,0,0:0:0:0:
109,192,73967,1,0,0:0:0:0:
36,192,73967,1,0,0:0:0:0:
36,192,74061,1,0,0:0:0:0:
182,192,74061,1,0,0:0:0:0:
109,192,74061,1,0,0:0:0:0:
256,192,74155,1,0,0:0:0:0:
402,192,74155,1,0,0:0:0:0:
475,192,74155,1,0,0:0:0:0:
182,192,74248,1,0,0:0:0:0:
109,192,74248,1,0,0:0:0:0:
36,192,74248,1,0,0:0:0:0:
36,192,74342,1,0,0:0:0:0:
109,192,74342,1,0,0:0:0:0:
182,192,74342,1,0,0:0:0:0:
256,192,74436,1,0,0:0:0:0:
329,192,74530,1,0,0:0:0:0:
402,192,74530,1,0,0:0:0:0:
475,192,74530,1,0,0:0:0:0:
109,192,74530,1,0,0:0:0:0:
182,192,74623,1,0,0:0:0:0:
329,192,74717,1,0,0:0:0:0:
402,192,74717,1,0,0:0:0:0:
475,192,74717,1,0,0:0:0:0:
475,192,74811,1,0,0:0:0:0:
402,192,74811,1,0,0:0:0:0:
329,192,74811,1,0,0:0:0:0:
256,192,74905,1,0,0:0:0:0:
182,192,74905,1,0,0:0:0:0:
36,192,74905,1,0,0:0:0:0:
329,192,74998,1,0,0:0:0:0:
402,192,74998,1,0,0:0:0:0:
475,192,74998,1,0,0:0:0:0:
475,192,75092,1,0,0:0:0:0:
402,192,75092,1,0,0:0:0:0:
329,192,75092,1,0,0:0:0:0:
256,192,75186,1,0,0:0:0:0:
475,192,75280,1,0,0:0:0:0:
109,192,75280,1,0,0:0:0:0:
36,192,75280,1,0,0:0:0:0:
329,192,75280,1,0,0:0:0:0:
256,192,75373,1,0,0:0:0:0:
109,192,75467,1,0,0:0:0:0:
402,192,75467,1,0,0:0:0:0:
475,192,75467,1,0,0:0:0:0:
36,192,75467,1,0,0:0:0:0:
182,192,75561,1,0,0:0:0:0:
256,192,75655,1,0,0:0:0:0:
402,192,75655,1,0,0:0:0:0:
109,192,75655,1,0,0:0:0:0:
36,192,75655,1,0,0:0:0:0:
329,192,75748,1,0,0:0:0:0:
475,192,75842,1,0,0:0:0:0:
109,192,75842,1,0,0:0:0:0:
402,192,75842,1,0,0:0:0:0:
182,192,75842,1,0,0:0:0:0:
256,192,75936,1,0,0:0:0:0:
329,192,76030,1,0,0:0:0:0:
475,192,76030,1,0,0:0:0:0:
109,192,76030,1,0,0:0:0:0:
36,192,76030,1,0,0:0:0:0:
256,192,76123,1,0,0:0:0:0:
109,192,76217,1,0,0:0:0:0:
36,192,76217,1,0,0:0:0:0:
182,192,76217,1,0,0:0:0:0:
182,192,76311,1,0,0:0:0:0:
109,192,76311,1,0,0:0:0:0:
36,192,76311,1,0,0:0:0:0:
475,192,76405,1,0,0:0:0:0:
402,192,76405,1,0,0:0:0:0:
329,192,76405,1,0,0:0:0:0:
182,192,76498,1,0,0:0:0:0:
109,192,76498,1,0,0:0:0:0:
36,192,76498,1,0,0:0:0:0:
36,192,76592,1,0,0:0:0:0:
109,192,76592,1,0,0:0:0:0:
182,192,76592,1,0,0:0:0:0:
329,192,76686,1,0,0:0:0:0:
256,192,76780,1,0,0:0:0:0:
402,192,76780,1,0,0:0:0:0:
475,192,76780,1,0,0:0:0:0:
36,192,76780,1,0,0:0:0:0:
182,192,76873,1,0,0:0:0:0:
329,192,76967,1,0,0:0:0:0:
402,192,76967,1,0,0:0:0:0:
475,192,76967,1,0,0:0:0:0:
329,192,77061,1,0,0:0:0:0:
402,192,77061,1,0,0:0:0:0:
475,192,77061,1,0,0:0:0:0:
182,192,77155,1,0,0:0:0:0:
109,192,77155,1,0,0:0:0:0:
36,192,77155,1,0,0:0:0:0:
256,192,77248,1,0,0:0:0:0:
402,192,77248,1,0,0:0:0:0:
475,192,77248,1,0,0:0:0:0:
475,192,77342,1,0,0:0:0:0:
402,192,77342,1,0,0:0:0:0:
256,192,77342,1,0,0:0:0:0:
329,192,77436,1,0,0:0:0:0:
182,192,77530,1,0,0:0:0:0:
109,192,77530,1,0,0:0:0:0:
36,192,77530,1,0,0:0:0:0:
402,192,77530,1,0,0:0:0:0:
329,192,77623,1,0,0:0:0:0:
256,192,77717,1,0,0:0:0:0:
36,192,77717,1,0,0:0:0:0:
109,192,77717,1,0,0:0:0:0:
256,192,77811,1,0,0:0:0:0:
109,192,77811,1,0,0:0:0:0:
36,192,77811,1,0,0:0:0:0:
329,192,77905,1,0,0:0:0:0:
402,192,77905,1,0,0:0:0:0:
475,192,77905,1,0,0:0:0:0:
182,192,77998,1,0,0:0:0:0:
109,192,77998,1,0,0:0:0:0:
36,192,77998,1,0,0:0:0:0:
36,192,78092,1,0,0:0:0:0:
109,192,78092,1,0,0:0:0:0:
182,192,78092,1,0,0:0:0:0:
256,192,78186,1,0,0:0:0:0:
329,192,78280,1,0,0:0:0:0:
475,192,78280,1,0,0:0:0:0:
109,192,78280,1,0,0:0:0:0:
36,192,78280,1,0,0:0:0:0:
256,192,78373,1,0,0:0:0:0:
182,192,78467,1,0,0:0:0:0:
109,192,78467,1,0,0:0:0:0:
36,192,78467,1,0,0:0:0:0:
329,192,78467,1,0,0:0:0:0:
182,192,78561,1,0,0:0:0:0:
109,192,78561,1,0,0:0:0:0:
36,192,78561,1,0,0:0:0:0:
256,192,78655,1,0,0:0:0:0:
402,192,78655,1,0,0:0:0:0:
475,192,78655,1,0,0:0:0:0:
109,192,78748,1,0,0:0:0:0:
182,192,78842,1,0,0:0:0:0:
329,192,78842,1,0,0:0:0:0:
402,192,78842,1,0,0:0:0:0:
475,192,78842,1,0,0:0:0:0:
329,192,78936,1,0,0:0:0:0:
402,192,78936,1,0,0:0:0:0:
475,192,78936,1,0,0:0:0:0:
256,192,79030,1,0,0:0:0:0:
109,192,79030,1,0,0:0:0:0:
36,192,79030,1,0,0:0:0:0:
182,192,79123,1,0,0:0:0:0:
329,192,79217,1,0,0:0:0:0:
475,192,79217,1,0,0:0:0:0:
402,192,79217,1,0,0:0:0:0:
329,192,79311,1,0,0:0:0:0:
475,192,79311,1,0,0:0:0:0:
402,192,79311,1,0,0:0:0:0:
256,192,79405,1,0,0:0:0:0:
109,192,79405,1,0,0:0:0:0:
36,192,79405,1,0,0:0:0:0:
329,192,79498,1,0,0:0:0:0:
475,192,79498,1,0,0:0:0:0:
402,192,79498,1,0,0:0:0:0:
475,192,79592,1,0,0:0:0:0:
329,192,79592,1,0,0:0:0:0:
402,192,79592,1,0,0:0:0:0:
182,192,79686,1,0,0:0:0:0:
256,192,79780,1,0,0:0:0:0:
109,192,79780,1,0,0:0:0:0:
36,192,79780,1,0,0:0:0:0:
402,192,79780,1,0,0:0:0:0:
329,192,79873,1,0,0:0:0:0:
182,192,79967,1,0,0:0:0:0:
109,192,79967,1,0,0:0:0:0:
36,192,79967,1,0,0:0:0:0:
36,192,80061,1,0,0:0:0:0:
109,192,80061,1,0,0:0:0:0:
182,192,80061,1,0,0:0:0:0:
329,192,80155,1,0,0:0:0:0:
402,192,80155,1,0,0:0:0:0:
475,192,80155,1,0,0:0:0:0:
256,192,80248,1,0,0:0:0:0:
109,192,80248,1,0,0:0:0:0:
36,192,80248,1,0,0:0:0:0:
36,192,80342,1,0,0:0:0:0:
109,192,80342,1,0,0:0:0:0:
256,192,80342,1,0,0:0:0:0:
182,192,80436,1,0,0:0:0:0:
329,192,80530,1,0,0:0:0:0:
402,192,80530,1,0,0:0:0:0:
475,192,80530,1,0,0:0:0:0:
109,192,80530,1,0,0:0:0:0:
182,192,80623,1,0,0:0:0:0:
256,192,80717,1,0,0:0:0:0:
402,192,80717,1,0,0:0:0:0:
475,192,80717,1,0,0:0:0:0:
475,192,80811,1,0,0:0:0:0:
402,192,80811,1,0,0:0:0:0:
256,192,80811,1,0,0:0:0:0:
109,192,80905,1,0,0:0:0:0:
182,192,80905,1,0,0:0:0:0:
36,192,80905,1,0,0:0:0:0:
329,192,80998,1,0,0:0:0:0:
402,192,80998,1,0,0:0:0:0:
475,192,80998,1,0,0:0:0:0:
475,192,81092,1,0,0:0:0:0:
402,192,81092,1,0,0:0:0:0:
329,192,81092,1,0,0:0:0:0:
182,192,81186,1,0,0:0:0:0:
256,192,81280,1,0,0:0:0:0:
402,192,81280,1,0,0:0:0:0:
36,192,81280,1,0,0:0:0:0:
109,192,81280,1,0,0:0:0:0:
182,192,81373,1,0,0:0:0:0:
109,192,81467,1,0,0:0:0:0:
36,192,81467,1,0,0:0:0:0:
329,192,81467,1,0,0:0:0:0:
475,192,81467,1,0,0:0:0:0:
256,192,81561,1,0,0:0:0:0:
182,192,81655,1,0,0:0:0:0:
109,192,81655,1,0,0:0:0:0:
402,192,81655,1,0,0:0:0:0:
475,192,81655,1,0,0:0:0:0:
329,192,81748,1,0,0:0:0:0:
36,192,81842,1,0,0:0:0:0:
256,192,81842,1,0,0:0:0:0:
402,192,81842,1,0,0:0:0:0:
475,192,81842,1,0,0:0:0:0:
182,192,81936,1,0,0:0:0:0:
256,192,82030,1,0,0:0:0:0:
402,192,82030,1,0,0:0:0:0:
475,192,82030,1,0,0:0:0:0:
109,192,82030,1,0,0:0:0:0:
182,192,82123,1,0,0:0:0:0:
402,192,82217,1,0,0:0:0:0:
329,192,82217,1,0,0:0:0:0:
475,192,82217,1,0,0:0:0:0:
329,192,82311,1,0,0:0:0:0:
402,192,82311,1,0,0:0:0:0:
475,192,82311,1,0,0:0:0:0:
109,192,82405,1,0,0:0:0:0:
36,192,82405,1,0,0:0:0:0:
256,192,82405,1,0,0:0:0:0:
329,192,82498,1,0,0:0:0:0:
402,192,82498,1,0,0:0:0:0:
475,192,82498,1,0,0:0:0:0:
475,192,82592,1,0,0:0:0:0:
402,192,82592,1,0,0:0:0:0:
329,192,82592,1,0,0:0:0:0:
256,192,82686,1,0,0:0:0:0:
182,192,82780,1,0,0:0:0:0:
109,192,82780,1,0,0:0:0:0:
36,192,82780,1,0,0:0:0:0:
402,192,82780,1,0,0:0:0:0:
329,192,82873,1,0,0:0:0:0:
36,192,82967,1,0,0:0:0:0:
109,192,82967,1,0,0:0:0:0:
182,192,82967,1,0,0:0:0:0:
182,192,83061,1,0,0:0:0:0:
109,192,83061,1,0,0:0:0:0:
36,192,83061,1,0,0:0:0:0:
256,192,83155,1,0,0:0:0:0:
402,192,83155,1,0,0:0:0:0:
475,192,83155,1,0,0:0:0:0:
182,192,83248,1,0,0:0:0:0:
109,192,83248,1,0,0:0:0:0:
36,192,83248,1,0,0:0:0:0:
36,192,83342,1,0,0:0:0:0:
109,192,83342,1,0,0:0:0:0:
182,192,83342,1,0,0:0:0:0:
329,192,83436,1,0,0:0:0:0:
256,192,83530,1,0,0:0:0:0:
475,192,83530,1,0,0:0:0:0:
109,192,83530,1,0,0:0:0:0:
36,192,83530,1,0,0:0:0:0:
402,192,83576,1,0,0:0:0:0:
329,192,83623,1,0,0:0:0:0:
182,192,83623,1,0,0:0:0:0:
109,192,83717,1,0,0:0:0:0:
256,192,83717,1,0,0:0:0:0:
329,192,83811,1,0,0:0:0:0:
182,192,83811,1,0,0:0:0:0:
36,192,83905,1,0,0:0:0:0:
475,192,83905,1,0,0:0:0:0:
402,192,83905,1,0,0:0:0:0:
109,192,83951,1,0,0:0:0:0:
182,192,83998,1,0,0:0:0:0:
329,192,83998,1,0,0:0:0:0:
402,192,84092,1,0,0:0:0:0:
256,192,84092,1,0,0:0:0:0:
109,192,84139,1,0,0:0:0:0:
182,192,84186,1,0,0:0:0:0:
256,192,84233,1,0,0:0:0:0:
329,192,84280,1,0,0:0:0:0:
402,192,84280,1,0,0:0:0:0:
475,192,84280,1,0,0:0:0:0:
36,192,84280,1,0,0:0:0:0:
182,192,84373,1,0,0:0:0:0:
109,192,84467,1,0,0:0:0:0:
36,192,84467,1,0,0:0:0:0:
475,192,84467,1,0,0:0:0:0:
329,192,84467,1,0,0:0:0:0:
109,192,84655,1,0,0:0:0:0:
36,192,84655,1,0,0:0:0:0:
402,192,84655,1,0,0:0:0:0:
256,192,84655,1,0,0:0:0:0:
109,192,84748,1,0,0:0:0:0:
36,192,84748,1,0,0:0:0:0:
182,192,84842,1,0,0:0:0:0:
329,192,84842,1,0,0:0:0:0:
329,192,84936,1,0,0:0:0:0:
182,192,84936,1,0,0:0:0:0:
109,192,85030,1,0,0:0:0:0:
36,192,85030,1,0,0:0:0:0:
256,192,85030,1,0,0:0:0:0:
402,192,85030,1,0,0:0:0:0:
475,192,85030,1,0,0:0:0:0:
182,192,85123,1,0,0:0:0:0:
329,192,85217,1,0,0:0:0:0:
402,192,85217,1,0,0:0:0:0:
475,192,85217,1,0,0:0:0:0:
182,192,85311,1,0,0:0:0:0:
109,192,85311,1,0,0:0:0:0:
36,192,85311,1,0,0:0:0:0:
256,192,85405,1,0,0:0:0:0:
402,192,85405,1,0,0:0:0:0:
475,192,85405,1,0,0:0:0:0:
36,192,85498,1,0,0:0:0:0:
109,192,85498,1,0,0:0:0:0:
329,192,85498,1,0,0:0:0:0:
182,192,85592,1,0,0:0:0:0:
402,192,85592,1,0,0:0:0:0:
475,192,85592,1,0,0:0:0:0:
256,192,85686,1,0,0:0:0:0:
182,192,85780,1,0,0:0:0:0:
36,192,85780,1,0,0:0:0:0:
402,192,85780,1,0,0:0:0:0:
475,192,85780,1,0,0:0:0:0:
329,192,85873,1,0,0:0:0:0:
109,192,85967,1,0,0:0:0:0:
36,192,85967,1,0,0:0:0:0:
182,192,85967,1,0,0:0:0:0:
329,192,86061,1,0,0:0:0:0:
402,192,86061,1,0,0:0:0:0:
475,192,86061,1,0,0:0:0:0:
256,192,86155,1,0,0:0:0:0:
109,192,86155,1,0,0:0:0:0:
36,192,86155,1,0,0:0:0:0:
475,192,86248,1,0,0:0:0:0:
402,192,86248,1,0,0:0:0:0:
182,192,86248,1,0,0:0:0:0:
109,192,86342,1,0,0:0:0:0:
36,192,86342,1,0,0:0:0:0:
329,192,86342,1,0,0:0:0:0:
256,192,86436,1,0,0:0:0:0:
182,192,86530,1,0,0:0:0:0:
36,192,86530,1,0,0:0:0:0:
402,192,86530,1,0,0:0:0:0:
475,192,86530,1,0,0:0:0:0:
109,192,86623,1,0,0:0:0:0:
329,192,86717,1,0,0:0:0:0:
256,192,86717,1,0,0:0:0:0:
475,192,86717,1,0,0:0:0:0:
36,192,86811,1,0,0:0:0:0:
109,192,86811,1,0,0:0:0:0:
182,192,86811,1,0,0:0:0:0:
329,192,86905,1,0,0:0:0:0:
402,192,86905,1,0,0:0:0:0:
475,192,86905,1,0,0:0:0:0:
256,192,86998,1,0,0:0:0:0:
109,192,86998,1,0,0:0:0:0:
36,192,86998,1,0,0:0:0:0:
182,192,87092,1,0,0:0:0:0:
329,192,87092,1,0,0:0:0:0:
402,192,87092,1,0,0:0:0:0:
109,192,87186,1,0,0:0:0:0:
36,192,87280,1,0,0:0:0:0:
256,192,87280,1,0,0:0:0:0:
402,192,87280,1,0,0:0:0:0:
475,192,87280,1,0,0:0:0:0:
182,192,87373,1,0,0:0:0:0:
109,192,87467,1,0,0:0:0:0:
36,192,87467,1,0,0:0:0:0:
329,192,87467,1,0,0:0:0:0:
475,192,87467,1,0,0:0:0:0:
256,192,87561,1,0,0:0:0:0:
182,192,87655,1,0,0:0:0:0:
36,192,87655,1,0,0:0:0:0:
402,192,87655,1,0,0:0:0:0:
475,192,87655,1,0,0:0:0:0:
329,192,87748,1,0,0:0:0:0:
109,192,87842,1,0,0:0:0:0:
36,192,87842,1,0,0:0:0:0:
256,192,87842,1,0,0:0:0:0:
475,192,87842,1,0,0:0:0:0:
402,192,87936,1,0,0:0:0:0:
36,192,88030,1,0,0:0:0:0:
109,192,88030,1,0,0:0:0:0:
329,192,88030,1,0,0:0:0:0:
475,192,88030,1,0,0:0:0:0:
182,192,88123,1,0,0:0:0:0:
402,192,88217,1,0,0:0:0:0:
475,192,88217,1,0,0:0:0:0:
329,192,88217,1,0,0:0:0:0:
109,192,88311,1,0,0:0:0:0:
36,192,88311,1,0,0:0:0:0:
182,192,88311,1,0,0:0:0:0:
256,192,88405,1,0,0:0:0:0:
402,192,88405,1,0,0:0:0:0:
475,192,88405,1,0,0:0:0:0:
36,192,88498,1,0,0:0:0:0:
109,192,88498,1,0,0:0:0:0:
329,192,88498,1,0,0:0:0:0:
182,192,88592,1,0,0:0:0:0:
402,192,88592,1,0,0:0:0:0:
475,192,88592,1,0,0:0:0:0:
256,192,88686,1,0,0:0:0:0:
329,192,88780,1,0,0:0:0:0:
475,192,88780,1,0,0:0:0:0:
109,192,88780,1,0,0:0:0:0:
36,192,88780,1,0,0:0:0:0:
256,192,88873,1,0,0:0:0:0:
182,192,88967,1,0,0:0:0:0:
402,192,88967,1,0,0:0:0:0:
475,192,88967,1,0,0:0:0:0:
329,192,89061,1,0,0:0:0:0:
109,192,89061,1,0,0:0:0:0:
36,192,89061,1,0,0:0:0:0:
256,192,89155,1,0,0:0:0:0:
402,192,89155,1,0,0:0:0:0:
475,192,89155,1,0,0:0:0:0:
182,192,89248,1,0,0:0:0:0:
109,192,89248,1,0,0:0:0:0:
36,192,89248,1,0,0:0:0:0:
329,192,89342,1,0,0:0:0:0:
402,192,89342,1,0,0:0:0:0:
475,192,89342,1,0,0:0:0:0:
182,192,89436,1,0,0:0:0:0:
109,192,89530,1,0,0:0:0:0:
36,192,89530,1,0,0:0:0:0:
256,192,89530,1,0,0:0:0:0:
475,192,89530,1,0,0:0:0:0:
329,192,89623,1,0,0:0:0:0:
36,192,89717,1,0,0:0:0:0:
109,192,89717,1,0,0:0:0:0:
182,192,89717,1,0,0:0:0:0:
256,192,89811,1,0,0:0:0:0:
402,192,89811,1,0,0:0:0:0:
475,192,89811,1,0,0:0:0:0:
36,192,89905,1,0,0:0:0:0:
109,192,89905,1,0,0:0:0:0:
329,192,89905,1,0,0:0:0:0:
256,192,89998,1,0,0:0:0:0:
402,192,89998,1,0,0:0:0:0:
475,192,89998,1,0,0:0:0:0:
182,192,90092,1,0,0:0:0:0:
109,192,90092,1,0,0:0:0:0:
36,192,90092,1,0,0:0:0:0:
329,192,90186,1,0,0:0:0:0:
256,192,90280,1,0,0:0:0:0:
109,192,90280,1,0,0:0:0:0:
36,192,90280,1,0,0:0:0:0:
475,192,90280,1,0,0:0:0:0:
182,192,90373,1,0,0:0:0:0:
329,192,90467,1,0,0:0:0:0:
402,192,90467,1,0,0:0:0:0:
475,192,90467,1,0,0:0:0:0:
329,192,90561,1,0,0:0:0:0:
402,192,90561,1,0,0:0:0:0:
475,192,90561,1,0,0:0:0:0:
109,192,90655,1,0,0:0:0:0:
36,192,90655,1,0,0:0:0:0:
256,192,90655,1,0,0:0:0:0:
329,192,90748,1,0,0:0:0:0:
182,192,90842,1,0,0:0:0:0:
109,192,90842,1,0,0:0:0:0:
36,192,90842,1,0,0:0:0:0:
36,192,90936,1,0,0:0:0:0:
182,192,90936,1,0,0:0:0:0:
109,192,90936,1,0,0:0:0:0:
256,192,91030,1,0,0:0:0:0:
402,192,91030,1,0,0:0:0:0:
475,192,91030,1,0,0:0:0:0:
329,192,91030,1,0,0:0:0:0:
182,192,91123,1,0,0:0:0:0:
329,192,91217,1,0,0:0:0:0:
36,192,91217,1,0,0:0:0:0:
109,192,91217,1,0,0:0:0:0:
256,192,91311,1,0,0:0:0:0:
402,192,91311,1,0,0:0:0:0:
475,192,91311,1,0,0:0:0:0:
182,192,91405,1,0,0:0:0:0:
109,192,91405,1,0,0:0:0:0:
36,192,91405,1,0,0:0:0:0:
329,192,91498,1,0,0:0:0:0:
402,192,91498,1,0,0:0:0:0:
475,192,91498,1,0,0:0:0:0:
256,192,91592,1,0,0:0:0:0:
109,192,91592,1,0,0:0:0:0:
36,192,91592,1,0,0:0:0:0:
182,192,91686,1,0,0:0:0:0:
329,192,91780,1,0,0:0:0:0:
475,192,91780,1,0,0:0:0:0:
109,192,91780,1,0,0:0:0:0:
36,192,91780,1,0,0:0:0:0:
256,192,91873,1,0,0:0:0:0:
182,192,91967,1,0,0:0:0:0:
109,192,91967,1,0,0:0:0:0:
36,192,91967,1,0,0:0:0:0:
329,192,92061,1,0,0:0:0:0:
402,192,92061,1,0,0:0:0:0:
475,192,92061,1,0,0:0:0:0:
256,192,92155,1,0,0:0:0:0:
109,192,92155,1,0,0:0:0:0:
36,192,92155,1,0,0:0:0:0:
182,192,92248,1,0,0:0:0:0:
402,192,92248,1,0,0:0:0:0:
475,192,92248,1,0,0:0:0:0:
329,192,92342,1,0,0:0:0:0:
109,192,92342,1,0,0:0:0:0:
36,192,92342,1,0,0:0:0:0:
256,192,92436,1,0,0:0:0:0:
182,192,92530,1,0,0:0:0:0:
36,192,92530,1,0,0:0:0:0:
475,192,92530,1,0,0:0:0:0:
402,192,92530,1,0,0:0:0:0:
329,192,92623,1,0,0:0:0:0:
109,192,92717,1,0,0:0:0:0:
36,192,92717,1,0,0:0:0:0:
182,192,92717,1,0,0:0:0:0:
256,192,92811,1,0,0:0:0:0:
402,192,92811,1,0,0:0:0:0:
475,192,92811,1,0,0:0:0:0:
182,192,92905,1,0,0:0:0:0:
109,192,92905,1,0,0:0:0:0:
36,192,92905,1,0,0:0:0:0:
329,192,92998,1,0,0:0:0:0:
402,192,92998,1,0,0:0:0:0:
475,192,92998,1,0,0:0:0:0:
256,192,93092,1,0,0:0:0:0:
109,192,93092,1,0,0:0:0:0:
36,192,93092,1,0,0:0:0:0:
329,192,93186,1,0,0:0:0:0:
402,192,93280,1,0,0:0:0:0:
475,192,93280,1,0,0:0:0:0:
182,192,93280,1,0,0:0:0:0:
36,192,93280,1,0,0:0:0:0:
256,192,93373,1,0,0:0:0:0:
109,192,93467,1,0,0:0:0:0:
36,192,93467,1,0,0:0:0:0:
329,192,93467,1,0,0:0:0:0:
475,192,93467,1,0,0:0:0:0:
182,192,93561,1,0,0:0:0:0:
256,192,93655,1,0,0:0:0:0:
402,192,93655,1,0,0:0:0:0:
475,192,93655,1,0,0:0:0:0:
36,192,93655,1,0,0:0:0:0:
182,192,93748,1,0,0:0:0:0:
109,192,93842,1,0,0:0:0:0:
36,192,93842,1,0,0:0:0:0:
329,192,93842,1,0,0:0:0:0:
475,192,93842,1,0,0:0:0:0:
256,192,93936,1,0,0:0:0:0:
36,192,94030,1,0,0:0:0:0:
182,192,94030,1,0,0:0:0:0:
402,192,94030,1,0,0:0:0:0:
475,192,94030,1,0,0:0:0:0:
329,192,94123,1,0,0:0:0:0:
109,192,94217,1,0,0:0:0:0:
256,192,94217,1,0,0:0:0:0:
182,192,94217,1,0,0:0:0:0:
329,192,94311,1,0,0:0:0:0:
402,192,94311,1,0,0:0:0:0:
475,192,94311,1,0,0:0:0:0:
256,192,94405,1,0,0:0:0:0:
109,192,94405,1,0,0:0:0:0:
36,192,94405,1,0,0:0:0:0:
329,192,94498,1,0,0:0:0:0:
402,192,94498,1,0,0:0:0:0:
475,192,94498,1,0,0:0:0:0:
182,192,94592,1,0,0:0:0:0:
109,192,94592,1,0,0:0:0:0:
36,192,94592,1,0,0:0:0:0:
256,192,94686,1,0,0:0:0:0:
475,192,94780,1,0,0:0:0:0:
109,192,94780,1,0,0:0:0:0:
36,192,94780,1,0,0:0:0:0:
329,192,94780,1,0,0:0:0:0:
182,192,94873,1,0,0:0:0:0:
109,192,94967,1,0,0:0:0:0:
36,192,94967,1,0,0:0:0:0:
256,192,94967,1,0,0:0:0:0:
402,192,94967,1,0,0:0:0:0:
475,192,94967,1,0,0:0:0:0:
329,192,95061,1,0,0:0:0:0:
109,192,95155,1,0,0:0:0:0:
36,192,95155,1,0,0:0:0:0:
182,192,95155,1,0,0:0:0:0:
256,192,95155,1,0,0:0:0:0:
475,192,95155,1,0,0:0:0:0:
329,192,95248,1,0,0:0:0:0:
402,192,95342,1,0,0:0:0:0:
475,192,95342,1,0,0:0:0:0:
109,192,95342,1,0,0:0:0:0:
36,192,95342,1,0,0:0:0:0:
256,192,95342,1,0,0:0:0:0:
182,192,95436,1,0,0:0:0:0:
329,192,95530,1,0,0:0:0:0:
475,192,95530,1,0,0:0:0:0:
36,192,95530,1,0,0:0:0:0:
109,192,95530,1,0,0:0:0:0:
329,192,95623,1,0,0:0:0:0:
475,192,95623,1,0,0:0:0:0:
182,192,95717,1,0,0:0:0:0:
36,192,95717,1,0,0:0:0:0:
36,192,95811,1,0,0:0:0:0:
182,192,95811,1,0,0:0:0:0:
256,192,95905,1,0,0:0:0:0:
402,192,95905,1,0,0:0:0:0:
475,192,95905,1,0,0:0:0:0:
182,192,96092,1,0,0:0:0:0:
329,192,96092,1,0,0:0:0:0:
109,192,96280,1,0,0:0:0:0:
36,192,96280,1,0,0:0:0:0:
402,192,96280,1,0,0:0:0:0:
475,192,96280,1,0,0:0:0:0:
329,192,96373,1,0,0:0:0:0:
182,192,96373,1,0,0:0:0:0:
109,192,96467,1,0,0:0:0:0:
36,192,96467,1,0,0:0:0:0:
475,192,96467,1,0,0:0:0:0:
402,192,96467,1,0,0:0:0:0:
182,192,96655,1,0,0:0:0:0:
329,192,96748,1,0,0:0:0:0:
182,192,96842,1,0,0:0:0:0:
329,192,96936,1,0,0:0:0:0:
36,192,97030,1,0,0:0:0:0:
109,192,97030,1,0,0:0:0:0:
256,192,97030,1,0,0:0:0:0:
402,192,97030,1,0,0:0:0:0:
475,192,97030,1,0,0:0:0:0:
182,192,97030,1,0,0:0:0:0:
329,192,97030,1,0,0:0:0:0:
109,192,97217,1,0,0:0:0:0:
182,192,97217,1,0,0:0:0:0:
329,192,97311,1,0,0:0:0:0:
402,192,97311,1,0,0:0:0:0:
475,192,97311,1,0,0:0:0:0:
256,192,97405,1,0,0:0:0:0:
109,192,97405,128,0,97780:0:0:0:0:
36,192,97405,128,0,97780:0:0:0:0:
182,192,97592,1,0,0:0:0:0:
402,192,97592,1,0,0:0:0:0:
475,192,97592,1,0,0:0:0:0:
329,192,97780,128,0,98155:0:0:0:0:
475,192,97780,128,0,98155:0:0:0:0:
182,192,97780,1,0,0:0:0:0:
402,192,97780,1,0,0:0:0:0:
256,192,97967,1,0,0:0:0:0:
109,192,98155,128,0,98530:0:0:0:0:
182,192,98155,128,0,98530:0:0:0:0:
36,192,98155,1,0,0:0:0:0:
329,192,98342,1,0,0:0:0:0:
475,192,98342,1,0,0:0:0:0:
36,192,98530,1,0,0:0:0:0:
256,192,98530,1,0,0:0:0:0:
402,192,98530,1,0,0:0:0:0:
475,192,98530,1,0,0:0:0:0:
182,192,98717,1,0,0:0:0:0:
182,192,98811,1,0,0:0:0:0:
109,192,98905,1,0,0:0:0:0:
36,192,98905,1,0,0:0:0:0:
402,192,98905,1,0,0:0:0:0:
475,192,98905,1,0,0:0:0:0:
182,192,98998,1,0,0:0:0:0:
329,192,99092,1,0,0:0:0:0:
475,192,99092,1,0,0:0:0:0:
256,192,99280,1,0,0:0:0:0:
109,192,99280,1,0,0:0:0:0:
36,192,99280,1,0,0:0:0:0:
402,192,99280,1,0,0:0:0:0:
182,192,99467,1,0,0:0:0:0:
329,192,99467,1,0,0:0:0:0:
329,192,99655,1,0,0:0:0:0:
475,192,99655,1,0,0:0:0:0:
36,192,99655,1,0,0:0:0:0:
109,192,99748,1,0,0:0:0:0:
256,192,99842,1,0,0:0:0:0:
402,192,99842,1,0,0:0:0:0:
36,192,100030,1,0,0:0:0:0:
109,192,100030,1,0,0:0:0:0:
329,192,100030,1,0,0:0:0:0:
475,192,100030,1,0,0:0:0:0:
36,192,100217,1,0,0:0:0:0:
109,192,100217,1,0,0:0:0:0:
182,192,100311,1,0,0:0:0:0:
329,192,100311,1,0,0:0:0:0:
402,192,100405,128,0,100780:0:0:0:0:
475,192,100405,128,0,100780:0:0:0:0:
256,192,100405,1,0,0:0:0:0:
109,192,100592,1,0,0:0:0:0:
182,192,100592,1,0,0:0:0:0:
329,192,100592,1,0,0:0:0:0:
109,192,100780,128,0,101155:0:0:0:0:
36,192,100780,128,0,101155:0:0:0:0:
256,192,100780,1,0,0:0:0:0:
329,192,100780,1,0,0:0:0:0:
182,192,100967,1,0,0:0:0:0:
329,192,101155,128,0,101530:0:0:0:0:
475,192,101155,128,0,101530:0:0:0:0:
402,192,101155,1,0,0:0:0:0:
256,192,101342,1,0,0:0:0:0:
109,192,101342,1,0,0:0:0:0:
36,192,101530,1,0,0:0:0:0:
109,192,101530,1,0,0:0:0:0:
182,192,101530,1,0,0:0:0:0:
402,192,101530,1,0,0:0:0:0:
329,192,101717,1,0,0:0:0:0:
329,192,101811,1,0,0:0:0:0:
109,192,101905,1,0,0:0:0:0:
36,192,101905,1,0,0:0:0:0:
475,192,101905,1,0,0:0:0:0:
256,192,101905,1,0,0:0:0:0:
329,192,101998,1,0,0:0:0:0:
182,192,102092,1,0,0:0:0:0:
109,192,102092,1,0,0:0:0:0:
329,192,102280,1,0,0:0:0:0:
475,192,102280,1,0,0:0:0:0:
402,192,102280,1,0,0:0:0:0:
36,192,102280,1,0,0:0:0:0:
182,192,102373,1,0,0:0:0:0:
109,192,102467,1,0,0:0:0:0:
329,192,102467,1,0,0:0:0:0:
329,192,102561,1,0,0:0:0:0:
109,192,102655,1,0,0:0:0:0:
182,192,102655,1,0,0:0:0:0:
36,192,102655,1,0,0:0:0:0:
475,192,102655,1,0,0:0:0:0:
329,192,102748,1,0,0:0:0:0:
402,192,102842,1,0,0:0:0:0:
182,192,102842,1,0,0:0:0:0:
182,192,102936,1,0,0:0:0:0:
36,192,103030,1,0,0:0:0:0:
329,192,103030,1,0,0:0:0:0:
475,192,103030,1,0,0:0:0:0:
109,192,103030,1,0,0:0:0:0:
109,192,103217,1,0,0:0:0:0:
256,192,103217,1,0,0:0:0:0:
329,192,103311,1,0,0:0:0:0:
402,192,103311,1,0,0:0:0:0:
475,192,103311,1,0,0:0:0:0:
36,192,103405,128,0,103780:0:0:0:0:
182,192,103405,128,0,103780:0:0:0:0:
109,192,103405,1,0,0:0:0:0:
256,192,103592,1,0,0:0:0:0:
402,192,103592,1,0,0:0:0:0:
475,192,103592,1,0,0:0:0:0:
402,192,103780,128,0,104155:0:0:0:0:
329,192,103780,128,0,104155:0:0:0:0:
109,192,103780,1,0,0:0:0:0:
475,192,103780,1,0,0:0:0:0:
256,192,103967,1,0,0:0:0:0:
109,192,104155,128,0,104530:0:0:0:0:
182,192,104155,128,0,104530:0:0:0:0:
36,192,104155,1,0,0:0:0:0:
329,192,104342,1,0,0:0:0:0:
475,192,104342,1,0,0:0:0:0:
36,192,104530,1,0,0:0:0:0:
256,192,104530,1,0,0:0:0:0:
402,192,104530,1,0,0:0:0:0:
475,192,104530,1,0,0:0:0:0:
182,192,104717,1,0,0:0:0:0:
182,192,104811,1,0,0:0:0:0:
109,192,104905,1,0,0:0:0:0:
36,192,104905,1,0,0:0:0:0:
402,192,104905,1,0,0:0:0:0:
475,192,104905,1,0,0:0:0:0:
182,192,104998,1,0,0:0:0:0:
329,192,105092,1,0,0:0:0:0:
109,192,105092,1,0,0:0:0:0:
36,192,105092,1,0,0:0:0:0:
256,192,105280,1,0,0:0:0:0:
402,192,105280,1,0,0:0:0:0:
475,192,105280,1,0,0:0:0:0:
109,192,105280,1,0,0:0:0:0:
182,192,105467,1,0,0:0:0:0:
329,192,105467,1,0,0:0:0:0:
329,192,105655,1,0,0:0:0:0:
109,192,105655,1,0,0:0:0:0:
36,192,105655,1,0,0:0:0:0:
402,192,105748,1,0,0:0:0:0:
182,192,105842,1,0,0:0:0:0:
329,192,105842,1,0,0:0:0:0:
36,192,106030,1,0,0:0:0:0:
109,192,106030,1,0,0:0:0:0:
256,192,106030,1,0,0:0:0:0:
475,192,106030,1,0,0:0:0:0:
182,192,106217,1,0,0:0:0:0:
36,192,106217,1,0,0:0:0:0:
256,192,106311,1,0,0:0:0:0:
329,192,106311,1,0,0:0:0:0:
402,192,106405,128,0,106780:0:0:0:0:
475,192,106405,128,0,106780:0:0:0:0:
109,192,106405,1,0,0:0:0:0:
36,192,106405,1,0,0:0:0:0:
182,192,106592,1,0,0:0:0:0:
329,192,106592,1,0,0:0:0:0:
109,192,106780,1,0,0:0:0:0:
36,192,106780,1,0,0:0:0:0:
256,192,106780,1,0,0:0:0:0:
329,192,106873,1,0,0:0:0:0:
36,192,106967,1,0,0:0:0:0:
109,192,106967,1,0,0:0:0:0:
182,192,106967,1,0,0:0:0:0:
329,192,107061,1,0,0:0:0:0:
402,192,107061,1,0,0:0:0:0:
475,192,107061,1,0,0:0:0:0:
36,192,107155,128,0,107530:0:0:0:0:
109,192,107155,128,0,107530:0:0:0:0:
256,192,107155,1,0,0:0:0:0:
329,192,107342,1,0,0:0:0:0:
475,192,107342,1,0,0:0:0:0:
402,192,107530,1,0,0:0:0:0:
475,192,107530,1,0,0:0:0:0:
182,192,107530,1,0,0:0:0:0:
256,192,107530,1,0,0:0:0:0:
182,192,107623,1,0,0:0:0:0:
329,192,107717,1,0,0:0:0:0:
402,192,107717,1,0,0:0:0:0:
475,192,107717,1,0,0:0:0:0:
329,192,107811,1,0,0:0:0:0:
402,192,107811,1,0,0:0:0:0:
256,192,107905,1,0,0:0:0:0:
109,192,107905,1,0,0:0:0:0:
36,192,107905,1,0,0:0:0:0:
256,192,108092,1,0,0:0:0:0:
402,192,108092,1,0,0:0:0:0:
475,192,108092,1,0,0:0:0:0:
182,192,108186,1,0,0:0:0:0:
36,192,108186,1,0,0:0:0:0:
329,192,108280,1,0,0:0:0:0:
402,192,108280,1,0,0:0:0:0:
475,192,108280,1,0,0:0:0:0:
329,192,108373,1,0,0:0:0:0:
109,192,108467,1,0,0:0:0:0:
182,192,108467,1,0,0:0:0:0:
182,192,108561,1,0,0:0:0:0:
329,192,108655,1,0,0:0:0:0:
475,192,108655,1,0,0:0:0:0:
36,192,108655,1,0,0:0:0:0:
402,192,108655,1,0,0:0:0:0:
329,192,108748,1,0,0:0:0:0:
109,192,108842,1,0,0:0:0:0:
182,192,108842,1,0,0:0:0:0:
182,192,108936,1,0,0:0:0:0:
36,192,109030,1,0,0:0:0:0:
109,192,109030,1,0,0:0:0:0:
256,192,109030,1,0,0:0:0:0:
402,192,109030,1,0,0:0:0:0:
475,192,109030,1,0,0:0:0:0:
182,192,109217,1,0,0:0:0:0:
329,192,109217,1,0,0:0:0:0:
109,192,109311,1,0,0:0:0:0:
256,192,109311,1,0,0:0:0:0:
36,192,109311,1,0,0:0:0:0:
402,192,109405,128,0,109780:0:0:0:0:
475,192,109405,128,0,109780:0:0:0:0:
182,192,109405,1,0,0:0:0:0:
329,192,109405,1,0,0:0:0:0:
109,192,109592,1,0,0:0:0:0:
36,192,109592,1,0,0:0:0:0:
256,192,109592,1,0,0:0:0:0:
36,192,109780,128,0,110155:0:0:0:0:
182,192,109780,128,0,110155:0:0:0:0:
109,192,109780,1,0,0:0:0:0:
329,192,109780,1,0,0:0:0:0:
256,192,109967,1,0,0:0:0:0:
329,192,110155,128,0,110530:0:0:0:0:
402,192,110155,128,0,110530:0:0:0:0:
109,192,110155,1,0,0:0:0:0:
475,192,110155,1,0,0:0:0:0:
182,192,110342,1,0,0:0:0:0:
36,192,110342,1,0,0:0:0:0:
36,192,110530,1,0,0:0:0:0:
256,192,110530,1,0,0:0:0:0:
475,192,110530,1,0,0:0:0:0:
109,192,110530,1,0,0:0:0:0:
329,192,110717,1,0,0:0:0:0:
329,192,110811,1,0,0:0:0:0:
109,192,110905,1,0,0:0:0:0:
36,192,110905,1,0,0:0:0:0:
256,192,110905,1,0,0:0:0:0:
475,192,110905,1,0,0:0:0:0:
329,192,110998,1,0,0:0:0:0:
182,192,111092,1,0,0:0:0:0:
402,192,111092,1,0,0:0:0:0:
36,192,111092,1,0,0:0:0:0:
329,192,111280,1,0,0:0:0:0:
109,192,111280,1,0,0:0:0:0:
256,192,111280,1,0,0:0:0:0:
475,192,111280,1,0,0:0:0:0:
182,192,111467,1,0,0:0:0:0:
402,192,111467,1,0,0:0:0:0:
329,192,111655,1,0,0:0:0:0:
109,192,111655,1,0,0:0:0:0:
36,192,111655,1,0,0:0:0:0:
475,192,111655,1,0,0:0:0:0:
402,192,111748,1,0,0:0:0:0:
256,192,111842,1,0,0:0:0:0:
109,192,111842,1,0,0:0:0:0:
36,192,112030,1,0,0:0:0:0:
182,192,112030,1,0,0:0:0:0:
475,192,112030,1,0,0:0:0:0:
402,192,112030,1,0,0:0:0:0:
329,192,112123,1,0,0:0:0:0:
109,192,112217,1,0,0:0:0:0:
256,192,112217,1,0,0:0:0:0:
329,192,112311,1,0,0:0:0:0:
475,192,112311,1,0,0:0:0:0:
182,192,112405,128,0,112780:0:0:0:0:
36,192,112405,128,0,112780:0:0:0:0:
109,192,112405,1,0,0:0:0:0:
402,192,112405,1,0,0:0:0:0:
256,192,112592,1,0,0:0:0:0:
329,192,112592,1,0,0:0:0:0:
475,192,112592,1,0,0:0:0:0:
329,192,112780,128,0,113155:0:0:0:0:
475,192,112780,128,0,113155:0:0:0:0:
402,192,112780,1,0,0:0:0:0:
109,192,112780,1,0,0:0:0:0:
256,192,112967,1,0,0:0:0:0:
109,192,113155,128,0,113530:0:0:0:0:
182,192,113155,128,0,113530:0:0:0:0:
402,192,113155,1,0,0:0:0:0:
36,192,113155,1,0,0:0:0:0:
256,192,113342,1,0,0:0:0:0:
36,192,113530,1,0,0:0:0:0:
329,192,113530,1,0,0:0:0:0:
475,192,113530,1,0,0:0:0:0:
182,192,113623,1,0,0:0:0:0:
329,192,113717,1,0,0:0:0:0:
109,192,113717,1,0,0:0:0:0:
329,192,113811,1,0,0:0:0:0:
109,192,113905,1,0,0:0:0:0:
36,192,113905,1,0,0:0:0:0:
256,192,113905,1,0,0:0:0:0:
475,192,113905,1,0,0:0:0:0:
329,192,113998,1,0,0:0:0:0:
182,192,114092,1,0,0:0:0:0:
402,192,114092,1,0,0:0:0:0:
109,192,114092,1,0,0:0:0:0:
256,192,114186,1,0,0:0:0:0:
329,192,114280,1,0,0:0:0:0:
475,192,114280,1,0,0:0:0:0:
36,192,114280,1,0,0:0:0:0:
109,192,114280,1,0,0:0:0:0:
402,192,114373,1,0,0:0:0:0:
182,192,114467,1,0,0:0:0:0:
109,192,114467,1,0,0:0:0:0:
36,192,114561,1,0,0:0:0:0:
329,192,114655,1,0,0:0:0:0:
109,192,114655,1,0,0:0:0:0:
475,192,114655,1,0,0:0:0:0:
256,192,114748,1,0,0:0:0:0:
182,192,114842,1,0,0:0:0:0:
402,192,114842,1,0,0:0:0:0:
475,192,114842,1,0,0:0:0:0:
182,192,114936,1,0,0:0:0:0:
36,192,115030,1,0,0:0:0:0:
109,192,115030,1,0,0:0:0:0:
329,192,115030,1,0,0:0:0:0:
475,192,115030,1,0,0:0:0:0:
109,192,115217,1,0,0:0:0:0:
36,192,115217,1,0,0:0:0:0:
182,192,115217,1,0,0:0:0:0:
256,192,115311,1,0,0:0:0:0:
402,192,115311,1,0,0:0:0:0:
475,192,115311,1,0,0:0:0:0:
182,192,115405,128,0,115780:0:0:0:0:
329,192,115405,128,0,115780:0:0:0:0:
36,192,115405,1,0,0:0:0:0:
109,192,115405,1,0,0:0:0:0:
256,192,115592,1,0,0:0:0:0:
36,192,115780,128,0,116155:0:0:0:0:
475,192,115780,128,0,116155:0:0:0:0:
109,192,115780,1,0,0:0:0:0:
402,192,115780,1,0,0:0:0:0:
256,192,115967,1,0,0:0:0:0:
182,192,116155,128,0,116530:0:0:0:0:
329,192,116155,128,0,116530:0:0:0:0:
109,192,116155,1,0,0:0:0:0:
402,192,116155,1,0,0:0:0:0:
256,192,116342,1,0,0:0:0:0:
36,192,116530,1,0,0:0:0:0:
109,192,116530,1,0,0:0:0:0:
475,192,116530,1,0,0:0:0:0:
402,192,116530,1,0,0:0:0:0:
182,192,116717,1,0,0:0:0:0:
329,192,116717,1,0,0:0:0:0:
182,192,116811,1,0,0:0:0:0:
109,192,116905,1,0,0:0:0:0:
36,192,116905,1,0,0:0:0:0:
402,192,116905,1,0,0:0:0:0:
475,192,116905,1,0,0:0:0:0:
182,192,116998,1,0,0:0:0:0:
329,192,117092,1,0,0:0:0:0:
109,192,117092,1,0,0:0:0:0:
475,192,117092,1,0,0:0:0:0:
256,192,117280,1,0,0:0:0:0:
109,192,117280,1,0,0:0:0:0:
36,192,117280,1,0,0:0:0:0:
402,192,117280,1,0,0:0:0:0:
182,192,117467,1,0,0:0:0:0:
402,192,117467,1,0,0:0:0:0:
475,192,117467,1,0,0:0:0:0:
329,192,117655,1,0,0:0:0:0:
109,192,117655,1,0,0:0:0:0:
36,192,117655,1,0,0:0:0:0:
402,192,117748,1,0,0:0:0:0:
182,192,117842,1,0,0:0:0:0:
329,192,117842,1,0,0:0:0:0:
109,192,117842,1,0,0:0:0:0:
36,192,118030,1,0,0:0:0:0:
256,192,118030,1,0,0:0:0:0:
109,192,118030,1,0,0:0:0:0:
402,192,118030,1,0,0:0:0:0:
182,192,118217,1,0,0:0:0:0:
329,192,118217,1,0,0:0:0:0:
402,192,118217,1,0,0:0:0:0:
109,192,118311,1,0,0:0:0:0:
36,192,118311,1,0,0:0:0:0:
256,192,118311,1,0,0:0:0:0:
329,192,118405,128,0,118780:0:0:0:0:
475,192,118405,128,0,118780:0:0:0:0:
182,192,118405,1,0,0:0:0:0:
402,192,118405,1,0,0:0:0:0:
109,192,118592,1,0,0:0:0:0:
36,192,118592,1,0,0:0:0:0:
256,192,118592,1,0,0:0:0:0:
182,192,118686,1,0,0:0:0:0:
36,192,118780,128,0,119155:0:0:0:0:
109,192,118780,128,0,119155:0:0:0:0:
256,192,118780,1,0,0:0:0:0:
402,192,118780,1,0,0:0:0:0:
329,192,118967,1,0,0:0:0:0:
402,192,118967,1,0,0:0:0:0:
475,192,118967,1,0,0:0:0:0:
402,192,119155,128,0,119530:0:0:0:0:
475,192,119155,128,0,119530:0:0:0:0:
182,192,119155,1,0,0:0:0:0:
256,192,119155,1,0,0:0:0:0:
36,192,119342,1,0,0:0:0:0:
329,192,119342,1,0,0:0:0:0:
109,192,119342,1,0,0:0:0:0:
36,192,119530,1,0,0:0:0:0:
109,192,119530,1,0,0:0:0:0:
182,192,119530,1,0,0:0:0:0:
329,192,119530,1,0,0:0:0:0:
402,192,119623,1,0,0:0:0:0:
475,192,119623,1,0,0:0:0:0:
256,192,119623,1,0,0:0:0:0:
182,192,119717,1,0,0:0:0:0:
36,192,119717,1,0,0:0:0:0:
109,192,119717,1,0,0:0:0:0:
256,192,119811,1,0,0:0:0:0:
402,192,119811,1,0,0:0:0:0:
36,192,119905,1,0,0:0:0:0:
109,192,119905,1,0,0:0:0:0:
329,192,119905,1,0,0:0:0:0:
475,192,119905,1,0,0:0:0:0:
256,192,119998,1,0,0:0:0:0:
182,192,119998,1,0,0:0:0:0:
402,192,119998,1,0,0:0:0:0:
329,192,120092,1,0,0:0:0:0:
475,192,120092,1,0,0:0:0:0:
36,192,120092,1,0,0:0:0:0:
109,192,120186,1,0,0:0:0:0:
256,192,120186,1,0,0:0:0:0:
402,192,120280,1,0,0:0:0:0:
475,192,120280,1,0,0:0:0:0:
182,192,120280,1,0,0:0:0:0:
329,192,120280,1,0,0:0:0:0:
109,192,120467,1,0,0:0:0:0:
256,192,120467,1,0,0:0:0:0:
109,192,120561,1,0,0:0:0:0:
36,192,120655,1,0,0:0:0:0:
182,192,120655,1,0,0:0:0:0:
402,192,120655,1,0,0:0:0:0:
475,192,120655,1,0,0:0:0:0:
256,192,120842,1,0,0:0:0:0:
182,192,121030,128,0,122530:0:0:0:0:
402,192,121030,128,0,121123:0:0:0:0:
475,192,121030,128,0,121123:0:0:0:0:
329,192,122155,128,0,122248:0:0:0:0:
329,192,122530,128,0,123280:0:0:0:0:
475,192,123280,128,0,124030:0:0:0:0:
182,192,124030,128,0,124780:0:0:0:0:
109,192,124780,128,0,125155:0:0:0:0:
402,192,125155,128,0,125530:0:0:0:0:
329,192,125530,128,0,126467:0:0:0:0:
182,192,127030,128,0,127780:0:0:0:0:
402,192,127780,128,0,128530:0:0:0:0:
329,192,128530,128,0,129280:0:0:0:0:
36,192,129280,128,0,130030:0:0:0:0:
182,192,130030,128,0,130967:0:0:0:0:
329,192,131155,128,0,131530:0:0:0:0:
182,192,131530,128,0,132280:0:0:0:0:
329,192,133030,128,0,134530:0:0:0:0:
182,192,134155,128,0,134248:0:0:0:0:
402,192,134530,128,0,135280:0:0:0:0:
475,192,135280,128,0,136030:0:0:0:0:
109,192,136030,128,0,136780:0:0:0:0:
182,192,136780,128,0,137155:0:0:0:0:
402,192,137155,128,0,137530:0:0:0:0:
256,192,137530,128,0,138467:0:0:0:0:
36,192,137717,1,0,0:0:0:0:
182,192,137811,1,0,0:0:0:0:
36,192,137998,1,0,0:0:0:0:
182,192,138092,1,0,0:0:0:0:
475,192,138280,1,0,0:0:0:0:
329,192,138467,1,0,0:0:0:0:
182,192,138655,1,0,0:0:0:0:
36,192,138842,1,0,0:0:0:0:
182,192,139030,128,0,139780:0:0:0:0:
329,192,139030,1,0,0:0:0:0:
475,192,139217,1,0,0:0:0:0:
329,192,139311,1,0,0:0:0:0:
329,192,139498,1,0,0:0:0:0:
475,192,139592,1,0,0:0:0:0:
329,192,139780,128,0,140530:0:0:0:0:
109,192,139780,1,0,0:0:0:0:
182,192,139967,1,0,0:0:0:0:
36,192,140061,1,0,0:0:0:0:
36,192,140248,1,0,0:0:0:0:
182,192,140342,1,0,0:0:0:0:
36,192,140530,128,0,141280:0:0:0:0:
402,192,140530,1,0,0:0:0:0:
329,192,140717,1,0,0:0:0:0:
475,192,140811,1,0,0:0:0:0:
329,192,140998,1,0,0:0:0:0:
402,192,141092,1,0,0:0:0:0:
182,192,141280,128,0,142030:0:0:0:0:
329,192,141280,1,0,0:0:0:0:
475,192,141467,1,0,0:0:0:0:
329,192,141655,1,0,0:0:0:0:
402,192,141842,1,0,0:0:0:0:
329,192,142030,128,0,142967:0:0:0:0:
36,192,142030,1,0,0:0:0:0:
182,192,142217,1,0,0:0:0:0:
36,192,142311,1,0,0:0:0:0:
36,192,142498,1,0,0:0:0:0:
182,192,142592,1,0,0:0:0:0:
109,192,142780,1,0,0:0:0:0:
182,192,142967,1,0,0:0:0:0:
36,192,143061,1,0,0:0:0:0:
182,192,143155,128,0,143530:0:0:0:0:
329,192,143248,1,0,0:0:0:0:
475,192,143342,1,0,0:0:0:0:
256,192,143530,128,0,145030:0:0:0:0:
36,192,143530,1,0,0:0:0:0:
475,192,143717,1,0,0:0:0:0:
329,192,143811,1,0,0:0:0:0:
475,192,143998,1,0,0:0:0:0:
329,192,144092,1,0,0:0:0:0:
182,192,144280,1,0,0:0:0:0:
329,192,144467,1,0,0:0:0:0:
402,192,144655,1,0,0:0:0:0:
329,192,145030,1,0,0:0:0:0:
36,192,145030,1,0,0:0:0:0:
109,192,145030,1,0,0:0:0:0:
402,192,145030,1,0,0:0:0:0:
182,192,145217,1,0,0:0:0:0:
475,192,145217,128,0,145311:0:0:0:0:
329,192,145311,128,0,145405:0:0:0:0:
109,192,145405,1,0,0:0:0:0:
36,192,145405,1,0,0:0:0:0:
182,192,145498,1,0,0:0:0:0:
329,192,145498,128,0,145592:0:0:0:0:
36,192,145592,1,0,0:0:0:0:
475,192,145592,128,0,145686:0:0:0:0:
182,192,145686,1,0,0:0:0:0:
256,192,145686,1,0,0:0:0:0:
36,192,145780,1,0,0:0:0:0:
329,192,145780,128,0,145873:0:0:0:0:
109,192,145873,1,0,0:0:0:0:
182,192,145873,1,0,0:0:0:0:
36,192,145967,1,0,0:0:0:0:
475,192,145967,128,0,146061:0:0:0:0:
182,192,146061,1,0,0:0:0:0:
329,192,146061,128,0,146155:0:0:0:0:
36,192,146155,1,0,0:0:0:0:
182,192,146248,1,0,0:0:0:0:
329,192,146248,128,0,146342:0:0:0:0:
109,192,146342,1,0,0:0:0:0:
475,192,146342,128,0,146436:0:0:0:0:
256,192,146436,1,0,0:0:0:0:
182,192,146436,1,0,0:0:0:0:
109,192,146530,1,0,0:0:0:0:
36,192,146530,1,0,0:0:0:0:
402,192,146530,128,0,146623:0:0:0:0:
182,192,146717,1,0,0:0:0:0:
329,192,146717,128,0,146811:0:0:0:0:
36,192,146811,1,0,0:0:0:0:
402,192,146811,128,0,146905:0:0:0:0:
182,192,146905,1,0,0:0:0:0:
256,192,146905,1,0,0:0:0:0:
182,192,147092,1,0,0:0:0:0:
329,192,147092,128,0,147186:0:0:0:0:
109,192,147186,1,0,0:0:0:0:
36,192,147186,1,0,0:0:0:0:
402,192,147280,128,0,147373:0:0:0:0:
36,192,147373,1,0,0:0:0:0:
182,192,147467,1,0,0:0:0:0:
475,192,147467,128,0,147561:0:0:0:0:
109,192,147655,1,0,0:0:0:0:
36,192,147655,1,0,0:0:0:0:
402,192,147655,128,0,147748:0:0:0:0:
329,192,147842,128,0,147936:0:0:0:0:
109,192,147936,1,0,0:0:0:0:
402,192,147936,1,0,0:0:0:0:
329,192,148030,1,0,0:0:0:0:
182,192,148030,128,0,148123:0:0:0:0:
475,192,148217,1,0,0:0:0:0:
402,192,148217,1,0,0:0:0:0:
36,192,148217,128,0,148311:0:0:0:0:
329,192,148311,1,0,0:0:0:0:
182,192,148311,128,0,148405:0:0:0:0:
475,192,148405,1,0,0:0:0:0:
329,192,148498,1,0,0:0:0:0:
36,192,148498,128,0,148592:0:0:0:0:
475,192,148592,1,0,0:0:0:0:
182,192,148592,128,0,148686:0:0:0:0:
402,192,148686,1,0,0:0:0:0:
329,192,148686,1,0,0:0:0:0:
475,192,148780,1,0,0:0:0:0:
182,192,148780,128,0,148873:0:0:0:0:
329,192,148873,1,0,0:0:0:0:
402,192,148873,1,0,0:0:0:0:
256,192,148967,1,0,0:0:0:0:
36,192,148967,128,0,149061:0:0:0:0:
182,192,149061,128,0,149155:0:0:0:0:
329,192,149155,1,0,0:0:0:0:
475,192,149155,1,0,0:0:0:0:
36,192,149248,128,0,149342:0:0:0:0:
475,192,149342,1,0,0:0:0:0:
182,192,149342,128,0,149436:0:0:0:0:
256,192,149436,1,0,0:0:0:0:
329,192,149436,1,0,0:0:0:0:
402,192,149530,1,0,0:0:0:0:
475,192,149530,1,0,0:0:0:0:
182,192,149530,128,0,149623:0:0:0:0:
329,192,149717,1,0,0:0:0:0:
182,192,149717,128,0,149811:0:0:0:0:
475,192,149811,1,0,0:0:0:0:
36,192,149811,128,0,149905:0:0:0:0:
329,192,149905,1,0,0:0:0:0:
402,192,149905,1,0,0:0:0:0:
36,192,149998,128,0,150092:0:0:0:0:
329,192,150092,1,0,0:0:0:0:
182,192,150092,128,0,150186:0:0:0:0:
402,192,150186,1,0,0:0:0:0:
475,192,150186,1,0,0:0:0:0:
329,192,150280,1,0,0:0:0:0:
36,192,150280,128,0,150373:0:0:0:0:
475,192,150373,1,0,0:0:0:0:
329,192,150467,1,0,0:0:0:0:
109,192,150467,128,0,150561:0:0:0:0:
402,192,150561,1,0,0:0:0:0:
475,192,150655,1,0,0:0:0:0:
182,192,150655,128,0,150748:0:0:0:0:
109,192,150842,1,0,0:0:0:0:
329,192,150842,128,0,150936:0:0:0:0:
182,192,150936,1,0,0:0:0:0:
109,192,151030,1,0,0:0:0:0:
36,192,151030,1,0,0:0:0:0:
402,192,151030,128,0,151123:0:0:0:0:
182,192,151217,1,0,0:0:0:0:
329,192,151217,128,0,151311:0:0:0:0:
36,192,151311,1,0,0:0:0:0:
475,192,151311,128,0,151405:0:0:0:0:
256,192,151405,1,0,0:0:0:0:
36,192,151498,1,0,0:0:0:0:
329,192,151498,128,0,151592:0:0:0:0:
182,192,151592,1,0,0:0:0:0:
475,192,151592,128,0,151686:0:0:0:0:
109,192,151686,1,0,0:0:0:0:
36,192,151686,1,0,0:0:0:0:
182,192,151780,1,0,0:0:0:0:
402,192,151780,128,0,151873:0:0:0:0:
36,192,151873,1,0,0:0:0:0:
109,192,151873,1,0,0:0:0:0:
182,192,151967,1,0,0:0:0:0:
329,192,151967,128,0,152061:0:0:0:0:
36,192,152061,1,0,0:0:0:0:
475,192,152061,128,0,152155:0:0:0:0:
109,192,152155,1,0,0:0:0:0:
256,192,152155,1,0,0:0:0:0:
36,192,152248,1,0,0:0:0:0:
329,192,152248,128,0,152342:0:0:0:0:
182,192,152342,1,0,0:0:0:0:
475,192,152342,128,0,152436:0:0:0:0:
109,192,152436,1,0,0:0:0:0:
36,192,152436,1,0,0:0:0:0:
182,192,152530,1,0,0:0:0:0:
402,192,152530,128,0,152623:0:0:0:0:
109,192,152717,1,0,0:0:0:0:
329,192,152717,128,0,152811:0:0:0:0:
475,192,152811,128,0,152905:0:0:0:0:
36,192,152905,1,0,0:0:0:0:
182,192,152905,1,0,0:0:0:0:
475,192,152998,128,0,153092:0:0:0:0:
109,192,153092,1,0,0:0:0:0:
36,192,153092,1,0,0:0:0:0:
329,192,153092,128,0,153186:0:0:0:0:
182,192,153280,1,0,0:0:0:0:
475,192,153280,128,0,153373:0:0:0:0:
329,192,153280,1,0,0:0:0:0:
36,192,153373,1,0,0:0:0:0:
109,192,153467,1,0,0:0:0:0:
256,192,153467,1,0,0:0:0:0:
402,192,153467,128,0,153561:0:0:0:0:
36,192,153655,1,0,0:0:0:0:
109,192,153655,1,0,0:0:0:0:
329,192,153655,128,0,153748:0:0:0:0:
475,192,153842,1,0,0:0:0:0:
256,192,153842,128,0,153936:0:0:0:0:
182,192,153842,1,0,0:0:0:0:
475,192,154030,1,0,0:0:0:0:
402,192,154030,1,0,0:0:0:0:
36,192,154030,128,0,154123:0:0:0:0:
329,192,154217,1,0,0:0:0:0:
402,192,154217,1,0,0:0:0:0:
182,192,154217,128,0,154311:0:0:0:0:
36,192,154311,128,0,154405:0:0:0:0:
329,192,154405,1,0,0:0:0:0:
402,192,154498,1,0,0:0:0:0:
36,192,154498,128,0,154592:0:0:0:0:
475,192,154592,1,0,0:0:0:0:
182,192,154592,128,0,154686:0:0:0:0:
329,192,154686,1,0,0:0:0:0:
402,192,154780,1,0,0:0:0:0:
475,192,154780,1,0,0:0:0:0:
109,192,154780,128,0,154873:0:0:0:0:
329,192,154873,1,0,0:0:0:0:
402,192,154967,1,0,0:0:0:0:
475,192,154967,1,0,0:0:0:0:
36,192,154967,128,0,155061:0:0:0:0:
329,192,155061,1,0,0:0:0:0:
182,192,155061,128,0,155155:0:0:0:0:
475,192,155155,1,0,0:0:0:0:
329,192,155248,1,0,0:0:0:0:
36,192,155248,128,0,155342:0:0:0:0:
475,192,155342,1,0,0:0:0:0:
109,192,155342,128,0,155436:0:0:0:0:
402,192,155436,1,0,0:0:0:0:
329,192,155436,1,0,0:0:0:0:
475,192,155530,1,0,0:0:0:0:
182,192,155530,128,0,155623:0:0:0:0:
475,192,155717,1,0,0:0:0:0:
36,192,155717,128,0,155811:0:0:0:0:
402,192,155811,1,0,0:0:0:0:
182,192,155811,128,0,155905:0:0:0:0:
329,192,155905,1,0,0:0:0:0:
475,192,155905,1,0,0:0:0:0:
182,192,155998,128,0,156092:0:0:0:0:
329,192,156092,1,0,0:0:0:0:
36,192,156092,128,0,156186:0:0:0:0:
402,192,156186,1,0,0:0:0:0:
475,192,156186,1,0,0:0:0:0:
329,192,156280,1,0,0:0:0:0:
109,192,156280,128,0,156373:0:0:0:0:
402,192,156373,1,0,0:0:0:0:
182,192,156467,128,0,156561:0:0:0:0:
329,192,156561,1,0,0:0:0:0:
256,192,156655,1,0,0:0:0:0:
109,192,156655,1,0,0:0:0:0:
36,192,156655,1,0,0:0:0:0:
402,192,156655,1,0,0:0:0:0:
329,192,157030,1,0,0:0:0:0:
402,192,157030,1,0,0:0:0:0:
475,192,157030,1,0,0:0:0:0:
36,192,157217,1,0,0:0:0:0:
182,192,157311,1,0,0:0:0:0:
329,192,157405,1,0,0:0:0:0:
402,192,157405,1,0,0:0:0:0:
475,192,157405,1,0,0:0:0:0:
36,192,157405,1,0,0:0:0:0:
109,192,157592,1,0,0:0:0:0:
256,192,157592,1,0,0:0:0:0:
329,192,157780,1,0,0:0:0:0:
402,192,157780,1,0,0:0:0:0:
475,192,157780,1,0,0:0:0:0:
36,192,157780,1,0,0:0:0:0:
182,192,157967,1,0,0:0:0:0:
36,192,158061,1,0,0:0:0:0:
329,192,158155,1,0,0:0:0:0:
402,192,158155,1,0,0:0:0:0:
475,192,158155,1,0,0:0:0:0:
182,192,158155,1,0,0:0:0:0:
36,192,158342,1,0,0:0:0:0:
256,192,158342,1,0,0:0:0:0:
329,192,158530,1,0,0:0:0:0:
402,192,158530,1,0,0:0:0:0:
475,192,158530,1,0,0:0:0:0:
109,192,158530,1,0,0:0:0:0:
36,192,158717,1,0,0:0:0:0:
182,192,158811,1,0,0:0:0:0:
329,192,158905,1,0,0:0:0:0:
402,192,158905,1,0,0:0:0:0:
475,192,158905,1,0,0:0:0:0:
36,192,158905,1,0,0:0:0:0:
109,192,159092,1,0,0:0:0:0:
256,192,159092,1,0,0:0:0:0:
329,192,159280,1,0,0:0:0:0:
402,192,159280,1,0,0:0:0:0:
475,192,159280,1,0,0:0:0:0:
182,192,159280,1,0,0:0:0:0:
109,192,159467,1,0,0:0:0:0:
256,192,159467,1,0,0:0:0:0:
329,192,159655,1,0,0:0:0:0:
402,192,159655,1,0,0:0:0:0:
475,192,159655,1,0,0:0:0:0:
36,192,159655,1,0,0:0:0:0:
329,192,159842,1,0,0:0:0:0:
402,192,159842,1,0,0:0:0:0:
475,192,159842,1,0,0:0:0:0:
182,192,159842,1,0,0:0:0:0:
182,192,160030,1,0,0:0:0:0:
109,192,160030,1,0,0:0:0:0:
36,192,160030,1,0,0:0:0:0:
256,192,160030,1,0,0:0:0:0:
475,192,160217,1,0,0:0:0:0:
329,192,160311,1,0,0:0:0:0:
182,192,160405,1,0,0:0:0:0:
109,192,160405,1,0,0:0:0:0:
36,192,160405,1,0,0:0:0:0:
475,192,160405,1,0,0:0:0:0:
402,192,160592,1,0,0:0:0:0:
256,192,160592,1,0,0:0:0:0:
36,192,160780,1,0,0:0:0:0:
109,192,160780,1,0,0:0:0:0:
182,192,160780,1,0,0:0:0:0:
329,192,160780,1,0,0:0:0:0:
329,192,160967,1,0,0:0:0:0:
475,192,161061,1,0,0:0:0:0:
36,192,161155,1,0,0:0:0:0:
109,192,161155,1,0,0:0:0:0:
182,192,161155,1,0,0:0:0:0:
329,192,161155,1,0,0:0:0:0:
402,192,161342,1,0,0:0:0:0:
256,192,161342,1,0,0:0:0:0:
36,192,161530,1,0,0:0:0:0:
109,192,161530,1,0,0:0:0:0:
182,192,161530,1,0,0:0:0:0:
475,192,161530,1,0,0:0:0:0:
402,192,161717,1,0,0:0:0:0:
329,192,161811,1,0,0:0:0:0:
36,192,161905,5,0,0:0:0:0:
109,192,161905,1,0,0:0:0:0:
182,192,161905,1,0,0:0:0:0:
475,192,161905,1,0,0:0:0:0:
402,192,162092,1,0,0:0:0:0:
256,192,162092,1,0,0:0:0:0:
36,192,162280,1,0,0:0:0:0:
109,192,162280,1,0,0:0:0:0:
182,192,162280,1,0,0:0:0:0:
329,192,162280,1,0,0:0:0:0:
475,192,162467,1,0,0:0:0:0:
256,192,162467,1,0,0:0:0:0:
36,192,162655,1,0,0:0:0:0:
182,192,162655,1,0,0:0:0:0:
109,192,162655,1,0,0:0:0:0:
329,192,162655,1,0,0:0:0:0:
182,192,162842,1,0,0:0:0:0:
109,192,162842,1,0,0:0:0:0:
36,192,162842,1,0,0:0:0:0:
402,192,162842,1,0,0:0:0:0:
109,192,163030,5,0,0:0:0:0:
36,192,163030,1,0,0:0:0:0:
182,192,163030,1,0,0:0:0:0:
329,192,163030,1,0,0:0:0:0:
475,192,163030,1,0,0:0:0:0:
109,192,163217,1,0,0:0:0:0:
256,192,163217,1,0,0:0:0:0:
402,192,163217,1,0,0:0:0:0:
182,192,163311,1,0,0:0:0:0:
329,192,163311,1,0,0:0:0:0:
402,192,163405,1,0,0:0:0:0:
475,192,163405,1,0,0:0:0:0:
109,192,163405,1,0,0:0:0:0:
36,192,163405,1,0,0:0:0:0:
256,192,163405,1,0,0:0:0:0:
182,192,163592,1,0,0:0:0:0:
329,192,163592,1,0,0:0:0:0:
402,192,163592,1,0,0:0:0:0:
475,192,163592,1,0,0:0:0:0:
109,192,163780,1,0,0:0:0:0:
36,192,163780,1,0,0:0:0:0:
256,192,163780,1,0,0:0:0:0:
329,192,163780,1,0,0:0:0:0:
475,192,163780,1,0,0:0:0:0:
182,192,163967,1,0,0:0:0:0:
109,192,163967,1,0,0:0:0:0:
402,192,163967,1,0,0:0:0:0:
329,192,164061,1,0,0:0:0:0:
256,192,164061,1,0,0:0:0:0:
402,192,164155,1,0,0:0:0:0:
475,192,164155,1,0,0:0:0:0:
182,192,164155,1,0,0:0:0:0:
109,192,164155,1,0,0:0:0:0:
36,192,164155,1,0,0:0:0:0:
109,192,164342,1,0,0:0:0:0:
256,192,164342,1,0,0:0:0:0:
329,192,164342,1,0,0:0:0:0:
475,192,164342,1,0,0:0:0:0:
182,192,164530,1,0,0:0:0:0:
109,192,164530,1,0,0:0:0:0:
329,192,164530,1,0,0:0:0:0:
402,192,164530,1,0,0:0:0:0:
475,192,164530,1,0,0:0:0:0:
36,192,164717,1,0,0:0:0:0:
109,192,164717,1,0,0:0:0:0:
256,192,164717,1,0,0:0:0:0:
182,192,164811,1,0,0:0:0:0:
329,192,164811,1,0,0:0:0:0:
256,192,164905,1,0,0:0:0:0:
402,192,164905,1,0,0:0:0:0:
475,192,164905,1,0,0:0:0:0:
109,192,164905,1,0,0:0:0:0:
36,192,164905,1,0,0:0:0:0:
182,192,165092,1,0,0:0:0:0:
109,192,165092,1,0,0:0:0:0:
329,192,165092,1,0,0:0:0:0:
475,192,165092,1,0,0:0:0:0:
402,192,165280,1,0,0:0:0:0:
475,192,165280,1,0,0:0:0:0:
256,192,165280,1,0,0:0:0:0:
109,192,165280,1,0,0:0:0:0:
36,192,165280,1,0,0:0:0:0:
182,192,165467,1,0,0:0:0:0:
109,192,165467,1,0,0:0:0:0:
329,192,165467,1,0,0:0:0:0:
36,192,165467,1,0,0:0:0:0:
109,192,165655,1,0,0:0:0:0:
256,192,165655,1,0,0:0:0:0:
402,192,165655,1,0,0:0:0:0:
475,192,165655,1,0,0:0:0:0:
329,192,165655,1,0,0:0:0:0:
182,192,165842,1,0,0:0:0:0:
329,192,165842,1,0,0:0:0:0:
475,192,165842,1,0,0:0:0:0:
36,192,165842,1,0,0:0:0:0:
109,192,166030,1,0,0:0:0:0:
36,192,166030,1,0,0:0:0:0:
256,192,166030,1,0,0:0:0:0:
329,192,166030,1,0,0:0:0:0:
475,192,166123,1,0,0:0:0:0:
402,192,166123,1,0,0:0:0:0:
182,192,166123,1,0,0:0:0:0:
329,192,166217,1,0,0:0:0:0:
109,192,166217,1,0,0:0:0:0:
36,192,166217,1,0,0:0:0:0:
329,192,166311,1,0,0:0:0:0:
402,192,166311,1,0,0:0:0:0:
475,192,166311,1,0,0:0:0:0:
182,192,166311,1,0,0:0:0:0:
256,192,166405,1,0,0:0:0:0:
36,192,166405,1,0,0:0:0:0:
109,192,166405,1,0,0:0:0:0:
475,192,166498,1,0,0:0:0:0:
329,192,166498,1,0,0:0:0:0:
402,192,166498,1,0,0:0:0:0:
182,192,166592,1,0,0:0:0:0:
36,192,166592,1,0,0:0:0:0:
109,192,166592,1,0,0:0:0:0:
256,192,166592,1,0,0:0:0:0:
402,192,166686,1,0,0:0:0:0:
475,192,166686,1,0,0:0:0:0:
329,192,166686,1,0,0:0:0:0:
256,192,166780,1,0,0:0:0:0:
109,192,166780,1,0,0:0:0:0:
36,192,166780,1,0,0:0:0:0:
182,192,166780,1,0,0:0:0:0:
402,192,166873,1,0,0:0:0:0:
475,192,166873,1,0,0:0:0:0:
329,192,166873,1,0,0:0:0:0:
36,192,166967,1,0,0:0:0:0:
256,192,166967,1,0,0:0:0:0:
109,192,166967,1,0,0:0:0:0:
475,192,167061,1,0,0:0:0:0:
402,192,167061,1,0,0:0:0:0:
329,192,167061,1,0,0:0:0:0:
256,192,167061,1,0,0:0:0:0:
109,192,167155,1,0,0:0:0:0:
182,192,167155,1,0,0:0:0:0:
36,192,167155,1,0,0:0:0:0:
256,192,167248,1,0,0:0:0:0:
402,192,167248,1,0,0:0:0:0:
475,192,167248,1,0,0:0:0:0:
182,192,167342,1,0,0:0:0:0:
329,192,167342,1,0,0:0:0:0:
109,192,167342,1,0,0:0:0:0:
36,192,167342,1,0,0:0:0:0:
256,192,167436,1,0,0:0:0:0:
475,192,167436,1,0,0:0:0:0:
402,192,167436,1,0,0:0:0:0:
329,192,167530,1,0,0:0:0:0:
182,192,167530,1,0,0:0:0:0:
109,192,167530,1,0,0:0:0:0:
36,192,167530,1,0,0:0:0:0:
182,192,167623,1,0,0:0:0:0:
36,192,167623,1,0,0:0:0:0:
109,192,167623,1,0,0:0:0:0:
256,192,167717,1,0,0:0:0:0:
402,192,167717,1,0,0:0:0:0:
475,192,167717,1,0,0:0:0:0:
329,192,167717,1,0,0:0:0:0:
329,192,167811,1,0,0:0:0:0:
402,192,167811,1,0,0:0:0:0:
475,192,167811,1,0,0:0:0:0:
256,192,167905,1,0,0:0:0:0:
182,192,167905,1,0,0:0:0:0:
109,192,167905,1,0,0:0:0:0:
36,192,167905,1,0,0:0:0:0:
182,192,167998,1,0,0:0:0:0:
36,192,167998,1,0,0:0:0:0:
109,192,167998,1,0,0:0:0:0:
256,192,168092,1,0,0:0:0:0:
329,192,168092,1,0,0:0:0:0:
402,192,168092,1,0,0:0:0:0:
475,192,168092,1,0,0:0:0:0:
475,192,168186,1,0,0:0:0:0:
402,192,168186,1,0,0:0:0:0:
329,192,168186,1,0,0:0:0:0:
256,192,168280,1,0,0:0:0:0:
182,192,168280,1,0,0:0:0:0:
36,192,168280,1,0,0:0:0:0:
109,192,168280,1,0,0:0:0:0:
109,192,168467,1,0,0:0:0:0:
182,192,168467,1,0,0:0:0:0:
329,192,168467,1,0,0:0:0:0:
256,192,168467,1,0,0:0:0:0:
182,192,168655,1,0,0:0:0:0:
256,192,168655,1,0,0:0:0:0:
329,192,168655,1,0,0:0:0:0:
402,192,168655,1,0,0:0:0:0:
36,192,169030,1,0,0:0:0:0:
256,192,169030,1,0,0:0:0:0:
402,192,169030,1,0,0:0:0:0:
475,192,169030,1,0,0:0:0:0:
109,192,169030,1,0,0:0:0:0:
182,192,169030,1,0,0:0:0:0:
329,192,169030,1,0,0:0:0:0:
182,192,169123,1,0,0:0:0:0:
402,192,169217,1,0,0:0:0:0:
475,192,169217,1,0,0:0:0:0:
329,192,169217,1,0,0:0:0:0:
109,192,169311,1,0,0:0:0:0:
256,192,169311,1,0,0:0:0:0:
182,192,169405,1,0,0:0:0:0:
402,192,169405,1,0,0:0:0:0:
475,192,169405,1,0,0:0:0:0:
329,192,169405,1,0,0:0:0:0:
36,192,169405,1,0,0:0:0:0:
256,192,169498,1,0,0:0:0:0:
329,192,169592,1,0,0:0:0:0:
109,192,169592,1,0,0:0:0:0:
36,192,169592,1,0,0:0:0:0:
475,192,169592,1,0,0:0:0:0:
256,192,169686,1,0,0:0:0:0:
182,192,169780,1,0,0:0:0:0:
36,192,169780,1,0,0:0:0:0:
402,192,169780,1,0,0:0:0:0:
475,192,169780,1,0,0:0:0:0:
329,192,169873,1,0,0:0:0:0:
256,192,169967,1,0,0:0:0:0:
109,192,169967,1,0,0:0:0:0:
36,192,169967,1,0,0:0:0:0:
329,192,170061,1,0,0:0:0:0:
402,192,170061,1,0,0:0:0:0:
182,192,170155,1,0,0:0:0:0:
109,192,170155,1,0,0:0:0:0:
36,192,170155,1,0,0:0:0:0:
256,192,170155,1,0,0:0:0:0:
475,192,170155,1,0,0:0:0:0:
329,192,170248,1,0,0:0:0:0:
402,192,170342,1,0,0:0:0:0:
182,192,170342,1,0,0:0:0:0:
36,192,170342,1,0,0:0:0:0:
475,192,170342,1,0,0:0:0:0:
256,192,170436,1,0,0:0:0:0:
329,192,170530,1,0,0:0:0:0:
475,192,170530,1,0,0:0:0:0:
109,192,170530,1,0,0:0:0:0:
36,192,170530,1,0,0:0:0:0:
182,192,170623,1,0,0:0:0:0:
256,192,170717,1,0,0:0:0:0:
402,192,170717,1,0,0:0:0:0:
475,192,170717,1,0,0:0:0:0:
182,192,170811,1,0,0:0:0:0:
109,192,170811,1,0,0:0:0:0:
256,192,170905,1,0,0:0:0:0:
329,192,170905,1,0,0:0:0:0:
402,192,170905,1,0,0:0:0:0:
475,192,170905,1,0,0:0:0:0:
36,192,170905,1,0,0:0:0:0:
182,192,170998,1,0,0:0:0:0:
109,192,171092,1,0,0:0:0:0:
329,192,171092,1,0,0:0:0:0:
475,192,171092,1,0,0:0:0:0:
36,192,171092,1,0,0:0:0:0:
256,192,171186,1,0,0:0:0:0:
182,192,171280,1,0,0:0:0:0:
36,192,171280,1,0,0:0:0:0:
402,192,171280,1,0,0:0:0:0:
475,192,171280,1,0,0:0:0:0:
182,192,171373,1,0,0:0:0:0:
329,192,171467,1,0,0:0:0:0:
402,192,171467,1,0,0:0:0:0:
475,192,171467,1,0,0:0:0:0:
109,192,171467,1,0,0:0:0:0:
256,192,171467,1,0,0:0:0:0:
329,192,171561,1,0,0:0:0:0:
182,192,171655,1,0,0:0:0:0:
36,192,171655,1,0,0:0:0:0:
109,192,171655,1,0,0:0:0:0:
475,192,171655,1,0,0:0:0:0:
182,192,171748,1,0,0:0:0:0:
329,192,171842,1,0,0:0:0:0:
402,192,171842,1,0,0:0:0:0:
109,192,171842,1,0,0:0:0:0:
256,192,171842,1,0,0:0:0:0:
475,192,171842,1,0,0:0:0:0:
329,192,171936,1,0,0:0:0:0:
182,192,172030,1,0,0:0:0:0:
36,192,172030,1,0,0:0:0:0:
402,192,172030,1,0,0:0:0:0:
475,192,172030,1,0,0:0:0:0:
256,192,172123,1,0,0:0:0:0:
182,192,172217,1,0,0:0:0:0:
109,192,172217,1,0,0:0:0:0:
36,192,172217,1,0,0:0:0:0:
256,192,172311,1,0,0:0:0:0:
402,192,172311,1,0,0:0:0:0:
329,192,172405,1,0,0:0:0:0:
182,192,172405,1,0,0:0:0:0:
109,192,172405,1,0,0:0:0:0:
36,192,172405,1,0,0:0:0:0:
475,192,172405,1,0,0:0:0:0:
256,192,172498,1,0,0:0:0:0:
182,192,172592,1,0,0:0:0:0:
402,192,172592,1,0,0:0:0:0:
475,192,172592,1,0,0:0:0:0:
36,192,172592,1,0,0:0:0:0:
329,192,172686,1,0,0:0:0:0:
256,192,172780,1,0,0:0:0:0:
475,192,172780,1,0,0:0:0:0:
109,192,172780,1,0,0:0:0:0:
36,192,172780,1,0,0:0:0:0:
182,192,172873,1,0,0:0:0:0:
402,192,172967,1,0,0:0:0:0:
475,192,172967,1,0,0:0:0:0:
256,192,172967,1,0,0:0:0:0:
182,192,173061,1,0,0:0:0:0:
36,192,173061,1,0,0:0:0:0:
256,192,173155,1,0,0:0:0:0:
329,192,173155,1,0,0:0:0:0:
402,192,173155,1,0,0:0:0:0:
475,192,173155,1,0,0:0:0:0:
109,192,173155,1,0,0:0:0:0:
36,192,173248,1,0,0:0:0:0:
109,192,173342,1,0,0:0:0:0:
182,192,173342,1,0,0:0:0:0:
329,192,173342,1,0,0:0:0:0:
475,192,173342,1,0,0:0:0:0:
256,192,173436,1,0,0:0:0:0:
182,192,173530,1,0,0:0:0:0:
36,192,173530,1,0,0:0:0:0:
402,192,173530,1,0,0:0:0:0:
475,192,173530,1,0,0:0:0:0:
329,192,173623,1,0,0:0:0:0:
256,192,173717,1,0,0:0:0:0:
109,192,173717,1,0,0:0:0:0:
36,192,173717,1,0,0:0:0:0:
329,192,173811,1,0,0:0:0:0:
402,192,173811,1,0,0:0:0:0:
256,192,173905,1,0,0:0:0:0:
182,192,173905,1,0,0:0:0:0:
109,192,173905,1,0,0:0:0:0:
36,192,173905,1,0,0:0:0:0:
475,192,173905,1,0,0:0:0:0:
402,192,173998,1,0,0:0:0:0:
329,192,174092,1,0,0:0:0:0:
109,192,174092,1,0,0:0:0:0:
475,192,174092,1,0,0:0:0:0:
182,192,174092,1,0,0:0:0:0:
36,192,174092,1,0,0:0:0:0:
256,192,174186,1,0,0:0:0:0:
36,192,174280,1,0,0:0:0:0:
182,192,174280,1,0,0:0:0:0:
329,192,174280,1,0,0:0:0:0:
402,192,174280,1,0,0:0:0:0:
182,192,174373,1,0,0:0:0:0:
329,192,174467,1,0,0:0:0:0:
402,192,174467,1,0,0:0:0:0:
475,192,174467,1,0,0:0:0:0:
109,192,174467,1,0,0:0:0:0:
256,192,174467,1,0,0:0:0:0:
329,192,174561,1,0,0:0:0:0:
402,192,174561,1,0,0:0:0:0:
475,192,174561,1,0,0:0:0:0:
256,192,174655,1,0,0:0:0:0:
109,192,174655,1,0,0:0:0:0:
36,192,174655,1,0,0:0:0:0:
402,192,174748,1,0,0:0:0:0:
329,192,174842,1,0,0:0:0:0:
182,192,174842,1,0,0:0:0:0:
109,192,174842,1,0,0:0:0:0:
36,192,174842,1,0,0:0:0:0:
475,192,174842,1,0,0:0:0:0:
182,192,174936,1,0,0:0:0:0:
36,192,174936,1,0,0:0:0:0:
109,192,174936,1,0,0:0:0:0:
475,192,175030,1,0,0:0:0:0:
402,192,175030,1,0,0:0:0:0:
256,192,175030,1,0,0:0:0:0:
329,192,175030,1,0,0:0:0:0:
182,192,175123,1,0,0:0:0:0:
36,192,175217,1,0,0:0:0:0:
329,192,175217,1,0,0:0:0:0:
475,192,175217,1,0,0:0:0:0:
182,192,175311,1,0,0:0:0:0:
109,192,175311,1,0,0:0:0:0:
256,192,175405,1,0,0:0:0:0:
329,192,175405,1,0,0:0:0:0:
475,192,175405,1,0,0:0:0:0:
36,192,175405,1,0,0:0:0:0:
402,192,175405,1,0,0:0:0:0:
182,192,175498,1,0,0:0:0:0:
109,192,175592,1,0,0:0:0:0:
329,192,175592,1,0,0:0:0:0:
475,192,175592,1,0,0:0:0:0:
36,192,175592,1,0,0:0:0:0:
256,192,175686,1,0,0:0:0:0:
182,192,175780,1,0,0:0:0:0:
36,192,175780,1,0,0:0:0:0:
402,192,175780,1,0,0:0:0:0:
475,192,175780,1,0,0:0:0:0:
329,192,175873,1,0,0:0:0:0:
256,192,175967,1,0,0:0:0:0:
109,192,175967,1,0,0:0:0:0:
36,192,175967,1,0,0:0:0:0:
182,192,176061,1,0,0:0:0:0:
329,192,176061,1,0,0:0:0:0:
256,192,176155,1,0,0:0:0:0:
109,192,176155,1,0,0:0:0:0:
36,192,176155,1,0,0:0:0:0:
475,192,176155,1,0,0:0:0:0:
402,192,176155,1,0,0:0:0:0:
182,192,176248,1,0,0:0:0:0:
109,192,176342,1,0,0:0:0:0:
402,192,176342,1,0,0:0:0:0:
329,192,176342,1,0,0:0:0:0:
475,192,176342,1,0,0:0:0:0:
256,192,176436,1,0,0:0:0:0:
182,192,176530,1,0,0:0:0:0:
36,192,176530,1,0,0:0:0:0:
475,192,176530,1,0,0:0:0:0:
402,192,176530,1,0,0:0:0:0:
329,192,176623,1,0,0:0:0:0:
256,192,176717,1,0,0:0:0:0:
109,192,176717,1,0,0:0:0:0:
36,192,176717,1,0,0:0:0:0:
182,192,176811,1,0,0:0:0:0:
475,192,176811,1,0,0:0:0:0:
402,192,176905,1,0,0:0:0:0:
256,192,176905,1,0,0:0:0:0:
109,192,176905,1,0,0:0:0:0:
36,192,176905,1,0,0:0:0:0:
329,192,176905,1,0,0:0:0:0:
182,192,176998,1,0,0:0:0:0:
109,192,177092,1,0,0:0:0:0:
329,192,177092,1,0,0:0:0:0:
402,192,177092,1,0,0:0:0:0:
475,192,177092,1,0,0:0:0:0:
256,192,177186,1,0,0:0:0:0:
109,192,177280,1,0,0:0:0:0:
36,192,177280,1,0,0:0:0:0:
402,192,177280,1,0,0:0:0:0:
475,192,177280,1,0,0:0:0:0:
182,192,177280,128,0,177467:0:0:0:0:
109,192,177467,1,0,0:0:0:0:
402,192,177467,1,0,0:0:0:0:
475,192,177467,1,0,0:0:0:0:
36,192,177467,1,0,0:0:0:0:
329,192,177467,128,0,177655:0:0:0:0:
256,192,177655,1,0,0:0:0:0:
36,192,177655,1,0,0:0:0:0:
475,192,177655,1,0,0:0:0:0:
109,192,177655,128,0,177842:0:0:0:0:
402,192,177655,1,0,0:0:0:0:
182,192,177842,1,0,0:0:0:0:
36,192,177842,1,0,0:0:0:0:
329,192,177842,1,0,0:0:0:0:
475,192,177842,1,0,0:0:0:0:
402,192,177842,128,0,178030:0:0:0:0:
329,192,178030,1,0,0:0:0:0:
475,192,178030,1,0,0:0:0:0:
109,192,178030,1,0,0:0:0:0:
36,192,178030,1,0,0:0:0:0:
256,192,178123,1,0,0:0:0:0:
182,192,178217,1,0,0:0:0:0:
329,192,178217,1,0,0:0:0:0:
109,192,178217,1,0,0:0:0:0:
256,192,178311,1,0,0:0:0:0:
475,192,178311,1,0,0:0:0:0:
329,192,178405,1,0,0:0:0:0:
182,192,178405,1,0,0:0:0:0:
109,192,178405,1,0,0:0:0:0:
36,192,178405,1,0,0:0:0:0:
402,192,178405,1,0,0:0:0:0:
256,192,178498,1,0,0:0:0:0:
182,192,178592,1,0,0:0:0:0:
402,192,178592,1,0,0:0:0:0:
475,192,178592,1,0,0:0:0:0:
109,192,178592,1,0,0:0:0:0:
329,192,178686,1,0,0:0:0:0:
256,192,178780,1,0,0:0:0:0:
475,192,178780,1,0,0:0:0:0:
109,192,178780,1,0,0:0:0:0:
36,192,178780,1,0,0:0:0:0:
182,192,178873,1,0,0:0:0:0:
329,192,178873,1,0,0:0:0:0:
109,192,178967,1,0,0:0:0:0:
36,192,178967,1,0,0:0:0:0:
402,192,178967,1,0,0:0:0:0:
256,192,178967,1,0,0:0:0:0:
329,192,179061,1,0,0:0:0:0:
475,192,179061,1,0,0:0:0:0:
109,192,179155,1,0,0:0:0:0:
256,192,179155,1,0,0:0:0:0:
182,192,179155,1,0,0:0:0:0:
36,192,179155,1,0,0:0:0:0:
402,192,179155,1,0,0:0:0:0:
329,192,179248,1,0,0:0:0:0:
475,192,179248,1,0,0:0:0:0:
256,192,179342,1,0,0:0:0:0:
109,192,179342,1,0,0:0:0:0:
36,192,179342,1,0,0:0:0:0:
182,192,179342,1,0,0:0:0:0:
402,192,179436,1,0,0:0:0:0:
329,192,179436,1,0,0:0:0:0:
256,192,179530,1,0,0:0:0:0:
475,192,179530,1,0,0:0:0:0:
109,192,179530,1,0,0:0:0:0:
182,192,179530,1,0,0:0:0:0:
36,192,179530,1,0,0:0:0:0:
182,192,179623,1,0,0:0:0:0:
36,192,179623,1,0,0:0:0:0:
475,192,179717,1,0,0:0:0:0:
329,192,179717,1,0,0:0:0:0:
475,192,179811,1,0,0:0:0:0:
329,192,179811,1,0,0:0:0:0:
182,192,179905,1,0,0:0:0:0:
36,192,179905,1,0,0:0:0:0:
109,192,179905,1,0,0:0:0:0:
329,192,179998,1,0,0:0:0:0:
475,192,179998,1,0,0:0:0:0:
182,192,180092,1,0,0:0:0:0:
36,192,180092,1,0,0:0:0:0:
329,192,180186,1,0,0:0:0:0:
109,192,180280,1,0,0:0:0:0:
36,192,180280,1,0,0:0:0:0:
256,192,180280,1,0,0:0:0:0:
402,192,180280,1,0,0:0:0:0:
475,192,180280,1,0,0:0:0:0:
182,192,180467,1,0,0:0:0:0:
109,192,180467,1,0,0:0:0:0:
329,192,180467,1,0,0:0:0:0:
402,192,180467,1,0,0:0:0:0:
475,192,180467,1,0,0:0:0:0:
182,192,180655,1,0,0:0:0:0:
256,192,180655,1,0,0:0:0:0:
329,192,180655,1,0,0:0:0:0:
402,192,180655,1,0,0:0:0:0:
475,192,180655,1,0,0:0:0:0:
109,192,181030,1,0,0:0:0:0:
36,192,181030,1,0,0:0:0:0:
256,192,181030,1,0,0:0:0:0:
402,192,181030,1,0,0:0:0:0:
475,192,181030,1,0,0:0:0:0:
329,192,181030,1,0,0:0:0:0:
182,192,181030,1,0,0:0:0:0:
182,192,181123,1,0,0:0:0:0:
256,192,181217,1,0,0:0:0:0:
402,192,181217,1,0,0:0:0:0:
475,192,181217,1,0,0:0:0:0:
182,192,181311,1,0,0:0:0:0:
329,192,181311,1,0,0:0:0:0:
36,192,181311,1,0,0:0:0:0:
109,192,181405,1,0,0:0:0:0:
256,192,181405,1,0,0:0:0:0:
402,192,181405,1,0,0:0:0:0:
475,192,181405,1,0,0:0:0:0:
36,192,181498,1,0,0:0:0:0:
182,192,181592,1,0,0:0:0:0:
329,192,181592,1,0,0:0:0:0:
475,192,181592,1,0,0:0:0:0:
402,192,181592,1,0,0:0:0:0:
109,192,181686,1,0,0:0:0:0:
36,192,181780,1,0,0:0:0:0:
256,192,181780,1,0,0:0:0:0:
402,192,181780,1,0,0:0:0:0:
475,192,181780,1,0,0:0:0:0:
182,192,181873,1,0,0:0:0:0:
109,192,181967,1,0,0:0:0:0:
36,192,181967,1,0,0:0:0:0:
329,192,181967,1,0,0:0:0:0:
256,192,182061,1,0,0:0:0:0:
402,192,182061,1,0,0:0:0:0:
475,192,182061,1,0,0:0:0:0:
329,192,182155,1,0,0:0:0:0:
182,192,182155,1,0,0:0:0:0:
109,192,182155,1,0,0:0:0:0:
36,192,182155,1,0,0:0:0:0:
256,192,182248,1,0,0:0:0:0:
182,192,182342,1,0,0:0:0:0:
36,192,182342,1,0,0:0:0:0:
402,192,182342,1,0,0:0:0:0:
475,192,182342,1,0,0:0:0:0:
329,192,182436,1,0,0:0:0:0:
256,192,182530,1,0,0:0:0:0:
109,192,182530,1,0,0:0:0:0:
36,192,182530,1,0,0:0:0:0:
475,192,182530,1,0,0:0:0:0:
182,192,182623,1,0,0:0:0:0:
256,192,182717,1,0,0:0:0:0:
402,192,182717,1,0,0:0:0:0:
475,192,182717,1,0,0:0:0:0:
329,192,182811,1,0,0:0:0:0:
109,192,182811,1,0,0:0:0:0:
36,192,182811,1,0,0:0:0:0:
182,192,182905,1,0,0:0:0:0:
256,192,182905,1,0,0:0:0:0:
402,192,182905,1,0,0:0:0:0:
475,192,182905,1,0,0:0:0:0:
329,192,182998,1,0,0:0:0:0:
256,192,183092,1,0,0:0:0:0:
109,192,183092,1,0,0:0:0:0:
36,192,183092,1,0,0:0:0:0:
475,192,183092,1,0,0:0:0:0:
329,192,183186,1,0,0:0:0:0:
402,192,183280,1,0,0:0:0:0:
475,192,183280,1,0,0:0:0:0:
182,192,183280,1,0,0:0:0:0:
36,192,183280,1,0,0:0:0:0:
182,192,183373,1,0,0:0:0:0:
36,192,183373,1,0,0:0:0:0:
256,192,183467,1,0,0:0:0:0:
329,192,183467,1,0,0:0:0:0:
475,192,183467,1,0,0:0:0:0:
329,192,183561,1,0,0:0:0:0:
475,192,183561,1,0,0:0:0:0:
182,192,183655,1,0,0:0:0:0:
109,192,183655,1,0,0:0:0:0:
36,192,183655,1,0,0:0:0:0:
402,192,183655,1,0,0:0:0:0:
182,192,183748,1,0,0:0:0:0:
109,192,183748,1,0,0:0:0:0:
256,192,183842,1,0,0:0:0:0:
329,192,183842,1,0,0:0:0:0:
475,192,183842,1,0,0:0:0:0:
329,192,183936,1,0,0:0:0:0:
475,192,183936,1,0,0:0:0:0:
402,192,184030,1,0,0:0:0:0:
182,192,184030,1,0,0:0:0:0:
109,192,184030,1,0,0:0:0:0:
36,192,184030,1,0,0:0:0:0:
256,192,184123,1,0,0:0:0:0:
475,192,184217,1,0,0:0:0:0:
36,192,184217,1,0,0:0:0:0:
109,192,184217,1,0,0:0:0:0:
329,192,184311,1,0,0:0:0:0:
256,192,184311,1,0,0:0:0:0:
182,192,184311,1,0,0:0:0:0:
475,192,184405,1,0,0:0:0:0:
109,192,184405,1,0,0:0:0:0:
36,192,184405,1,0,0:0:0:0:
402,192,184405,1,0,0:0:0:0:
329,192,184498,1,0,0:0:0:0:
256,192,184592,1,0,0:0:0:0:
475,192,184592,1,0,0:0:0:0:
109,192,184592,1,0,0:0:0:0:
36,192,184592,1,0,0:0:0:0:
182,192,184686,1,0,0:0:0:0:
329,192,184780,1,0,0:0:0:0:
475,192,184780,1,0,0:0:0:0:
109,192,184780,1,0,0:0:0:0:
36,192,184780,1,0,0:0:0:0:
256,192,184873,1,0,0:0:0:0:
182,192,184967,1,0,0:0:0:0:
109,192,184967,1,0,0:0:0:0:
402,192,184967,1,0,0:0:0:0:
329,192,185061,1,0,0:0:0:0:
256,192,185061,1,0,0:0:0:0:
36,192,185061,1,0,0:0:0:0:
109,192,185155,1,0,0:0:0:0:
182,192,185155,1,0,0:0:0:0:
402,192,185155,1,0,0:0:0:0:
475,192,185155,1,0,0:0:0:0:
329,192,185248,1,0,0:0:0:0:
256,192,185342,1,0,0:0:0:0:
36,192,185342,1,0,0:0:0:0:
109,192,185342,1,0,0:0:0:0:
475,192,185342,1,0,0:0:0:0:
182,192,185436,1,0,0:0:0:0:
329,192,185530,1,0,0:0:0:0:
402,192,185530,1,0,0:0:0:0:
475,192,185530,1,0,0:0:0:0:
36,192,185530,1,0,0:0:0:0:
109,192,185623,1,0,0:0:0:0:
182,192,185717,1,0,0:0:0:0:
329,192,185717,1,0,0:0:0:0:
475,192,185717,1,0,0:0:0:0:
402,192,185811,1,0,0:0:0:0:
109,192,185811,1,0,0:0:0:0:
36,192,185811,1,0,0:0:0:0:
182,192,185905,1,0,0:0:0:0:
256,192,185905,1,0,0:0:0:0:
329,192,185905,1,0,0:0:0:0:
475,192,185905,1,0,0:0:0:0:
36,192,185998,1,0,0:0:0:0:
109,192,186092,1,0,0:0:0:0:
182,192,186092,1,0,0:0:0:0:
402,192,186092,1,0,0:0:0:0:
475,192,186092,1,0,0:0:0:0:
256,192,186186,1,0,0:0:0:0:
329,192,186280,1,0,0:0:0:0:
475,192,186280,1,0,0:0:0:0:
109,192,186280,1,0,0:0:0:0:
36,192,186280,1,0,0:0:0:0:
182,192,186373,1,0,0:0:0:0:
329,192,186467,1,0,0:0:0:0:
402,192,186467,1,0,0:0:0:0:
475,192,186467,1,0,0:0:0:0:
109,192,186467,1,0,0:0:0:0:
329,192,186561,1,0,0:0:0:0:
402,192,186561,1,0,0:0:0:0:
475,192,186561,1,0,0:0:0:0:
36,192,186655,1,0,0:0:0:0:
109,192,186655,1,0,0:0:0:0:
256,192,186655,1,0,0:0:0:0:
329,192,186748,1,0,0:0:0:0:
109,192,186842,1,0,0:0:0:0:
182,192,186842,1,0,0:0:0:0:
36,192,186842,1,0,0:0:0:0:
402,192,186842,1,0,0:0:0:0:
182,192,186936,1,0,0:0:0:0:
109,192,186936,1,0,0:0:0:0:
36,192,186936,1,0,0:0:0:0:
256,192,187030,1,0,0:0:0:0:
329,192,187030,1,0,0:0:0:0:
402,192,187030,1,0,0:0:0:0:
475,192,187030,1,0,0:0:0:0:
182,192,187123,1,0,0:0:0:0:
109,192,187217,1,0,0:0:0:0:
36,192,187217,1,0,0:0:0:0:
329,192,187217,1,0,0:0:0:0:
256,192,187311,1,0,0:0:0:0:
402,192,187311,1,0,0:0:0:0:
475,192,187311,1,0,0:0:0:0:
329,192,187405,1,0,0:0:0:0:
182,192,187405,1,0,0:0:0:0:
109,192,187405,1,0,0:0:0:0:
36,192,187405,1,0,0:0:0:0:
256,192,187498,1,0,0:0:0:0:
329,192,187592,1,0,0:0:0:0:
475,192,187592,1,0,0:0:0:0:
109,192,187592,1,0,0:0:0:0:
36,192,187592,1,0,0:0:0:0:
182,192,187686,1,0,0:0:0:0:
256,192,187780,1,0,0:0:0:0:
402,192,187780,1,0,0:0:0:0:
475,192,187780,1,0,0:0:0:0:
36,192,187780,1,0,0:0:0:0:
109,192,187873,1,0,0:0:0:0:
182,192,187967,1,0,0:0:0:0:
329,192,187967,1,0,0:0:0:0:
402,192,187967,1,0,0:0:0:0:
256,192,188061,1,0,0:0:0:0:
109,192,188061,1,0,0:0:0:0:
36,192,188061,1,0,0:0:0:0:
182,192,188155,1,0,0:0:0:0:
329,192,188155,1,0,0:0:0:0:
475,192,188155,1,0,0:0:0:0:
402,192,188155,1,0,0:0:0:0:
36,192,188248,1,0,0:0:0:0:
109,192,188342,1,0,0:0:0:0:
256,192,188342,1,0,0:0:0:0:
402,192,188342,1,0,0:0:0:0:
475,192,188342,1,0,0:0:0:0:
182,192,188436,1,0,0:0:0:0:
109,192,188530,1,0,0:0:0:0:
36,192,188530,1,0,0:0:0:0:
329,192,188530,1,0,0:0:0:0:
475,192,188530,1,0,0:0:0:0:
256,192,188623,1,0,0:0:0:0:
182,192,188717,1,0,0:0:0:0:
402,192,188717,1,0,0:0:0:0:
475,192,188717,1,0,0:0:0:0:
329,192,188811,1,0,0:0:0:0:
109,192,188811,1,0,0:0:0:0:
36,192,188811,1,0,0:0:0:0:
182,192,188905,1,0,0:0:0:0:
256,192,188905,1,0,0:0:0:0:
402,192,188905,1,0,0:0:0:0:
475,192,188905,1,0,0:0:0:0:
109,192,188998,1,0,0:0:0:0:
36,192,189092,1,0,0:0:0:0:
256,192,189092,1,0,0:0:0:0:
329,192,189092,1,0,0:0:0:0:
475,192,189092,1,0,0:0:0:0:
182,192,189186,1,0,0:0:0:0:
109,192,189280,1,0,0:0:0:0:
36,192,189280,1,0,0:0:0:0:
329,192,189280,1,0,0:0:0:0:
475,192,189280,1,0,0:0:0:0:
329,192,189373,1,0,0:0:0:0:
475,192,189373,1,0,0:0:0:0:
256,192,189467,1,0,0:0:0:0:
109,192,189467,1,0,0:0:0:0:
36,192,189467,1,0,0:0:0:0:
109,192,189561,1,0,0:0:0:0:
36,192,189561,1,0,0:0:0:0:
182,192,189655,1,0,0:0:0:0:
329,192,189655,1,0,0:0:0:0:
402,192,189655,1,0,0:0:0:0:
475,192,189655,1,0,0:0:0:0:
256,192,189748,1,0,0:0:0:0:
182,192,189842,1,0,0:0:0:0:
36,192,189842,1,0,0:0:0:0:
402,192,189842,1,0,0:0:0:0:
329,192,189936,1,0,0:0:0:0:
256,192,190030,1,0,0:0:0:0:
109,192,190030,1,0,0:0:0:0:
475,192,190030,1,0,0:0:0:0:
36,192,190030,1,0,0:0:0:0:
182,192,190123,1,0,0:0:0:0:
329,192,190217,1,0,0:0:0:0:
402,192,190217,1,0,0:0:0:0:
475,192,190217,1,0,0:0:0:0:
256,192,190311,1,0,0:0:0:0:
109,192,190311,1,0,0:0:0:0:
36,192,190311,1,0,0:0:0:0:
182,192,190405,1,0,0:0:0:0:
329,192,190405,1,0,0:0:0:0:
402,192,190405,1,0,0:0:0:0:
475,192,190405,1,0,0:0:0:0:
256,192,190498,1,0,0:0:0:0:
182,192,190592,1,0,0:0:0:0:
36,192,190592,1,0,0:0:0:0:
402,192,190592,1,0,0:0:0:0:
475,192,190592,1,0,0:0:0:0:
329,192,190686,1,0,0:0:0:0:
109,192,190780,1,0,0:0:0:0:
36,192,190780,1,0,0:0:0:0:
256,192,190780,1,0,0:0:0:0:
475,192,190780,1,0,0:0:0:0:
182,192,190873,1,0,0:0:0:0:
329,192,190873,1,0,0:0:0:0:
402,192,190967,1,0,0:0:0:0:
475,192,190967,1,0,0:0:0:0:
109,192,190967,1,0,0:0:0:0:
36,192,190967,1,0,0:0:0:0:
256,192,191061,1,0,0:0:0:0:
329,192,191061,1,0,0:0:0:0:
36,192,191155,1,0,0:0:0:0:
402,192,191155,1,0,0:0:0:0:
475,192,191155,1,0,0:0:0:0:
109,192,191155,1,0,0:0:0:0:
182,192,191248,1,0,0:0:0:0:
256,192,191248,1,0,0:0:0:0:
109,192,191342,1,0,0:0:0:0:
36,192,191342,1,0,0:0:0:0:
402,192,191342,1,0,0:0:0:0:
475,192,191342,1,0,0:0:0:0:
256,192,191436,1,0,0:0:0:0:
329,192,191436,1,0,0:0:0:0:
402,192,191530,1,0,0:0:0:0:
182,192,191530,1,0,0:0:0:0:
36,192,191530,1,0,0:0:0:0:
475,192,191530,1,0,0:0:0:0:
109,192,191530,1,0,0:0:0:0:
329,192,191623,1,0,0:0:0:0:
182,192,191717,1,0,0:0:0:0:
475,192,191811,1,0,0:0:0:0:
109,192,191811,1,0,0:0:0:0:
36,192,191811,1,0,0:0:0:0:
402,192,191811,1,0,0:0:0:0:
182,192,191905,1,0,0:0:0:0:
329,192,191905,1,0,0:0:0:0:
182,192,191998,1,0,0:0:0:0:
475,192,192092,1,0,0:0:0:0:
329,192,192092,1,0,0:0:0:0:
402,192,192092,1,0,0:0:0:0:
36,192,192092,1,0,0:0:0:0:
109,192,192092,1,0,0:0:0:0:
329,192,192186,1,0,0:0:0:0:
36,192,192280,1,0,0:0:0:0:
109,192,192280,1,0,0:0:0:0:
182,192,192280,1,0,0:0:0:0:
256,192,192280,1,0,0:0:0:0:
475,192,192280,1,0,0:0:0:0:
109,192,192467,1,0,0:0:0:0:
182,192,192467,1,0,0:0:0:0:
329,192,192467,1,0,0:0:0:0:
256,192,192467,1,0,0:0:0:0:
475,192,192467,1,0,0:0:0:0:
182,192,192655,1,0,0:0:0:0:
256,192,192655,1,0,0:0:0:0:
329,192,192655,1,0,0:0:0:0:
402,192,192655,1,0,0:0:0:0:
36,192,192655,1,0,0:0:0:0:
109,192,193030,1,0,0:0:0:0:
36,192,193030,1,0,0:0:0:0:
256,192,193030,1,0,0:0:0:0:
402,192,193030,1,0,0:0:0:0:
475,192,193030,1,0,0:0:0:0:
182,192,193030,1,0,0:0:0:0:
329,192,193030,1,0,0:0:0:0:
182,192,193123,1,0,0:0:0:0:
402,192,193217,1,0,0:0:0:0:
475,192,193217,1,0,0:0:0:0:
329,192,193217,1,0,0:0:0:0:
109,192,193311,1,0,0:0:0:0:
36,192,193311,1,0,0:0:0:0:
256,192,193311,1,0,0:0:0:0:
36,192,193405,1,0,0:0:0:0:
109,192,193405,1,0,0:0:0:0:
329,192,193405,1,0,0:0:0:0:
475,192,193405,1,0,0:0:0:0:
256,192,193498,1,0,0:0:0:0:
109,192,193592,1,0,0:0:0:0:
36,192,193592,1,0,0:0:0:0:
329,192,193592,1,0,0:0:0:0:
475,192,193592,1,0,0:0:0:0:
182,192,193686,1,0,0:0:0:0:
256,192,193780,1,0,0:0:0:0:
475,192,193780,1,0,0:0:0:0:
402,192,193780,1,0,0:0:0:0:
36,192,193780,1,0,0:0:0:0:
329,192,193873,1,0,0:0:0:0:
182,192,193967,1,0,0:0:0:0:
109,192,193967,1,0,0:0:0:0:
36,192,193967,1,0,0:0:0:0:
475,192,194061,1,0,0:0:0:0:
402,192,194061,1,0,0:0:0:0:
329,192,194061,1,0,0:0:0:0:
402,192,194155,1,0,0:0:0:0:
329,192,194155,1,0,0:0:0:0:
36,192,194155,1,0,0:0:0:0:
109,192,194155,1,0,0:0:0:0:
256,192,194248,1,0,0:0:0:0:
329,192,194342,1,0,0:0:0:0:
475,192,194342,1,0,0:0:0:0:
109,192,194342,1,0,0:0:0:0:
36,192,194342,1,0,0:0:0:0:
182,192,194436,1,0,0:0:0:0:
256,192,194530,1,0,0:0:0:0:
402,192,194530,1,0,0:0:0:0:
475,192,194530,1,0,0:0:0:0:
36,192,194530,1,0,0:0:0:0:
329,192,194623,1,0,0:0:0:0:
182,192,194717,1,0,0:0:0:0:
402,192,194717,1,0,0:0:0:0:
36,192,194717,1,0,0:0:0:0:
36,192,194811,1,0,0:0:0:0:
182,192,194811,1,0,0:0:0:0:
329,192,194811,1,0,0:0:0:0:
402,192,194905,1,0,0:0:0:0:
109,192,194905,1,0,0:0:0:0:
256,192,194905,1,0,0:0:0:0:
475,192,194905,1,0,0:0:0:0:
182,192,194998,1,0,0:0:0:0:
329,192,195092,1,0,0:0:0:0:
402,192,195092,1,0,0:0:0:0:
109,192,195092,1,0,0:0:0:0:
36,192,195092,1,0,0:0:0:0:
256,192,195186,1,0,0:0:0:0:
182,192,195280,1,0,0:0:0:0:
36,192,195280,1,0,0:0:0:0:
402,192,195280,1,0,0:0:0:0:
475,192,195280,1,0,0:0:0:0:
402,192,195373,1,0,0:0:0:0:
475,192,195373,1,0,0:0:0:0:
36,192,195467,1,0,0:0:0:0:
329,192,195467,1,0,0:0:0:0:
182,192,195467,1,0,0:0:0:0:
109,192,195467,1,0,0:0:0:0:
402,192,195561,1,0,0:0:0:0:
256,192,195561,1,0,0:0:0:0:
109,192,195655,1,0,0:0:0:0:
36,192,195655,1,0,0:0:0:0:
329,192,195655,1,0,0:0:0:0:
475,192,195655,1,0,0:0:0:0:
36,192,195748,1,0,0:0:0:0:
109,192,195748,1,0,0:0:0:0:
475,192,195842,1,0,0:0:0:0:
402,192,195842,1,0,0:0:0:0:
329,192,195842,1,0,0:0:0:0:
256,192,195842,1,0,0:0:0:0:
109,192,195936,1,0,0:0:0:0:
182,192,195936,1,0,0:0:0:0:
329,192,196030,1,0,0:0:0:0:
475,192,196030,1,0,0:0:0:0:
36,192,196030,1,0,0:0:0:0:
256,192,196030,1,0,0:0:0:0:
182,192,196123,1,0,0:0:0:0:
109,192,196217,1,0,0:0:0:0:
329,192,196217,1,0,0:0:0:0:
402,192,196217,1,0,0:0:0:0:
36,192,196311,1,0,0:0:0:0:
182,192,196311,1,0,0:0:0:0:
256,192,196311,1,0,0:0:0:0:
182,192,196405,5,0,0:0:0:0:
402,192,196405,1,0,0:0:0:0:
475,192,196405,1,0,0:0:0:0:
36,192,196405,1,0,0:0:0:0:
256,192,196498,1,0,0:0:0:0:
182,192,196592,1,0,0:0:0:0:
36,192,196592,1,0,0:0:0:0:
402,192,196592,1,0,0:0:0:0:
475,192,196592,1,0,0:0:0:0:
329,192,196686,1,0,0:0:0:0:
109,192,196780,1,0,0:0:0:0:
36,192,196780,1,0,0:0:0:0:
256,192,196780,1,0,0:0:0:0:
475,192,196780,1,0,0:0:0:0:
182,192,196873,1,0,0:0:0:0:
402,192,196967,1,0,0:0:0:0:
329,192,196967,1,0,0:0:0:0:
475,192,196967,1,0,0:0:0:0:
329,192,197061,1,0,0:0:0:0:
402,192,197061,1,0,0:0:0:0:
182,192,197061,1,0,0:0:0:0:
36,192,197155,1,0,0:0:0:0:
109,192,197155,1,0,0:0:0:0:
256,192,197155,1,0,0:0:0:0:
475,192,197155,1,0,0:0:0:0:
329,192,197248,1,0,0:0:0:0:
182,192,197342,1,0,0:0:0:0:
36,192,197342,1,0,0:0:0:0:
402,192,197342,1,0,0:0:0:0:
475,192,197342,1,0,0:0:0:0:
329,192,197436,1,0,0:0:0:0:
256,192,197530,1,0,0:0:0:0:
182,192,197530,1,0,0:0:0:0:
109,192,197530,1,0,0:0:0:0:
36,192,197530,1,0,0:0:0:0:
329,192,197623,1,0,0:0:0:0:
475,192,197623,1,0,0:0:0:0:
182,192,197717,1,0,0:0:0:0:
36,192,197717,1,0,0:0:0:0:
256,192,197811,1,0,0:0:0:0:
402,192,197811,1,0,0:0:0:0:
475,192,197811,1,0,0:0:0:0:
109,192,197811,1,0,0:0:0:0:
36,192,197905,1,0,0:0:0:0:
182,192,197905,1,0,0:0:0:0:
329,192,197998,1,0,0:0:0:0:
475,192,197998,1,0,0:0:0:0:
256,192,198092,1,0,0:0:0:0:
109,192,198092,1,0,0:0:0:0:
36,192,198092,1,0,0:0:0:0:
402,192,198092,1,0,0:0:0:0:
182,192,198186,1,0,0:0:0:0:
329,192,198186,1,0,0:0:0:0:
109,192,198280,1,0,0:0:0:0:
36,192,198280,1,0,0:0:0:0:
256,192,198280,1,0,0:0:0:0:
402,192,198280,1,0,0:0:0:0:
475,192,198280,1,0,0:0:0:0:
182,192,198373,1,0,0:0:0:0:
256,192,198467,1,0,0:0:0:0:
402,192,198467,1,0,0:0:0:0:
475,192,198467,1,0,0:0:0:0:
109,192,198467,1,0,0:0:0:0:
402,192,198561,1,0,0:0:0:0:
475,192,198561,1,0,0:0:0:0:
256,192,198561,1,0,0:0:0:0:
329,192,198655,1,0,0:0:0:0:
182,192,198655,1,0,0:0:0:0:
109,192,198655,1,0,0:0:0:0:
36,192,198655,1,0,0:0:0:0:
402,192,198748,1,0,0:0:0:0:
329,192,198842,1,0,0:0:0:0:
182,192,198842,1,0,0:0:0:0:
109,192,198842,1,0,0:0:0:0:
36,192,198842,1,0,0:0:0:0:
182,192,198936,1,0,0:0:0:0:
36,192,198936,1,0,0:0:0:0:
109,192,198936,1,0,0:0:0:0:
256,192,199030,1,0,0:0:0:0:
329,192,199030,1,0,0:0:0:0:
402,192,199030,1,0,0:0:0:0:
475,192,199030,1,0,0:0:0:0:
182,192,199123,1,0,0:0:0:0:
329,192,199217,1,0,0:0:0:0:
475,192,199217,1,0,0:0:0:0:
402,192,199217,1,0,0:0:0:0:
182,192,199311,1,0,0:0:0:0:
109,192,199311,1,0,0:0:0:0:
36,192,199311,1,0,0:0:0:0:
109,192,199405,1,0,0:0:0:0:
402,192,199405,1,0,0:0:0:0:
182,192,199405,1,0,0:0:0:0:
475,192,199405,1,0,0:0:0:0:
256,192,199498,1,0,0:0:0:0:
182,192,199592,1,0,0:0:0:0:
36,192,199592,1,0,0:0:0:0:
402,192,199592,1,0,0:0:0:0:
475,192,199592,1,0,0:0:0:0:
329,192,199686,1,0,0:0:0:0:
109,192,199780,1,0,0:0:0:0:
36,192,199780,1,0,0:0:0:0:
256,192,199780,1,0,0:0:0:0:
475,192,199780,1,0,0:0:0:0:
182,192,199873,1,0,0:0:0:0:
109,192,199967,1,0,0:0:0:0:
36,192,199967,1,0,0:0:0:0:
256,192,199967,1,0,0:0:0:0:
402,192,200061,1,0,0:0:0:0:
475,192,200061,1,0,0:0:0:0:
329,192,200061,1,0,0:0:0:0:
329,192,200155,1,0,0:0:0:0:
402,192,200155,1,0,0:0:0:0:
109,192,200155,1,0,0:0:0:0:
36,192,200155,1,0,0:0:0:0:
256,192,200248,1,0,0:0:0:0:
182,192,200342,1,0,0:0:0:0:
109,192,200342,1,0,0:0:0:0:
402,192,200342,1,0,0:0:0:0:
475,192,200342,1,0,0:0:0:0:
329,192,200436,1,0,0:0:0:0:
256,192,200530,1,0,0:0:0:0:
109,192,200530,1,0,0:0:0:0:
475,192,200530,1,0,0:0:0:0:
36,192,200530,1,0,0:0:0:0:
182,192,200623,1,0,0:0:0:0:
256,192,200717,1,0,0:0:0:0:
402,192,200717,1,0,0:0:0:0:
475,192,200717,1,0,0:0:0:0:
182,192,200811,1,0,0:0:0:0:
109,192,200811,1,0,0:0:0:0:
36,192,200811,1,0,0:0:0:0:
182,192,200905,1,0,0:0:0:0:
109,192,200905,1,0,0:0:0:0:
402,192,200905,1,0,0:0:0:0:
475,192,200905,1,0,0:0:0:0:
329,192,200998,1,0,0:0:0:0:
109,192,201092,1,0,0:0:0:0:
256,192,201092,1,0,0:0:0:0:
402,192,201092,1,0,0:0:0:0:
475,192,201092,1,0,0:0:0:0:
182,192,201186,1,0,0:0:0:0:
36,192,201280,1,0,0:0:0:0:
256,192,201280,1,0,0:0:0:0:
475,192,201280,1,0,0:0:0:0:
109,192,201280,128,0,201467:0:0:0:0:
402,192,201280,1,0,0:0:0:0:
182,192,201467,128,0,201655:0:0:0:0:
36,192,201467,1,0,0:0:0:0:
402,192,201467,1,0,0:0:0:0:
475,192,201467,1,0,0:0:0:0:
329,192,201467,1,0,0:0:0:0:
329,192,201655,128,0,201842:0:0:0:0:
109,192,201655,1,0,0:0:0:0:
36,192,201655,1,0,0:0:0:0:
256,192,201655,1,0,0:0:0:0:
475,192,201655,1,0,0:0:0:0:
402,192,201842,128,0,202030:0:0:0:0:
109,192,201842,1,0,0:0:0:0:
36,192,201842,1,0,0:0:0:0:
256,192,201842,1,0,0:0:0:0:
475,192,201842,1,0,0:0:0:0:
36,192,202030,1,0,0:0:0:0:
109,192,202030,1,0,0:0:0:0:
329,192,202030,1,0,0:0:0:0:
475,192,202030,1,0,0:0:0:0:
182,192,202123,1,0,0:0:0:0:
256,192,202217,1,0,0:0:0:0:
402,192,202217,1,0,0:0:0:0:
475,192,202217,1,0,0:0:0:0:
182,192,202311,1,0,0:0:0:0:
329,192,202311,1,0,0:0:0:0:
36,192,202311,1,0,0:0:0:0:
182,192,202405,1,0,0:0:0:0:
36,192,202405,1,0,0:0:0:0:
402,192,202405,1,0,0:0:0:0:
475,192,202405,1,0,0:0:0:0:
256,192,202498,1,0,0:0:0:0:
182,192,202592,1,0,0:0:0:0:
36,192,202592,1,0,0:0:0:0:
402,192,202592,1,0,0:0:0:0:
475,192,202592,1,0,0:0:0:0:
329,192,202686,1,0,0:0:0:0:
36,192,202780,1,0,0:0:0:0:
256,192,202780,1,0,0:0:0:0:
182,192,202780,1,0,0:0:0:0:
475,192,202780,1,0,0:0:0:0:
182,192,202873,1,0,0:0:0:0:
36,192,202873,1,0,0:0:0:0:
329,192,202967,1,0,0:0:0:0:
109,192,202967,1,0,0:0:0:0:
256,192,202967,1,0,0:0:0:0:
475,192,202967,1,0,0:0:0:0:
475,192,203061,1,0,0:0:0:0:
329,192,203061,1,0,0:0:0:0:
182,192,203155,1,0,0:0:0:0:
402,192,203155,1,0,0:0:0:0:
109,192,203155,1,0,0:0:0:0:
36,192,203155,1,0,0:0:0:0:
256,192,203248,1,0,0:0:0:0:
329,192,203248,1,0,0:0:0:0:
109,192,203342,1,0,0:0:0:0:
402,192,203342,1,0,0:0:0:0:
475,192,203342,1,0,0:0:0:0:
182,192,203342,1,0,0:0:0:0:
329,192,203436,1,0,0:0:0:0:
256,192,203436,1,0,0:0:0:0:
182,192,203530,1,0,0:0:0:0:
36,192,203530,1,0,0:0:0:0:
109,192,203530,1,0,0:0:0:0:
475,192,203530,1,0,0:0:0:0:
36,192,203623,1,0,0:0:0:0:
109,192,203623,1,0,0:0:0:0:
182,192,203623,1,0,0:0:0:0:
475,192,203717,1,0,0:0:0:0:
402,192,203717,1,0,0:0:0:0:
329,192,203717,1,0,0:0:0:0:
475,192,203811,1,0,0:0:0:0:
329,192,203811,1,0,0:0:0:0:
402,192,203811,1,0,0:0:0:0:
182,192,203905,128,0,203998:0:0:0:0:
36,192,203998,128,0,204092:0:0:0:0:
182,192,204092,128,0,204186:0:0:0:0:
36,192,204186,128,0,204280:0:0:0:0:
402,192,204280,1,0,0:0:0:0:
475,192,204280,1,0,0:0:0:0:
329,192,204280,1,0,0:0:0:0:
256,192,204280,1,0,0:0:0:0:
109,192,204280,1,0,0:0:0:0:
402,192,204467,1,0,0:0:0:0:
329,192,204467,1,0,0:0:0:0:
182,192,204467,1,0,0:0:0:0:
36,192,204467,1,0,0:0:0:0:
475,192,204655,1,0,0:0:0:0:
402,192,204655,1,0,0:0:0:0:
256,192,204655,1,0,0:0:0:0:
109,192,204655,1,0,0:0:0:0:
36,192,204655,1,0,0:0:0:0:
36,192,205030,128,0,206530:0:0:0:0:
109,192,205030,1,0,0:0:0:0:
256,192,205030,1,0,0:0:0:0:
402,192,205030,1,0,0:0:0:0:
475,192,205030,1,0,0:0:0:0:
182,192,205030,1,0,0:0:0:0:
329,192,205030,1,0,0:0:0:0:
329,192,205123,1,0,0:0:0:0:
109,192,205217,1,0,0:0:0:0:
182,192,205217,1,0,0:0:0:0:
256,192,205217,1,0,0:0:0:0:
329,192,205311,1,0,0:0:0:0:
402,192,205311,1,0,0:0:0:0:
475,192,205311,1,0,0:0:0:0:
256,192,205405,1,0,0:0:0:0:
182,192,205405,1,0,0:0:0:0:
109,192,205405,1,0,0:0:0:0:
329,192,205498,1,0,0:0:0:0:
402,192,205592,1,0,0:0:0:0:
475,192,205592,1,0,0:0:0:0:
182,192,205592,1,0,0:0:0:0:
109,192,205592,1,0,0:0:0:0:
329,192,205686,1,0,0:0:0:0:
256,192,205780,1,0,0:0:0:0:
109,192,205780,1,0,0:0:0:0:
402,192,205780,1,0,0:0:0:0:
475,192,205780,1,0,0:0:0:0:
182,192,205873,1,0,0:0:0:0:
402,192,205967,1,0,0:0:0:0:
475,192,205967,1,0,0:0:0:0:
256,192,205967,1,0,0:0:0:0:
109,192,206061,1,0,0:0:0:0:
182,192,206061,1,0,0:0:0:0:
329,192,206061,1,0,0:0:0:0:
256,192,206155,1,0,0:0:0:0:
402,192,206155,1,0,0:0:0:0:
475,192,206155,1,0,0:0:0:0:
182,192,206248,1,0,0:0:0:0:
109,192,206342,1,0,0:0:0:0:
329,192,206342,1,0,0:0:0:0:
402,192,206342,1,0,0:0:0:0:
475,192,206342,1,0,0:0:0:0:
256,192,206436,1,0,0:0:0:0:
182,192,206530,128,0,207280:0:0:0:0:
109,192,206530,1,0,0:0:0:0:
402,192,206530,1,0,0:0:0:0:
475,192,206530,1,0,0:0:0:0:
329,192,206530,1,0,0:0:0:0:
329,192,206623,1,0,0:0:0:0:
109,192,206717,1,0,0:0:0:0:
36,192,206717,1,0,0:0:0:0:
256,192,206717,1,0,0:0:0:0:
329,192,206811,1,0,0:0:0:0:
402,192,206811,1,0,0:0:0:0:
475,192,206811,1,0,0:0:0:0:
256,192,206905,1,0,0:0:0:0:
36,192,206905,1,0,0:0:0:0:
109,192,206905,1,0,0:0:0:0:
329,192,206998,1,0,0:0:0:0:
402,192,207092,1,0,0:0:0:0:
475,192,207092,1,0,0:0:0:0:
109,192,207092,1,0,0:0:0:0:
36,192,207092,1,0,0:0:0:0:
256,192,207186,1,0,0:0:0:0:
329,192,207280,128,0,208030:0:0:0:0:
475,192,207280,1,0,0:0:0:0:
36,192,207280,1,0,0:0:0:0:
109,192,207280,1,0,0:0:0:0:
402,192,207280,1,0,0:0:0:0:
182,192,207373,1,0,0:0:0:0:
109,192,207467,1,0,0:0:0:0:
36,192,207467,1,0,0:0:0:0:
402,192,207467,1,0,0:0:0:0:
475,192,207467,1,0,0:0:0:0:
256,192,207561,1,0,0:0:0:0:
109,192,207655,1,0,0:0:0:0:
36,192,207655,1,0,0:0:0:0:
402,192,207655,1,0,0:0:0:0:
475,192,207655,1,0,0:0:0:0:
182,192,207748,1,0,0:0:0:0:
109,192,207842,1,0,0:0:0:0:
36,192,207842,1,0,0:0:0:0:
402,192,207842,1,0,0:0:0:0:
475,192,207842,1,0,0:0:0:0:
256,192,207936,1,0,0:0:0:0:
109,192,208030,1,0,0:0:0:0:
182,192,208030,128,0,208780:0:0:0:0:
475,192,208030,1,0,0:0:0:0:
36,192,208030,1,0,0:0:0:0:
402,192,208030,1,0,0:0:0:0:
329,192,208123,1,0,0:0:0:0:
256,192,208217,1,0,0:0:0:0:
402,192,208217,1,0,0:0:0:0:
475,192,208217,1,0,0:0:0:0:
109,192,208311,1,0,0:0:0:0:
36,192,208311,1,0,0:0:0:0:
329,192,208311,1,0,0:0:0:0:
256,192,208405,1,0,0:0:0:0:
402,192,208405,1,0,0:0:0:0:
475,192,208405,1,0,0:0:0:0:
36,192,208498,1,0,0:0:0:0:
109,192,208592,1,0,0:0:0:0:
329,192,208592,1,0,0:0:0:0:
475,192,208592,1,0,0:0:0:0:
402,192,208592,1,0,0:0:0:0:
256,192,208686,1,0,0:0:0:0:
475,192,208780,128,0,209155:0:0:0:0:
109,192,208780,1,0,0:0:0:0:
36,192,208780,1,0,0:0:0:0:
329,192,208780,1,0,0:0:0:0:
402,192,208780,1,0,0:0:0:0:
182,192,208873,1,0,0:0:0:0:
109,192,208967,1,0,0:0:0:0:
36,192,208967,1,0,0:0:0:0:
329,192,208967,1,0,0:0:0:0:
182,192,209061,1,0,0:0:0:0:
256,192,209061,1,0,0:0:0:0:
402,192,209061,1,0,0:0:0:0:
329,192,209155,128,0,209530:0:0:0:0:
109,192,209155,1,0,0:0:0:0:
36,192,209155,1,0,0:0:0:0:
402,192,209155,1,0,0:0:0:0:
182,192,209248,1,0,0:0:0:0:
109,192,209342,1,0,0:0:0:0:
36,192,209342,1,0,0:0:0:0:
402,192,209342,1,0,0:0:0:0:
475,192,209342,1,0,0:0:0:0:
256,192,209436,1,0,0:0:0:0:
182,192,209530,128,0,210280:0:0:0:0:
36,192,209530,1,0,0:0:0:0:
402,192,209530,1,0,0:0:0:0:
475,192,209530,1,0,0:0:0:0:
109,192,209530,1,0,0:0:0:0:
329,192,209623,1,0,0:0:0:0:
402,192,209717,1,0,0:0:0:0:
475,192,209717,1,0,0:0:0:0:
256,192,209717,1,0,0:0:0:0:
329,192,209811,1,0,0:0:0:0:
109,192,209811,1,0,0:0:0:0:
36,192,209811,1,0,0:0:0:0:
256,192,209905,1,0,0:0:0:0:
402,192,209905,1,0,0:0:0:0:
475,192,209905,1,0,0:0:0:0:
36,192,209998,1,0,0:0:0:0:
109,192,210092,1,0,0:0:0:0:
329,192,210092,1,0,0:0:0:0:
475,192,210092,1,0,0:0:0:0:
402,192,210092,1,0,0:0:0:0:
256,192,210186,1,0,0:0:0:0:
109,192,210280,1,0,0:0:0:0:
36,192,210280,1,0,0:0:0:0:
402,192,210280,1,0,0:0:0:0:
475,192,210280,1,0,0:0:0:0:
182,192,210373,1,0,0:0:0:0:
256,192,210467,1,0,0:0:0:0:
402,192,210467,1,0,0:0:0:0:
475,192,210467,1,0,0:0:0:0:
109,192,210467,1,0,0:0:0:0:
402,192,210561,1,0,0:0:0:0:
475,192,210561,1,0,0:0:0:0:
256,192,210561,1,0,0:0:0:0:
329,192,210655,1,0,0:0:0:0:
109,192,210655,1,0,0:0:0:0:
36,192,210655,1,0,0:0:0:0:
256,192,210748,1,0,0:0:0:0:
182,192,210842,1,0,0:0:0:0:
109,192,210842,1,0,0:0:0:0:
36,192,210842,1,0,0:0:0:0:
329,192,210842,1,0,0:0:0:0:
182,192,210936,1,0,0:0:0:0:
36,192,210936,1,0,0:0:0:0:
109,192,210936,1,0,0:0:0:0:
256,192,211030,128,0,211780:0:0:0:0:
402,192,211030,1,0,0:0:0:0:
475,192,211030,1,0,0:0:0:0:
109,192,211030,1,0,0:0:0:0:
36,192,211030,1,0,0:0:0:0:
182,192,211123,1,0,0:0:0:0:
109,192,211217,1,0,0:0:0:0:
36,192,211217,1,0,0:0:0:0:
329,192,211217,1,0,0:0:0:0:
402,192,211311,1,0,0:0:0:0:
475,192,211311,1,0,0:0:0:0:
182,192,211311,1,0,0:0:0:0:
329,192,211405,1,0,0:0:0:0:
109,192,211405,1,0,0:0:0:0:
36,192,211405,1,0,0:0:0:0:
182,192,211498,1,0,0:0:0:0:
109,192,211592,1,0,0:0:0:0:
36,192,211592,1,0,0:0:0:0:
402,192,211592,1,0,0:0:0:0:
475,192,211592,1,0,0:0:0:0:
182,192,211686,1,0,0:0:0:0:
329,192,211780,128,0,212530:0:0:0:0:
36,192,211780,1,0,0:0:0:0:
475,192,211780,1,0,0:0:0:0:
109,192,211780,1,0,0:0:0:0:
402,192,211780,1,0,0:0:0:0:
256,192,211873,1,0,0:0:0:0:
36,192,211967,1,0,0:0:0:0:
109,192,211967,1,0,0:0:0:0:
182,192,211967,1,0,0:0:0:0:
256,192,212061,1,0,0:0:0:0:
402,192,212061,1,0,0:0:0:0:
475,192,212061,1,0,0:0:0:0:
182,192,212155,1,0,0:0:0:0:
109,192,212155,1,0,0:0:0:0:
36,192,212155,1,0,0:0:0:0:
256,192,212248,1,0,0:0:0:0:
402,192,212342,1,0,0:0:0:0:
475,192,212342,1,0,0:0:0:0:
36,192,212342,1,0,0:0:0:0:
182,192,212342,1,0,0:0:0:0:
109,192,212436,1,0,0:0:0:0:
182,192,212530,128,0,213280:0:0:0:0:
402,192,212530,1,0,0:0:0:0:
475,192,212530,1,0,0:0:0:0:
256,192,212530,1,0,0:0:0:0:
109,192,212530,1,0,0:0:0:0:
36,192,212623,1,0,0:0:0:0:
329,192,212717,1,0,0:0:0:0:
402,192,212717,1,0,0:0:0:0:
475,192,212717,1,0,0:0:0:0:
256,192,212811,1,0,0:0:0:0:
109,192,212811,1,0,0:0:0:0:
36,192,212811,1,0,0:0:0:0:
329,192,212905,1,0,0:0:0:0:
402,192,212905,1,0,0:0:0:0:
475,192,212905,1,0,0:0:0:0:
256,192,212998,1,0,0:0:0:0:
109,192,213092,1,0,0:0:0:0:
36,192,213092,1,0,0:0:0:0:
329,192,213092,1,0,0:0:0:0:
475,192,213092,1,0,0:0:0:0:
256,192,213186,1,0,0:0:0:0:
109,192,213280,1,0,0:0:0:0:
36,192,213280,1,0,0:0:0:0:
402,192,213280,128,0,214030:0:0:0:0:
329,192,213280,1,0,0:0:0:0:
475,192,213280,1,0,0:0:0:0:
109,192,213373,1,0,0:0:0:0:
36,192,213467,1,0,0:0:0:0:
329,192,213467,1,0,0:0:0:0:
475,192,213467,1,0,0:0:0:0:
256,192,213467,1,0,0:0:0:0:
182,192,213561,1,0,0:0:0:0:
109,192,213655,1,0,0:0:0:0:
36,192,213655,1,0,0:0:0:0:
329,192,213655,1,0,0:0:0:0:
475,192,213655,1,0,0:0:0:0:
329,192,213748,1,0,0:0:0:0:
109,192,213842,1,0,0:0:0:0:
36,192,213842,1,0,0:0:0:0:
256,192,213842,1,0,0:0:0:0:
182,192,213936,1,0,0:0:0:0:
36,192,214030,128,0,215155:0:0:0:0:
109,192,214030,1,0,0:0:0:0:
329,192,214030,1,0,0:0:0:0:
475,192,214030,1,0,0:0:0:0:
256,192,214030,1,0,0:0:0:0:
182,192,214123,1,0,0:0:0:0:
329,192,214217,1,0,0:0:0:0:
402,192,214217,1,0,0:0:0:0:
475,192,214217,1,0,0:0:0:0:
182,192,214311,1,0,0:0:0:0:
109,192,214311,1,0,0:0:0:0:
256,192,214311,1,0,0:0:0:0:
329,192,214405,1,0,0:0:0:0:
402,192,214405,1,0,0:0:0:0:
475,192,214405,1,0,0:0:0:0:
256,192,214498,1,0,0:0:0:0:
182,192,214592,1,0,0:0:0:0:
109,192,214592,1,0,0:0:0:0:
475,192,214592,1,0,0:0:0:0:
402,192,214592,1,0,0:0:0:0:
329,192,214686,1,0,0:0:0:0:
402,192,214780,1,0,0:0:0:0:
475,192,214780,1,0,0:0:0:0:
109,192,214780,1,0,0:0:0:0:
182,192,214780,1,0,0:0:0:0:
256,192,214873,1,0,0:0:0:0:
329,192,214873,1,0,0:0:0:0:
402,192,214967,1,0,0:0:0:0:
475,192,214967,1,0,0:0:0:0:
182,192,214967,1,0,0:0:0:0:
109,192,214967,1,0,0:0:0:0:
256,192,215061,1,0,0:0:0:0:
329,192,215155,128,0,215530:0:0:0:0:
475,192,215155,1,0,0:0:0:0:
402,192,215155,1,0,0:0:0:0:
109,192,215155,1,0,0:0:0:0:
182,192,215248,1,0,0:0:0:0:
36,192,215342,1,0,0:0:0:0:
109,192,215342,1,0,0:0:0:0:
402,192,215342,1,0,0:0:0:0:
475,192,215342,1,0,0:0:0:0:
182,192,215436,1,0,0:0:0:0:
256,192,215530,128,0,223030:0:0:0:0:
109,192,215530,1,0,0:0:0:0:
402,192,215530,1,0,0:0:0:0:
475,192,215530,1,0,0:0:0:0:
36,192,215623,1,0,0:0:0:0:
109,192,215717,1,0,0:0:0:0:
475,192,215717,1,0,0:0:0:0:
182,192,215811,1,0,0:0:0:0:
329,192,215811,1,0,0:0:0:0:
402,192,215811,1,0,0:0:0:0:
36,192,215905,1,0,0:0:0:0:
109,192,215905,1,0,0:0:0:0:
475,192,215905,1,0,0:0:0:0:
182,192,215998,1,0,0:0:0:0:
329,192,215998,1,0,0:0:0:0:
402,192,216092,1,0,0:0:0:0:
475,192,216092,1,0,0:0:0:0:
109,192,216092,1,0,0:0:0:0:
182,192,216186,1,0,0:0:0:0:
36,192,216186,1,0,0:0:0:0:
109,192,216280,1,0,0:0:0:0:
329,192,216280,1,0,0:0:0:0:
475,192,216280,1,0,0:0:0:0:
36,192,216467,1,0,0:0:0:0:
182,192,216467,1,0,0:0:0:0:
402,192,216467,1,0,0:0:0:0:
36,192,216655,1,0,0:0:0:0:
109,192,216655,1,0,0:0:0:0:
182,192,216655,1,0,0:0:0:0:
475,192,216655,1,0,0:0:0:0:
109,192,217030,1,0,0:0:0:0:
36,192,217030,1,0,0:0:0:0:
402,192,217030,1,0,0:0:0:0:
475,192,217030,1,0,0:0:0:0:
329,192,217030,1,0,0:0:0:0:
182,192,217030,1,0,0:0:0:0:
329,192,217123,1,0,0:0:0:0:
182,192,217217,1,0,0:0:0:0:
109,192,217217,1,0,0:0:0:0:
36,192,217217,1,0,0:0:0:0:
475,192,217217,1,0,0:0:0:0:
329,192,217311,1,0,0:0:0:0:
402,192,217405,1,0,0:0:0:0:
475,192,217405,1,0,0:0:0:0:
182,192,217405,1,0,0:0:0:0:
36,192,217405,1,0,0:0:0:0:
109,192,217498,1,0,0:0:0:0:
182,192,217592,1,0,0:0:0:0:
329,192,217592,1,0,0:0:0:0:
402,192,217592,1,0,0:0:0:0:
475,192,217592,1,0,0:0:0:0:
36,192,217686,1,0,0:0:0:0:
329,192,217780,1,0,0:0:0:0:
402,192,217780,1,0,0:0:0:0:
475,192,217780,1,0,0:0:0:0:
109,192,217780,1,0,0:0:0:0:
182,192,217873,1,0,0:0:0:0:
475,192,217967,1,0,0:0:0:0:
329,192,217967,1,0,0:0:0:0:
109,192,218061,1,0,0:0:0:0:
36,192,218061,1,0,0:0:0:0:
182,192,218061,1,0,0:0:0:0:
402,192,218061,1,0,0:0:0:0:
329,192,218155,1,0,0:0:0:0:
475,192,218155,1,0,0:0:0:0:
36,192,218248,1,0,0:0:0:0:
109,192,218248,1,0,0:0:0:0:
329,192,218342,1,0,0:0:0:0:
402,192,218342,1,0,0:0:0:0:
475,192,218342,1,0,0:0:0:0:
182,192,218342,1,0,0:0:0:0:
36,192,218436,1,0,0:0:0:0:
109,192,218436,1,0,0:0:0:0:
402,192,218530,1,0,0:0:0:0:
475,192,218530,1,0,0:0:0:0:
182,192,218530,1,0,0:0:0:0:
329,192,218530,1,0,0:0:0:0:
109,192,218623,1,0,0:0:0:0:
475,192,218717,1,0,0:0:0:0:
36,192,218717,1,0,0:0:0:0:
182,192,218717,1,0,0:0:0:0:
402,192,218717,1,0,0:0:0:0:
329,192,218811,1,0,0:0:0:0:
475,192,218905,1,0,0:0:0:0:
109,192,218905,1,0,0:0:0:0:
36,192,218905,1,0,0:0:0:0:
402,192,218905,1,0,0:0:0:0:
182,192,218998,1,0,0:0:0:0:
329,192,219092,1,0,0:0:0:0:
402,192,219092,1,0,0:0:0:0:
475,192,219092,1,0,0:0:0:0:
109,192,219092,1,0,0:0:0:0:
36,192,219186,1,0,0:0:0:0:
182,192,219280,1,0,0:0:0:0:
109,192,219280,1,0,0:0:0:0:
402,192,219280,1,0,0:0:0:0:
475,192,219280,1,0,0:0:0:0:
329,192,219373,1,0,0:0:0:0:
109,192,219467,1,0,0:0:0:0:
36,192,219467,1,0,0:0:0:0:
475,192,219467,1,0,0:0:0:0:
402,192,219467,1,0,0:0:0:0:
182,192,219561,1,0,0:0:0:0:
329,192,219655,1,0,0:0:0:0:
475,192,219655,1,0,0:0:0:0:
402,192,219655,1,0,0:0:0:0:
36,192,219655,1,0,0:0:0:0:
329,192,219748,1,0,0:0:0:0:
329,192,219842,1,0,0:0:0:0:
109,192,219842,1,0,0:0:0:0:
329,192,219936,1,0,0:0:0:0:
402,192,220030,1,0,0:0:0:0:
475,192,220030,1,0,0:0:0:0:
182,192,220030,1,0,0:0:0:0:
36,192,220030,1,0,0:0:0:0:
109,192,220123,1,0,0:0:0:0:
36,192,220217,1,0,0:0:0:0:
182,192,220217,1,0,0:0:0:0:
402,192,220217,1,0,0:0:0:0:
475,192,220217,1,0,0:0:0:0:
329,192,220311,1,0,0:0:0:0:
109,192,220405,1,0,0:0:0:0:
36,192,220405,1,0,0:0:0:0:
402,192,220405,1,0,0:0:0:0:
475,192,220405,1,0,0:0:0:0:
182,192,220498,1,0,0:0:0:0:
329,192,220592,1,0,0:0:0:0:
475,192,220592,1,0,0:0:0:0:
109,192,220592,1,0,0:0:0:0:
36,192,220592,1,0,0:0:0:0:
182,192,220686,1,0,0:0:0:0:
329,192,220780,1,0,0:0:0:0:
402,192,220780,1,0,0:0:0:0:
475,192,220780,1,0,0:0:0:0:
109,192,220780,1,0,0:0:0:0:
182,192,220873,1,0,0:0:0:0:
36,192,220873,1,0,0:0:0:0:
329,192,220967,1,0,0:0:0:0:
475,192,220967,1,0,0:0:0:0:
109,192,221061,1,0,0:0:0:0:
36,192,221061,1,0,0:0:0:0:
182,192,221155,1,0,0:0:0:0:
329,192,221155,1,0,0:0:0:0:
402,192,221155,1,0,0:0:0:0:
475,192,221155,1,0,0:0:0:0:
36,192,221248,1,0,0:0:0:0:
109,192,221342,1,0,0:0:0:0:
402,192,221342,1,0,0:0:0:0:
475,192,221342,1,0,0:0:0:0:
182,192,221342,1,0,0:0:0:0:
329,192,221436,1,0,0:0:0:0:
402,192,221530,1,0,0:0:0:0:
475,192,221530,1,0,0:0:0:0:
36,192,221530,1,0,0:0:0:0:
109,192,221576,1,0,0:0:0:0:
182,192,221623,1,0,0:0:0:0:
475,192,221670,1,0,0:0:0:0:
402,192,221717,1,0,0:0:0:0:
329,192,221764,1,0,0:0:0:0:
36,192,221811,1,0,0:0:0:0:
109,192,221858,1,0,0:0:0:0:
182,192,221905,1,0,0:0:0:0:
329,192,221905,1,0,0:0:0:0:
402,192,221905,1,0,0:0:0:0:
475,192,221905,1,0,0:0:0:0:
329,192,221998,1,0,0:0:0:0:
182,192,222092,1,0,0:0:0:0:
36,192,222092,1,0,0:0:0:0:
182,192,222186,1,0,0:0:0:0:
109,192,222280,1,0,0:0:0:0:
402,192,222280,1,0,0:0:0:0:
475,192,222280,1,0,0:0:0:0:
36,192,222280,1,0,0:0:0:0:
182,192,222373,1,0,0:0:0:0:
329,192,222373,1,0,0:0:0:0:
402,192,222467,1,0,0:0:0:0:
475,192,222467,1,0,0:0:0:0:
109,192,222467,1,0,0:0:0:0:
402,192,222561,1,0,0:0:0:0:
475,192,222561,1,0,0:0:0:0:
36,192,222655,1,0,0:0:0:0:
109,192,222655,1,0,0:0:0:0:
182,192,222655,1,0,0:0:0:0:
329,192,222655,1,0,0:0:0:0:
402,192,222748,1,0,0:0:0:0:
475,192,222748,1,0,0:0:0:0:
109,192,222842,1,0,0:0:0:0:
36,192,222842,1,0,0:0:0:0:
36,192,222936,1,0,0:0:0:0:
109,192,222936,1,0,0:0:0:0:
182,192,223030,1,0,0:0:0:0:
329,192,223030,1,0,0:0:0:0:
402,192,223030,1,0,0:0:0:0:
475,192,223030,1,0,0:0:0:0:
256,192,223123,1,0,0:0:0:0:
36,192,223217,1,0,0:0:0:0:
109,192,223217,1,0,0:0:0:0:
329,192,223217,1,0,0:0:0:0:
475,192,223217,1,0,0:0:0:0:
182,192,223311,1,0,0:0:0:0:
256,192,223405,1,0,0:0:0:0:
402,192,223405,1,0,0:0:0:0:
475,192,223405,1,0,0:0:0:0:
36,192,223405,1,0,0:0:0:0:
109,192,223498,1,0,0:0:0:0:
329,192,223592,1,0,0:0:0:0:
182,192,223592,1,0,0:0:0:0:
402,192,223592,1,0,0:0:0:0:
475,192,223592,1,0,0:0:0:0:
256,192,223686,1,0,0:0:0:0:
109,192,223780,1,0,0:0:0:0:
36,192,223780,1,0,0:0:0:0:
329,192,223780,1,0,0:0:0:0:
475,192,223780,1,0,0:0:0:0:
256,192,223873,1,0,0:0:0:0:
182,192,223967,1,0,0:0:0:0:
36,192,223967,1,0,0:0:0:0:
256,192,224061,1,0,0:0:0:0:
329,192,224061,1,0,0:0:0:0:
402,192,224061,1,0,0:0:0:0:
475,192,224061,1,0,0:0:0:0:
109,192,224155,1,0,0:0:0:0:
36,192,224155,1,0,0:0:0:0:
402,192,224248,1,0,0:0:0:0:
475,192,224248,1,0,0:0:0:0:
329,192,224342,1,0,0:0:0:0:
182,192,224342,1,0,0:0:0:0:
109,192,224342,1,0,0:0:0:0:
36,192,224342,1,0,0:0:0:0:
402,192,224436,1,0,0:0:0:0:
475,192,224436,1,0,0:0:0:0:
329,192,224530,1,0,0:0:0:0:
256,192,224530,1,0,0:0:0:0:
109,192,224530,1,0,0:0:0:0:
36,192,224530,1,0,0:0:0:0:
182,192,224623,1,0,0:0:0:0:
109,192,224717,1,0,0:0:0:0:
36,192,224717,1,0,0:0:0:0:
329,192,224717,1,0,0:0:0:0:
475,192,224717,1,0,0:0:0:0:
256,192,224811,1,0,0:0:0:0:
182,192,224905,1,0,0:0:0:0:
402,192,224905,1,0,0:0:0:0:
475,192,224905,1,0,0:0:0:0:
36,192,224905,1,0,0:0:0:0:
329,192,224998,1,0,0:0:0:0:
256,192,225092,1,0,0:0:0:0:
109,192,225092,1,0,0:0:0:0:
36,192,225092,1,0,0:0:0:0:
402,192,225092,1,0,0:0:0:0:
182,192,225186,1,0,0:0:0:0:
329,192,225280,1,0,0:0:0:0:
475,192,225280,1,0,0:0:0:0:
36,192,225280,1,0,0:0:0:0:
109,192,225280,1,0,0:0:0:0:
109,192,225467,1,0,0:0:0:0:
182,192,225467,1,0,0:0:0:0:
402,192,225467,1,0,0:0:0:0:
475,192,225467,1,0,0:0:0:0:
109,192,225655,1,0,0:0:0:0:
36,192,225655,1,0,0:0:0:0:
329,192,225655,1,0,0:0:0:0:
475,192,225655,1,0,0:0:0:0:
329,192,225748,1,0,0:0:0:0:
182,192,225842,1,0,0:0:0:0:
329,192,225842,1,0,0:0:0:0:
329,192,225936,1,0,0:0:0:0:
109,192,226030,1,0,0:0:0:0:
36,192,226030,1,0,0:0:0:0:
256,192,226030,1,0,0:0:0:0:
402,192,226030,1,0,0:0:0:0:
475,192,226123,1,0,0:0:0:0:
402,192,226217,1,0,0:0:0:0:
329,192,226217,1,0,0:0:0:0:
109,192,226217,1,0,0:0:0:0:
36,192,226217,1,0,0:0:0:0:
182,192,226311,1,0,0:0:0:0:
256,192,226405,1,0,0:0:0:0:
402,192,226405,1,0,0:0:0:0:
475,192,226405,1,0,0:0:0:0:
36,192,226405,1,0,0:0:0:0:
109,192,226498,1,0,0:0:0:0:
182,192,226592,1,0,0:0:0:0:
329,192,226592,1,0,0:0:0:0:
402,192,226592,1,0,0:0:0:0:
36,192,226592,1,0,0:0:0:0:
256,192,226686,1,0,0:0:0:0:
109,192,226780,1,0,0:0:0:0:
36,192,226780,1,0,0:0:0:0:
402,192,226780,1,0,0:0:0:0:
329,192,226780,1,0,0:0:0:0:
475,192,226780,1,0,0:0:0:0:
182,192,226873,1,0,0:0:0:0:
256,192,226873,1,0,0:0:0:0:
109,192,226967,1,0,0:0:0:0:
36,192,226967,1,0,0:0:0:0:
402,192,226967,1,0,0:0:0:0:
475,192,226967,1,0,0:0:0:0:
329,192,227061,1,0,0:0:0:0:
256,192,227061,1,0,0:0:0:0:
109,192,227155,1,0,0:0:0:0:
36,192,227155,1,0,0:0:0:0:
402,192,227155,1,0,0:0:0:0:
475,192,227155,1,0,0:0:0:0:
182,192,227248,1,0,0:0:0:0:
329,192,227248,1,0,0:0:0:0:
109,192,227342,1,0,0:0:0:0:
36,192,227342,1,0,0:0:0:0:
256,192,227342,1,0,0:0:0:0:
402,192,227342,1,0,0:0:0:0:
182,192,227436,1,0,0:0:0:0:
329,192,227436,1,0,0:0:0:0:
109,192,227530,1,0,0:0:0:0:
36,192,227530,1,0,0:0:0:0:
475,192,227530,1,0,0:0:0:0:
402,192,227576,1,0,0:0:0:0:
329,192,227623,1,0,0:0:0:0:
182,192,227623,1,0,0:0:0:0:
475,192,227670,1,0,0:0:0:0:
109,192,227717,1,0,0:0:0:0:
402,192,227717,1,0,0:0:0:0:
329,192,227764,1,0,0:0:0:0:
182,192,227811,1,0,0:0:0:0:
475,192,227811,1,0,0:0:0:0:
402,192,227858,1,0,0:0:0:0:
329,192,227905,1,0,0:0:0:0:
36,192,227905,1,0,0:0:0:0:
109,192,227905,1,0,0:0:0:0:
256,192,227905,1,0,0:0:0:0:
402,192,227998,1,0,0:0:0:0:
475,192,227998,1,0,0:0:0:0:
109,192,228092,1,0,0:0:0:0:
36,192,228092,1,0,0:0:0:0:
329,192,228186,1,0,0:0:0:0:
402,192,228186,1,0,0:0:0:0:
475,192,228280,1,0,0:0:0:0:
256,192,228280,1,0,0:0:0:0:
109,192,228280,1,0,0:0:0:0:
36,192,228280,1,0,0:0:0:0:
109,192,228467,1,0,0:0:0:0:
182,192,228467,1,0,0:0:0:0:
329,192,228467,1,0,0:0:0:0:
402,192,228467,1,0,0:0:0:0:
256,192,228655,1,0,0:0:0:0:
402,192,228655,1,0,0:0:0:0:
475,192,228655,1,0,0:0:0:0:
109,192,229030,1,0,0:0:0:0:
36,192,229030,1,0,0:0:0:0:
182,192,229030,1,0,0:0:0:0:
256,192,229030,1,0,0:0:0:0:
329,192,229030,1,0,0:0:0:0:
402,192,229030,1,0,0:0:0:0:
475,192,229030,1,0,0:0:0:0:
329,192,229123,1,0,0:0:0:0:
182,192,229217,1,0,0:0:0:0:
36,192,229217,1,0,0:0:0:0:
475,192,229217,1,0,0:0:0:0:
402,192,229217,1,0,0:0:0:0:
329,192,229311,1,0,0:0:0:0:
36,192,229405,1,0,0:0:0:0:
475,192,229405,1,0,0:0:0:0:
256,192,229405,1,0,0:0:0:0:
109,192,229405,1,0,0:0:0:0:
329,192,229498,1,0,0:0:0:0:
109,192,229592,1,0,0:0:0:0:
36,192,229592,1,0,0:0:0:0:
182,192,229592,1,0,0:0:0:0:
402,192,229592,1,0,0:0:0:0:
256,192,229686,1,0,0:0:0:0:
182,192,229780,1,0,0:0:0:0:
36,192,229780,1,0,0:0:0:0:
402,192,229780,1,0,0:0:0:0:
475,192,229780,1,0,0:0:0:0:
329,192,229873,1,0,0:0:0:0:
475,192,229967,1,0,0:0:0:0:
256,192,229967,1,0,0:0:0:0:
109,192,230061,1,0,0:0:0:0:
36,192,230061,1,0,0:0:0:0:
329,192,230061,1,0,0:0:0:0:
182,192,230061,1,0,0:0:0:0:
402,192,230155,1,0,0:0:0:0:
256,192,230155,1,0,0:0:0:0:
36,192,230248,1,0,0:0:0:0:
182,192,230248,1,0,0:0:0:0:
402,192,230342,1,0,0:0:0:0:
475,192,230342,1,0,0:0:0:0:
256,192,230342,1,0,0:0:0:0:
329,192,230342,1,0,0:0:0:0:
36,192,230436,1,0,0:0:0:0:
182,192,230436,1,0,0:0:0:0:
402,192,230530,1,0,0:0:0:0:
475,192,230530,1,0,0:0:0:0:
109,192,230530,1,0,0:0:0:0:
256,192,230530,1,0,0:0:0:0:
329,192,230623,1,0,0:0:0:0:
182,192,230717,1,0,0:0:0:0:
36,192,230717,1,0,0:0:0:0:
402,192,230717,1,0,0:0:0:0:
475,192,230717,1,0,0:0:0:0:
256,192,230811,1,0,0:0:0:0:
36,192,230905,1,0,0:0:0:0:
475,192,230905,1,0,0:0:0:0:
329,192,230905,1,0,0:0:0:0:
109,192,230905,1,0,0:0:0:0:
182,192,230998,1,0,0:0:0:0:
475,192,231092,1,0,0:0:0:0:
109,192,231092,1,0,0:0:0:0:
256,192,231092,1,0,0:0:0:0:
402,192,231092,1,0,0:0:0:0:
329,192,231186,1,0,0:0:0:0:
475,192,231280,1,0,0:0:0:0:
402,192,231280,1,0,0:0:0:0:
182,192,231280,1,0,0:0:0:0:
36,192,231280,1,0,0:0:0:0:
256,192,231373,1,0,0:0:0:0:
109,192,231467,1,0,0:0:0:0:
36,192,231467,1,0,0:0:0:0:
402,192,231467,1,0,0:0:0:0:
329,192,231467,1,0,0:0:0:0:
256,192,231561,1,0,0:0:0:0:
182,192,231655,1,0,0:0:0:0:
36,192,231655,1,0,0:0:0:0:
402,192,231655,1,0,0:0:0:0:
475,192,231655,1,0,0:0:0:0:
182,192,231748,1,0,0:0:0:0:
36,192,231748,1,0,0:0:0:0:
182,192,231842,1,0,0:0:0:0:
329,192,231842,1,0,0:0:0:0:
36,192,231842,1,0,0:0:0:0:
182,192,231936,1,0,0:0:0:0:
36,192,231936,1,0,0:0:0:0:
256,192,232030,1,0,0:0:0:0:
36,192,232030,1,0,0:0:0:0:
402,192,232030,1,0,0:0:0:0:
475,192,232030,1,0,0:0:0:0:
109,192,232123,1,0,0:0:0:0:
402,192,232217,1,0,0:0:0:0:
475,192,232217,1,0,0:0:0:0:
256,192,232217,1,0,0:0:0:0:
182,192,232217,1,0,0:0:0:0:
329,192,232311,1,0,0:0:0:0:
36,192,232405,1,0,0:0:0:0:
475,192,232405,1,0,0:0:0:0:
256,192,232405,1,0,0:0:0:0:
109,192,232405,1,0,0:0:0:0:
402,192,232498,1,0,0:0:0:0:
109,192,232592,1,0,0:0:0:0:
475,192,232592,1,0,0:0:0:0:
329,192,232592,1,0,0:0:0:0:
182,192,232592,1,0,0:0:0:0:
256,192,232686,1,0,0:0:0:0:
182,192,232780,1,0,0:0:0:0:
36,192,232780,1,0,0:0:0:0:
109,192,232780,1,0,0:0:0:0:
402,192,232780,1,0,0:0:0:0:
475,192,232780,1,0,0:0:0:0:
256,192,232873,1,0,0:0:0:0:
329,192,232873,1,0,0:0:0:0:
109,192,232967,1,0,0:0:0:0:
36,192,232967,1,0,0:0:0:0:
402,192,232967,1,0,0:0:0:0:
475,192,232967,1,0,0:0:0:0:
256,192,233061,1,0,0:0:0:0:
182,192,233061,1,0,0:0:0:0:
109,192,233155,1,0,0:0:0:0:
36,192,233155,1,0,0:0:0:0:
402,192,233155,1,0,0:0:0:0:
475,192,233155,1,0,0:0:0:0:
182,192,233248,1,0,0:0:0:0:
256,192,233342,1,0,0:0:0:0:
109,192,233342,1,0,0:0:0:0:
402,192,233342,1,0,0:0:0:0:
475,192,233342,1,0,0:0:0:0:
329,192,233436,1,0,0:0:0:0:
36,192,233530,1,0,0:0:0:0:
402,192,233530,1,0,0:0:0:0:
475,192,233530,1,0,0:0:0:0:
109,192,233576,1,0,0:0:0:0:
182,192,233623,1,0,0:0:0:0:
475,192,233670,1,0,0:0:0:0:
402,192,233717,1,0,0:0:0:0:
109,192,233717,1,0,0:0:0:0:
36,192,233717,1,0,0:0:0:0:
329,192,233764,1,0,0:0:0:0:
182,192,233811,1,0,0:0:0:0:
256,192,233858,1,0,0:0:0:0:
475,192,233905,1,0,0:0:0:0:
329,192,233905,1,0,0:0:0:0:
109,192,233905,1,0,0:0:0:0:
36,192,233905,1,0,0:0:0:0:
182,192,233998,1,0,0:0:0:0:
402,192,233998,1,0,0:0:0:0:
109,192,234092,1,0,0:0:0:0:
329,192,234092,1,0,0:0:0:0:
36,192,234092,1,0,0:0:0:0:
182,192,234186,1,0,0:0:0:0:
402,192,234186,1,0,0:0:0:0:
109,192,234280,1,0,0:0:0:0:
36,192,234280,1,0,0:0:0:0:
329,192,234280,1,0,0:0:0:0:
475,192,234280,1,0,0:0:0:0:
256,192,234373,1,0,0:0:0:0:
182,192,234467,1,0,0:0:0:0:
109,192,234467,1,0,0:0:0:0:
36,192,234467,1,0,0:0:0:0:
36,192,234561,1,0,0:0:0:0:
182,192,234561,1,0,0:0:0:0:
109,192,234561,1,0,0:0:0:0:
256,192,234655,1,0,0:0:0:0:
402,192,234655,1,0,0:0:0:0:
475,192,234655,1,0,0:0:0:0:
329,192,234655,1,0,0:0:0:0:
182,192,234748,1,0,0:0:0:0:
36,192,234748,1,0,0:0:0:0:
329,192,234842,1,0,0:0:0:0:
402,192,234842,1,0,0:0:0:0:
475,192,234842,1,0,0:0:0:0:
475,192,234936,1,0,0:0:0:0:
329,192,234936,1,0,0:0:0:0:
402,192,234936,1,0,0:0:0:0:
109,192,235030,1,0,0:0:0:0:
36,192,235030,1,0,0:0:0:0:
256,192,235030,1,0,0:0:0:0:
402,192,235030,1,0,0:0:0:0:
182,192,235123,1,0,0:0:0:0:
109,192,235217,1,0,0:0:0:0:
36,192,235217,1,0,0:0:0:0:
329,192,235217,1,0,0:0:0:0:
475,192,235217,1,0,0:0:0:0:
256,192,235311,1,0,0:0:0:0:
182,192,235405,1,0,0:0:0:0:
36,192,235405,1,0,0:0:0:0:
402,192,235405,1,0,0:0:0:0:
475,192,235405,1,0,0:0:0:0:
109,192,235498,1,0,0:0:0:0:
182,192,235592,1,0,0:0:0:0:
402,192,235592,1,0,0:0:0:0:
475,192,235592,1,0,0:0:0:0:
329,192,235592,1,0,0:0:0:0:
256,192,235686,1,0,0:0:0:0:
182,192,235780,1,0,0:0:0:0:
109,192,235780,1,0,0:0:0:0:
36,192,235780,1,0,0:0:0:0:
402,192,235780,1,0,0:0:0:0:
329,192,235873,1,0,0:0:0:0:
475,192,235873,1,0,0:0:0:0:
36,192,235967,1,0,0:0:0:0:
182,192,235967,1,0,0:0:0:0:
256,192,236061,1,0,0:0:0:0:
402,192,236061,1,0,0:0:0:0:
475,192,236061,1,0,0:0:0:0:
329,192,236061,1,0,0:0:0:0:
109,192,236155,1,0,0:0:0:0:
36,192,236155,1,0,0:0:0:0:
475,192,236248,1,0,0:0:0:0:
329,192,236248,1,0,0:0:0:0:
182,192,236342,1,0,0:0:0:0:
36,192,236342,1,0,0:0:0:0:
109,192,236342,1,0,0:0:0:0:
402,192,236342,1,0,0:0:0:0:
475,192,236436,1,0,0:0:0:0:
256,192,236436,1,0,0:0:0:0:
329,192,236530,1,0,0:0:0:0:
402,192,236530,1,0,0:0:0:0:
36,192,236530,1,0,0:0:0:0:
109,192,236530,1,0,0:0:0:0:
256,192,236623,1,0,0:0:0:0:
182,192,236717,1,0,0:0:0:0:
36,192,236717,1,0,0:0:0:0:
475,192,236717,1,0,0:0:0:0:
402,192,236717,1,0,0:0:0:0:
329,192,236811,1,0,0:0:0:0:
256,192,236905,1,0,0:0:0:0:
475,192,236905,1,0,0:0:0:0:
36,192,236905,1,0,0:0:0:0:
109,192,236905,1,0,0:0:0:0:
182,192,236998,1,0,0:0:0:0:
329,192,237092,1,0,0:0:0:0:
402,192,237092,1,0,0:0:0:0:
475,192,237092,1,0,0:0:0:0:
109,192,237092,1,0,0:0:0:0:
256,192,237186,1,0,0:0:0:0:
182,192,237280,1,0,0:0:0:0:
36,192,237280,1,0,0:0:0:0:
402,192,237280,1,0,0:0:0:0:
475,192,237280,1,0,0:0:0:0:
109,192,237467,1,0,0:0:0:0:
256,192,237467,1,0,0:0:0:0:
329,192,237467,1,0,0:0:0:0:
475,192,237467,1,0,0:0:0:0:
329,192,237655,1,0,0:0:0:0:
475,192,237655,1,0,0:0:0:0:
109,192,237655,1,0,0:0:0:0:
36,192,237655,1,0,0:0:0:0:
475,192,237748,1,0,0:0:0:0:
329,192,237748,1,0,0:0:0:0:
329,192,237842,1,0,0:0:0:0:
475,192,237842,1,0,0:0:0:0:
182,192,237842,1,0,0:0:0:0:
475,192,237936,1,0,0:0:0:0:
329,192,237936,1,0,0:0:0:0:
402,192,238030,1,0,0:0:0:0:
475,192,238030,1,0,0:0:0:0:
182,192,238030,1,0,0:0:0:0:
36,192,238030,1,0,0:0:0:0:
256,192,238123,1,0,0:0:0:0:
329,192,238217,1,0,0:0:0:0:
475,192,238217,1,0,0:0:0:0:
109,192,238217,1,0,0:0:0:0:
36,192,238217,1,0,0:0:0:0:
256,192,238311,1,0,0:0:0:0:
182,192,238405,1,0,0:0:0:0:
36,192,238405,1,0,0:0:0:0:
402,192,238405,1,0,0:0:0:0:
475,192,238405,1,0,0:0:0:0:
329,192,238498,1,0,0:0:0:0:
109,192,238592,1,0,0:0:0:0:
256,192,238592,1,0,0:0:0:0:
475,192,238592,1,0,0:0:0:0:
36,192,238592,1,0,0:0:0:0:
182,192,238686,1,0,0:0:0:0:
329,192,238686,1,0,0:0:0:0:
402,192,238686,1,0,0:0:0:0:
475,192,238780,1,0,0:0:0:0:
256,192,238780,1,0,0:0:0:0:
109,192,238780,1,0,0:0:0:0:
36,192,238780,1,0,0:0:0:0:
329,192,238873,1,0,0:0:0:0:
402,192,238873,1,0,0:0:0:0:
475,192,238967,1,0,0:0:0:0:
109,192,238967,1,0,0:0:0:0:
36,192,238967,1,0,0:0:0:0:
256,192,238967,1,0,0:0:0:0:
182,192,239061,1,0,0:0:0:0:
329,192,239061,1,0,0:0:0:0:
402,192,239155,1,0,0:0:0:0:
475,192,239155,1,0,0:0:0:0:
109,192,239155,1,0,0:0:0:0:
36,192,239155,1,0,0:0:0:0:
182,192,239248,1,0,0:0:0:0:
256,192,239248,1,0,0:0:0:0:
329,192,239342,1,0,0:0:0:0:
475,192,239342,1,0,0:0:0:0:
402,192,239342,1,0,0:0:0:0:
36,192,239342,1,0,0:0:0:0:
256,192,239436,1,0,0:0:0:0:
109,192,239436,1,0,0:0:0:0:
475,192,239530,1,0,0:0:0:0:
36,192,239530,1,0,0:0:0:0:
182,192,239530,1,0,0:0:0:0:
402,192,239576,1,0,0:0:0:0:
329,192,239623,1,0,0:0:0:0:
109,192,239623,1,0,0:0:0:0:
475,192,239670,1,0,0:0:0:0:
402,192,239717,1,0,0:0:0:0:
182,192,239717,1,0,0:0:0:0:
329,192,239764,1,0,0:0:0:0:
475,192,239811,1,0,0:0:0:0:
109,192,239811,1,0,0:0:0:0:
402,192,239858,1,0,0:0:0:0:
36,192,239905,1,0,0:0:0:0:
182,192,239905,1,0,0:0:0:0:
256,192,239905,1,0,0:0:0:0:
329,192,239905,1,0,0:0:0:0:
402,192,239998,1,0,0:0:0:0:
475,192,239998,1,0,0:0:0:0:
109,192,239998,1,0,0:0:0:0:
36,192,240092,1,0,0:0:0:0:
182,192,240092,1,0,0:0:0:0:
329,192,240092,1,0,0:0:0:0:
256,192,240186,1,0,0:0:0:0:
402,192,240186,1,0,0:0:0:0:
475,192,240186,1,0,0:0:0:0:
329,192,240280,1,0,0:0:0:0:
109,192,240280,1,0,0:0:0:0:
36,192,240280,1,0,0:0:0:0:
182,192,240280,1,0,0:0:0:0:
109,192,240467,1,0,0:0:0:0:
182,192,240467,1,0,0:0:0:0:
256,192,240467,1,0,0:0:0:0:
402,192,240467,1,0,0:0:0:0:
182,192,240655,128,0,240748:0:0:0:0:
329,192,240748,128,0,240842:0:0:0:0:
182,192,240842,128,0,240936:0:0:0:0:
329,192,240936,128,0,241030:0:0:0:0:
36,192,241030,1,0,0:0:0:0:
109,192,241030,1,0,0:0:0:0:
182,192,241030,1,0,0:0:0:0:
256,192,241030,1,0,0:0:0:0:
402,192,241030,1,0,0:0:0:0:
475,192,241030,1,0,0:0:0:0:
329,192,241123,1,0,0:0:0:0:
182,192,241217,1,0,0:0:0:0:
109,192,241217,1,0,0:0:0:0:
36,192,241217,1,0,0:0:0:0:
36,192,241311,1,0,0:0:0:0:
109,192,241311,1,0,0:0:0:0:
182,192,241311,1,0,0:0:0:0:
256,192,241405,1,0,0:0:0:0:
402,192,241405,1,0,0:0:0:0:
475,192,241405,1,0,0:0:0:0:
182,192,241498,1,0,0:0:0:0:
109,192,241498,1,0,0:0:0:0:
36,192,241498,1,0,0:0:0:0:
36,192,241592,1,0,0:0:0:0:
109,192,241592,1,0,0:0:0:0:
182,192,241592,1,0,0:0:0:0:
329,192,241592,1,0,0:0:0:0:
256,192,241686,1,0,0:0:0:0:
329,192,241780,1,0,0:0:0:0:
402,192,241780,1,0,0:0:0:0:
475,192,241780,1,0,0:0:0:0:
109,192,241780,1,0,0:0:0:0:
182,192,241873,1,0,0:0:0:0:
329,192,241967,1,0,0:0:0:0:
402,192,241967,1,0,0:0:0:0:
475,192,241967,1,0,0:0:0:0:
475,192,242061,1,0,0:0:0:0:
329,192,242061,1,0,0:0:0:0:
402,192,242061,1,0,0:0:0:0:
256,192,242155,1,0,0:0:0:0:
109,192,242155,1,0,0:0:0:0:
36,192,242155,1,0,0:0:0:0:
329,192,242248,1,0,0:0:0:0:
402,192,242248,1,0,0:0:0:0:
475,192,242248,1,0,0:0:0:0:
475,192,242342,1,0,0:0:0:0:
402,192,242342,1,0,0:0:0:0:
329,192,242342,1,0,0:0:0:0:
182,192,242342,1,0,0:0:0:0:
256,192,242436,1,0,0:0:0:0:
182,192,242530,1,0,0:0:0:0:
109,192,242530,1,0,0:0:0:0:
36,192,242530,1,0,0:0:0:0:
402,192,242530,1,0,0:0:0:0:
329,192,242623,1,0,0:0:0:0:
182,192,242717,1,0,0:0:0:0:
109,192,242717,1,0,0:0:0:0:
36,192,242717,1,0,0:0:0:0:
36,192,242811,1,0,0:0:0:0:
109,192,242811,1,0,0:0:0:0:
182,192,242811,1,0,0:0:0:0:
256,192,242905,1,0,0:0:0:0:
329,192,242905,1,0,0:0:0:0:
475,192,242905,1,0,0:0:0:0:
182,192,242998,1,0,0:0:0:0:
109,192,242998,1,0,0:0:0:0:
36,192,242998,1,0,0:0:0:0:
36,192,243092,1,0,0:0:0:0:
109,192,243092,1,0,0:0:0:0:
182,192,243092,1,0,0:0:0:0:
402,192,243092,1,0,0:0:0:0:
256,192,243186,1,0,0:0:0:0:
36,192,243280,1,0,0:0:0:0:
402,192,243280,1,0,0:0:0:0:
475,192,243280,1,0,0:0:0:0:
182,192,243280,1,0,0:0:0:0:
256,192,243373,1,0,0:0:0:0:
402,192,243467,1,0,0:0:0:0:
109,192,243467,1,0,0:0:0:0:
36,192,243467,1,0,0:0:0:0:
475,192,243467,1,0,0:0:0:0:
329,192,243561,1,0,0:0:0:0:
256,192,243655,1,0,0:0:0:0:
109,192,243655,1,0,0:0:0:0:
402,192,243655,1,0,0:0:0:0:
475,192,243655,1,0,0:0:0:0:
182,192,243748,1,0,0:0:0:0:
36,192,243842,1,0,0:0:0:0:
402,192,243842,1,0,0:0:0:0:
109,192,243842,1,0,0:0:0:0:
329,192,243842,1,0,0:0:0:0:
256,192,243936,1,0,0:0:0:0:
182,192,244030,1,0,0:0:0:0:
36,192,244030,1,0,0:0:0:0:
402,192,244030,1,0,0:0:0:0:
475,192,244030,1,0,0:0:0:0:
256,192,244123,1,0,0:0:0:0:
402,192,244217,1,0,0:0:0:0:
475,192,244217,1,0,0:0:0:0:
329,192,244217,1,0,0:0:0:0:
329,192,244311,1,0,0:0:0:0:
402,192,244311,1,0,0:0:0:0:
475,192,244311,1,0,0:0:0:0:
36,192,244405,1,0,0:0:0:0:
109,192,244405,1,0,0:0:0:0:
182,192,244405,1,0,0:0:0:0:
329,192,244498,1,0,0:0:0:0:
402,192,244498,1,0,0:0:0:0:
475,192,244498,1,0,0:0:0:0:
475,192,244592,1,0,0:0:0:0:
402,192,244592,1,0,0:0:0:0:
329,192,244592,1,0,0:0:0:0:
256,192,244592,1,0,0:0:0:0:
182,192,244686,1,0,0:0:0:0:
256,192,244780,1,0,0:0:0:0:
109,192,244780,1,0,0:0:0:0:
36,192,244780,1,0,0:0:0:0:
475,192,244780,1,0,0:0:0:0:
329,192,244873,1,0,0:0:0:0:
182,192,244967,1,0,0:0:0:0:
109,192,244967,1,0,0:0:0:0:
36,192,244967,1,0,0:0:0:0:
182,192,245061,1,0,0:0:0:0:
109,192,245061,1,0,0:0:0:0:
36,192,245061,1,0,0:0:0:0:
329,192,245155,1,0,0:0:0:0:
402,192,245155,1,0,0:0:0:0:
475,192,245155,1,0,0:0:0:0:
256,192,245248,1,0,0:0:0:0:
109,192,245248,1,0,0:0:0:0:
36,192,245248,1,0,0:0:0:0:
36,192,245342,1,0,0:0:0:0:
109,192,245342,1,0,0:0:0:0:
256,192,245342,1,0,0:0:0:0:
402,192,245342,1,0,0:0:0:0:
182,192,245436,1,0,0:0:0:0:
329,192,245530,1,0,0:0:0:0:
402,192,245530,1,0,0:0:0:0:
475,192,245530,1,0,0:0:0:0:
109,192,245530,1,0,0:0:0:0:
182,192,245623,1,0,0:0:0:0:
256,192,245717,1,0,0:0:0:0:
475,192,245717,1,0,0:0:0:0:
402,192,245717,1,0,0:0:0:0:
256,192,245811,1,0,0:0:0:0:
402,192,245811,1,0,0:0:0:0:
475,192,245811,1,0,0:0:0:0:
182,192,245905,1,0,0:0:0:0:
109,192,245905,1,0,0:0:0:0:
36,192,245905,1,0,0:0:0:0:
329,192,245998,1,0,0:0:0:0:
402,192,245998,1,0,0:0:0:0:
475,192,245998,1,0,0:0:0:0:
475,192,246092,1,0,0:0:0:0:
402,192,246092,1,0,0:0:0:0:
329,192,246092,1,0,0:0:0:0:
182,192,246092,1,0,0:0:0:0:
256,192,246186,1,0,0:0:0:0:
182,192,246280,1,0,0:0:0:0:
36,192,246280,1,0,0:0:0:0:
402,192,246280,1,0,0:0:0:0:
475,192,246280,1,0,0:0:0:0:
256,192,246373,1,0,0:0:0:0:
329,192,246467,1,0,0:0:0:0:
402,192,246467,1,0,0:0:0:0:
475,192,246467,1,0,0:0:0:0:
182,192,246467,1,0,0:0:0:0:
329,192,246561,1,0,0:0:0:0:
402,192,246561,1,0,0:0:0:0:
475,192,246561,1,0,0:0:0:0:
256,192,246655,1,0,0:0:0:0:
109,192,246655,1,0,0:0:0:0:
36,192,246655,1,0,0:0:0:0:
402,192,246748,1,0,0:0:0:0:
329,192,246842,1,0,0:0:0:0:
182,192,246842,1,0,0:0:0:0:
109,192,246842,1,0,0:0:0:0:
36,192,246842,1,0,0:0:0:0:
182,192,246936,1,0,0:0:0:0:
109,192,246936,1,0,0:0:0:0:
36,192,246936,1,0,0:0:0:0:
256,192,247030,1,0,0:0:0:0:
402,192,247030,1,0,0:0:0:0:
475,192,247030,1,0,0:0:0:0:
329,192,247123,1,0,0:0:0:0:
182,192,247217,1,0,0:0:0:0:
36,192,247217,1,0,0:0:0:0:
109,192,247217,1,0,0:0:0:0:
182,192,247311,1,0,0:0:0:0:
36,192,247311,1,0,0:0:0:0:
109,192,247311,1,0,0:0:0:0:
256,192,247405,1,0,0:0:0:0:
402,192,247405,1,0,0:0:0:0:
475,192,247405,1,0,0:0:0:0:
182,192,247498,1,0,0:0:0:0:
36,192,247498,1,0,0:0:0:0:
109,192,247498,1,0,0:0:0:0:
36,192,247592,1,0,0:0:0:0:
182,192,247592,1,0,0:0:0:0:
109,192,247592,1,0,0:0:0:0:
402,192,247592,1,0,0:0:0:0:
329,192,247686,1,0,0:0:0:0:
256,192,247780,1,0,0:0:0:0:
402,192,247780,1,0,0:0:0:0:
475,192,247780,1,0,0:0:0:0:
109,192,247780,1,0,0:0:0:0:
182,192,247873,1,0,0:0:0:0:
329,192,247967,1,0,0:0:0:0:
402,192,247967,1,0,0:0:0:0:
475,192,247967,1,0,0:0:0:0:
475,192,248061,1,0,0:0:0:0:
402,192,248061,1,0,0:0:0:0:
329,192,248061,1,0,0:0:0:0:
182,192,248155,1,0,0:0:0:0:
109,192,248155,1,0,0:0:0:0:
36,192,248155,1,0,0:0:0:0:
256,192,248248,1,0,0:0:0:0:
402,192,248248,1,0,0:0:0:0:
475,192,248248,1,0,0:0:0:0:
475,192,248342,1,0,0:0:0:0:
402,192,248342,1,0,0:0:0:0:
256,192,248342,1,0,0:0:0:0:
109,192,248342,1,0,0:0:0:0:
329,192,248436,1,0,0:0:0:0:
182,192,248530,1,0,0:0:0:0:
109,192,248530,1,0,0:0:0:0:
36,192,248530,1,0,0:0:0:0:
402,192,248530,1,0,0:0:0:0:
329,192,248623,1,0,0:0:0:0:
256,192,248717,1,0,0:0:0:0:
109,192,248717,1,0,0:0:0:0:
36,192,248717,1,0,0:0:0:0:
36,192,248811,1,0,0:0:0:0:
109,192,248811,1,0,0:0:0:0:
256,192,248811,1,0,0:0:0:0:
402,192,248905,1,0,0:0:0:0:
329,192,248905,1,0,0:0:0:0:
475,192,248905,1,0,0:0:0:0:
182,192,248998,1,0,0:0:0:0:
109,192,248998,1,0,0:0:0:0:
36,192,248998,1,0,0:0:0:0:
36,192,249092,1,0,0:0:0:0:
109,192,249092,1,0,0:0:0:0:
182,192,249092,1,0,0:0:0:0:
256,192,249092,1,0,0:0:0:0:
329,192,249186,1,0,0:0:0:0:
256,192,249280,1,0,0:0:0:0:
109,192,249280,1,0,0:0:0:0:
475,192,249280,1,0,0:0:0:0:
402,192,249280,1,0,0:0:0:0:
329,192,249373,1,0,0:0:0:0:
402,192,249467,1,0,0:0:0:0:
475,192,249467,1,0,0:0:0:0:
182,192,249467,1,0,0:0:0:0:
36,192,249467,1,0,0:0:0:0:
256,192,249561,1,0,0:0:0:0:
329,192,249655,1,0,0:0:0:0:
402,192,249655,1,0,0:0:0:0:
109,192,249655,1,0,0:0:0:0:
36,192,249655,1,0,0:0:0:0:
182,192,249748,1,0,0:0:0:0:
475,192,249842,1,0,0:0:0:0:
256,192,249842,1,0,0:0:0:0:
109,192,249842,1,0,0:0:0:0:
36,192,249842,1,0,0:0:0:0:
329,192,249936,1,0,0:0:0:0:
256,192,250030,1,0,0:0:0:0:
109,192,250030,1,0,0:0:0:0:
36,192,250030,1,0,0:0:0:0:
402,192,250030,1,0,0:0:0:0:
329,192,250123,1,0,0:0:0:0:
109,192,250217,1,0,0:0:0:0:
182,192,250217,1,0,0:0:0:0:
36,192,250217,1,0,0:0:0:0:
182,192,250311,1,0,0:0:0:0:
109,192,250311,1,0,0:0:0:0:
36,192,250311,1,0,0:0:0:0:
402,192,250405,1,0,0:0:0:0:
475,192,250405,1,0,0:0:0:0:
256,192,250405,1,0,0:0:0:0:
182,192,250498,1,0,0:0:0:0:
109,192,250498,1,0,0:0:0:0:
36,192,250498,1,0,0:0:0:0:
36,192,250592,1,0,0:0:0:0:
109,192,250592,1,0,0:0:0:0:
182,192,250592,1,0,0:0:0:0:
329,192,250592,1,0,0:0:0:0:
256,192,250686,1,0,0:0:0:0:
329,192,250780,1,0,0:0:0:0:
402,192,250780,1,0,0:0:0:0:
475,192,250780,1,0,0:0:0:0:
109,192,250780,1,0,0:0:0:0:
182,192,250873,1,0,0:0:0:0:
475,192,250967,1,0,0:0:0:0:
402,192,250967,1,0,0:0:0:0:
329,192,250967,1,0,0:0:0:0:
329,192,251061,1,0,0:0:0:0:
402,192,251061,1,0,0:0:0:0:
475,192,251061,1,0,0:0:0:0:
256,192,251155,1,0,0:0:0:0:
109,192,251155,1,0,0:0:0:0:
36,192,251155,1,0,0:0:0:0:
329,192,251248,1,0,0:0:0:0:
402,192,251248,1,0,0:0:0:0:
475,192,251248,1,0,0:0:0:0:
475,192,251342,1,0,0:0:0:0:
402,192,251342,1,0,0:0:0:0:
329,192,251342,1,0,0:0:0:0:
256,192,251342,1,0,0:0:0:0:
182,192,251436,1,0,0:0:0:0:
256,192,251530,1,0,0:0:0:0:
36,192,251530,1,0,0:0:0:0:
402,192,251530,1,0,0:0:0:0:
475,192,251530,1,0,0:0:0:0:
109,192,251576,1,0,0:0:0:0:
182,192,251623,1,0,0:0:0:0:
329,192,251623,1,0,0:0:0:0:
402,192,251717,1,0,0:0:0:0:
109,192,251717,1,0,0:0:0:0:
182,192,251811,1,0,0:0:0:0:
329,192,251811,1,0,0:0:0:0:
475,192,251905,1,0,0:0:0:0:
36,192,251905,1,0,0:0:0:0:
109,192,251905,1,0,0:0:0:0:
402,192,251951,1,0,0:0:0:0:
329,192,251998,1,0,0:0:0:0:
182,192,251998,1,0,0:0:0:0:
109,192,252092,1,0,0:0:0:0:
475,192,252092,1,0,0:0:0:0:
402,192,252139,1,0,0:0:0:0:
329,192,252186,1,0,0:0:0:0:
256,192,252233,1,0,0:0:0:0:
182,192,252280,1,0,0:0:0:0:
109,192,252280,1,0,0:0:0:0:
36,192,252280,1,0,0:0:0:0:
475,192,252280,1,0,0:0:0:0:
329,192,252373,1,0,0:0:0:0:
402,192,252467,1,0,0:0:0:0:
475,192,252467,1,0,0:0:0:0:
36,192,252467,1,0,0:0:0:0:
182,192,252467,1,0,0:0:0:0:
402,192,252655,1,0,0:0:0:0:
475,192,252655,1,0,0:0:0:0:
109,192,252655,1,0,0:0:0:0:
256,192,252655,1,0,0:0:0:0:
402,192,252748,1,0,0:0:0:0:
475,192,252748,1,0,0:0:0:0:
109,192,252842,1,0,0:0:0:0:
182,192,252842,1,0,0:0:0:0:
182,192,252936,1,0,0:0:0:0:
109,192,252936,1,0,0:0:0:0:
402,192,253030,1,0,0:0:0:0:
475,192,253030,1,0,0:0:0:0:
256,192,253030,1,0,0:0:0:0:
109,192,253030,1,0,0:0:0:0:
182,192,253030,1,0,0:0:0:0:
329,192,253123,1,0,0:0:0:0:
182,192,253217,1,0,0:0:0:0:
109,192,253217,1,0,0:0:0:0:
36,192,253217,1,0,0:0:0:0:
329,192,253311,1,0,0:0:0:0:
402,192,253311,1,0,0:0:0:0:
475,192,253311,1,0,0:0:0:0:
256,192,253405,1,0,0:0:0:0:
109,192,253405,1,0,0:0:0:0:
36,192,253405,1,0,0:0:0:0:
475,192,253498,1,0,0:0:0:0:
182,192,253498,1,0,0:0:0:0:
329,192,253498,1,0,0:0:0:0:
109,192,253592,1,0,0:0:0:0:
36,192,253592,1,0,0:0:0:0:
402,192,253592,1,0,0:0:0:0:
256,192,253592,1,0,0:0:0:0:
182,192,253686,1,0,0:0:0:0:
329,192,253780,1,0,0:0:0:0:
475,192,253780,1,0,0:0:0:0:
109,192,253780,1,0,0:0:0:0:
36,192,253780,1,0,0:0:0:0:
182,192,253873,1,0,0:0:0:0:
402,192,253967,1,0,0:0:0:0:
475,192,253967,1,0,0:0:0:0:
329,192,253967,1,0,0:0:0:0:
182,192,254061,1,0,0:0:0:0:
109,192,254061,1,0,0:0:0:0:
36,192,254061,1,0,0:0:0:0:
256,192,254155,1,0,0:0:0:0:
402,192,254155,1,0,0:0:0:0:
475,192,254155,1,0,0:0:0:0:
36,192,254248,1,0,0:0:0:0:
109,192,254248,1,0,0:0:0:0:
329,192,254248,1,0,0:0:0:0:
402,192,254342,1,0,0:0:0:0:
475,192,254342,1,0,0:0:0:0:
182,192,254342,1,0,0:0:0:0:
256,192,254342,1,0,0:0:0:0:
109,192,254436,1,0,0:0:0:0:
329,192,254530,1,0,0:0:0:0:
475,192,254530,1,0,0:0:0:0:
36,192,254530,1,0,0:0:0:0:
182,192,254530,1,0,0:0:0:0:
402,192,254623,1,0,0:0:0:0:
182,192,254717,1,0,0:0:0:0:
256,192,254717,1,0,0:0:0:0:
36,192,254717,1,0,0:0:0:0:
475,192,254811,1,0,0:0:0:0:
402,192,254811,1,0,0:0:0:0:
329,192,254811,1,0,0:0:0:0:
182,192,254905,1,0,0:0:0:0:
109,192,254905,1,0,0:0:0:0:
36,192,254905,1,0,0:0:0:0:
256,192,254998,1,0,0:0:0:0:
402,192,254998,1,0,0:0:0:0:
475,192,254998,1,0,0:0:0:0:
329,192,255092,1,0,0:0:0:0:
182,192,255092,1,0,0:0:0:0:
109,192,255092,1,0,0:0:0:0:
36,192,255092,1,0,0:0:0:0:
402,192,255186,1,0,0:0:0:0:
475,192,255280,1,0,0:0:0:0:
256,192,255280,1,0,0:0:0:0:
109,192,255280,1,0,0:0:0:0:
36,192,255280,1,0,0:0:0:0:
329,192,255373,1,0,0:0:0:0:
402,192,255467,1,0,0:0:0:0:
475,192,255467,1,0,0:0:0:0:
182,192,255467,1,0,0:0:0:0:
36,192,255467,1,0,0:0:0:0:
256,192,255561,1,0,0:0:0:0:
329,192,255655,1,0,0:0:0:0:
475,192,255655,1,0,0:0:0:0:
109,192,255655,1,0,0:0:0:0:
36,192,255655,1,0,0:0:0:0:
182,192,255748,1,0,0:0:0:0:
402,192,255842,1,0,0:0:0:0:
475,192,255842,1,0,0:0:0:0:
256,192,255842,1,0,0:0:0:0:
36,192,255842,1,0,0:0:0:0:
109,192,255936,1,0,0:0:0:0:
475,192,256030,1,0,0:0:0:0:
402,192,256030,1,0,0:0:0:0:
182,192,256030,1,0,0:0:0:0:
36,192,256030,1,0,0:0:0:0:
329,192,256123,1,0,0:0:0:0:
109,192,256217,1,0,0:0:0:0:
36,192,256217,1,0,0:0:0:0:
182,192,256217,1,0,0:0:0:0:
402,192,256311,1,0,0:0:0:0:
475,192,256311,1,0,0:0:0:0:
329,192,256311,1,0,0:0:0:0:
256,192,256405,1,0,0:0:0:0:
109,192,256405,1,0,0:0:0:0:
36,192,256405,1,0,0:0:0:0:
475,192,256498,1,0,0:0:0:0:
402,192,256498,1,0,0:0:0:0:
182,192,256498,1,0,0:0:0:0:
329,192,256592,1,0,0:0:0:0:
109,192,256592,1,0,0:0:0:0:
36,192,256592,1,0,0:0:0:0:
256,192,256592,1,0,0:0:0:0:
182,192,256686,1,0,0:0:0:0:
36,192,256780,1,0,0:0:0:0:
402,192,256780,1,0,0:0:0:0:
475,192,256780,1,0,0:0:0:0:
329,192,256780,1,0,0:0:0:0:
256,192,256873,1,0,0:0:0:0:
329,192,256967,1,0,0:0:0:0:
109,192,256967,1,0,0:0:0:0:
36,192,256967,1,0,0:0:0:0:
182,192,257061,1,0,0:0:0:0:
402,192,257061,1,0,0:0:0:0:
475,192,257061,1,0,0:0:0:0:
256,192,257155,1,0,0:0:0:0:
109,192,257155,1,0,0:0:0:0:
36,192,257155,1,0,0:0:0:0:
329,192,257248,1,0,0:0:0:0:
402,192,257248,1,0,0:0:0:0:
475,192,257248,1,0,0:0:0:0:
182,192,257342,1,0,0:0:0:0:
109,192,257342,1,0,0:0:0:0:
36,192,257342,1,0,0:0:0:0:
256,192,257342,1,0,0:0:0:0:
329,192,257436,1,0,0:0:0:0:
402,192,257530,1,0,0:0:0:0:
475,192,257530,1,0,0:0:0:0:
256,192,257530,1,0,0:0:0:0:
36,192,257530,1,0,0:0:0:0:
182,192,257623,1,0,0:0:0:0:
475,192,257717,1,0,0:0:0:0:
402,192,257717,1,0,0:0:0:0:
329,192,257717,1,0,0:0:0:0:
256,192,257811,1,0,0:0:0:0:
109,192,257811,1,0,0:0:0:0:
36,192,257811,1,0,0:0:0:0:
475,192,257905,1,0,0:0:0:0:
402,192,257905,1,0,0:0:0:0:
182,192,257905,1,0,0:0:0:0:
256,192,257998,1,0,0:0:0:0:
109,192,257998,1,0,0:0:0:0:
36,192,257998,1,0,0:0:0:0:
329,192,258092,1,0,0:0:0:0:
402,192,258092,1,0,0:0:0:0:
475,192,258092,1,0,0:0:0:0:
182,192,258092,1,0,0:0:0:0:
109,192,258186,1,0,0:0:0:0:
256,192,258280,1,0,0:0:0:0:
402,192,258280,1,0,0:0:0:0:
475,192,258280,1,0,0:0:0:0:
36,192,258280,1,0,0:0:0:0:
329,192,258373,1,0,0:0:0:0:
182,192,258467,1,0,0:0:0:0:
109,192,258467,1,0,0:0:0:0:
36,192,258467,1,0,0:0:0:0:
182,192,258561,1,0,0:0:0:0:
109,192,258561,1,0,0:0:0:0:
36,192,258561,1,0,0:0:0:0:
402,192,258655,1,0,0:0:0:0:
475,192,258655,1,0,0:0:0:0:
256,192,258655,1,0,0:0:0:0:
182,192,258748,1,0,0:0:0:0:
329,192,258842,1,0,0:0:0:0:
402,192,258842,1,0,0:0:0:0:
475,192,258842,1,0,0:0:0:0:
475,192,258936,1,0,0:0:0:0:
329,192,258936,1,0,0:0:0:0:
402,192,258936,1,0,0:0:0:0:
256,192,259030,1,0,0:0:0:0:
109,192,259030,1,0,0:0:0:0:
36,192,259030,1,0,0:0:0:0:
182,192,259030,1,0,0:0:0:0:
329,192,259123,1,0,0:0:0:0:
182,192,259217,1,0,0:0:0:0:
475,192,259217,1,0,0:0:0:0:
402,192,259217,1,0,0:0:0:0:
256,192,259311,1,0,0:0:0:0:
109,192,259311,1,0,0:0:0:0:
36,192,259311,1,0,0:0:0:0:
329,192,259405,1,0,0:0:0:0:
402,192,259405,1,0,0:0:0:0:
475,192,259405,1,0,0:0:0:0:
182,192,259498,1,0,0:0:0:0:
109,192,259498,1,0,0:0:0:0:
36,192,259498,1,0,0:0:0:0:
256,192,259592,1,0,0:0:0:0:
402,192,259592,1,0,0:0:0:0:
475,192,259592,1,0,0:0:0:0:
329,192,259592,1,0,0:0:0:0:
182,192,259686,1,0,0:0:0:0:
36,192,259780,1,0,0:0:0:0:
402,192,259780,1,0,0:0:0:0:
475,192,259780,1,0,0:0:0:0:
109,192,259780,1,0,0:0:0:0:
256,192,259873,1,0,0:0:0:0:
329,192,259967,1,0,0:0:0:0:
402,192,259967,1,0,0:0:0:0:
475,192,259967,1,0,0:0:0:0:
182,192,260061,1,0,0:0:0:0:
109,192,260061,1,0,0:0:0:0:
36,192,260061,1,0,0:0:0:0:
256,192,260155,1,0,0:0:0:0:
402,192,260155,1,0,0:0:0:0:
475,192,260155,1,0,0:0:0:0:
329,192,260248,1,0,0:0:0:0:
109,192,260248,1,0,0:0:0:0:
36,192,260248,1,0,0:0:0:0:
182,192,260342,1,0,0:0:0:0:
402,192,260342,1,0,0:0:0:0:
475,192,260342,1,0,0:0:0:0:
256,192,260342,1,0,0:0:0:0:
329,192,260436,1,0,0:0:0:0:
475,192,260530,1,0,0:0:0:0:
36,192,260530,1,0,0:0:0:0:
109,192,260530,1,0,0:0:0:0:
256,192,260530,1,0,0:0:0:0:
182,192,260623,1,0,0:0:0:0:
402,192,260717,1,0,0:0:0:0:
475,192,260717,1,0,0:0:0:0:
329,192,260717,1,0,0:0:0:0:
256,192,260811,1,0,0:0:0:0:
109,192,260811,1,0,0:0:0:0:
36,192,260811,1,0,0:0:0:0:
329,192,260905,1,0,0:0:0:0:
402,192,260905,1,0,0:0:0:0:
475,192,260905,1,0,0:0:0:0:
36,192,260998,1,0,0:0:0:0:
182,192,260998,1,0,0:0:0:0:
256,192,260998,1,0,0:0:0:0:
402,192,261092,1,0,0:0:0:0:
475,192,261092,1,0,0:0:0:0:
109,192,261092,1,0,0:0:0:0:
329,192,261092,1,0,0:0:0:0:
182,192,261186,1,0,0:0:0:0:
109,192,261280,1,0,0:0:0:0:
36,192,261280,1,0,0:0:0:0:
329,192,261280,1,0,0:0:0:0:
475,192,261280,1,0,0:0:0:0:
256,192,261373,1,0,0:0:0:0:
402,192,261467,1,0,0:0:0:0:
475,192,261467,1,0,0:0:0:0:
182,192,261467,1,0,0:0:0:0:
36,192,261467,1,0,0:0:0:0:
329,192,261561,1,0,0:0:0:0:
256,192,261655,1,0,0:0:0:0:
109,192,261655,1,0,0:0:0:0:
36,192,261655,1,0,0:0:0:0:
475,192,261655,1,0,0:0:0:0:
329,192,261748,1,0,0:0:0:0:
402,192,261842,1,0,0:0:0:0:
475,192,261842,1,0,0:0:0:0:
182,192,261842,1,0,0:0:0:0:
36,192,261842,1,0,0:0:0:0:
256,192,261936,1,0,0:0:0:0:
475,192,262030,1,0,0:0:0:0:
329,192,262030,1,0,0:0:0:0:
109,192,262030,1,0,0:0:0:0:
36,192,262030,1,0,0:0:0:0:
182,192,262123,1,0,0:0:0:0:
402,192,262217,1,0,0:0:0:0:
256,192,262217,1,0,0:0:0:0:
329,192,262217,1,0,0:0:0:0:
182,192,262311,1,0,0:0:0:0:
109,192,262311,1,0,0:0:0:0:
36,192,262311,1,0,0:0:0:0:
256,192,262405,1,0,0:0:0:0:
402,192,262405,1,0,0:0:0:0:
475,192,262405,1,0,0:0:0:0:
182,192,262498,1,0,0:0:0:0:
109,192,262498,1,0,0:0:0:0:
36,192,262498,1,0,0:0:0:0:
402,192,262592,1,0,0:0:0:0:
475,192,262592,1,0,0:0:0:0:
256,192,262592,1,0,0:0:0:0:
329,192,262592,1,0,0:0:0:0:
109,192,262686,1,0,0:0:0:0:
36,192,262780,1,0,0:0:0:0:
402,192,262780,1,0,0:0:0:0:
475,192,262780,1,0,0:0:0:0:
182,192,262780,1,0,0:0:0:0:
329,192,262873,1,0,0:0:0:0:
402,192,262967,1,0,0:0:0:0:
475,192,262967,1,0,0:0:0:0:
256,192,262967,1,0,0:0:0:0:
109,192,262967,1,0,0:0:0:0:
36,192,262967,1,0,0:0:0:0:
182,192,263061,1,0,0:0:0:0:
402,192,263155,1,0,0:0:0:0:
475,192,263155,1,0,0:0:0:0:
329,192,263155,1,0,0:0:0:0:
256,192,263155,1,0,0:0:0:0:
36,192,263155,1,0,0:0:0:0:
182,192,263248,1,0,0:0:0:0:
109,192,263342,1,0,0:0:0:0:
36,192,263342,1,0,0:0:0:0:
402,192,263342,1,0,0:0:0:0:
475,192,263342,1,0,0:0:0:0:
256,192,263342,1,0,0:0:0:0:
329,192,263436,1,0,0:0:0:0:
182,192,263530,1,0,0:0:0:0:
36,192,263530,1,0,0:0:0:0:
475,192,263530,1,0,0:0:0:0:
402,192,263530,1,0,0:0:0:0:
182,192,263623,1,0,0:0:0:0:
36,192,263623,1,0,0:0:0:0:
329,192,263717,1,0,0:0:0:0:
475,192,263717,1,0,0:0:0:0:
475,192,263811,1,0,0:0:0:0:
329,192,263811,1,0,0:0:0:0:
256,192,263905,1,0,0:0:0:0:
109,192,263905,1,0,0:0:0:0:
36,192,263905,1,0,0:0:0:0:
329,192,264092,1,0,0:0:0:0:
182,192,264092,1,0,0:0:0:0:
402,192,264280,1,0,0:0:0:0:
475,192,264280,1,0,0:0:0:0:
109,192,264280,1,0,0:0:0:0:
36,192,264280,1,0,0:0:0:0:
182,192,264373,1,0,0:0:0:0:
329,192,264373,1,0,0:0:0:0:
256,192,264373,1,0,0:0:0:0:
402,192,264467,1,0,0:0:0:0:
475,192,264467,1,0,0:0:0:0:
36,192,264467,1,0,0:0:0:0:
109,192,264467,1,0,0:0:0:0:
329,192,264655,128,0,264748:0:0:0:0:
182,192,264748,128,0,264842:0:0:0:0:
329,192,264842,128,0,264936:0:0:0:0:
182,192,264936,128,0,265030:0:0:0:0:
36,192,265030,1,0,0:0:0:0:
109,192,265030,1,0,0:0:0:0:
475,192,265030,1,0,0:0:0:0:
329,192,265030,1,0,0:0:0:0:
256,192,265030,1,0,0:0:0:0:
182,192,265123,1,0,0:0:0:0:
402,192,265123,1,0,0:0:0:0:
256,192,265217,1,0,0:0:0:0:
475,192,265217,1,0,0:0:0:0:
182,192,265311,1,0,0:0:0:0:
402,192,265311,1,0,0:0:0:0:
329,192,265405,1,0,0:0:0:0:
475,192,265405,1,0,0:0:0:0:
109,192,265405,1,0,0:0:0:0:
36,192,265405,1,0,0:0:0:0:
256,192,265498,1,0,0:0:0:0:
402,192,265498,1,0,0:0:0:0:
329,192,265592,1,0,0:0:0:0:
182,192,265592,1,0,0:0:0:0:
256,192,265686,1,0,0:0:0:0:
109,192,265686,1,0,0:0:0:0:
182,192,265780,1,0,0:0:0:0:
36,192,265780,1,0,0:0:0:0:
402,192,265780,1,0,0:0:0:0:
475,192,265780,1,0,0:0:0:0:
109,192,265873,1,0,0:0:0:0:
329,192,265873,1,0,0:0:0:0:
256,192,265967,1,0,0:0:0:0:
36,192,265967,1,0,0:0:0:0:
182,192,266061,1,0,0:0:0:0:
402,192,266061,1,0,0:0:0:0:
109,192,266155,1,0,0:0:0:0:
36,192,266155,1,0,0:0:0:0:
329,192,266155,1,0,0:0:0:0:
475,192,266155,1,0,0:0:0:0:
182,192,266248,1,0,0:0:0:0:
402,192,266248,1,0,0:0:0:0:
256,192,266342,1,0,0:0:0:0:
36,192,266342,1,0,0:0:0:0:
109,192,266436,1,0,0:0:0:0:
329,192,266436,1,0,0:0:0:0:
182,192,266530,1,0,0:0:0:0:
402,192,266530,1,0,0:0:0:0:
475,192,266530,1,0,0:0:0:0:
36,192,266530,1,0,0:0:0:0:
109,192,266623,1,0,0:0:0:0:
256,192,266623,1,0,0:0:0:0:
182,192,266717,1,0,0:0:0:0:
329,192,266717,1,0,0:0:0:0:
256,192,266811,1,0,0:0:0:0:
402,192,266811,1,0,0:0:0:0:
329,192,266905,1,0,0:0:0:0:
475,192,266905,1,0,0:0:0:0:
109,192,266905,1,0,0:0:0:0:
36,192,266905,1,0,0:0:0:0:
182,192,266998,1,0,0:0:0:0:
402,192,266998,1,0,0:0:0:0:
256,192,267092,1,0,0:0:0:0:
475,192,267092,1,0,0:0:0:0:
329,192,267186,1,0,0:0:0:0:
109,192,267186,1,0,0:0:0:0:
402,192,267280,1,0,0:0:0:0:
475,192,267280,1,0,0:0:0:0:
36,192,267280,1,0,0:0:0:0:
256,192,267280,1,0,0:0:0:0:
109,192,267373,1,0,0:0:0:0:
329,192,267373,1,0,0:0:0:0:
182,192,267467,1,0,0:0:0:0:
402,192,267467,1,0,0:0:0:0:
256,192,267561,1,0,0:0:0:0:
475,192,267561,1,0,0:0:0:0:
329,192,267655,1,0,0:0:0:0:
36,192,267655,1,0,0:0:0:0:
109,192,267655,1,0,0:0:0:0:
402,192,267655,1,0,0:0:0:0:
182,192,267748,1,0,0:0:0:0:
475,192,267748,1,0,0:0:0:0:
256,192,267842,1,0,0:0:0:0:
402,192,267842,1,0,0:0:0:0:
109,192,267936,1,0,0:0:0:0:
329,192,267936,1,0,0:0:0:0:
402,192,268030,1,0,0:0:0:0:
475,192,268030,1,0,0:0:0:0:
182,192,268030,1,0,0:0:0:0:
36,192,268030,1,0,0:0:0:0:
109,192,268123,1,0,0:0:0:0:
256,192,268123,1,0,0:0:0:0:
182,192,268217,1,0,0:0:0:0:
329,192,268217,1,0,0:0:0:0:
256,192,268311,1,0,0:0:0:0:
402,192,268311,1,0,0:0:0:0:
329,192,268405,1,0,0:0:0:0:
475,192,268405,1,0,0:0:0:0:
109,192,268405,1,0,0:0:0:0:
36,192,268405,1,0,0:0:0:0:
256,192,268498,1,0,0:0:0:0:
402,192,268498,1,0,0:0:0:0:
329,192,268592,1,0,0:0:0:0:
182,192,268592,1,0,0:0:0:0:
256,192,268686,1,0,0:0:0:0:
109,192,268686,1,0,0:0:0:0:
36,192,268780,1,0,0:0:0:0:
182,192,268780,1,0,0:0:0:0:
402,192,268780,1,0,0:0:0:0:
475,192,268780,1,0,0:0:0:0:
109,192,268873,1,0,0:0:0:0:
329,192,268873,1,0,0:0:0:0:
36,192,268967,1,0,0:0:0:0:
256,192,268967,1,0,0:0:0:0:
182,192,269061,1,0,0:0:0:0:
402,192,269061,1,0,0:0:0:0:
109,192,269155,1,0,0:0:0:0:
36,192,269155,1,0,0:0:0:0:
329,192,269155,1,0,0:0:0:0:
475,192,269155,1,0,0:0:0:0:
256,192,269248,1,0,0:0:0:0:
402,192,269248,1,0,0:0:0:0:
182,192,269342,1,0,0:0:0:0:
329,192,269342,1,0,0:0:0:0:
256,192,269436,1,0,0:0:0:0:
109,192,269436,1,0,0:0:0:0:
182,192,269530,1,0,0:0:0:0:
36,192,269530,1,0,0:0:0:0:
402,192,269530,1,0,0:0:0:0:
475,192,269530,1,0,0:0:0:0:
109,192,269623,1,0,0:0:0:0:
329,192,269623,1,0,0:0:0:0:
182,192,269717,1,0,0:0:0:0:
402,192,269717,1,0,0:0:0:0:
256,192,269811,1,0,0:0:0:0:
475,192,269811,1,0,0:0:0:0:
329,192,269905,1,0,0:0:0:0:
402,192,269905,1,0,0:0:0:0:
109,192,269905,1,0,0:0:0:0:
36,192,269905,1,0,0:0:0:0:
182,192,269998,1,0,0:0:0:0:
475,192,269998,1,0,0:0:0:0:
256,192,270092,1,0,0:0:0:0:
329,192,270092,1,0,0:0:0:0:
109,192,270186,1,0,0:0:0:0:
402,192,270186,1,0,0:0:0:0:
182,192,270280,1,0,0:0:0:0:
475,192,270280,1,0,0:0:0:0:
329,192,270280,1,0,0:0:0:0:
36,192,270280,1,0,0:0:0:0:
256,192,270373,1,0,0:0:0:0:
109,192,270467,1,0,0:0:0:0:
182,192,270467,1,0,0:0:0:0:
402,192,270467,1,0,0:0:0:0:
329,192,270467,1,0,0:0:0:0:
182,192,270561,1,0,0:0:0:0:
109,192,270561,1,0,0:0:0:0:
329,192,270561,1,0,0:0:0:0:
402,192,270561,1,0,0:0:0:0:
36,192,270655,1,0,0:0:0:0:
475,192,270655,1,0,0:0:0:0:
256,192,270655,1,0,0:0:0:0:
109,192,270748,1,0,0:0:0:0:
402,192,270748,1,0,0:0:0:0:
329,192,270842,1,0,0:0:0:0:
182,192,270842,1,0,0:0:0:0:
36,192,270842,1,0,0:0:0:0:
475,192,270842,1,0,0:0:0:0:
329,192,270936,1,0,0:0:0:0:
182,192,270936,1,0,0:0:0:0:
36,192,270936,1,0,0:0:0:0:
475,192,270936,1,0,0:0:0:0:
256,192,271030,1,0,0:0:0:0:
109,192,271030,1,0,0:0:0:0:
402,192,271030,1,0,0:0:0:0:
182,192,271123,1,0,0:0:0:0:
475,192,271123,1,0,0:0:0:0:
256,192,271217,1,0,0:0:0:0:
36,192,271217,1,0,0:0:0:0:
182,192,271311,1,0,0:0:0:0:
402,192,271311,1,0,0:0:0:0:
109,192,271405,1,0,0:0:0:0:
329,192,271405,1,0,0:0:0:0:
475,192,271405,1,0,0:0:0:0:
36,192,271405,1,0,0:0:0:0:
182,192,271498,1,0,0:0:0:0:
402,192,271498,1,0,0:0:0:0:
329,192,271592,1,0,0:0:0:0:
109,192,271592,1,0,0:0:0:0:
256,192,271686,1,0,0:0:0:0:
36,192,271686,1,0,0:0:0:0:
109,192,271780,1,0,0:0:0:0:
182,192,271780,1,0,0:0:0:0:
402,192,271780,1,0,0:0:0:0:
475,192,271780,1,0,0:0:0:0:
36,192,271873,1,0,0:0:0:0:
329,192,271873,1,0,0:0:0:0:
109,192,271967,1,0,0:0:0:0:
402,192,271967,1,0,0:0:0:0:
182,192,272061,1,0,0:0:0:0:
475,192,272061,1,0,0:0:0:0:
402,192,272155,1,0,0:0:0:0:
256,192,272155,1,0,0:0:0:0:
109,192,272155,1,0,0:0:0:0:
36,192,272155,1,0,0:0:0:0:
182,192,272248,1,0,0:0:0:0:
329,192,272248,1,0,0:0:0:0:
256,192,272342,1,0,0:0:0:0:
402,192,272342,1,0,0:0:0:0:
329,192,272436,1,0,0:0:0:0:
475,192,272436,1,0,0:0:0:0:
402,192,272530,1,0,0:0:0:0:
36,192,272530,1,0,0:0:0:0:
109,192,272530,1,0,0:0:0:0:
182,192,272530,1,0,0:0:0:0:
256,192,272623,1,0,0:0:0:0:
475,192,272623,1,0,0:0:0:0:
329,192,272717,1,0,0:0:0:0:
109,192,272717,1,0,0:0:0:0:
182,192,272811,1,0,0:0:0:0:
402,192,272811,1,0,0:0:0:0:
256,192,272905,1,0,0:0:0:0:
475,192,272905,1,0,0:0:0:0:
36,192,272905,1,0,0:0:0:0:
109,192,272905,1,0,0:0:0:0:
182,192,272998,1,0,0:0:0:0:
329,192,272998,1,0,0:0:0:0:
256,192,273092,1,0,0:0:0:0:
402,192,273092,1,0,0:0:0:0:
329,192,273186,1,0,0:0:0:0:
475,192,273186,1,0,0:0:0:0:
36,192,273280,1,0,0:0:0:0:
109,192,273280,1,0,0:0:0:0:
256,192,273280,1,0,0:0:0:0:
402,192,273280,1,0,0:0:0:0:
182,192,273373,1,0,0:0:0:0:
475,192,273373,1,0,0:0:0:0:
256,192,273467,1,0,0:0:0:0:
36,192,273467,1,0,0:0:0:0:
109,192,273561,1,0,0:0:0:0:
329,192,273561,1,0,0:0:0:0:
182,192,273655,1,0,0:0:0:0:
402,192,273655,1,0,0:0:0:0:
475,192,273655,1,0,0:0:0:0:
36,192,273655,1,0,0:0:0:0:
109,192,273748,1,0,0:0:0:0:
329,192,273748,1,0,0:0:0:0:
182,192,273842,1,0,0:0:0:0:
402,192,273842,1,0,0:0:0:0:
256,192,273936,1,0,0:0:0:0:
475,192,273936,1,0,0:0:0:0:
109,192,274030,1,0,0:0:0:0:
36,192,274030,1,0,0:0:0:0:
329,192,274030,1,0,0:0:0:0:
402,192,274030,1,0,0:0:0:0:
182,192,274123,1,0,0:0:0:0:
475,192,274123,1,0,0:0:0:0:
256,192,274217,1,0,0:0:0:0:
36,192,274217,1,0,0:0:0:0:
182,192,274311,1,0,0:0:0:0:
402,192,274311,1,0,0:0:0:0:
109,192,274405,1,0,0:0:0:0:
36,192,274405,1,0,0:0:0:0:
329,192,274405,1,0,0:0:0:0:
475,192,274405,1,0,0:0:0:0:
256,192,274498,1,0,0:0:0:0:
402,192,274498,1,0,0:0:0:0:
329,192,274592,1,0,0:0:0:0:
182,192,274592,1,0,0:0:0:0:
256,192,274686,1,0,0:0:0:0:
109,192,274686,1,0,0:0:0:0:
36,192,274780,1,0,0:0:0:0:
182,192,274780,1,0,0:0:0:0:
402,192,274780,1,0,0:0:0:0:
475,192,274780,1,0,0:0:0:0:
329,192,274873,1,0,0:0:0:0:
109,192,274873,1,0,0:0:0:0:
182,192,274967,1,0,0:0:0:0:
402,192,274967,1,0,0:0:0:0:
256,192,275061,1,0,0:0:0:0:
109,192,275061,1,0,0:0:0:0:
36,192,275155,1,0,0:0:0:0:
329,192,275155,1,0,0:0:0:0:
402,192,275155,1,0,0:0:0:0:
475,192,275155,1,0,0:0:0:0:
109,192,275248,1,0,0:0:0:0:
256,192,275248,1,0,0:0:0:0:
182,192,275342,1,0,0:0:0:0:
329,192,275342,1,0,0:0:0:0:
256,192,275436,1,0,0:0:0:0:
402,192,275436,1,0,0:0:0:0:
329,192,275530,1,0,0:0:0:0:
475,192,275530,1,0,0:0:0:0:
109,192,275530,1,0,0:0:0:0:
36,192,275530,1,0,0:0:0:0:
182,192,275623,1,0,0:0:0:0:
402,192,275623,1,0,0:0:0:0:
109,192,275717,1,0,0:0:0:0:
329,192,275717,1,0,0:0:0:0:
402,192,275764,1,0,0:0:0:0:
475,192,275811,1,0,0:0:0:0:
329,192,275858,1,0,0:0:0:0:
402,192,275905,1,0,0:0:0:0:
182,192,275905,1,0,0:0:0:0:
109,192,275905,1,0,0:0:0:0:
36,192,275905,1,0,0:0:0:0:
256,192,275998,1,0,0:0:0:0:
329,192,275998,1,0,0:0:0:0:
36,192,276092,1,0,0:0:0:0:
475,192,276092,1,0,0:0:0:0:
402,192,276139,1,0,0:0:0:0:
109,192,276139,1,0,0:0:0:0:
182,192,276186,1,0,0:0:0:0:
329,192,276186,1,0,0:0:0:0:
256,192,276233,1,0,0:0:0:0:
109,192,276280,1,0,0:0:0:0:
36,192,276280,1,0,0:0:0:0:
475,192,276280,1,0,0:0:0:0:
402,192,276280,1,0,0:0:0:0:
182,192,276373,1,0,0:0:0:0:
329,192,276373,1,0,0:0:0:0:
109,192,276467,1,0,0:0:0:0:
36,192,276467,1,0,0:0:0:0:
475,192,276467,1,0,0:0:0:0:
402,192,276467,1,0,0:0:0:0:
109,192,276655,1,0,0:0:0:0:
36,192,276655,1,0,0:0:0:0:
256,192,276655,1,0,0:0:0:0:
402,192,276655,1,0,0:0:0:0:
475,192,276655,1,0,0:0:0:0:
182,192,276748,1,0,0:0:0:0:
329,192,276748,1,0,0:0:0:0:
182,192,276842,1,0,0:0:0:0:
329,192,276842,1,0,0:0:0:0:
182,192,276936,1,0,0:0:0:0:
329,192,276936,1,0,0:0:0:0:
109,192,277030,1,0,0:0:0:0:
36,192,277030,1,0,0:0:0:0:
475,192,277030,1,0,0:0:0:0:
402,192,277030,1,0,0:0:0:0:
256,192,277030,1,0,0:0:0:0:
182,192,277123,1,0,0:0:0:0:
329,192,277217,1,0,0:0:0:0:
256,192,277311,1,0,0:0:0:0:
402,192,277405,1,0,0:0:0:0:
182,192,277405,1,0,0:0:0:0:
36,192,277405,1,0,0:0:0:0:
329,192,277498,1,0,0:0:0:0:
109,192,277592,1,0,0:0:0:0:
256,192,277592,1,0,0:0:0:0:
329,192,277686,1,0,0:0:0:0:
402,192,277780,1,0,0:0:0:0:
36,192,277780,1,0,0:0:0:0:
475,192,277780,1,0,0:0:0:0:
329,192,277873,1,0,0:0:0:0:
182,192,277967,1,0,0:0:0:0:
256,192,278061,1,0,0:0:0:0:
329,192,278155,1,0,0:0:0:0:
475,192,278155,1,0,0:0:0:0:
36,192,278155,1,0,0:0:0:0:
182,192,278248,1,0,0:0:0:0:
329,192,278342,1,0,0:0:0:0:
109,192,278342,1,0,0:0:0:0:
256,192,278436,1,0,0:0:0:0:
182,192,278530,1,0,0:0:0:0:
36,192,278530,1,0,0:0:0:0:
475,192,278530,1,0,0:0:0:0:
329,192,278623,1,0,0:0:0:0:
109,192,278717,1,0,0:0:0:0:
256,192,278811,1,0,0:0:0:0:
329,192,278905,1,0,0:0:0:0:
475,192,278905,1,0,0:0:0:0:
36,192,278905,1,0,0:0:0:0:
182,192,278998,1,0,0:0:0:0:
256,192,279092,1,0,0:0:0:0:
402,192,279092,1,0,0:0:0:0:
182,192,279186,1,0,0:0:0:0:
36,192,279280,1,0,0:0:0:0:
329,192,279280,1,0,0:0:0:0:
475,192,279280,1,0,0:0:0:0:
182,192,279373,1,0,0:0:0:0:
256,192,279467,1,0,0:0:0:0:
329,192,279561,1,0,0:0:0:0:
402,192,279655,1,0,0:0:0:0:
475,192,279655,1,0,0:0:0:0:
36,192,279655,1,0,0:0:0:0:
182,192,279748,1,0,0:0:0:0:
329,192,279842,1,0,0:0:0:0:
109,192,279842,1,0,0:0:0:0:
182,192,279936,1,0,0:0:0:0:
256,192,280030,1,0,0:0:0:0:
475,192,280030,1,0,0:0:0:0:
36,192,280030,1,0,0:0:0:0:
329,192,280123,1,0,0:0:0:0:
182,192,280217,1,0,0:0:0:0:
256,192,280311,1,0,0:0:0:0:
329,192,280405,1,0,0:0:0:0:
475,192,280405,1,0,0:0:0:0:
36,192,280405,1,0,0:0:0:0:
182,192,280498,1,0,0:0:0:0:
402,192,280592,1,0,0:0:0:0:
256,192,280592,1,0,0:0:0:0:
329,192,280686,1,0,0:0:0:0:
475,192,280780,1,0,0:0:0:0:
182,192,280780,1,0,0:0:0:0:
36,192,280780,1,0,0:0:0:0:
256,192,280873,1,0,0:0:0:0:
109,192,280967,1,0,0:0:0:0:
329,192,281061,1,0,0:0:0:0:
256,192,281155,1,0,0:0:0:0:
475,192,281155,1,0,0:0:0:0:
36,192,281155,1,0,0:0:0:0:
182,192,281248,1,0,0:0:0:0:
109,192,281342,1,0,0:0:0:0:
402,192,281342,1,0,0:0:0:0:
256,192,281436,1,0,0:0:0:0:
182,192,281530,1,0,0:0:0:0:
475,192,281530,1,0,0:0:0:0:
36,192,281530,1,0,0:0:0:0:
329,192,281623,1,0,0:0:0:0:
109,192,281717,1,0,0:0:0:0:
182,192,281811,1,0,0:0:0:0:
256,192,281905,1,0,0:0:0:0:
475,192,281905,1,0,0:0:0:0:
36,192,281905,1,0,0:0:0:0:
182,192,281998,1,0,0:0:0:0:
109,192,282092,1,0,0:0:0:0:
402,192,282092,1,0,0:0:0:0:
329,192,282186,1,0,0:0:0:0:
256,192,282280,1,0,0:0:0:0:
475,192,282280,1,0,0:0:0:0:
36,192,282280,1,0,0:0:0:0:
182,192,282373,1,0,0:0:0:0:
109,192,282467,1,0,0:0:0:0:
402,192,282467,1,0,0:0:0:0:
402,192,282561,1,0,0:0:0:0:
109,192,282561,1,0,0:0:0:0:
36,192,282655,1,0,0:0:0:0:
256,192,282655,1,0,0:0:0:0:
475,192,282655,1,0,0:0:0:0:
109,192,282748,1,0,0:0:0:0:
182,192,282842,1,0,0:0:0:0:
329,192,282842,1,0,0:0:0:0:
329,192,282936,1,0,0:0:0:0:
182,192,282936,1,0,0:0:0:0:
256,192,283030,1,0,0:0:0:0:
475,192,283030,1,0,0:0:0:0:
36,192,283030,1,0,0:0:0:0:
182,192,283123,1,0,0:0:0:0:
109,192,283217,1,0,0:0:0:0:
329,192,283311,1,0,0:0:0:0:
256,192,283405,1,0,0:0:0:0:
475,192,283405,1,0,0:0:0:0:
36,192,283405,1,0,0:0:0:0:
182,192,283498,1,0,0:0:0:0:
109,192,283592,1,0,0:0:0:0:
402,192,283592,1,0,0:0:0:0:
329,192,283686,1,0,0:0:0:0:
256,192,283780,1,0,0:0:0:0:
475,192,283780,1,0,0:0:0:0:
36,192,283780,1,0,0:0:0:0:
109,192,283873,1,0,0:0:0:0:
182,192,283967,1,0,0:0:0:0:
329,192,284061,1,0,0:0:0:0:
475,192,284155,1,0,0:0:0:0:
36,192,284155,1,0,0:0:0:0:
256,192,284155,1,0,0:0:0:0:
109,192,284248,1,0,0:0:0:0:
182,192,284342,1,0,0:0:0:0:
402,192,284342,1,0,0:0:0:0:
329,192,284436,1,0,0:0:0:0:
256,192,284530,1,0,0:0:0:0:
475,192,284530,1,0,0:0:0:0:
36,192,284530,1,0,0:0:0:0:
329,192,284623,1,0,0:0:0:0:
109,192,284717,1,0,0:0:0:0:
256,192,284811,1,0,0:0:0:0:
329,192,284905,1,0,0:0:0:0:
475,192,284905,1,0,0:0:0:0:
36,192,284905,1,0,0:0:0:0:
256,192,284998,1,0,0:0:0:0:
182,192,285092,1,0,0:0:0:0:
36,192,285092,1,0,0:0:0:0:
329,192,285186,1,0,0:0:0:0:
256,192,285280,1,0,0:0:0:0:
475,192,285280,1,0,0:0:0:0:
109,192,285280,1,0,0:0:0:0:
329,192,285373,1,0,0:0:0:0:
402,192,285467,1,0,0:0:0:0:
182,192,285561,1,0,0:0:0:0:
256,192,285655,1,0,0:0:0:0:
475,192,285655,1,0,0:0:0:0:
36,192,285655,1,0,0:0:0:0:
329,192,285748,1,0,0:0:0:0:
402,192,285842,1,0,0:0:0:0:
109,192,285842,1,0,0:0:0:0:
182,192,285936,1,0,0:0:0:0:
256,192,286030,1,0,0:0:0:0:
475,192,286030,1,0,0:0:0:0:
36,192,286030,1,0,0:0:0:0:
402,192,286123,1,0,0:0:0:0:
182,192,286217,1,0,0:0:0:0:
329,192,286311,1,0,0:0:0:0:
475,192,286405,1,0,0:0:0:0:
256,192,286405,1,0,0:0:0:0:
36,192,286405,1,0,0:0:0:0:
182,192,286498,1,0,0:0:0:0:
402,192,286592,1,0,0:0:0:0:
109,192,286592,1,0,0:0:0:0:
329,192,286686,1,0,0:0:0:0:
256,192,286780,1,0,0:0:0:0:
475,192,286780,1,0,0:0:0:0:
36,192,286780,1,0,0:0:0:0:
109,192,286873,1,0,0:0:0:0:
182,192,286967,1,0,0:0:0:0:
402,192,286967,1,0,0:0:0:0:
475,192,286967,1,0,0:0:0:0:
329,192,287061,1,0,0:0:0:0:
256,192,287155,1,0,0:0:0:0:
36,192,287155,1,0,0:0:0:0:
475,192,287155,1,0,0:0:0:0:
182,192,287248,1,0,0:0:0:0:
109,192,287342,1,0,0:0:0:0:
402,192,287342,1,0,0:0:0:0:
36,192,287342,1,0,0:0:0:0:
329,192,287436,1,0,0:0:0:0:
256,192,287530,1,0,0:0:0:0:
475,192,287530,1,0,0:0:0:0:
36,192,287530,1,0,0:0:0:0:
182,192,287623,1,0,0:0:0:0:
329,192,287623,1,0,0:0:0:0:
329,192,287717,1,0,0:0:0:0:
182,192,287717,1,0,0:0:0:0:
182,192,287811,1,0,0:0:0:0:
329,192,287811,1,0,0:0:0:0:
109,192,287905,1,0,0:0:0:0:
402,192,287905,1,0,0:0:0:0:
256,192,287905,1,0,0:0:0:0:
36,192,288092,1,0,0:0:0:0:
329,192,288092,1,0,0:0:0:0:
109,192,288139,1,0,0:0:0:0:
402,192,288139,1,0,0:0:0:0:
182,192,288186,1,0,0:0:0:0:
475,192,288186,1,0,0:0:0:0:
256,192,288233,1,0,0:0:0:0:
36,192,288280,128,0,288655:0:0:0:0:
109,192,288280,128,0,288655:0:0:0:0:
329,192,288280,128,0,288655:0:0:0:0:
402,192,288280,128,0,288655:0:0:0:0:
182,192,288373,128,0,288655:0:0:0:0:
475,192,288373,128,0,288655:0:0:0:0:
