osu file format v14

[General]
AudioFilename: Elder Dragon Legend - t+pazolite ; .mp3
AudioLeadIn: 0
PreviewTime: -1
Countdown: 0
SampleSet: Soft
StackLeniency: 0.7
Mode: 0
LetterboxInBreaks: 0
WidescreenStoryboard: 1

[Editor]
Bookmarks: 18269,22554,27412,45769,55983,92554,110840,129840,150840,194554,196554
DistanceSpacing: 1.5
BeatDivisor: 4
GridSize: 8
TimelineZoom: 2.6

[Metadata]
Title:Elder Dragon Legend
TitleUnicode:Elder Dragon Legend
Artist:t+pazolite with Kabocha
ArtistUnicode:t+pazolite with かぼけゃ
Creator:Voli
Version:Dragonflame
Source:
Tags:metalcore C.H.S
BeatmapID:801557
BeatmapSetID:365176

[Difficulty]
HPDrainRate:5
CircleSize:4
OverallDifficulty:8.7
ApproachRate:9.6
SliderMultiplier:2
SliderTickRate:1

[Events]
//Background and Video events
0,0,"drgn.jpg",0,0
//Break Periods
2,27612,35331
2,92611,109617
//Storyboard Layer 0 (Background)
//Storyboard Layer 1 (Fail)
//Storyboard Layer 2 (Pass)
//Storyboard Layer 3 (Foreground)
//Storyboard Sound Samples

[TimingPoints]
9126.33018867925,285.714285714286,4,2,1,40,1,0
12340,-100,4,2,1,5,0,0
12554,-100,4,2,1,70,0,0
12912,-100,4,2,1,5,0,0
13126,-100,4,2,1,70,0,0
35840,-100,4,2,1,70,0,0
36554,-100,4,2,1,70,0,0
54840,-200,4,2,1,70,0,0
55983,-100,4,2,1,85,0,1
64840,-133.333333333333,4,2,1,85,0,1
65126,-100,4,2,1,85,0,1
74269,-100,4,2,1,70,0,0
110126,-120.481927710843,4,2,1,70,0,0
110840,-100,4,2,1,70,0,0
140554,-200,4,2,1,70,0,0
141697,-100,4,2,1,85,0,1
150840,-100,4,2,1,85,0,1
178269,-100,4,2,1,70,0,0
206840,-100,4,2,1,5,0,0

[Colours]
Combo1 : 225,180,43
Combo2 : 253,126,0
Combo3 : 255,255,0
Combo4 : 149,0,4
Combo5 : 255,21,28
Combo6 : 78,78,78

[HitObjects]
92,320,9126,5,6,0:0:0:0:
92,320,9412,1,2,0:0:0:0:
169,229,9554,1,2,0:0:0:0:
283,264,9697,1,2,0:0:0:0:
364,283,9983,2,0,P|356:233|254:185,1,150,2|0,0:0|0:0,0:0:0:0:
199,182,10269,6,0,L|84:182,1,100,2|2,0:0|0:0,0:0:0:0:
244,109,10554,1,2,0:0:0:0:
468,132,10840,1,2,0:0:0:0:
220,211,11126,2,0,P|147:182|131:107,1,150,2|0,0:0|0:0,0:0:0:0:
256,64,11412,6,0,L|385:64,1,100,6|0,0:0|0:0,0:0:0:0:
305,182,11697,2,0,P|288:265|242:287,1,100,2|2,0:0|0:0,0:0:0:0:
158,319,11983,1,2,0:0:0:0:
97,113,12269,2,0,P|135:74|196:67,1,100,2|0,0:0|0:0,0:0:0:0:
356,64,12554,6,0,B|449:57|472:205|352:209|352:209|324:271|351:337,1,350,2|0,3:0|0:0,0:0:0:0:
198,66,13126,2,0,B|129:176|346:319|257:257|261:159|299:144|362:136,1,350,2|0,3:0|0:0,0:0:0:0:
360,136,13697,5,6,0:0:0:0:
389,272,13840,1,0,0:0:0:0:
277,344,13983,1,2,0:0:0:0:
151,295,14126,1,2,0:0:0:0:
32,295,14269,2,0,P|9:218|61:137,1,150,2|0,0:0|0:0,0:0:0:0:
98,66,14554,2,0,L|214:66,1,100,2|0,0:0|0:0,0:0:0:0:
316,192,14840,6,0,P|339:269|319:324,1,100,6|2,0:0|0:0,0:0:0:0:
387,145,15126,2,0,P|304:104|236:167,1,150,2|0,0:0|0:0,0:0:0:0:
215,71,15412,2,0,P|187:136|232:192,1,150,2|0,0:0|0:0,0:0:0:0:
233,193,15697,1,2,0:0:0:0:
480,186,15983,6,0,P|477:117|358:47,1,200,6|2,0:0|0:0,0:0:0:0:
157,58,16412,1,2,0:0:0:0:
46,222,16554,2,0,P|49:291|168:361,1,200,6|2,0:0|0:0,0:0:0:0:
165,149,17126,6,0,B|105:113|141:38|55:43,1,150,2|0,0:0|0:0,0:0:0:0:
236,188,17412,2,0,P|292:211|359:148,1,150,2|0,0:0|0:0,0:0:0:0:
289,138,17697,1,10,0:0:0:0:
303,109,17769,1,8,0:0:0:0:
325,88,17840,1,10,0:0:0:0:
354,76,17912,1,8,0:0:0:0:
386,72,17983,1,10,0:0:0:0:
416,80,18054,1,8,0:0:0:0:
442,97,18126,1,10,0:0:0:0:
337,285,18269,6,0,L|222:339,1,100,4|0,0:3|0:0,0:0:0:0:
89,359,18554,1,8,0:0:0:0:
206,250,18697,1,0,0:0:0:0:
149,100,18840,1,4,0:3:0:0:
101,252,18983,1,0,0:0:0:0:
185,30,19126,2,0,P|224:79|223:131,1,100,8|0,0:0|0:0,0:0:0:0:
206,250,19412,5,4,0:3:0:0:
303,123,19554,1,0,0:0:0:0:
206,250,19697,1,8,0:0:0:0:
303,377,19840,1,0,0:0:0:0:
387,151,19983,2,0,P|377:77|318:41,1,100,4|0,0:3|0:0,0:0:0:0:
461,217,20269,2,0,P|451:291|392:327,1,100,4|4,0:3|0:3,0:0:0:0:
303,377,20554,5,4,0:3:0:0:
303,216,20697,1,0,0:0:0:0:
177,248,20840,1,8,0:0:0:0:
177,87,20983,1,0,0:0:0:0:
323,131,21126,2,0,P|375:175|384:235,1,100,4|0,0:3|0:0,0:0:0:0:
156,328,21412,2,0,P|104:284|95:224,1,100,8|0,0:0|0:0,0:0:0:0:
304,51,21697,6,0,P|252:95|243:155,1,100,4|0,0:3|0:0,0:0:0:0:
419,338,21983,2,0,P|471:294|480:234,1,100,8|0,0:0|0:0,0:0:0:0:
433,111,22269,1,2,0:0:0:0:
476,262,22412,1,2,0:0:0:0:
327,219,22554,1,8,0:0:0:0:
295,208,22626,1,8,0:0:0:0:
267,189,22697,1,8,0:0:0:0:
247,163,22769,1,8,0:0:0:0:
235,132,22840,5,4,0:3:0:0:
94,210,22983,1,0,0:0:0:0:
163,65,23126,1,8,0:0:0:0:
115,296,23269,1,0,0:0:0:0:
361,289,23412,2,0,P|401:236|394:180,1,100,4|0,0:3|0:0,0:0:0:0:
58,139,23697,2,0,P|18:192|25:248,1,100,8|0,0:0|0:0,0:0:0:0:
177,237,23983,5,4,0:3:0:0:
16,223,24126,1,0,0:0:0:0:
156,143,24269,1,8,0:0:0:0:
156,143,24340,1,0,0:0:0:0:
156,143,24412,1,0,0:0:0:0:
298,71,24554,2,0,L|407:20,1,100,4|0,0:3|0:0,0:0:0:0:
255,265,24840,1,4,0:3:0:0:
227,107,24983,1,4,0:3:0:0:
355,202,25126,5,4,0:3:0:0:
448,72,25269,1,0,0:0:0:0:
448,72,25340,1,0,0:0:0:0:
448,72,25412,2,0,B|473:118|473:118|475:200,1,100,8|0,0:0|0:0,0:0:0:0:
318,316,25697,1,4,0:3:0:0:
177,273,25840,1,0,0:0:0:0:
177,273,25912,1,0,0:0:0:0:
177,273,25983,2,0,B|152:227|152:227|150:145,1,100,8|0,0:0|0:0,0:0:0:0:
310,66,26269,5,8,0:0:0:0:
334,53,26340,1,8,0:0:0:0:
361,49,26412,1,8,0:0:0:0:
388,53,26483,1,8,0:0:0:0:
413,65,26554,1,8,0:0:0:0:
433,83,26626,1,8,0:0:0:0:
446,107,26697,1,8,0:0:0:0:
452,134,26769,1,8,0:0:0:0:
449,162,26840,6,0,L|441:226,1,50,4|4,0:3|0:3,0:0:0:0:
479,348,26983,2,0,L|487:284,1,50,4|4,0:3|0:3,0:0:0:0:
363,139,27126,1,4,0:3:0:0:
183,226,27269,1,4,0:3:0:0:
387,282,27412,1,2,0:0:0:0:
96,224,35840,6,0,P|162:206|199:265,1,100,2|0,0:0|0:0,0:0:0:0:
204,241,36054,1,8,0:3:0:0:
230,255,36126,1,8,0:3:0:0:
259,264,36197,1,8,0:3:0:0:
290,265,36269,1,8,0:3:0:0:
320,259,36340,1,8,0:3:0:0:
347,247,36412,1,8,0:3:0:0:
372,230,36483,1,8,0:3:0:0:
394,209,36554,6,0,P|379:133|349:114,1,100,4|0,0:3|0:0,0:0:0:0:
163,111,36840,1,8,0:0:0:0:
163,111,36912,1,4,0:3:0:0:
163,111,36983,1,4,0:3:0:0:
140,287,37126,2,0,P|123:241|140:195,1,100,4|0,0:3|0:0,0:0:0:0:
269,40,37412,1,8,0:0:0:0:
269,40,37483,1,4,0:3:0:0:
269,40,37554,1,4,0:3:0:0:
402,85,37697,5,4,0:3:0:0:
476,191,37840,1,4,0:3:0:0:
346,182,37983,1,8,0:0:0:0:
363,323,38126,1,4,0:3:0:0:
265,236,38269,1,4,0:3:0:0:
208,383,38412,1,4,0:3:0:0:
106,200,38554,1,8,0:0:0:0:
106,200,38626,1,4,0:3:0:0:
106,200,38697,1,4,0:3:0:0:
257,149,38840,6,0,P|297:105|344:92,1,100,4|0,0:3|0:0,0:0:0:0:
495,100,39126,1,8,0:0:0:0:
495,100,39197,1,4,0:3:0:0:
495,100,39269,1,4,0:3:0:0:
255,235,39412,2,0,P|215:279|168:292,1,100,4|0,0:3|0:0,0:0:0:0:
17,284,39697,1,8,0:0:0:0:
17,284,39769,1,4,0:3:0:0:
17,284,39840,1,4,0:3:0:0:
115,101,39983,6,0,P|136:36|134:0,1,100,4|4,0:3|0:3,0:0:0:0:
185,202,40269,2,0,P|191:261|215:306,1,100,8|4,0:0|0:3,0:0:0:0:
292,115,40554,2,4,P|291:66|308:11,1,100
381,224,40840,1,8,0:0:0:0:
379,248,40912,1,4,0:3:0:0:
383,273,40983,1,4,0:3:0:0:
393,296,41054,1,4,0:3:0:0:
406,316,41126,6,0,L|466:207,1,100,4|0,0:3|0:0,0:0:0:0:
398,77,41412,1,8,0:0:0:0:
398,77,41483,1,4,0:3:0:0:
398,77,41554,1,4,0:3:0:0:
240,108,41697,2,0,L|180:217,1,100,4|0,0:3|0:0,0:0:0:0:
216,36,41983,2,0,P|296:59|316:109,1,100,8|0,0:0|0:0,0:0:0:0:
349,315,42269,5,4,0:3:0:0:
325,147,42412,1,4,0:3:0:0:
158,299,42554,1,8,0:0:0:0:
158,299,42626,1,4,0:3:0:0:
158,299,42697,1,4,0:3:0:0:
349,69,42840,1,4,0:3:0:0:
325,237,42983,1,4,0:3:0:0:
150,138,43126,1,8,0:0:0:0:
150,138,43197,1,4,0:3:0:0:
150,138,43269,1,4,0:3:0:0:
405,198,43412,6,0,P|411:262|358:312,1,100,4|4,0:3|0:3,0:3:0:0:
325,147,43697,1,8,0:0:0:0:
325,147,43769,1,4,0:3:0:0:
325,147,43840,1,4,0:3:0:0:
186,66,43983,2,0,P|113:60|69:108,1,100,4|4,0:3|0:3,0:0:0:0:
286,302,44269,2,0,P|359:308|403:260,1,100,8|0,0:0|0:0,0:0:0:0:
459,64,44554,5,8,0:0:0:0:
433,47,44626,1,8,0:0:0:0:
404,37,44697,1,8,0:0:0:0:
374,32,44769,1,8,0:0:0:0:
344,34,44840,1,8,0:0:0:0:
314,43,44912,1,8,0:0:0:0:
287,57,44983,1,8,0:0:0:0:
264,76,45054,1,8,0:0:0:0:
245,100,45126,5,8,0:3:0:0:
240,106,45197,1,8,0:3:0:0:
235,113,45269,1,8,0:3:0:0:
230,119,45340,1,8,0:3:0:0:
225,125,45412,1,8,0:3:0:0:
220,132,45483,1,8,0:3:0:0:
215,138,45554,1,8,0:3:0:0:
211,144,45626,1,8,0:3:0:0:
206,151,45697,6,0,P|179:229|247:330,1,200,6|0,0:0|0:0,0:0:0:0:
366,327,46126,1,4,0:3:0:0:
435,216,46269,2,0,B|348:195|352:115|352:115|399:43,1,200,8|0,0:0|0:0,0:0:0:0:
156,43,46697,1,4,0:3:0:0:
208,162,46840,6,0,P|242:247|166:301,1,200,6|0,0:0|0:0,0:0:0:0:
35,311,47269,1,4,0:3:0:0:
172,227,47412,2,0,P|234:268|239:327,1,100,8|0,0:0|0:0,0:0:0:0:
313,289,47697,2,0,P|337:246|382:226,1,100,4|4,0:3|0:3,0:0:0:0:
362,56,47983,6,0,P|260:21|161:68,1,200,6|0,0:0|0:0,0:0:0:0:
276,159,48412,2,0,P|368:190|460:155,1,200,4|0,0:3|0:0,0:0:0:0:
158,155,48840,2,0,B|101:157|89:101|89:101|-5:101,1,150,8|0,0:3|0:0,0:0:0:0:
108,224,49126,6,0,P|221:210|225:102,1,200,6|8,0:0|0:0,0:0:0:0:
243,26,49554,1,4,0:3:0:0:
309,214,49697,2,0,P|347:300|442:298,1,200,4|8,0:3|0:0,0:0:0:0:
442,298,50269,6,0,L|441:187,1,100,6|0,0:0|0:0,0:0:0:0:
442,68,50554,1,8,0:3:0:0:
351,161,50697,1,4,0:3:0:0:
442,298,50840,2,0,L|341:298,1,100,8|0,0:0|0:0,0:0:0:0:
70,298,51126,2,0,L|171:298,1,100,4|0,0:3|0:0,0:0:0:0:
230,84,51412,5,6,0:3:0:0:
138,176,51554,1,2,0:3:0:0:
250,104,51697,1,2,0:3:0:0:
250,242,51840,1,2,0:3:0:0:
269,84,51983,1,8,0:0:0:0:
373,176,52126,1,2,0:3:0:0:
373,352,52269,1,2,0:3:0:0:
234,364,52412,1,2,0:3:0:0:
373,176,52554,6,0,L|439:87,1,100,6|2,0:3|0:3,0:3:0:0:
138,176,52840,2,0,L|72:265,1,100,2|2,0:3|0:3,0:3:0:0:
335,257,53126,2,0,L|433:241,1,100,10|2,0:0|0:3,0:3:0:0:
161,100,53412,2,0,L|51:116,1,100,2|2,0:3|0:3,0:3:0:0:
240,278,53697,5,10,0:3:0:0:
228,279,53769,1,10,0:3:0:0:
217,281,53840,1,10,0:3:0:0:
205,282,53912,1,10,0:3:0:0:
194,284,53983,1,10,0:3:0:0:
183,286,54054,1,10,0:3:0:0:
171,287,54126,1,10,0:3:0:0:
160,289,54197,1,10,0:3:0:0:
148,292,54269,5,0,0:0:0:0:
118,286,54340,1,0,0:0:0:0:
91,272,54412,1,8,0:0:0:0:
68,251,54483,1,8,0:0:0:0:
53,225,54554,1,8,0:0:0:0:
46,196,54626,1,8,0:0:0:0:
48,165,54697,1,8,0:0:0:0:
58,137,54769,1,8,0:0:0:0:
75,112,54840,1,8,0:0:0:0:
246,112,55412,6,0,P|308:100|392:180,1,175,2|0,0:0|0:0,0:0:0:0:
290,212,55983,6,0,P|230:254|167:246,1,100,6|0,0:0|0:0,0:0:0:0:
26,220,56269,1,8,0:0:0:0:
26,220,56340,1,4,0:3:0:0:
26,220,56412,1,4,0:3:0:0:
164,106,56554,2,0,P|193:53|235:31,1,100,2|0,0:0|0:0,0:0:0:0:
368,223,56840,2,0,P|339:276|297:298,1,100,4|2,0:3|0:0,0:0:0:0:
164,137,57126,5,0,0:0:0:0:
374,195,57269,1,0,0:0:0:0:
136,200,57412,1,10,0:0:0:0:
364,119,57554,1,0,0:0:0:0:
198,73,57697,1,2,0:0:0:0:
375,272,57840,1,0,0:0:0:0:
301,42,57983,1,4,0:3:0:0:
229,299,58126,1,4,0:3:0:0:
67,203,58269,6,0,L|46:98,1,100,4|0,0:3|0:0,0:0:0:0:
474,139,58554,2,0,L|495:244,1,100,8|0,0:0|0:0,0:0:0:0:
88,104,58840,2,0,L|124:3,1,100,2|0,0:0|0:0,0:0:0:0:
470,258,59126,2,0,L|434:359,1,100,8|2,0:0|0:0,0:0:0:0:
163,137,59412,5,0,0:0:0:0:
360,326,59554,1,0,0:0:0:0:
163,247,59697,1,10,0:0:0:0:
360,58,59840,1,0,0:0:0:0:
74,194,59983,1,2,0:0:0:0:
352,192,60126,1,2,0:0:0:0:
41,297,60269,1,4,0:3:0:0:
277,76,60412,1,4,0:3:0:0:
226,326,60554,6,0,L|305:246,1,100,4|0,0:3|0:0,0:0:0:0:
277,76,60840,2,0,L|198:156,1,100,8|0,0:0|0:0,0:0:0:0:
135,211,61126,2,0,P|110:146|141:78,1,100,4|0,0:3|0:0,0:0:0:0:
400,118,61412,1,10,0:0:0:0:
159,233,61554,1,2,0:0:0:0:
468,159,61697,6,0,P|475:95|448:51,1,100,4|0,0:3|0:0,0:0:0:0:
329,250,61983,2,0,P|320:299|306:347,1,100,10|0,0:0|0:0,0:0:0:0:
200,130,62269,2,0,P|208:80|222:32,1,100,2|0,0:0|0:0,0:0:0:0:
51,314,62554,1,4,0:3:0:0:
200,130,62697,1,4,0:3:0:0:
419,223,62840,5,4,0:3:0:0:
51,70,62983,1,0,0:0:0:0:
200,254,63126,1,8,0:0:0:0:
419,161,63269,5,0,0:0:0:0:
262,19,63412,1,4,0:3:0:0:
200,254,63554,1,0,0:0:0:0:
128,44,63697,1,10,0:0:0:0:
288,320,63840,1,2,0:0:0:0:
51,70,63983,6,0,P|48:150|73:193,1,100,6|6,0:3|0:3,0:0:0:0:
461,70,64269,2,0,P|464:150|439:193,1,100,6|6,0:3|0:3,0:0:0:0:
123,192,64554,1,2,0:0:0:0:
389,192,64697,1,2,0:0:0:0:
51,160,64840,6,0,P|107:114|170:131,1,112.500004291535,10|0,0:0|0:0,0:0:0:0:
191,279,65126,6,0,P|251:321|314:313,1,100,6|0,0:0|0:0,0:0:0:0:
212,88,65412,2,0,P|152:46|89:54,1,100,10|0,0:0|0:0,0:0:0:0:
261,242,65697,1,2,0:0:0:0:
489,97,65840,1,0,0:0:0:0:
489,287,65983,1,10,0:0:0:0:
268,153,66126,1,2,0:0:0:0:
94,334,66269,6,0,P|59:284|48:242,1,100,4|0,0:3|0:0,0:0:0:0:
224,64,66554,2,0,L|268:153,1,100,10|0,0:0|0:0,0:0:0:0:
256,320,66840,2,0,L|210:228,1,100,2|0,0:0|0:0,0:0:0:0:
504,52,67126,2,0,P|495:115|449:146,1,100,4|4,0:3|0:3,0:0:0:0:
192,128,67412,5,4,0:3:0:0:
436,76,67554,1,0,0:0:0:0:
192,128,67697,1,8,0:0:0:0:
352,288,67840,1,0,0:0:0:0:
266,50,67983,1,2,0:0:0:0:
99,261,68126,1,0,0:0:0:0:
20,31,68269,1,10,0:0:0:0:
101,262,68412,1,2,0:0:0:0:
373,208,68554,6,0,P|428:262|416:320,1,100,4|0,0:3|0:0,0:0:0:0:
224,192,68840,6,0,P|169:138|176:75,1,100,10|0,0:0|0:0,0:0:0:0:
243,116,69126,1,2,0:0:0:0:
481,32,69269,1,2,0:0:0:0:
373,208,69412,1,4,0:3:0:0:
184,248,69554,1,4,0:3:0:0:
70,60,69697,6,0,P|142:42|192:37,1,100,4|0,0:3|0:0,0:0:0:0:
118,330,69983,2,0,P|190:348|240:353,1,100,8|0,0:0|0:0,0:0:0:0:
424,150,70269,2,0,P|453:210|400:285,1,150,2|0,0:0|0:0,0:0:0:0:
397,291,70554,1,10,0:0:0:0:
139,122,70697,1,2,0:0:0:0:
401,71,70840,6,0,P|463:79|495:113,1,100,4|0,0:3|0:0,0:0:0:0:
162,197,71126,2,0,P|100:189|68:155,1,100,8|0,0:0|0:0,0:0:0:0:
419,222,71412,2,0,L|489:304,1,100,4|0,0:3|0:0,0:0:0:0:
125,273,71697,1,4,0:3:0:0:
304,166,71840,1,4,0:3:0:0:
125,273,71983,5,4,0:3:0:0:
304,59,72126,1,0,0:0:0:0:
224,288,72269,2,0,L|138:359,1,100,8|0,0:0|0:0,0:0:0:0:
486,263,72554,2,0,P|497:204|467:161,1,100,4|0,0:3|0:0,0:0:0:0:
239,124,72840,2,0,P|228:183|258:226,1,100,10|2,0:0|0:0,0:0:0:0:
478,170,73126,6,0,P|436:101|396:90,1,100,4|4,0:3|0:3,0:0:0:0:
398,77,73412,1,4,0:3:0:0:
329,228,73554,1,4,0:3:0:0:
169,216,73697,1,4,0:3:0:0:
406,164,73840,1,4,0:3:0:0:
215,89,73983,1,6,0:3:0:0:
178,309,74126,1,6,0:3:0:0:
130,76,74269,6,0,P|167:23|244:5,1,100,6|0,0:0|0:0,0:0:0:0:
413,237,74554,2,0,P|376:290|299:308,1,100,8|0,0:0|0:0,0:0:0:0:
352,32,74840,2,0,P|405:69|423:146,1,100,4|0,0:3|0:0,0:0:0:0:
191,315,75126,2,0,P|138:278|120:201,1,100,8|0,0:0|0:0,0:0:0:0:
215,89,75412,5,4,0:3:0:0:
329,228,75554,1,0,0:0:0:0:
100,173,75697,2,0,P|53:209|48:254,1,100,8|0,0:0|0:0,0:0:0:0:
238,159,75983,2,0,P|280:132|292:85,1,100,4|0,0:3|0:0,0:0:0:0:
488,85,76269,1,4,0:3:0:0:
410,246,76412,1,4,0:3:0:0:
488,85,76554,6,0,L|434:191,1,100,4|0,0:3|0:3,0:3:0:0:
259,348,76840,2,0,L|313:242,1,100,8|0,0:0|0:0,0:0:0:0:
189,99,77126,2,0,P|160:143|175:198,1,100,4|0,0:3|0:0,0:0:0:0:
457,304,77412,2,0,P|486:260|471:205,1,100,8|0,0:0|0:0,0:0:0:0:
245,55,77697,6,0,P|201:26|146:41,1,100,4|0,0:3|0:0,0:0:0:0:
271,295,77983,2,0,B|323:285|323:285|364:257|364:257|420:243,1,150,10|0,0:0|0:0,0:0:0:0:
432,237,78269,1,2,0:0:0:0:
456,58,78412,1,2,0:0:0:0:
303,151,78554,1,4,0:3:0:0:
151,54,78697,1,4,0:3:0:0:
303,151,78840,6,0,L|219:214,1,100,4|0,0:3|0:0,0:0:0:0:
4,301,79126,2,0,L|88:238,1,100,8|0,0:0|0:0,0:0:0:0:
270,73,79412,2,0,P|330:72|365:99,1,100,4|0,0:3|0:0,0:0:0:0:
242,311,79697,2,0,P|182:312|147:285,1,100,8|0,0:0|0:0,0:0:0:0:
79,123,79983,5,4,0:3:0:0:
209,243,80126,1,0,0:0:0:0:
342,113,80269,2,0,P|350:61|322:12,1,100,8|0,0:0|0:0,0:0:0:0:
138,205,80554,2,0,P|130:253|151:298,1,100,4|0,0:3|0:0,0:0:0:0:
332,298,80840,1,4,0:3:0:0:
474,187,80983,1,4,0:3:0:0:
332,298,81126,6,0,L|272:210,1,100,4|0,0:3|0:0,0:0:0:0:
21,205,81412,2,0,L|77:122,1,100,8|0,0:0|0:0,0:0:0:0:
341,57,81697,2,0,L|454:57,1,100,4|0,0:3|0:0,0:0:0:0:
190,189,81983,2,0,L|133:271,1,100,8|0,0:0|0:0,0:0:0:0:
251,106,82269,5,8,0:0:0:0:
270,125,82340,1,8,0:0:0:0:
294,139,82412,1,8,0:0:0:0:
320,147,82483,1,8,0:0:0:0:
347,149,82554,1,8,0:0:0:0:
374,145,82626,1,8,0:0:0:0:
399,134,82697,1,8,0:0:0:0:
422,118,82769,1,8,0:0:0:0:
447,105,82840,5,8,0:3:0:0:
447,119,82912,1,8,0:3:0:0:
447,134,82983,1,8,0:3:0:0:
447,148,83054,1,8,0:3:0:0:
447,163,83126,1,8,0:3:0:0:
447,177,83197,1,8,0:3:0:0:
447,192,83269,1,8,0:3:0:0:
447,206,83340,1,8,0:3:0:0:
446,220,83412,6,0,L|446:325,1,100,4|0,0:0|0:0,0:0:0:0:
265,317,83697,1,8,0:0:0:0:
185,155,83840,1,0,0:0:0:0:
227,250,83983,2,0,P|193:286|188:335,1,100,4|0,0:3|0:0,0:0:0:0:
284,133,84269,2,0,P|318:97|324:49,1,100,8|0,0:0|0:0,0:0:0:0:
314,220,84554,6,0,P|350:254|399:260,1,100,4|0,0:3|0:0,0:0:0:0:
197,163,84840,1,8,0:0:0:0:
183,144,84912,1,8,0:3:0:0:
163,130,84983,1,8,0:3:0:0:
140,123,85054,1,8,0:3:0:0:
116,122,85126,2,0,L|29:180,1,100,4|0,0:3|0:0,0:0:0:0:
233,60,85412,1,4,0:3:0:0:
383,181,85554,1,4,0:3:0:0:
233,60,85697,6,0,P|175:27|119:29,1,100,4|0,0:3|0:3,0:3:0:0:
241,272,85983,2,0,P|299:305|355:303,1,100,8|0,0:0|0:0,0:0:0:0:
383,181,86269,2,0,P|416:123|414:67,1,100,4|0,0:3|0:0,0:0:0:0:
175,196,86554,2,0,P|142:254|144:310,1,100,8|0,0:0|0:0,0:0:0:0:
348,57,86840,6,0,P|404:16|449:24,1,100,4|0,0:3|0:0,0:0:0:0:
190,270,87126,2,0,P|141:264|106:230,1,100,10|0,0:0|0:0,0:0:0:0:
230,97,87412,1,2,0:0:0:0:
54,133,87554,1,2,0:0:0:0:
84,310,87697,1,8,0:0:0:0:
104,323,87769,1,8,0:3:0:0:
126,333,87840,1,8,0:3:0:0:
149,338,87912,1,8,0:3:0:0:
173,340,87983,6,0,P|235:327|259:289,1,100,4|0,0:3|0:0,0:0:0:0:
338,43,88269,2,0,P|277:57|253:95,1,100,8|0,0:0|0:0,0:0:0:0:
107,109,88554,2,0,P|121:171|159:195,1,100,4|0,0:3|0:0,0:0:0:0:
404,274,88840,2,0,P|391:213|353:189,1,100,8|0,0:0|0:0,0:0:0:0:
182,122,89126,5,4,0:3:0:0:
332,258,89269,1,0,0:0:0:0:
200,47,89412,2,0,P|141:55|107:98,1,100,8|0,0:0|0:0,0:0:0:0:
113,301,89697,2,0,P|150:333|200:337,1,100,4|0,0:3|0:0,0:0:0:0:
370,189,89983,1,4,0:3:0:0:
189,188,90126,1,4,0:3:0:0:
370,189,90269,6,0,L|257:189,1,100,4|0,0:3|0:0,0:0:0:0:
106,112,90554,2,0,L|26:32,1,100,8|0,0:0|0:0,0:0:0:0:
106,272,90840,2,0,L|26:351,1,100,4|0,0:3|0:0,0:0:0:0:
189,188,91126,2,0,L|302:188,1,100,8|0,0:0|0:0,0:0:0:0:
152,64,91412,5,10,0:0:0:0:
127,75,91483,1,8,0:0:0:0:
105,92,91554,1,8,0:0:0:0:
87,112,91626,1,8,0:0:0:0:
73,136,91697,1,10,0:0:0:0:
65,162,91769,1,8,0:0:0:0:
63,190,91840,1,8,0:0:0:0:
66,217,91912,1,8,0:0:0:0:
75,243,91983,1,8,0:3:0:0:
89,267,92054,1,8,0:3:0:0:
107,287,92126,1,8,0:3:0:0:
130,303,92197,1,8,0:3:0:0:
155,313,92269,6,0,P|205:336|255:340,1,100,4|4,0:3|0:3,0:0:0:0:
310,135,110126,6,0,B|294:100|249:46|249:46|177:103|102:49|102:49|59:105|44:151,1,373.5000054142,2|0,0:0|0:0,0:0:0:0:
38,177,110840,5,4,0:3:0:0:
38,344,110983,1,2,0:0:0:0:
214,177,111126,1,10,0:0:0:0:
212,343,111269,1,2,0:0:0:0:
348,254,111412,1,4,0:3:0:0:
466,138,111554,1,2,0:0:0:0:
315,58,111697,2,0,P|245:47|205:60,1,100,10|2,0:0|0:0,0:0:0:0:
101,196,111983,5,4,0:3:0:0:
101,220,112054,1,2,0:0:0:0:
101,244,112126,1,2,0:0:0:0:
102,268,112197,1,2,0:0:0:0:
102,292,112269,2,0,P|172:303|212:290,1,100,10|2,0:0|0:0,0:0:0:0:
363,244,112554,1,4,0:3:0:0:
479,125,112697,1,2,0:0:0:0:
363,10,112840,1,4,0:3:0:0:
246,125,112983,1,4,0:3:0:0:
363,244,113126,6,0,B|428:242|467:303|467:303|499:231,1,200,4|8,0:3|0:0,0:0:0:0:
268,244,113554,2,0,P|155:187|130:89,1,200,2|0,0:0|0:0,0:0:0:0:
315,173,113983,2,0,P|356:242|347:271,1,100,10|2,0:0|0:0,0:0:0:0:
361,39,114269,5,4,0:3:0:0:
358,63,114340,1,2,0:0:0:0:
364,86,114412,1,2,0:0:0:0:
377,106,114483,1,2,0:0:0:0:
398,122,114554,2,0,L|488:182,1,100,10|0,0:0|0:0,0:0:0:0:
365,299,114840,2,0,B|323:342|272:308|272:308|243:367|181:339,1,200,4|4,0:3|0:3,0:0:0:0:
34,282,115269,1,4,0:3:0:0:
80,126,115412,6,0,P|171:32|236:88,1,200,4|8,0:3|0:0,0:0:0:0:
276,0,115840,2,0,P|248:128|163:115,1,200,4|0,0:3|0:0,0:0:0:0:
85,223,116269,2,0,L|172:274,1,100,10|0,0:0|0:0,0:0:0:0:
394,305,116554,6,0,P|368:214|270:185,1,200,4|8,0:3|0:0,0:0:0:0:
290,286,116983,2,0,L|444:158,1,200,4|0,0:3|0:0,0:0:0:0:
256,104,117412,1,4,0:3:0:0:
88,100,117554,1,4,0:3:0:0:
256,104,117697,2,0,B|305:61|368:76|368:76|412:63|430:27,1,200,4|8,0:3|0:0,0:0:0:0:
288,181,118126,2,0,B|219:236|219:236|91:236,1,200,4|0,0:3|0:0,0:0:0:0:
220,122,118554,2,0,L|303:57,1,100,10|0,0:0|0:0,0:0:0:0:
402,184,118840,5,8,0:0:0:0:
402,214,118912,1,8,0:0:0:0:
393,243,118983,1,8,0:0:0:0:
374,266,119054,1,8,0:0:0:0:
348,282,119126,1,8,0:0:0:0:
318,287,119197,1,8,0:0:0:0:
288,282,119269,1,8,0:0:0:0:
262,267,119340,1,8,0:0:0:0:
243,244,119412,5,8,0:3:0:0:
236,234,119483,1,8,0:3:0:0:
230,224,119554,1,8,0:3:0:0:
224,215,119626,1,8,0:3:0:0:
217,205,119697,1,8,0:3:0:0:
211,196,119769,1,8,0:3:0:0:
205,186,119840,1,8,0:3:0:0:
199,176,119912,1,8,0:3:0:0:
192,166,119983,6,0,L|135:77,1,100,6|2,0:0|0:0,0:0:0:0:
300,28,120269,1,10,0:0:0:0:
318,197,120412,1,2,0:0:0:0:
451,93,120554,2,0,L|508:4,1,100,4|2,0:3|0:0,0:0:0:0:
409,208,120840,2,0,L|355:292,1,100,10|2,0:0|0:0,0:0:0:0:
167,325,121126,5,4,0:3:0:0:
73,204,121269,1,2,0:0:0:0:
125,60,121412,1,10,0:0:0:0:
279,38,121554,1,2,0:0:0:0:
375,156,121697,1,4,0:3:0:0:
322,300,121840,1,2,0:0:0:0:
448,121,121983,2,0,P|414:84|366:76,1,100,10|4,0:0|0:3,0:0:0:0:
53,131,122269,6,0,P|-1:182|79:277,2,200,4|8|4,0:3|0:0|0:3,0:0:0:0:
208,96,122983,1,2,0:0:0:0:
314,244,123126,2,0,P|343:197|386:175,1,100,10|2,0:0|0:0,0:0:0:0:
296,337,123412,6,0,B|256:344|256:344|237:327|237:327|213:327|213:327|199:308|199:308|172:307|172:307|157:288|157:288|132:285|132:285|135:220|66:203,1,300,4|0,0:3|0:0,0:0:0:0:
262,190,123983,2,0,B|310:151|388:176|389:253|389:253|420:262|474:177,1,300,2|4,0:0|0:3,0:0:0:0:
312,91,124554,6,0,L|266:43,2,66.6666666666667,4|2|2,0:3|0:0|0:0,0:0:0:0:
212,118,124840,2,0,L|159:77,2,66.6666666666667,10|2|2,0:0|0:0|0:0,0:0:0:0:
118,163,125126,2,0,L|59:131,2,66.6666666666667,4|2|2,0:3|0:0|0:0,0:0:0:0:
63,250,125412,2,0,L|0:228,2,66.6666666666667,10|2|2,0:0|0:0|0:0,0:0:0:0:
185,285,125697,5,4,0:3:0:0:
242,300,125792,1,2,0:0:0:0:
301,287,125888,1,2,0:0:0:0:
357,306,125983,1,10,0:0:0:0:
409,277,126078,1,2,0:0:0:0:
424,219,126173,1,2,0:0:0:0:
466,175,126269,1,4,0:3:0:0:
453,116,126364,1,2,0:0:0:0:
419,66,126459,1,2,0:0:0:0:
359,59,126554,1,4,0:3:0:0:
312,97,126650,1,2,0:0:0:0:
257,122,126745,1,2,0:0:0:0:
197,117,126840,6,0,L|106:105,2,66.6666666666667,4|2|2,0:3|0:0|0:0,0:0:0:0:
287,193,127126,2,0,L|378:181,2,66.6666666666667,8|2|2,0:0|0:0|0:0,0:0:0:0:
194,265,127412,2,0,L|103:253,2,66.6666666666667,4|2|2,0:3|0:0|0:0,0:0:0:0:
283,340,127697,2,0,L|374:328,2,66.6666666666667,8|2|2,0:0|0:0|0:0,0:0:0:0:
133,333,127983,5,10,0:0:0:0:
102,329,128054,1,8,0:0:0:0:
76,313,128126,1,8,0:0:0:0:
58,289,128197,1,8,0:0:0:0:
51,260,128269,1,8,0:0:0:0:
55,230,128340,1,8,0:0:0:0:
71,204,128412,1,8,0:0:0:0:
95,186,128483,1,8,0:0:0:0:
123,175,128554,5,8,0:3:0:0:
140,173,128626,1,8,0:3:0:0:
157,167,128697,1,8,0:3:0:0:
171,158,128769,1,8,0:3:0:0:
183,145,128840,1,12,0:3:0:0:
193,131,128912,1,8,0:3:0:0:
198,114,128983,1,12,0:3:0:0:
200,97,129054,1,8,0:3:0:0:
199,78,129126,6,0,L|416:37,1,200,6|0,0:3|0:0,0:0:0:0:
497,121,129554,1,4,0:3:0:0:
392,198,129697,2,0,B|335:245|270:198|270:198|202:254,1,200,8|4,0:0|0:3,0:0:0:0:
133,340,130126,1,0,0:0:0:0:
401,272,130269,6,0,P|459:169|381:126,1,200,6|0,0:3|0:0,0:0:0:0:
294,76,130697,1,4,0:3:0:0:
217,181,130840,2,0,P|172:214|126:210,1,100,8|0,0:0|0:0,0:0:0:0:
304,228,131126,2,0,P|349:195|395:199,1,100,4|4,0:3|0:3,0:0:0:0:
371,67,131412,6,0,P|263:4|217:59,1,200,6|0,0:3|0:0,0:0:0:0:
203,174,131840,2,0,P|120:217|56:150,1,200
17,82,132269,2,0,P|89:80|132:139,1,150,4|0,0:3|0:0,0:0:0:0:
240,238,132554,6,0,P|274:152|199:98,1,200,6|8,0:3|0:0,0:0:0:0:
56,150,132983,1,4,0:3:0:0:
251,39,133126,2,0,P|277:127|185:171,1,200,4|8,0:3|0:0,0:0:0:0:
364,143,133697,6,0,L|476:143,1,100,6|0,0:3|0:0,0:0:0:0:
328,209,133983,2,0,L|424:266,1,100,0|4,0:0|0:3,0:0:0:0:
262,248,134269,2,0,L|314:346,1,100,8|0,0:0|0:0,0:0:0:0:
185,250,134554,2,0,L|185:361,1,100,4|0,0:3|0:0,0:0:0:0:
367,268,134840,6,0,L|512:268,1,100,6|0,0:3|0:0,0:0:0:0:
406,131,135126,2,0,L|320:182,1,100,0|4,0:0|0:3,0:0:0:0:
235,132,135412,2,0,L|282:44,1,100,8|0,0:0|0:0,0:0:0:0:
135,29,135697,2,0,L|135:129,1,100,4|0,0:3|0:0,0:0:0:0:
136,208,135983,6,0,P|148:272|273:310,1,200,14|0,0:3|0:0,0:0:0:0:
228,233,136412,1,4,0:3:0:0:
228,233,136554,2,0,L|135:312,1,100,8|4,0:0|0:3,0:0:0:0:
354,324,136840,2,0,L|447:245,1,100,4|4,0:3|0:3,0:0:0:0:
497,86,137126,5,4,0:3:0:0:
394,22,137269,1,4,0:3:0:0:
365,138,137412,1,8,0:3:0:0:
262,74,137554,1,4,0:3:0:0:
267,193,137697,5,4,0:3:0:0:
164,129,137840,1,4,0:3:0:0:
135,245,137983,1,8,0:3:0:0:
32,181,138126,1,4,0:3:0:0:
25,300,138269,5,4,0:3:0:0:
156,371,138412,1,4,0:3:0:0:
249,254,138554,1,8,0:3:0:0:
119,177,138697,1,4,0:3:0:0:
256,77,138840,5,4,0:3:0:0:
326,256,138983,1,4,0:3:0:0:
437,36,139126,1,8,0:3:0:0:
508,208,139269,1,4,0:3:0:0:
326,256,139412,5,4,0:3:0:0:
290,267,139483,1,4,0:3:0:0:
255,278,139554,1,4,0:3:0:0:
220,289,139626,1,4,0:3:0:0:
185,301,139697,1,8,0:3:0:0:
149,312,139769,1,4,0:3:0:0:
114,323,139840,1,4,0:3:0:0:
79,334,139912,1,4,0:3:0:0:
57,305,139983,5,8,0:0:0:0:
47,290,140054,1,8,0:0:0:0:
39,275,140126,1,8,0:0:0:0:
32,258,140197,1,8,0:0:0:0:
27,242,140269,1,8,0:0:0:0:
24,224,140340,1,8,0:0:0:0:
23,207,140412,1,8,0:0:0:0:
23,189,140483,1,8,0:0:0:0:
25,172,140554,1,8,0:0:0:0:
454,46,141126,6,0,B|432:57|432:57|426:75|426:75|354:102|349:198,1,175,2|0,0:0|0:0,0:0:0:0:
435,235,141697,6,0,P|387:273|322:271,1,100,6|0,0:0|0:0,0:0:0:0:
174,224,141983,1,8,0:0:0:0:
174,224,142054,1,0,0:0:0:0:
174,224,142126,1,0,0:0:0:0:
264,92,142269,2,0,P|312:54|377:56,1,100,4|4,0:3|0:3,0:0:0:0:
458,257,142554,1,10,0:0:0:0:
334,125,142697,1,2,0:0:0:0:
87,155,142840,5,4,0:3:0:0:
211,23,142983,1,0,0:3:0:0:
245,252,143126,2,0,P|208:289|150:295,1,100,10|0,0:0|0:0,0:0:0:0:
264,92,143412,2,0,P|301:55|359:49,1,100,4|0,0:3|0:0,0:0:0:0:
354,231,143697,1,4,0:3:0:0:
454,61,143840,1,4,0:3:0:0:
354,231,143983,6,0,P|325:190|279:174,1,100,4|0,0:3|0:0,0:0:0:0:
7,172,144269,2,0,P|35:212|81:228,1,100,8|0,0:0|0:0,0:0:0:0:
430,229,144554,2,0,P|476:213|505:173,1,100,4|0,0:3|0:0,0:0:0:0:
232,173,144840,2,0,P|185:189|157:229,1,100,10|2,0:0|0:0,0:0:0:0:
84,150,145126,5,4,0:3:0:0:
232,26,145269,1,0,0:0:0:0:
365,187,145412,1,10,0:0:0:0:
106,58,145554,1,0,0:0:0:0:
320,13,145697,1,2,0:0:0:0:
305,247,145840,1,2,0:0:0:0:
106,58,145983,1,4,0:3:0:0:
159,256,146126,1,4,0:3:0:0:
106,58,146269,6,0,L|216:113,1,100,4|0,0:3|0:0,0:0:0:0:
327,340,146554,1,8,0:0:0:0:
225,193,146697,1,0,0:0:0:0:
415,116,146840,2,0,P|450:159|430:237,1,100,4|0,0:3|0:0,0:0:0:0:
251,348,147126,1,10,0:0:0:0:
185,124,147269,2,0,P|150:167|170:245,1,100,2|4,0:0|0:3,0:0:0:0:
377,184,147554,5,0,0:0:0:0:
128,72,147697,2,0,P|108:125|124:172,1,100,10|0,0:0|0:0,0:0:0:0:
473,63,147983,2,0,P|493:116|477:163,1,100,4|0,0:3|0:0,0:0:0:0:
297,273,148269,1,4,0:3:0:0:
297,37,148412,1,4,0:3:0:0:
297,273,148554,6,0,P|369:268|417:315,1,100,4|0,0:3|0:0,0:0:0:0:
216,144,148840,2,0,P|143:139|96:186,1,100,8|0,0:0|0:0,0:0:0:0:
341,337,149126,1,4,0:3:0:0:
176,208,149269,1,0,0:0:0:0:
467,192,149412,1,10,0:0:0:0:
302,63,149554,1,2,0:0:0:0:
176,208,149697,5,4,0:3:0:0:
158,229,149769,1,8,0:0:0:0:
135,243,149840,1,8,0:0:0:0:
108,249,149912,1,8,0:0:0:0:
81,246,149983,1,4,0:3:0:0:
56,235,150054,1,8,0:0:0:0:
36,217,150126,1,8,0:0:0:0:
23,193,150197,1,8,0:0:0:0:
18,166,150269,6,0,L|91:103,1,50,4|4,0:3|0:3,0:0:0:0:
245,81,150412,2,0,L|207:113,1,50,4|4,0:3|0:3,0:0:0:0:
230,271,150554,2,0,L|267:238,1,50,4|0,0:3|0:0,0:0:0:0:
453,171,150697,2,0,L|415:203,1,50,4|0,0:3|0:0,0:0:0:0:
253,334,150840,6,0,P|194:331|165:273,1,100,6|0,0:0|0:0,0:0:0:0:
185,50,151126,2,0,P|219:16|268:18,1,100,8|0,0:0|0:0,0:0:0:0:
453,171,151412,1,4,0:3:0:0:
206,215,151554,1,0,0:0:0:0:
378,33,151697,1,10,0:0:0:0:
206,215,151840,1,2,0:0:0:0:
410,343,151983,5,4,0:3:0:0:
206,215,152126,1,0,0:0:0:0:
102,47,152269,2,0,P|118:96|160:130,1,100,10|0,0:0|0:0,0:0:0:0:
410,343,152554,2,0,P|394:294|352:260,1,100,4|0,0:3|0:0,0:0:0:0:
187,52,152840,1,4,0:3:0:0:
158,298,152983,1,4,0:3:0:0:
187,52,153126,6,0,P|262:46|305:51,1,100,4|0,0:3|0:0,0:0:0:0:
230,342,153412,2,0,P|279:344|329:338,1,100,8|0,0:0|0:0,0:0:0:0:
243,124,153697,2,0,P|168:130|125:125,1,100,4|0,0:3|0:0,0:0:0:0:
286,266,153983,2,0,P|336:260|386:262,1,100,10|2,0:0|0:0,0:0:0:0:
143,127,154269,5,4,0:3:0:0:
386,262,154412,1,0,0:0:0:0:
93,203,154554,2,0,L|23:304,1,100,10|0,0:0|0:0,0:0:0:0:
435,190,154840,2,0,L|505:89,1,100,4|2,0:3|0:0,0:0:0:0:
338,337,155126,1,4,0:3:0:0:
93,203,155269,1,4,0:3:0:0:
338,337,155412,6,0,L|217:271,1,100,4|0,0:3|0:0,0:0:0:0:
338,47,155697,2,0,L|217:113,1,100,8|0,0:0|0:0,0:0:0:0:
34,156,155983,2,0,P|21:223|63:269,1,100,4|0,0:3|0:0,0:0:0:0:
258,203,156269,1,10,0:0:0:0:
423,336,156412,1,2,0:0:0:0:
277,134,156554,6,0,P|215:142|188:188,1,100,4|0,0:3|0:0,0:0:0:0:
418,161,156840,2,0,P|480:153|507:107,1,100,10|0,0:0|0:0,0:0:0:0:
193,168,157126,2,0,P|131:176|104:222,1,100,4|0,0:3|0:0,0:0:0:0:
122,348,157412,1,4,0:3:0:0:
258,203,157554,1,4,0:3:0:0:
122,348,157697,6,0,L|17:270,1,100,4|0,0:3|0:0,0:0:0:0:
112,108,157983,2,0,L|217:186,1,100,8|0,0:0|0:0,0:0:0:0:
399,159,158269,2,0,L|431:285,1,100,4|0,0:3|0:0,0:0:0:0:
255,351,158555,2,0,L|222:224,1,100,10|2,0:0|0:0,0:0:0:0:
186,107,158840,5,4,0:3:0:0:
179,80,158911,1,8,0:0:0:0:
163,58,158982,1,8,0:0:0:0:
140,43,159054,1,8,0:0:0:0:
113,38,159125,1,4,0:3:0:0:
86,42,159197,1,8,0:0:0:0:
62,56,159268,1,8,0:0:0:0:
46,78,159340,1,8,0:0:0:0:
38,105,159412,6,0,L|19:156,1,50,4|4,0:3|0:3,0:0:0:0:
89,317,159554,2,0,L|108:266,1,50,4|4,0:3|0:3,0:0:0:0:
249,128,159697,2,0,L|230:179,1,50,4|0,0:3|0:0,0:0:0:0:
300,346,159839,2,0,L|319:295,1,50,4|0,0:3|0:0,0:0:0:0:
368,112,159983,6,0,P|412:58|452:52,1,100,6|0,0:0|0:0,0:0:0:0:
232,249,160269,2,0,P|277:231|303:189,1,100,8|0,0:0|0:0,0:0:0:0:
113,114,160554,1,4,0:3:0:0:
443,125,160697,1,0,0:0:0:0:
232,175,160840,1,10,0:0:0:0:
370,27,160983,1,2,0:0:0:0:
454,262,161126,5,4,0:3:0:0:
239,45,161269,1,0,0:0:0:0:
119,237,161412,2,0,L|52:327,1,100,10|0,0:0|0:0,0:0:0:0:
452,317,161697,2,0,L|393:237,1,100,4|0,0:3|0:0,0:0:0:0:
255,110,161983,1,4,0:3:0:0:
256,352,162126,1,4,0:3:0:0:
255,110,162269,6,0,P|184:81|172:53,1,100,4|0,0:3|0:0,0:0:0:0:
244,279,162554,2,0,P|315:308|327:336,1,100,8|0,0:0|0:0,0:0:0:0:
392,208,162840,2,0,P|421:137|449:125,1,100,4|0,0:3|0:0,0:0:0:0:
112,200,163126,2,0,P|83:271|55:283,1,100,10|2,0:0|0:0,0:0:0:0:
256,352,163412,5,4,0:3:0:0:
245,40,163554,1,0,0:0:0:0:
41,212,163697,1,8,0:0:0:0:
466,197,163840,1,0,0:0:0:0:
232,113,163983,2,0,P|176:73|168:36,1,100,4|0,0:3|0:0,0:0:0:0:
466,44,164269,1,4,0:3:0:0:
313,238,164412,1,4,0:3:0:0:
466,44,164554,6,0,L|391:135,1,100,4|0,0:3|0:0,0:0:0:0:
46,44,164840,2,0,L|121:135,1,100,8|0,0:0|0:0,0:0:0:0:
265,296,165126,2,0,P|240:227|257:188,1,100,4|0,0:3|0:0,0:0:0:0:
494,180,165412,1,10,0:0:0:0:
246,204,165554,1,2,0:0:0:0:
113,36,165697,6,0,P|96:92|47:112,1,100,4|0,0:3|0:0,0:0:0:0:
399,36,165983,2,0,P|416:92|465:112,1,100,8|0,0:0|0:0,0:0:0:0:
154,206,166269,2,0,L|220:111,1,100,4|0,0:3|0:0,0:0:0:0:
466,44,166554,1,4,0:3:0:0:
322,255,166697,1,4,0:3:0:0:
466,44,166840,6,0,L|400:139,1,100,4|0,0:3|0:0,0:0:0:0:
277,326,167126,2,0,P|242:281|241:237,1,100,8|0,0:0|0:0,0:0:0:0:
37,44,167412,2,0,P|2:89|1:133,1,100,4|0,0:3|0:0,0:0:0:0:
240,239,167697,1,10,0:0:0:0:
77,111,167840,1,2,0:0:0:0:
303,189,167983,5,4,0:3:0:0:
317,212,168054,1,8,0:0:0:0:
323,238,168125,1,8,0:0:0:0:
320,266,168197,1,8,0:0:0:0:
308,290,168268,1,4,0:3:0:0:
288,309,168340,1,8,0:0:0:0:
264,321,168411,1,8,0:0:0:0:
236,324,168483,1,8,0:0:0:0:
211,317,168554,6,0,L|157:296,1,50,4|4,0:3|0:3,0:0:0:0:
26,211,168697,2,0,L|80:190,1,50,4|4,0:3|0:3,0:0:0:0:
236,132,168840,2,0,L|182:111,1,50,4|0,0:3|0:0,0:0:0:0:
22,38,168983,2,0,L|76:17,1,50,4|0,0:3|0:0,0:0:0:0:
295,85,169126,6,0,P|312:140|265:201,1,100,6|0,0:0|0:0,0:0:0:0:
155,363,169412,2,0,P|138:308|185:247,1,100,8|0,0:0|0:0,0:0:0:0:
368,172,169697,2,0,P|329:214|252:204,1,100,4|0,0:3|0:0,0:0:0:0:
125,189,169983,1,10,0:0:0:0:
300,148,170126,1,2,0:0:0:0:
53,161,170269,6,0,P|92:118|168:129,1,100,4|0,0:3|0:0,0:0:0:0:
394,243,170554,2,0,L|440:360,1,100,10|0,0:0|0:0,0:0:0:0:
300,148,170840,2,0,L|254:31,1,100,4|0,0:3|0:0,0:0:0:0:
309,267,171126,1,4,0:3:0:0:
418,55,171269,1,4,0:3:0:0:
309,267,171412,6,0,P|348:315|386:328,1,100,4|0,0:3|0:0,0:0:0:0:
376,130,171697,2,0,P|337:82|299:69,1,100,8|0,0:0|0:0,0:0:0:0:
151,267,171983,2,0,P|112:315|74:328,1,100,4|0,0:3|0:0,0:0:0:0:
394,243,172269,1,10,0:0:0:0:
72,251,172412,1,2,0:0:0:0:
300,148,172554,5,4,0:3:0:0:
178,359,172697,1,0,0:0:0:0:
319,111,172840,2,0,L|377:22,1,100,10|0,0:0|0:0,0:0:0:0:
144,137,173126,2,0,L|86:226,1,100,4|4,0:3|0:3,0:0:0:0:
350,224,173412,1,4,0:3:0:0:
365,200,173483,1,4,0:3:0:0:
380,177,173554,1,4,0:3:0:0:
395,154,173626,1,4,0:3:0:0:
410,132,173697,6,0,L|464:48,1,100,4|0,0:3|0:0,0:0:0:0:
216,176,173983,2,0,L|162:260,1,100,8|0,0:0|0:0,0:0:0:0:
480,160,174269,2,0,P|472:88|440:64,1,100,4|0,0:3|0:0,0:0:0:0:
216,71,174554,1,10,0:0:0:0:
410,133,174697,1,2,0:0:0:0:
216,282,174840,6,0,P|139:234|112:184,1,150,4|0,0:3|0:0,0:0:0:0:
85,96,175126,1,8,0:0:0:0:
85,293,175269,1,0,0:0:0:0:
273,35,175412,1,4,0:3:0:0:
388,194,175554,1,0,0:0:0:0:
273,354,175697,1,4,0:3:0:0:
205,119,175840,1,4,0:3:0:0:
273,354,175983,6,0,P|304:300|299:249,1,100,4|0,0:3|0:0,0:0:0:0:
156,50,176269,2,0,P|125:104|130:155,1,100,8|0,0:0|0:0,0:0:0:0:
156,334,176554,2,0,P|125:280|130:229,1,100,4|0,0:3|0:0,0:0:0:0:
273,35,176840,1,10,0:0:0:0:
472,191,176983,1,2,0:0:0:0:
273,191,177126,5,4,0:3:0:0:
245,191,177197,1,8,0:0:0:0:
218,191,177268,1,8,0:0:0:0:
190,191,177340,1,8,0:0:0:0:
163,191,177411,1,4,0:3:0:0:
135,191,177483,1,8,0:0:0:0:
108,191,177554,1,8,0:0:0:0:
80,191,177626,1,8,0:0:0:0:
53,191,177697,6,0,L|4:191,1,50,4|4,0:3|0:3,0:0:0:0:
133,77,177840,2,0,L|182:77,1,50,4|4,0:3|0:3,0:0:0:0:
183,307,177983,2,0,L|133:307,1,50,4|0,0:3|0:0,0:0:0:0:
347,188,178126,2,0,L|397:188,1,50,4|0,0:3|0:0,0:0:0:0:
430,189,178269,6,0,P|476:227|471:307,1,100,6|0,0:0|0:0,0:0:0:0:
255,261,178554,2,0,P|209:223|214:143,1,100,8|0,0:0|0:0,0:0:0:0:
408,96,178840,2,0,L|497:39,1,100,4|0,0:3|0:0,0:0:0:0:
275,190,179126,2,0,L|186:247,1,100,8|0,0:0|0:0,0:0:0:0:
408,190,179412,6,0,L|497:247,1,100,4|0,0:3|0:0,0:0:0:0:
275,96,179698,2,0,L|186:39,1,100,8|0,0:0|0:0,0:0:0:0:
191,245,179983,2,0,L|102:302,1,100,4|0,0:3|0:0,0:0:0:0:
211,142,180269,1,4,0:3:0:0:
470,142,180412,1,4,0:3:0:0:
211,142,180554,6,0,P|149:164|136:200,1,100,4|0,0:3|0:0,0:0:0:0:
395,191,180840,2,0,P|457:169|470:133,1,100,8|0,0:0|0:0,0:0:0:0:
281,260,181126,2,0,P|303:322|339:335,1,100,4|0,0:3|0:0,0:0:0:0:
330,76,181412,2,0,P|308:14|272:1,1,100,8|0,0:0|0:0,0:0:0:0:
144,184,181697,6,0,L|48:240,1,100,4|0,0:3|0:0,0:0:0:0:
370,204,181983,2,0,L|466:148,1,100,8|0,0:0|0:0,0:0:0:0:
261,106,182269,1,4,0:3:0:0:
262,286,182412,1,0,0:0:0:0:
169,94,182554,1,4,0:3:0:0:
362,286,182697,1,4,0:3:0:0:
146,95,182840,6,0,P|86:118|64:149,1,100,4|0,0:3|0:0,0:0:0:0:
366,95,183126,2,0,P|426:118|448:149,1,100,8|0,0:0|0:0,0:0:0:0:
161,282,183412,2,0,L|144:184,1,100,4|0,0:3|0:0,0:0:0:0:
350,282,183697,2,0,L|368:184,1,100,8|0,0:0|0:0,0:0:0:0:
161,85,183983,6,0,L|143:183,1,100,4|0,0:3|0:0,0:0:0:0:
350,85,184269,2,0,L|367:183,1,100,8|0,0:0|0:0,0:0:0:0:
257,324,184554,2,0,L|256:224,1,100,4|0,0:3|0:0,0:0:0:0:
257,33,184840,1,4,0:3:0:0:
76,140,184983,1,4,0:3:0:0:
257,33,185126,6,0,P|316:19|361:27,1,100,4|0,0:3|0:0,0:0:0:0:
228,210,185412,2,0,P|169:224|124:216,1,100,8|0,0:0|0:0,0:0:0:0:
401,204,185697,2,0,L|476:289,1,100,4|0,0:3|0:0,0:0:0:0:
249,140,185983,2,0,L|174:55,1,100,8|0,0:0|0:0,0:0:0:0:
32,200,186269,5,8,0:0:0:0:
42,225,186340,1,8,0:0:0:0:
57,248,186411,1,8,0:0:0:0:
75,268,186483,1,8,0:0:0:0:
97,285,186554,1,8,0:0:0:0:
121,299,186626,1,8,0:0:0:0:
147,308,186697,1,8,0:0:0:0:
174,313,186769,1,8,0:0:0:0:
203,314,186840,5,8,0:3:0:0:
220,313,186911,1,8,0:3:0:0:
237,313,186982,1,8,0:3:0:0:
255,312,187054,1,8,0:3:0:0:
272,312,187125,1,12,0:3:0:0:
290,312,187197,1,8,0:3:0:0:
307,311,187268,1,12,0:3:0:0:
325,311,187340,1,8,0:3:0:0:
341,310,187412,6,0,B|390:300|390:300|453:249,1,100,4|0,0:3|0:0,0:0:0:0:
248,72,187697,2,0,B|199:82|199:82|136:133,1,100,8|0,0:0|0:0,0:0:0:0:
336,72,187983,2,0,B|385:82|385:82|448:133,1,100,4|0,0:3|0:0,0:0:0:0:
243,310,188268,2,0,B|194:300|194:300|131:249,1,100,8|0,0:0|0:0,0:0:0:0:
32,112,188554,6,0,L|32:235,1,100,4|0,0:3|0:0,0:0:0:0:
256,240,188840,2,0,L|256:117,1,100,8|0,0:0|0:0,0:0:0:0:
480,176,189126,2,0,L|480:276,1,100,4|0,0:3|0:0,0:0:0:0:
256,120,189412,1,4,0:3:0:0:
31,237,189554,1,4,0:3:0:0:
256,120,189697,6,0,P|313:146|337:182,1,100,4|0,0:3|0:0,0:0:0:0:
277,352,189983,2,0,P|220:326|196:290,1,100,8|0,0:0|0:0,0:0:0:0:
401,158,190269,2,0,P|390:221|361:239,1,100,4|0,0:3|0:0,0:0:0:0:
111,226,190554,2,0,P|122:163|151:145,1,100,8|0,0:0|0:0,0:0:0:0:
382,59,190840,6,0,L|403:171,1,100,4|0,0:3|0:0,0:0:0:0:
259,260,191126,1,8,0:0:0:0:
259,260,191197,1,0,0:0:0:0:
259,260,191269,1,0,0:0:0:0:
167,47,191412,2,0,L|146:159,1,100,4|8,0:0|0:0,0:0:0:0:
345,47,191697,1,4,0:3:0:0:
349,70,191768,1,4,0:3:0:0:
353,94,191839,1,4,0:3:0:0:
358,117,191911,1,4,0:3:0:0:
360,143,191983,6,0,B|371:197|371:197|414:240,1,100,4|0,0:3|0:0,0:0:0:0:
152,143,192269,2,0,B|141:197|141:197|98:240,1,100,8|0,0:0|0:0,0:0:0:0:
392,144,192554,2,0,B|403:198|403:198|446:241,1,100,4|0,0:3|0:0,0:0:0:0:
128,144,192840,2,0,B|117:198|117:198|74:241,1,100,8|0,0:0|0:0,0:0:0:0:
176,75,193126,6,0,P|222:119|223:154,1,100,4|0,0:3|0:0,0:0:0:0:
176,308,193412,2,0,P|215:279|223:231,1,100,8|0,0:0|0:0,0:0:0:0:
336,75,193697,2,0,P|290:119|289:154,1,100,4|0,0:3|0:0,0:0:0:0:
335,308,193983,1,4,0:3:0:0:
494,194,194126,1,4,0:3:0:0:
335,308,194269,6,0,P|296:279|288:231,1,100,4|0,0:3|0:0,0:0:0:0:
208,40,194554,2,0,P|247:69|255:117,1,100,8|0,0:0|0:0,0:0:0:0:
120,208,194840,2,0,P|168:215|207:186,1,100,4|0,0:3|0:0,0:0:0:0:
416,128,195126,2,0,P|367:120|328:149,1,100,8|0,0:0|0:0,0:0:0:0:
197,254,195412,5,4,0:3:0:0:
179,274,195483,1,8,0:0:0:0:
156,289,195554,1,8,0:0:0:0:
129,296,195626,1,8,0:0:0:0:
102,295,195697,1,4,0:3:0:0:
76,286,195769,1,8,0:0:0:0:
54,269,195840,1,8,0:0:0:0:
38,247,195912,1,8,0:0:0:0:
30,220,195983,6,0,L|30:107,1,100,4|4,0:3|0:3,0:0:0:0:
256,28,196269,2,0,L|256:141,1,100,8|8,0:0|0:0,0:0:0:0:
256,308,196554,5,6,0:3:0:0:
362,193,196697,2,0,L|398:153,2,50,8|8|8,0:0|0:0|0:0,0:0:0:0:
195,239,196983,1,6,0:3:0:0:
89,124,197126,2,0,L|53:84,2,50,8|8|8,0:0|0:0|0:0,0:0:0:0:
332,59,197412,2,0,P|381:50|454:59,1,100,6|0,0:3|0:0,0:0:0:0:
433,298,197697,6,0,P|384:289|311:298,1,100,6|0,0:3|0:0,0:0:0:0:
154,314,197983,1,8,0:0:0:0:
33,179,198126,1,0,0:0:0:0:
121,276,198269,1,6,0:3:0:0:
47,110,198412,1,0,0:0:0:0:
101,230,198554,1,6,0:3:0:0:
83,50,198697,1,0,0:0:0:0:
235,179,198840,5,6,0:3:0:0:
395,59,198983,1,8,0:0:0:0:
395,59,199054,1,8,0:0:0:0:
395,59,199126,1,8,0:0:0:0:
274,208,199269,1,6,0:3:0:0:
94,296,199412,1,8,0:0:0:0:
94,296,199483,1,8,0:0:0:0:
94,296,199555,1,8,0:0:0:0:
208,133,199697,2,0,L|236:83,2,50,6|0|0,0:3|0:0|0:0,0:0:0:0:
320,300,199983,6,0,L|348:350,2,50,6|0|0,0:3|0:0|0:0,0:0:0:0:
439,131,200269,2,0,L|464:88,2,50,6|0|0,0:3|0:0|0:0,0:0:0:0:
212,248,200554,2,0,L|108:210,1,100,10|0,0:0|0:0,0:0:0:0:
294,29,200840,2,0,L|398:67,1,100,2|0,0:0|0:0,0:0:0:0:
440,258,201126,5,6,0:3:0:0:
196,115,201269,1,10,0:0:0:0:
196,115,201340,1,8,0:0:0:0:
196,115,201412,1,10,0:0:0:0:
440,258,201554,1,6,0:3:0:0:
170,194,201697,1,10,0:0:0:0:
170,194,201768,1,8,0:0:0:0:
170,194,201840,1,10,0:0:0:0:
440,258,201983,1,6,0:3:0:0:
279,97,202126,1,10,0:0:0:0:
279,97,202197,1,8,0:0:0:0:
279,97,202269,1,10,0:0:0:0:
326,355,202412,5,6,0:3:0:0:
75,298,202554,1,10,0:0:0:0:
75,298,202626,1,8,0:0:0:0:
75,298,202697,1,10,0:0:0:0:
327,278,202840,1,6,0:3:0:0:
464,60,202982,1,10,0:0:0:0:
464,60,203054,1,8,0:0:0:0:
464,60,203125,1,10,0:0:0:0:
464,60,203197,1,8,0:0:0:0:
464,60,203269,1,10,0:0:0:0:
464,60,203340,1,8,0:0:0:0:
464,60,203412,6,0,P|461:135|466:186,1,100,6|0,0:0|0:0,0:0:0:0:
359,344,203697,2,0,P|362:269|357:218,1,100
280,47,203983,2,0,P|277:122|282:173,1,100
175,331,204268,2,0,P|178:256|173:205,1,100
92,36,204554,5,8,0:3:0:0:
74,185,204697,1,8,0:3:0:0:
256,288,204840,1,8,0:3:0:0:
380,203,204983,1,8,0:3:0:0:
221,137,205126,2,0,L|165:229,1,100,6|0,0:3|0:0,0:0:0:0:
336,110,205412,2,0,L|392:18,1,100,6|0,0:3|0:0,0:0:0:0:
462,223,205697,6,0,B|449:289|372:317|277:278|311:209|282:203|282:203|221:253|221:253|180:205|180:205|118:286|79:296|-48:317|-84:92|92:92,1,800,6|0,0:0|0:0,0:0:0:0:
