osu file format v14

[General]
AudioFilename: audio.mp3
AudioLeadIn: 0
PreviewTime: 141111
Countdown: 0
SampleSet: None
StackLeniency: 0.3
Mode: 0
LetterboxInBreaks: 0
WidescreenStoryboard: 1

[Editor]
DistanceSpacing: 1
BeatDivisor: 4
GridSize: 32
TimelineZoom: 3.099999

[Metadata]
Title:Elder Dragon Legend
TitleUnicode:Elder Dragon Legend
Artist:t+pazolite with Kabocha
ArtistUnicode:t+pazolite with かぼけゃ
Creator:DJMUKISOKU
Version:shiroatata normal
Source:
Tags:t+pazolite dragon kabocha
BeatmapID:1088737
BeatmapSetID:482798

[Difficulty]
HPDrainRate:2
CircleSize:3.8
OverallDifficulty:3
ApproachRate:5
SliderMultiplier:0.75
SliderTickRate:1

[Events]
//Background and Video events
0,0,"normal dragon.png",0,0
//Break Periods
2,27668,34325
2,74525,81668
2,92811,105954
2,178525,185668
//Storyboard Layer 0 (Background)
//Storyboard Layer 1 (Fail)
//Storyboard Layer 2 (Pass)
//Storyboard Layer 3 (Foreground)
//Storyboard Sound Samples

[TimingPoints]
40,285.714285714286,4,2,0,45,1,0
9182,-100,4,3,0,55,0,0
18325,-100,4,1,0,65,0,0
27468,-200,4,2,0,25,0,0
36611,-100,4,1,0,65,0,0
45754,-100,4,3,0,50,0,0
56040,-100,4,1,0,70,0,1
74325,-100,4,3,0,55,0,0
83468,-100,4,1,0,65,0,0
92611,-200,4,2,0,25,0,0
110897,-100,4,1,0,65,0,0
129182,-100,4,3,0,50,0,0
141754,-100,4,1,0,70,0,1
178325,-100,4,3,0,55,0,0
187468,-100,4,1,0,65,0,0
196611,-100,4,3,0,70,0,0
205754,-100,4,3,0,50,0,0

[Colours]
Combo1 : 128,64,64
Combo2 : 186,239,114
Combo3 : 116,237,119
Combo4 : 0,0,132
Combo5 : 3,37,129
Combo6 : 156,78,78

[HitObjects]
342,146,9182,22,0,B|352:99|352:99|335:61,1,75,12|0,1:3|2:0,0:0:0:0:
340,74,11468,2,0,B|330:121|330:121|347:159,1,75,12|0,1:3|2:0,0:0:0:0:
387,212,12611,22,0,P|316:224|267:172,2,150,2|2|12,0:0|0:0|1:3,0:0:0:0:
88,236,14897,37,12,1:3:0:0:
387,212,16040,1,12,1:3:0:0:
344,356,16611,1,8,1:3:0:0:
212,88,17754,38,2,L|224:123,3,37.5
232,160,18325,22,0,B|249:215|249:215|213:259|234:303,1,150,4|0,0:0|0:0,0:0:0:0:
302,272,19182,1,0,0:0:0:0:
377,277,19468,70,0,P|403:238|406:202,1,75,8|0,0:0|0:0,0:0:0:0:
338,178,20040,2,0,P|317:135|287:115,1,75,8|0,0:0|0:0,0:0:0:0:
225,143,20611,6,0,P|185:138|153:106,1,75,4|0,0:0|0:0,0:0:0:0:
103,166,21182,2,0,P|117:203|105:247,1,75
181,265,21754,2,0,P|205:233|249:221,1,75,8|0,0:0|0:0,0:0:0:0:
248,296,22325,69,8,0:0:0:0:
292,357,22611,1,0,0:0:0:0:
367,360,22897,6,0,P|366:292|304:240,1,150,4|0,0:0|0:0,0:0:0:0:
234,225,23754,1,0,0:0:0:0:
177,274,24040,70,0,L|195:361,1,75,8|0,0:0|0:0,0:0:0:0:
117,342,24611,2,0,L|100:261,1,75,8|0,0:0|0:0,0:0:0:0:
91,194,25182,6,0,B|130:186|167:178|167:178|235:194|235:194|319:178,1,225,4|0,0:0|0:0,0:0:0:0:
256,192,26325,12,0,27468,0:0:0:0:
368,116,36611,69,8,0:0:0:0:
368,116,36897,2,0,P|384:160|380:196,1,75
364,263,37468,5,0,0:0:0:0:
364,263,37754,2,0,B|314:284|314:284|252:262|262:208,1,150,8|0,0:0|0:0,0:0:0:0:
277,141,38611,1,0,0:0:0:0:
263,67,38897,70,0,P|227:82|206:122,1,75,8|0,0:0|0:0,0:0:0:0:
216,186,39468,1,0,0:0:0:0:
179,253,39754,5,0,0:0:0:0:
179,253,40040,2,0,B|138:268|138:268|47:261,2,112.5,8|0|0,0:0|0:0|0:0,0:0:0:0:
202,324,41182,70,0,B|243:309|243:309|285:365|366:325,1,150,8|0,0:0|0:0,0:0:0:0:
308,266,42040,1,0,0:0:0:0:
281,196,42325,6,0,B|333:172|375:223|375:223|416:208,1,150,8|0,0:0|0:0,0:0:0:0:
485,180,43182,1,0,0:0:0:0:
438,121,43468,70,0,P|368:80|283:105,1,150,8|0,0:0|0:0,0:0:0:0:
278,164,44325,1,0,0:0:0:0:
278,164,44611,2,0,L|286:218,4,37.5,4|0|0|0|0,0:0|0:0|0:0|0:0|0:0,0:0:0:0:
205,146,45468,1,2,0:0:0:0:
202,153,45754,54,0,P|121:165|66:114,1,150,12|0,0:0|0:0,0:0:0:0:
53,52,46611,1,2,0:0:0:0:
90,117,46897,6,0,L|68:266,1,150,12|0,0:0|0:0,0:0:0:0:
93,335,47754,1,2,0:0:0:0:
46,276,48040,70,0,P|113:226|196:241,1,150,12|0,0:0|0:0,0:0:0:0:
239,271,48897,1,2,0:0:0:0:
242,196,49182,22,0,B|225:108|225:108|199:137,1,112.5,12|0,0:0|0:0,0:0:0:0:
180,148,49754,2,0,B|164:165|164:165|147:77,1,112.5,12|0,0:0|0:0,0:0:0:0:
137,41,50325,54,0,P|186:25|265:80,1,150,12|0,0:0|0:0,0:0:0:0:
312,139,51182,1,2,0:0:0:0:
312,139,51468,2,0,P|240:152|185:104,1,150,12|0,0:0|0:0,0:0:0:0:
114,113,52325,1,2,0:0:0:0:
114,113,52611,38,0,B|88:146|88:146|80:179,1,75,12|0,0:0|0:0,0:0:0:0:
122,240,53182,2,0,B|148:207|148:207|156:174,1,75,8|0,0:0|0:0,0:0:0:0:
230,164,53754,22,2,B|250:128|280:111|321:129|338:158|338:158|359:189|397:202|437:195|472:156,1,262.5,0|2,1:0|2:0,0:0:0:0:
333,28,55468,21,2,0:2:0:0:
467,97,56040,38,0,B|429:93|404:117|404:117|352:102|328:134|328:134|341:168|341:168|409:175|457:278|394:338|394:338|329:347|272:278|278:200|278:200|255:139|255:139|209:138|176:192|208:258,1,825,4|0,0:0|0:0,0:0:0:0:
203,327,59468,37,8,0:0:0:0:
134,297,59754,1,2,0:0:0:0:
109,226,60040,1,8,0:0:0:0:
152,166,60325,1,2,0:0:0:0:
152,166,60611,22,0,B|185:177|185:177|235:172,1,75,4|0,0:0|0:0,0:0:0:0:
299,161,61182,1,0,0:0:0:0:
274,90,61468,1,0,0:0:0:0:
348,103,61754,70,0,B|388:98|388:98|421:109,2,75,4|0|0,0:0|0:0|0:0,0:0:0:0:
299,161,62611,1,0,0:0:0:0:
299,161,62897,6,0,L|219:141,1,75,8|0,0:0|0:0,0:0:0:0:
155,166,63468,2,0,L|75:146,1,75,8|0,0:0|0:0,0:0:0:0:
91,73,64040,37,8,0:0:0:0:
159,42,64325,1,2,0:0:0:0:
233,54,64612,1,8,0:0:0:0:
300,88,64897,1,2,0:0:0:0:
274,159,65182,54,0,B|355:191|415:149|415:149|391:211|391:211|397:240|397:240|375:290|375:290|326:308|312:354|312:354|103:330|103:330|36:250|36:250|158:278|205:239|212:185|153:164|153:164|69:134|91:73|91:73|108:105|143:118,1,1125,4|0,0:0|0:0,0:0:0:0:
164,45,69754,70,0,P|206:32|251:38,1,75,4|0,0:0|0:0,0:0:0:0:
305,64,70325,1,0,0:0:0:0:
276,133,70611,1,0,0:0:0:0:
222,185,70897,70,0,P|184:186|149:173,2,75,4|0|0,0:0|0:0|0:0,0:0:0:0:
298,209,71754,1,0,0:0:0:0:
298,209,72040,6,0,L|287:289,1,75,8|0,0:0|0:0,0:0:0:0:
357,312,72611,2,0,L|367:237,1,75,8|0,0:0|0:0,0:0:0:0:
377,163,73182,53,8,0:0:0:0:
350,93,73467,1,2,0:0:0:0:
284,56,73754,1,8,0:0:0:0:
210,65,74039,1,2,0:0:0:0:
155,116,74325,5,4,1:3:0:0:
166,308,83468,86,0,B|178:148,1,150,4|0,0:0|0:0,0:0:0:0:
103,171,84325,1,0,0:0:0:0:
75,101,84611,6,0,P|97:59|127:40,1,75,8|0,0:0|0:0,0:0:0:0:
152,111,85182,2,0,P|186:124|223:120,1,75,8|0,0:0|0:0,0:0:0:0:
270,180,85754,70,0,L|277:261,1,75,4|0,0:0|0:0,0:0:0:0:
202,265,86325,2,0,L|128:230,1,75
162,163,86897,2,0,L|228:116,1,75,8|0,0:0|0:0,0:0:0:0:
287,80,87468,5,8,0:0:0:0:
361,92,87754,1,0,0:0:0:0:
315,151,88040,70,0,P|304:206|376:265,1,150,4|0,0:0|0:0,0:0:0:0:
433,228,88897,1,0,0:0:0:0:
444,302,89183,6,0,P|419:336|383:349,1,75,8|0,0:0|0:0,0:0:0:0:
316,332,89754,2,0,P|282:316|261:285,1,75,8|0,0:0|0:0,0:0:0:0:
270,211,90325,70,0,B|194:225|194:225|125:210|125:210|89:217|49:225,1,225,4|0,0:0|0:0,0:0:0:0:
256,192,91468,12,0,92611,0:0:0:0:
256,192,107754,12,2,110182,0:1:0:0:
92,157,110897,38,0,L|81:118,2,37.5,2|0|8,0:0|0:0|0:0,0:0:0:0:
99,194,111325,2,0,L|71:222,4,37.5,2|0|8|0|0,0:0|0:0|0:0|0:0|0:0,0:0:0:0:
136,186,112040,38,0,L|160:153,2,37.5,2|0|8,0:0|0:0|0:0,0:0:0:0:
116,218,112468,2,0,L|131:254,4,37.5,2|0|8|0|0,0:0|0:0|0:0|0:0|0:0,0:0:0:0:
153,224,113182,38,0,B|238:264|284:201|284:201|270:162|300:122,1,225,4|0,0:0|0:0,0:0:0:0:
353,176,114325,2,0,B|362:207|362:207|345:245|345:245|361:300,2,112.5,4|2|0,0:0|0:0|0:0,0:0:0:0:
282,201,115468,70,0,L|247:86,1,112.5,4|0,0:0|0:0,0:0:0:0:
171,174,116325,1,8,0:0:0:0:
191,246,116611,6,0,P|201:297|223:353,1,112.5,4|0,0:0|0:0,0:0:0:0:
119,311,117468,1,8,0:0:0:0:
112,308,117754,38,0,P|71:262|91:185,1,112.5,4|0,0:0|0:0,0:0:0:0:
161,145,118611,1,8,0:0:0:0:
173,218,118897,6,0,P|155:232|125:245,6,37.5,4|0|0|0|2|2|2,0:0|0:0|0:0|0:0|3:0|3:0|3:0,0:0:0:0:
243,191,120040,6,0,B|300:288|300:288|212:362,1,225,4|0,0:0|0:0,0:0:0:0:
139,361,121182,2,0,B|82:264|82:264|170:190,1,225,4|0,0:0|0:0,0:0:0:0:
239,168,122325,54,0,B|307:82|215:37|215:37|211:76|185:92,1,225,6|0,0:0|0:0,0:0:0:0:
123,131,123468,2,0,P|85:74|137:29,1,150,6|0,0:0|0:0,0:0:0:0:
273,95,124611,38,0,L|268:143,7,37.5,6|0|0|0|0|0|8|0,0:0|0:0|0:0|0:0|0:0|0:0|0:0|0:0,0:0:0:0:
284,171,125754,2,0,L|279:219,7,37.5,6|0|0|0|0|0|8|0,0:0|0:0|0:0|0:0|0:0|0:0|0:0|0:0,0:0:0:0:
304,240,126897,2,0,L|299:288,7,37.5,6|0|0|0|0|0|8|0,0:0|0:0|0:0|0:0|0:0|0:0|0:0|0:0,0:0:0:0:
268,257,128040,2,2,L|244:227,7,37.5,6|2|2|2|2|2|10|2,2:0|2:0|2:0|2:0|2:0|2:0|2:0|2:0,2:0:0:0:
256,192,129182,54,0,P|228:196|107:151,1,150,12|0,0:0|0:0,0:0:0:0:
97,85,130040,1,2,0:0:0:0:
136,149,130325,70,0,P|153:171|174:298,1,150,12|0,0:0|0:0,0:0:0:0:
122,340,131183,1,2,0:0:0:0:
158,274,131468,6,0,P|168:247|268:165,1,150,12|0,0:0|0:0,0:0:0:0:
329,192,132326,1,2,0:0:0:0:
403,181,132611,22,0,B|434:121|434:121|417:71,1,112.5,12|0,0:0|0:0,0:0:0:0:
384,91,133182,2,0,B|341:105|341:105|281:74,1,112.5,12|0,0:0|0:0,0:0:0:0:
245,64,133754,54,0,L|258:216,1,150,12|0,0:0|0:0,0:0:0:0:
207,269,134611,1,2,0:0:0:0:
207,269,134897,2,0,P|278:282|332:227,1,150,12|0,0:0|0:0,0:0:0:0:
348,162,135754,1,2,0:0:0:0:
348,162,136040,22,0,L|261:157,1,75,12|0,0:0|0:0,0:0:0:0:
253,85,136611,2,0,L|340:90,1,75,8|0,0:0|0:0,0:0:0:0:
402,96,137182,21,4,1:0:0:0:
256,192,137325,12,2,140325,2:0:0:0:
274,187,141111,21,2,0:2:0:0:
376,310,141754,54,0,B|431:275|456:205|309:162|291:124|280:64|321:14|408:12|437:46|455:103|419:157|338:230|338:230|333:246|333:246|308:262|294:293|294:323|310:351|310:351|243:271|139:268|139:268|251:258|280:172,1,1050,4|0,0:0|0:0,0:0:0:0:
241,119,146040,1,8,0:0:0:0:
238,112,146325,54,0,B|172:76|172:76|86:107,1,150,4|8,0:0|0:0,0:0:0:0:
49,155,147182,1,0,0:0:0:0:
52,162,147468,2,0,B|118:198|118:198|202:167,1,150,4|8,0:0|0:0,0:0:0:0:
258,143,148325,1,0,0:0:0:0:
323,180,148611,70,0,L|341:270,1,75,8|0,0:0|0:0,0:0:0:0:
271,288,149182,2,0,L|256:214,1,75,8|0,0:0|0:0,0:0:0:0:
181,222,149754,53,8,0:0:0:0:
106,228,150040,1,2,0:0:0:0:
54,174,150325,1,8,0:0:0:0:
67,100,150611,1,2,0:0:0:0:
131,61,150897,70,0,B|187:52|213:109|213:109|217:69|246:30|301:17|350:32|387:97|359:150|359:150|289:119|289:119|267:171|314:211|314:211|241:224|167:176|167:176|196:238|196:238|175:242|107:228|107:228|121:282,1,900,4|0,0:0|0:0,0:0:0:0:
127,332,154611,21,2,0:0:0:0:
201,320,154897,1,8,0:0:0:0:
275,309,155183,1,2,0:0:0:0:
349,298,155468,22,0,B|385:232|385:232|354:146,1,150,4|8,0:0|0:0,0:0:0:0:
295,200,156325,1,0,0:0:0:0:
292,207,156610,2,0,B|226:243|226:243|140:212,1,150,4|8,0:0|0:0,0:0:0:0:
88,184,157468,1,0,0:0:0:0:
142,132,157754,70,0,L|232:169,1,75,8|0,0:0|0:0,0:0:0:0:
271,115,158325,2,0,L|340:143,1,75,8|0,0:0|0:0,0:0:0:0:
408,176,158897,53,8,0:0:0:0:
445,241,159183,1,2,0:0:0:0:
405,304,159468,1,8,0:0:0:0:
335,330,159754,1,2,0:0:0:0:
277,282,160040,54,0,B|201:223|201:223|188:263|158:298|102:304|55:283|26:214|66:165|66:165|27:177|27:177|66:136|39:85|39:85|82:58|120:45|214:42|271:62|304:107|311:164|270:184|270:184|205:137|205:137|147:152|122:220,1,1050,4|0,0:0|0:0,0:0:0:0:
222,331,164611,70,0,P|253:350|290:356,1,75,4|0,0:0|0:0,0:0:0:0:
357,322,165182,1,0,0:0:0:0:
387,253,165468,1,0,0:0:0:0:
312,261,165754,70,0,P|274:258|240:244,2,75,4|0|0,0:0|0:0|0:0,0:0:0:0:
344,193,166611,1,0,0:0:0:0:
346,186,166897,6,0,L|434:174,1,75,8|0,0:0|0:0,0:0:0:0:
401,103,167468,2,0,L|326:113,1,75,8|0,0:0|0:0,0:0:0:0:
252,125,168040,53,8,0:0:0:0:
178,138,168325,1,2,0:0:0:0:
102,138,168611,1,8,0:0:0:0:
34,104,168897,1,2,0:0:0:0:
93,57,169182,38,0,B|137:42|170:62|170:62|201:66|201:66|231:50|231:50|276:58|323:32|323:32|301:64|312:95|312:95|272:110|245:158|237:226|255:321|298:330|349:319|353:291|380:229|261:168|261:168|235:268|186:277|135:278,1,900,4|0,0:0|0:0,0:0:0:0:
88,251,172897,37,2,0:0:0:0:
113,180,173182,1,8,0:0:0:0:
171,132,173468,1,2,0:0:0:0:
237,97,173754,6,0,B|279:107|279:107|313:132,1,75,4|0,0:0|0:0,0:0:0:0:
251,178,174325,1,0,0:0:0:0:
323,198,174611,1,0,0:0:0:0:
380,149,174897,6,0,B|405:130|405:130|447:120,2,75,4|0|0,0:0|0:0|0:0,0:0:0:0:
433,202,175754,1,0,0:0:0:0:
437,208,176040,70,0,L|449:296,1,75,8|0,0:0|0:0,0:0:0:0:
378,312,176611,2,0,L|367:237,1,75,8|0,0:0|0:0,0:0:0:0:
356,163,177183,53,8,0:0:0:0:
304,108,177469,1,2,0:0:0:0:
279,179,177755,1,8,0:0:0:0:
228,123,178040,1,2,0:0:0:0:
205,194,178325,37,4,1:3:0:0:
346,76,187468,86,0,B|334:236,1,150,4|0,0:0|0:0,0:0:0:0:
328,300,188325,1,0,0:0:0:0:
294,367,188611,70,0,P|265:343|250:309,1,75,8|0,0:0|0:0,0:0:0:0:
276,239,189182,2,0,P|308:221|346:221,1,75,8|0,0:0|0:0,0:0:0:0:
379,152,189754,6,0,L|367:71,1,75,4|0,0:0|0:0,0:0:0:0:
292,84,190325,2,0,L|227:134,1,75
276,192,190897,2,0,L|350:222,1,75,8|0,0:0|0:0,0:0:0:0:
360,294,191468,69,8,0:0:0:0:
288,315,191754,1,0,0:0:0:0:
214,328,192040,6,0,P|167:296|176:204,1,150,4|0,0:0|0:0,0:0:0:0:
220,154,192897,1,0,0:0:0:0:
283,114,193183,70,0,P|295:149|290:185,1,75,8|0,0:0|0:0,0:0:0:0:
233,233,193754,2,0,P|195:230|163:211,1,75,8|0,0:0|0:0,0:0:0:0:
219,161,194325,6,0,B|295:147|295:147|364:162|364:162|400:155|440:147,1,225,4|0,0:0|0:0,0:0:0:0:
432,229,195468,2,0,B|392:237|356:244|356:244|287:229|287:229|211:243,1,225,4|0,0:0|0:0,0:0:0:0:
138,259,196611,37,10,0:0:0:0:
267,314,197040,1,10,0:0:0:0:
251,175,197468,5,10,0:0:0:0:
219,247,197754,2,0,P|156:240|80:187,1,150,12|4,0:0|0:0,0:0:0:0:
88,118,198611,1,8,0:0:0:0:
152,79,198897,69,10,0:0:0:0:
290,104,199326,1,10,0:0:0:0:
201,211,199754,5,10,0:0:0:0:
152,154,200040,1,8,0:0:0:0:
152,79,200325,2,0,L|230:64,1,75,10|0,0:0|0:0,0:0:0:0:
290,104,200897,1,8,0:0:0:0:
267,175,201182,69,10,0:0:0:0:
218,307,201611,1,10,0:0:0:0:
129,200,202040,5,10,0:0:0:0:
285,253,202468,1,10,0:0:0:0:
146,277,202897,70,0,L|70:287,1,75,10|0,0:0|0:0,0:0:0:0:
256,192,203468,12,12,205182,0:0:0:0:
256,192,205468,5,12,0:0:0:0:
256,192,205754,12,0,206754,0:0:0:0:
