osu file format v14

[General]
AudioFilename: audio.mp3
AudioLeadIn: 0
PreviewTime: 141111
Countdown: 1
SampleSet: Normal
StackLeniency: 0.7
Mode: 0
LetterboxInBreaks: 0
WidescreenStoryboard: 0

[Editor]
Bookmarks: 92611,110325,124611,129182,141754,145754,150897,154325,160040,164040,169182,172611
DistanceSpacing: 1.3
BeatDivisor: 4
GridSize: 4
TimelineZoom: 2.400006

[Metadata]
Title:Elder Dragon Legend
TitleUnicode:Elder Dragon Legend
Artist:t+pazolite with Kabocha
ArtistUnicode:t+pazolite with かぼけゃ
Creator:DJMUKISOKU
Version:Lightning Dragon
Source:
Tags:t+pazolite dragon kabocha
BeatmapID:1088733
BeatmapSetID:482798

[Difficulty]
HPDrainRate:6
CircleSize:4.4
OverallDifficulty:9
ApproachRate:9.6
SliderMultiplier:1.7
SliderTickRate:1

[Events]
//Background and Video events
0,0,"lightning dragon.png",0,0
//Break Periods
2,92739,107173
//Storyboard Layer 0 (Background)
//Storyboard Layer 1 (Fail)
//Storyboard Layer 2 (Pass)
//Storyboard Layer 3 (Foreground)
//Storyboard Sound Samples

[TimingPoints]
40,285.714285714286,4,1,0,100,1,0
40,-111.111111111111,4,1,0,100,0,0
9182,-90.9090909090909,4,1,0,100,0,0
18325,-74.0740740740741,4,1,0,100,0,0
27468,-200,4,1,0,100,0,0
36611,-100,4,1,0,100,0,0
45754,-86.9565217391304,4,1,0,100,0,0
50325,-80,4,1,0,100,0,0
56040,-68.9655172413793,4,1,0,100,0,1
74325,-74.0740740740741,4,1,0,100,0,0
83468,-68.9655172413793,4,1,0,100,0,0
92611,-133.333333333333,4,1,0,100,0,0
110182,-200,4,1,0,100,0,0
110897,-74.0740740740741,4,1,0,100,0,0
112040,-66.6666666666667,4,1,0,100,0,0
129182,-86.9565217391304,4,1,0,100,0,0
129182,-100,4,1,0,100,0,0
133754,-80,4,1,0,100,0,0
136040,-68.9655172413793,4,1,0,100,0,0
140397,-133.333333333333,4,1,0,100,0,0
141611,-68.9655172413793,4,1,0,100,0,1
160040,-60.6060606060606,4,1,0,100,0,1
178325,-74.0740740740741,4,1,0,100,0,0
196611,-66.6666666666667,4,1,0,100,0,0
205754,-111.111111111111,4,1,0,100,0,0

[Colours]
Combo1 : 255,192,0
Combo2 : 0,202,0
Combo3 : 18,124,255
Combo4 : 242,24,57

[HitObjects]
84,72,40,5,0,0:0:0:0:
248,160,325,1,0,0:0:0:0:
188,216,468,2,0,P|188:264|212:296,1,76.4999976654053
432,292,897,2,0,L|452:348,2,38.2499988327027
352,228,1182,1,0,0:0:0:0:
292,296,1325,2,0,B|264:332|224:336|224:336,1,76.4999976654053
92,164,1754,1,0,0:0:0:0:
312,76,2040,1,0,0:0:0:0:
224,276,2325,5,0,0:0:0:0:
396,204,2611,1,0,0:0:0:0:
452,280,2754,2,0,B|428:328|428:328|388:372|388:372,1,76.4999976654053
120,236,3182,2,0,L|136:192,2,38.2499988327027
252,124,3468,1,0,0:0:0:0:
400,168,3754,2,0,P|400:108|420:60,1,76.4999976654053
300,64,4040,1,0,0:0:0:0:
176,104,4182,1,0,0:0:0:0:
132,212,4325,1,0,0:0:0:0:
224,308,4468,1,0,0:0:0:0:
344,320,4611,6,0,P|344:280|352:232,1,76.4999976654053
300,136,4897,1,0,0:0:0:0:
432,104,5040,2,0,P|444:148|444:184,1,76.4999976654053
256,316,5468,1,0,0:0:0:0:
100,212,5754,1,0,0:0:0:0:
196,132,5897,2,0,P|220:96|216:40,1,76.4999976654053
416,116,6326,1,0,0:0:0:0:
312,284,6611,1,0,0:0:0:0:
428,208,6897,6,0,L|432:296,1,76.4999976654053
304,296,7182,2,0,L|248:248,2,38.2499988327027
256,192,7468,1,0,0:0:0:0:
120,72,7754,1,0,0:0:0:0:
136,320,8040,2,0,P|108:280|108:228,1,76.4999976654053
240,236,8325,1,0,0:0:0:0:
324,88,8611,1,0,0:0:0:0:
164,136,8754,1,0,0:0:0:0:
148,304,8897,1,0,0:0:0:0:
292,348,9040,1,0,0:0:0:0:
368,208,9182,5,0,0:0:0:0:
140,148,9468,1,0,0:0:0:0:
104,292,9611,1,0,0:0:0:0:
256,284,9754,1,0,0:0:0:0:
448,208,10040,1,0,0:0:0:0:
224,144,10325,2,0,L|128:176,2,93.5000028533936
360,80,10897,1,0,0:0:0:0:
136,156,11182,1,0,0:0:0:0:
228,348,11468,1,0,0:0:0:0:
316,232,11754,6,0,P|288:190|236:172,1,93.5000028533936
164,220,12040,2,0,P|192:261|244:280,1,93.5000028533936
368,280,12325,1,0,0:0:0:0:
308,92,12611,1,0,0:0:0:0:
116,168,12897,1,0,0:0:0:0:
340,248,13182,1,0,0:0:0:0:
192,324,13325,1,0,0:0:0:0:
80,232,13468,1,0,0:0:0:0:
136,108,13611,1,0,0:0:0:0:
280,100,13754,1,0,0:0:0:0:
200,168,14040,5,0,0:0:0:0:
200,324,14182,1,0,0:0:0:0:
352,268,14325,1,0,0:0:0:0:
380,48,14611,1,0,0:0:0:0:
352,184,14897,1,0,0:0:0:0:
200,168,15040,1,0,0:0:0:0:
200,308,15182,1,0,0:0:0:0:
200,168,15468,1,0,0:0:0:0:
352,184,15754,1,0,0:0:0:0:
200,308,16040,5,0,0:0:0:0:
344,320,16325,2,0,P|388:256|372:212,1,93.5000028533936
244,160,16611,1,0,0:0:0:0:
56,264,16897,2,0,P|84:312|128:344,1,93.5000028533936
252,312,17182,1,0,0:0:0:0:
120,120,17468,2,0,P|120:172|148:220,1,93.5000028533936
352,312,17754,5,8,0:0:0:0:
368,272,17825,1,0,0:0:0:0:
376,232,17896,1,0,0:0:0:0:
376,192,17968,1,0,0:0:0:0:
347,162,18039,1,0,0:0:0:0:
303,148,18111,1,0,0:0:0:0:
258,159,18182,1,0,0:0:0:0:
226,192,18254,1,0,0:0:0:0:
188,240,18325,2,0,P|140:236|96:180,1,114.750000437737
104,64,18611,5,0,0:0:0:0:
232,140,18754,1,0,0:0:0:0:
404,112,18897,2,0,P|368:160|328:236,1,114.750000437737
368,312,19182,1,0,0:0:0:0:
256,180,19325,1,0,0:0:0:0:
128,288,19468,1,0,0:0:0:0:
56,152,19611,1,0,0:0:0:0:
244,280,19754,2,0,P|284:228|280:168,1,114.750000437737
240,44,20040,2,0,P|180:84|148:132,1,114.750000437737
252,284,20325,1,0,0:0:0:0:
236,132,20468,1,0,0:0:0:0:
376,228,20611,5,0,0:0:0:0:
292,328,20754,1,0,0:0:0:0:
160,308,20897,1,0,0:0:0:0:
224,188,21040,1,0,0:0:0:0:
88,184,21182,2,0,P|92:116|140:72,1,114.750000437737
260,68,21468,1,0,0:0:0:0:
144,264,21754,6,0,P|88:184|88:132,1,114.750000437737
224,56,22040,2,0,P|268:128|264:176,1,114.750000437737
352,268,22325,1,0,0:0:0:0:
112,256,22468,1,0,0:0:0:0:
252,164,22611,1,0,0:0:0:0:
277,136,22682,1,0,0:0:0:0:
304,110,22753,1,0,0:0:0:0:
332,86,22825,1,0,0:0:0:0:
361,63,22896,1,0,0:0:0:0:
180,336,23040,5,0,0:0:0:0:
104,192,23182,1,0,0:0:0:0:
196,64,23325,1,0,0:0:0:0:
284,304,23468,2,0,P|324:240|340:148,1,114.750000437737
412,68,23754,2,0,P|440:124|440:180,1,114.750000437737
220,332,24040,1,0,0:0:0:0:
336,144,24182,1,0,0:0:0:0:
152,156,24325,2,0,P|100:116|144:68,1,114.750000437737
328,40,24611,2,0,P|288:88|292:144,1,114.750000437737
404,136,24897,5,0,0:0:0:0:
352,280,25040,1,0,0:0:0:0:
184,268,25182,1,0,0:0:0:0:
212,76,25325,1,0,0:0:0:0:
68,212,25468,1,0,0:0:0:0:
292,168,25611,1,0,0:0:0:0:
240,328,25754,1,0,0:0:0:0:
392,168,25897,1,0,0:0:0:0:
272,36,26040,1,0,0:0:0:0:
272,36,26111,1,0,0:0:0:0:
272,36,26182,1,0,0:0:0:0:
392,56,26325,5,0,0:0:0:0:
356,73,26396,1,0,0:0:0:0:
320,93,26467,1,0,0:0:0:0:
286,113,26539,1,0,0:0:0:0:
253,136,26610,1,0,0:0:0:0:
220,159,26682,1,0,0:0:0:0:
189,184,26753,1,0,0:0:0:0:
158,211,26825,1,0,0:0:0:0:
129,238,26896,1,0,0:0:0:0:
312,152,27182,1,0,0:0:0:0:
192,228,27325,1,0,0:0:0:0:
200,116,27468,1,0,0:0:0:0:
368,172,27754,5,0,0:0:0:0:
348,328,27897,1,0,0:0:0:0:
208,260,28040,1,0,0:0:0:0:
160,136,28754,5,0,0:0:0:0:
288,248,28897,1,0,0:0:0:0:
112,300,29040,1,0,0:0:0:0:
160,136,29183,1,0,0:0:0:0:
312,96,29897,5,0,0:0:0:0:
280,232,30040,1,0,0:0:0:0:
168,160,30182,1,0,0:0:0:0:
88,260,30325,1,0,0:0:0:0:
116,264,31040,5,0,0:0:0:0:
188,160,31182,1,0,0:0:0:0:
280,268,31325,1,0,0:0:0:0:
352,168,31468,1,0,0:0:0:0:
80,248,32182,5,0,0:0:0:0:
240,336,32325,1,0,0:0:0:0:
216,192,32468,1,0,0:0:0:0:
360,244,32611,1,0,0:0:0:0:
256,276,33325,5,0,0:0:0:0:
184,128,33468,1,0,0:0:0:0:
324,164,33611,1,0,0:0:0:0:
128,256,33754,1,0,0:0:0:0:
384,312,34468,5,0,0:0:0:0:
360,184,34611,1,0,0:0:0:0:
224,252,34754,1,0,0:0:0:0:
156,136,34897,1,0,0:0:0:0:
80,296,35897,5,0,0:0:0:0:
90,279,35968,1,0,0:0:0:0:
101,264,36039,1,0,0:0:0:0:
112,248,36111,1,0,0:0:0:0:
124,234,36182,1,0,0:0:0:0:
137,219,36254,1,0,0:0:0:0:
150,205,36325,1,0,0:0:0:0:
163,192,36397,1,0,0:0:0:0:
177,178,36468,1,0,0:0:0:0:
192,166,36539,1,0,0:0:0:0:
207,154,36611,1,0,0:0:0:0:
328,228,36754,5,0,0:0:0:0:
328,228,36825,1,0,0:0:0:0:
328,228,36897,1,0,0:0:0:0:
128,288,37040,2,0,P|104:248|116:208,1,85
264,168,37325,1,0,0:0:0:0:
264,168,37397,1,0,0:0:0:0:
264,168,37468,1,0,0:0:0:0:
168,52,37611,2,0,P|132:80|88:76,1,85
80,256,37897,5,0,0:0:0:0:
80,256,37968,1,0,0:0:0:0:
80,256,38040,1,0,0:0:0:0:
364,240,38182,2,0,P|312:240|292:268,1,85
136,128,38468,1,0,0:0:0:0:
136,128,38540,1,0,0:0:0:0:
136,128,38611,1,0,0:0:0:0:
168,304,38754,1,0,0:0:0:0:
268,136,38897,5,0,0:0:0:0:
268,136,38968,1,0,0:0:0:0:
272,140,39040,1,0,0:0:0:0:
332,292,39182,2,0,L|368:260,2,42.5
80,208,39468,1,0,0:0:0:0:
80,208,39540,1,0,0:0:0:0:
80,208,39611,1,0,0:0:0:0:
272,132,39754,1,0,0:0:0:0:
204,320,39897,2,0,L|248:304,2,42.5
352,204,40182,6,0,P|392:160|416:148,1,85
372,44,40468,2,0,P|332:88|296:104,1,85
140,144,40754,1,0,0:0:0:0:
140,144,40825,1,0,0:0:0:0:
140,144,40897,1,0,0:0:0:0:
172,308,41040,2,0,P|212:284|256:268,1,85
356,272,41325,2,0,P|388:240|404:192,1,85
272,76,41611,1,0,0:0:0:0:
272,76,41682,1,0,0:0:0:0:
272,76,41754,1,0,0:0:0:0:
276,300,41897,6,0,P|324:272|320:240,1,85
240,196,42182,2,0,P|244:148|276:136,1,85
376,48,42468,1,0,0:0:0:0:
376,48,42540,1,0,0:0:0:0:
376,48,42611,1,0,0:0:0:0:
352,276,42754,2,0,L|384:248,2,42.5
176,236,43040,1,0,0:0:0:0:
176,236,43111,1,0,0:0:0:0:
176,236,43182,1,0,0:0:0:0:
412,56,43325,6,0,L|412:148,1,85
320,188,43611,2,0,L|252:124,1,85
56,108,43897,2,0,L|104:184,1,85
116,288,44182,2,0,L|212:264,1,85
316,44,44468,1,0,0:0:0:0:
428,168,44611,1,0,0:0:0:0:
419,196,44682,1,0,0:0:0:0:
403,220,44753,1,0,0:0:0:0:
380,239,44825,1,0,0:0:0:0:
352,250,44896,1,0,0:0:0:0:
323,253,44968,1,0,0:0:0:0:
293,247,45039,1,0,0:0:0:0:
268,233,45111,1,0,0:0:0:0:
260,312,45754,5,0,0:0:0:0:
128,200,45897,2,0,P|176:144|208:128,1,97.7500018644333
340,136,46182,1,0,0:0:0:0:
416,244,46325,1,0,0:0:0:0:
316,340,46468,1,8,0:0:0:0:
176,312,46611,2,0,P|148:252|148:196,1,97.7500018644333
184,80,46897,5,0,0:0:0:0:
344,56,47040,2,0,P|384:112|392:168,1,97.7500018644333
188,212,47325,1,0,0:0:0:0:
264,52,47468,2,0,P|224:68|192:128,1,97.7500018644333
336,260,47754,2,0,P|292:288|224:296,1,97.7500018644333
120,168,48040,5,0,0:0:0:0:
336,328,48182,2,0,P|316:272|316:228,1,97.7500018644333
384,40,48468,2,0,P|404:96|372:128,1,97.7500018644333
272,296,48897,2,0,P|228:264|208:180,1,97.7500018644333
120,92,49182,5,0,0:0:0:0:
328,84,49325,2,0,P|336:148|364:188,1,97.7500018644333
240,316,49611,2,0,P|212:256|168:236,1,97.7500018644333
360,300,50040,2,0,P|400:240|404:188,1,97.7500018644333
176,124,50325,5,0,0:0:0:0:
216,260,50468,2,0,P|264:232|288:176,1,106.25
224,72,50754,1,0,0:0:0:0:
92,232,50897,1,0,0:0:0:0:
368,176,51040,1,0,0:0:0:0:
200,280,51182,2,0,P|156:224|156:164,1,106.25
328,128,51468,2,0,P|336:184|276:332,1,212.5
304,72,51897,1,0,0:0:0:0:
112,156,52040,1,0,0:0:0:0:
216,272,52182,2,0,P|276:252|312:272,1,106.25
348,56,52468,1,0,0:0:0:0:
432,16,52611,5,0,0:0:0:0:
411,64,52682,1,0,0:0:0:0:
367,93,52753,1,0,0:0:0:0:
314,104,52825,1,0,0:0:0:0:
261,96,52896,1,0,0:0:0:0:
210,79,52968,1,0,0:0:0:0:
157,81,53039,1,0,0:0:0:0:
108,104,53111,1,0,0:0:0:0:
73,143,53182,1,0,0:0:0:0:
58,194,53254,5,0,0:0:0:0:
71,244,53325,1,0,0:0:0:0:
107,281,53396,1,0,0:0:0:0:
157,299,53468,1,0,0:0:0:0:
209,295,53539,1,0,0:0:0:0:
255,268,53611,1,0,0:0:0:0:
281,222,53682,1,0,0:0:0:0:
274,168,53754,1,0,0:0:0:0:
282,115,53825,1,0,0:0:0:0:
305,67,53897,5,0,0:0:0:0:
340,28,53968,1,0,0:0:0:0:
392,28,54039,1,0,0:0:0:0:
442,45,54111,1,0,0:0:0:0:
482,79,54182,1,0,0:0:0:0:
503,128,54254,1,0,0:0:0:0:
509,180,54325,1,0,0:0:0:0:
506,233,54397,1,0,0:0:0:0:
488,282,54468,1,0,0:0:0:0:
447,315,54539,1,0,0:0:0:0:
394,327,54611,1,0,0:0:0:0:
341,322,54682,1,0,0:0:0:0:
296,293,54753,1,0,0:0:0:0:
268,248,54824,1,0,0:0:0:0:
256,192,54897,12,0,55968,0:0:0:0:
328,148,56040,6,0,P|316:80|376:28,1,123.250003761292
160,164,56325,2,0,P|156:236|128:280,1,123.250003761292
328,276,56611,2,0,P|360:216|360:160,1,123.250003761292
96,208,56897,1,0,0:0:0:0:
184,96,57040,1,0,0:0:0:0:
336,280,57182,2,0,P|312:208|340:148,1,123.250003761292
68,296,57468,2,0,P|136:320|184:352,1,123.250003761292
88,180,57754,2,0,P|120:124|128:64,1,123.250003761292
140,228,58040,1,0,0:0:0:0:
296,144,58182,1,0,0:0:0:0:
369,305,58325,5,0,0:0:0:0:
176,264,58468,1,0,0:0:0:0:
142,78,58611,1,0,0:0:0:0:
328,128,58754,1,0,0:0:0:0:
112,220,58897,1,0,0:0:0:0:
352,252,59040,1,0,0:0:0:0:
256,68,59182,1,0,0:0:0:0:
204,300,59325,1,0,0:0:0:0:
392,92,59468,6,0,P|336:56|272:64,1,123.250003761292
168,148,59754,2,0,L|284:208,1,123.250003761292
148,336,60040,1,0,0:0:0:0:
172,168,60182,1,0,0:0:0:0:
396,228,60325,1,0,0:0:0:0:
363,254,60396,1,0,0:0:0:0:
330,280,60467,1,0,0:0:0:0:
212,292,60611,2,0,P|180:224|188:168,1,123.250003761292
112,48,60897,1,0,0:0:0:0:
288,120,61040,1,0,0:0:0:0:
424,224,61182,5,0,0:0:0:0:
196,268,61325,1,0,0:0:0:0:
364,328,61468,1,0,0:0:0:0:
319,119,61611,1,0,0:0:0:0:
136,256,61754,2,0,P|88:200|88:144,1,123.250003761292
372,84,62040,2,0,P|396:152|396:212,1,123.250003761292
280,156,62325,2,0,P|256:216|300:248,1,123.250003761292
120,252,62611,2,0,P|104:188|144:152,1,123.250003761292
268,264,62897,6,0,P|240:200|248:116,1,123.250003761292
360,192,63182,1,0,0:0:0:0:
171,253,63325,1,0,0:0:0:0:
288,92,63468,1,0,0:0:0:0:
320,312,63611,1,0,0:0:0:0:
160,132,63754,1,0,0:0:0:0:
388,208,63897,1,0,0:0:0:0:
388,36,64040,5,0,0:0:0:0:
344,36,64111,1,0,0:0:0:0:
302,41,64182,1,0,0:0:0:0:
260,53,64254,1,0,0:0:0:0:
220,70,64325,1,0,0:0:0:0:
183,92,64397,1,0,0:0:0:0:
149,118,64468,1,0,0:0:0:0:
119,149,64540,1,0,0:0:0:0:
94,184,64611,1,0,0:0:0:0:
84,340,64754,1,0,0:0:0:0:
296,280,64897,1,0,0:0:0:0:
276,112,65040,1,0,0:0:0:0:
408,104,65182,6,0,P|404:176|376:248,1,123.250003761292
152,296,65468,1,0,0:0:0:0:
212,92,65611,2,0,P|276:64|304:20,1,123.250003761292
376,184,65897,1,0,0:0:0:0:
184,316,66040,1,0,0:0:0:0:
152,140,66182,2,0,P|212:80|272:52,1,123.250003761292
324,272,66468,6,0,P|264:308|200:316,1,123.250003761292
60,200,66754,1,0,0:0:0:0:
264,152,66897,1,0,0:0:0:0:
168,296,67040,1,0,0:0:0:0:
144,152,67182,2,0,P|176:92|224:56,1,123.250003761292
288,184,67468,2,0,P|244:240|200:276,1,123.250003761292
164,200,67754,1,0,0:0:0:0:
196,340,67897,1,0,0:0:0:0:
328,312,68040,1,0,0:0:0:0:
284,172,68182,5,0,0:0:0:0:
68,204,68325,1,0,0:0:0:0:
164,72,68468,2,0,P|224:48|288:76,1,123.250003761292
336,188,68754,1,0,0:0:0:0:
336,188,68825,1,0,0:0:0:0:
336,188,68897,2,0,P|368:244|356:316,1,123.250003761292
224,96,69182,1,0,0:0:0:0:
352,192,69325,1,0,0:0:0:0:
192,308,69468,2,0,P|140:248|128:176,1,123.250003761292
388,160,69754,1,0,0:0:0:0:
342,316,69897,5,0,0:0:0:0:
169,341,70040,1,0,0:0:0:0:
108,191,70182,1,0,0:0:0:0:
169,42,70325,1,0,0:0:0:0:
329,63,70468,1,0,0:0:0:0:
352,232,70611,1,0,0:0:0:0:
120,116,70754,1,0,0:0:0:0:
208,304,70897,2,0,P|256:256|292:200,1,123.250003761292
376,92,71182,1,0,0:0:0:0:
136,212,71325,5,0,0:0:0:0:
364,168,71468,2,0,P|412:124|416:64,1,123.250003761292
224,60,71754,2,0,P|180:120|200:180,1,123.250003761292
144,268,72040,2,0,P|88:216|76:144,1,123.250003761292
304,316,72325,1,0,0:0:0:0:
348,164,72468,1,0,0:0:0:0:
132,136,72611,1,0,0:0:0:0:
196,336,72754,1,0,0:0:0:0:
316,224,72897,1,0,0:0:0:0:
96,112,73040,1,0,0:0:0:0:
164,32,73182,5,0,0:0:0:0:
207,30,73253,1,0,0:0:0:0:
250,29,73324,1,0,0:0:0:0:
293,28,73396,1,0,0:0:0:0:
336,27,73467,1,0,0:0:0:0:
379,30,73539,1,0,0:0:0:0:
421,38,73610,1,0,0:0:0:0:
461,54,73681,1,0,0:0:0:0:
477,90,73753,1,0,0:0:0:0:
479,134,73824,1,0,0:0:0:0:
479,177,73896,1,0,0:0:0:0:
477,220,73967,1,0,0:0:0:0:
475,263,74039,1,0,0:0:0:0:
192,256,74325,6,0,P|132:192|124:120,1,114.750000437737
388,200,74611,1,0,0:0:0:0:
272,76,74754,1,0,0:0:0:0:
64,200,74897,1,0,0:0:0:0:
268,304,75040,1,0,0:0:0:0:
360,160,75182,1,0,0:0:0:0:
160,72,75325,2,0,P|104:116|72:188,1,114.750000437737
228,296,75611,1,0,0:0:0:0:
388,144,75754,1,0,0:0:0:0:
200,60,75897,2,0,P|144:96|104:156,1,114.750000437737
240,328,76182,2,0,P|288:276|320:184,1,114.750000437737
88,216,76468,5,0,0:0:0:0:
260,88,76611,2,0,P|324:112|380:140,1,114.750000437737
376,288,76897,1,0,0:0:0:0:
168,344,77040,1,0,0:0:0:0:
120,160,77182,1,0,0:0:0:0:
272,312,77325,2,0,L|356:228,1,114.750000437737
120,160,77611,1,0,0:0:0:0:
328,48,77754,1,0,0:0:0:0:
408,224,77897,2,0,P|436:156|368:128,1,114.750000437737
192,104,78182,1,0,0:0:0:0:
152,300,78325,1,0,0:0:0:0:
368,328,78468,1,0,0:0:0:0:
232,180,78611,1,0,0:0:0:0:
367,153,78754,1,0,0:0:0:0:
364,256,78897,6,0,P|384:180|320:132,1,114.750000437737
164,288,79182,2,0,P|236:304|272:272,1,114.750000437737
96,144,79468,1,0,0:0:0:0:
316,96,79611,1,0,0:0:0:0:
292,316,79754,1,0,0:0:0:0:
184,140,79897,1,0,0:0:0:0:
128,304,80040,2,0,P|72:268|68:212,1,114.750000437737
68,52,80325,1,0,0:0:0:0:
220,76,80468,2,0,P|292:72|352:96,1,114.750000437737
344,252,80754,2,0,P|264:272|204:236,1,114.750000437737
124,76,81040,5,0,0:0:0:0:
328,88,81182,2,0,P|288:144|300:196,1,114.750000437737
148,276,81468,2,0,P|96:216|80:156,1,114.750000437737
392,288,81754,1,0,0:0:0:0:
232,344,81897,1,0,0:0:0:0:
100,204,82040,1,0,0:0:0:0:
240,128,82182,1,0,0:0:0:0:
416,36,82325,5,0,0:0:0:0:
395,89,82396,1,0,0:0:0:0:
357,131,82467,1,0,0:0:0:0:
308,162,82539,1,0,0:0:0:0:
256,185,82610,1,0,0:0:0:0:
203,207,82682,1,0,0:0:0:0:
151,232,82753,1,0,0:0:0:0:
104,264,82824,1,0,0:0:0:0:
68,308,82896,1,0,0:0:0:0:
252,328,83040,6,0,P|340:308|392:256,1,114.750000437737
180,84,83325,1,0,0:0:0:0:
400,76,83468,2,0,P|392:152|360:208,1,123.250003761292
124,288,83754,2,0,P|140:220|200:160,1,123.250003761292
352,112,84040,2,0,P|356:184|344:252,1,123.250003761292
216,88,84325,2,0,P|168:160|152:232,1,123.250003761292
208,336,84611,2,0,P|308:336|368:292,1,123.250003761292
96,208,84897,2,0,P|176:132|184:80,1,123.250003761292
196,332,85182,2,0,P|284:324|336:276,1,123.250003761292
420,180,85468,1,0,0:0:0:0:
424,72,85611,6,0,P|324:64|268:100,1,123.250003761292
64,168,85897,2,0,P|112:232|132:276,1,123.250003761292
128,104,86182,1,0,0:0:0:0:
368,144,86325,1,0,0:0:0:0:
264,336,86468,1,0,0:0:0:0:
112,256,86611,1,0,0:0:0:0:
328,304,86754,2,0,P|384:272|376:208,1,123.250003761292
156,72,87040,2,0,P|112:132|112:188,1,123.250003761292
432,48,87325,2,0,P|356:84|352:148,1,123.250003761292
312,296,87611,1,0,0:0:0:0:
112,156,87754,1,0,0:0:0:0:
112,156,87825,1,0,0:0:0:0:
112,156,87897,1,0,0:0:0:0:
344,76,88040,6,0,P|400:132|392:184,1,123.250003761292
248,272,88325,2,0,P|244:204|216:136,1,123.250003761292
96,296,88611,2,0,P|64:232|80:144,1,123.250003761292
296,328,88897,2,0,P|352:288|416:268,1,123.250003761292
352,124,89182,2,0,P|288:96|248:48,1,123.250003761292
120,160,89468,2,0,P|184:224|192:272,1,123.250003761292
348,284,89754,2,0,P|396:232|408:168,1,123.250003761292
204,108,90040,2,0,P|136:160|104:216,1,123.250003761292
115,190,90325,1,0,0:0:0:0:
168,324,90468,5,0,0:0:0:0:
264,208,90611,1,0,0:0:0:0:
176,68,90754,1,0,0:0:0:0:
372,68,90897,1,0,0:0:0:0:
264,208,91040,1,0,0:0:0:0:
372,328,91182,1,0,0:0:0:0:
168,324,91325,1,0,0:0:0:0:
440,228,91468,5,0,0:0:0:0:
410,188,91539,1,0,0:0:0:0:
374,154,91610,1,0,0:0:0:0:
332,129,91682,1,0,0:0:0:0:
286,113,91753,1,0,0:0:0:0:
237,109,91825,1,0,0:0:0:0:
189,119,91896,1,0,0:0:0:0:
145,142,91967,1,0,0:0:0:0:
108,174,92039,1,0,0:0:0:0:
78,213,92110,1,0,0:0:0:0:
54,257,92182,1,0,0:0:0:0:
208,288,92325,2,0,L|256:240,1,61.6250018806458
360,216,92468,2,0,L|296:168,1,61.6250018806458
256,192,107682,12,0,110040,0:0:0:0:
344,72,110182,6,0,B|284:88|316:132|264:164|280:228,1,170
128,80,110897,2,0,P|88:128|76:184,1,114.750000437737
328,276,111182,2,0,P|264:288|192:288,1,114.750000437737
408,132,111468,2,0,P|332:88|312:40,1,114.750000437737
180,84,111754,2,0,P|176:156|116:208,1,114.750000437737
372,276,112040,2,0,P|396:216|436:164,1,127.500004863739
112,228,112325,2,0,P|148:148|184:124,1,127.500004863739
272,260,112611,2,0,P|312:204|328:136,1,127.500004863739
88,92,112897,1,0,0:0:0:0:
276,92,113040,1,0,0:0:0:0:
140,232,113182,6,0,P|208:304|256:328,1,127.500004863739
364,268,113468,2,0,P|424:228|428:152,1,127.500004863739
316,80,113754,2,0,P|248:124|224:176,1,127.500004863739
96,288,114040,2,0,P|112:216|100:136,1,127.500004863739
252,288,114325,2,0,P|324:316|384:272,1,127.500004863739
292,128,114611,2,0,P|336:64|392:40,1,127.500004863739
328,300,114897,2,0,P|408:232|440:176,1,127.500004863739
152,268,115182,6,0,L|136:196,2,63.7500024318696
388,180,115468,2,0,P|336:96|280:72,1,127.500004863739
176,140,115754,2,0,P|220:212|272:252,1,127.500004863739
104,312,116040,2,0,P|88:244|120:196,1,127.500004863739
328,316,116325,2,0,P|380:264|420:212,1,127.500004863739
240,208,116611,2,0,P|304:144|364:108,1,127.500004863739
148,248,116897,2,0,P|240:292|272:340,1,127.500004863739
408,272,117182,2,0,P|464:208|472:152,1,127.500004863739
280,312,117468,6,0,P|232:240|232:184,1,127.500004863739
316,92,117754,2,0,P|392:124|400:176,1,127.500004863739
328,280,118040,2,0,P|252:272|196:308,1,127.500004863739
120,212,118325,2,0,P|204:160|248:104,1,127.500004863739
44,216,118611,2,0,P|88:284|116:348,1,127.500004863739
228,356,118897,5,0,0:0:0:0:
288,336,118968,1,0,0:0:0:0:
338,297,119039,1,0,0:0:0:0:
374,245,119111,1,0,0:0:0:0:
391,184,119182,1,0,0:0:0:0:
385,120,119254,1,0,0:0:0:0:
365,60,119325,1,0,0:0:0:0:
316,24,119397,1,0,0:0:0:0:
253,10,119468,1,0,0:0:0:0:
190,7,119539,1,0,0:0:0:0:
126,13,119611,1,0,0:0:0:0:
65,31,119682,1,0,0:0:0:0:
11,65,119754,1,0,0:0:0:0:
120,248,119897,1,0,0:0:0:0:
396,264,120040,6,0,P|416:184|420:116,1,127.500004863739
184,180,120325,2,0,P|220:112|260:56,1,127.500004863739
224,316,120611,2,0,P|316:312|352:280,1,127.500004863739
120,268,120897,2,0,P|96:208|88:136,1,127.500004863739
384,100,121182,2,0,P|356:164|356:220,1,127.500004863739
240,248,121468,2,0,P|160:232|120:192,1,127.500004863739
360,304,121754,2,0,P|428:240|436:180,1,127.500004863739
184,92,122040,2,0,P|112:176|116:240,1,127.500004863739
360,280,122325,6,0,P|292:256|280:192,1,127.500004863739
392,96,122611,2,0,P|328:72|232:52,1,127.500004863739
152,96,122897,2,0,P|104:156|108:240,1,127.500004863739
192,296,123182,2,0,P|188:232|248:148,1,127.500004863739
312,292,123468,2,0,P|372:316|440:328,1,127.500004863739
436,104,123754,2,0,P|428:188|436:240,1,127.500004863739
288,152,124040,2,0,P|248:92|188:92,1,127.500004863739
80,172,124325,2,0,P|96:260|152:312,1,127.500004863739
280,336,124611,5,0,0:0:0:0:
302,304,124682,1,0,0:0:0:0:
324,273,124753,1,0,0:0:0:0:
347,243,124825,1,0,0:0:0:0:
370,212,124896,1,0,0:0:0:0:
393,182,124968,1,0,0:0:0:0:
415,151,125039,1,0,0:0:0:0:
368,104,125182,5,0,0:0:0:0:
331,91,125253,1,0,0:0:0:0:
295,78,125324,1,0,0:0:0:0:
259,65,125396,1,0,0:0:0:0:
223,53,125467,1,0,0:0:0:0:
187,40,125539,1,0,0:0:0:0:
150,28,125610,1,0,0:0:0:0:
84,56,125754,5,0,0:0:0:0:
98,90,125825,1,0,0:0:0:0:
111,126,125896,1,0,0:0:0:0:
125,162,125968,1,0,0:0:0:0:
139,198,126039,1,0,0:0:0:0:
152,233,126111,1,0,0:0:0:0:
166,269,126182,1,0,0:0:0:0:
216,324,126325,5,0,0:0:0:0:
245,299,126396,1,0,0:0:0:0:
276,275,126467,1,0,0:0:0:0:
306,251,126539,1,0,0:0:0:0:
336,228,126610,1,0,0:0:0:0:
365,204,126682,1,0,0:0:0:0:
395,180,126753,1,0,0:0:0:0:
376,120,126897,5,0,0:0:0:0:
338,128,126968,1,0,0:0:0:0:
301,137,127039,1,0,0:0:0:0:
265,147,127111,1,0,0:0:0:0:
227,156,127182,1,0,0:0:0:0:
190,165,127254,1,0,0:0:0:0:
153,174,127325,1,0,0:0:0:0:
176,248,127468,5,0,0:0:0:0:
213,242,127539,1,0,0:0:0:0:
256,232,127610,1,0,0:0:0:0:
296,216,127682,1,0,0:0:0:0:
335,198,127753,1,0,0:0:0:0:
369,179,127825,1,0,0:0:0:0:
401,160,127896,1,0,0:0:0:0:
416,40,128040,5,0,0:0:0:0:
369,67,128111,1,0,0:0:0:0:
323,97,128182,1,0,0:0:0:0:
279,128,128254,1,0,0:0:0:0:
236,160,128325,1,0,0:0:0:0:
194,195,128397,1,0,0:0:0:0:
153,231,128468,1,0,0:0:0:0:
114,268,128539,1,0,0:0:0:0:
76,307,128611,1,0,0:0:0:0:
136,152,128897,1,0,0:0:0:0:
296,228,129040,1,0,0:0:0:0:
80,336,129182,5,0,0:0:0:0:
100,160,129325,2,0,P|116:104|148:88,1,85
372,128,129610,1,0,0:0:0:0:
336,296,129753,1,0,0:0:0:0:
224,208,129897,1,8,0:0:0:0:
100,348,130039,6,0,P|80:308|72:268,1,85
168,152,130325,1,0,0:0:0:0:
356,248,130468,2,0,P|378:279|400:324,1,85
160,244,130753,1,0,0:0:0:0:
256,92,130897,2,0,P|313:99|356:168,1,97.7500018644333
392,272,131182,2,0,P|368:288|312:304,1,85
68,180,131468,5,0,0:0:0:0:
136,340,131611,2,0,P|177:313|204:272,1,85
224,88,131897,2,0,P|233:115|272:160,1,85
164,304,132325,2,0,P|136:283|112:236,1,85
120,92,132610,5,0,0:0:0:0:
328,84,132754,2,0,P|336:120|356:164,1,85
240,316,133039,2,0,P|216:260|168:236,1,85
360,300,133468,2,0,P|396:248|404:188,1,85
176,124,133753,5,0,0:0:0:0:
216,260,133896,1,0,0:0:0:0:
261,234,133967,1,0,0:0:0:0:
286,188,134040,1,0,0:0:0:0:
224,72,134182,1,0,0:0:0:0:
124,184,134325,1,0,0:0:0:0:
88,336,134468,1,0,0:0:0:0:
200,280,134610,5,0,0:0:0:0:
163,242,134681,1,0,0:0:0:0:
151,190,134754,1,0,0:0:0:0:
328,128,134896,2,0,P|336:184|276:332,1,212.5
304,72,135325,1,0,0:0:0:0:
112,156,135468,1,0,0:0:0:0:
216,272,135610,1,0,0:0:0:0:
263,251,135681,1,0,0:0:0:0:
310,270,135754,1,0,0:0:0:0:
348,56,135896,1,0,0:0:0:0:
456,48,136040,5,0,0:0:0:0:
447,74,136111,1,0,0:0:0:0:
435,99,136182,1,0,0:0:0:0:
421,123,136254,1,0,0:0:0:0:
405,146,136325,1,0,0:0:0:0:
387,167,136397,1,0,0:0:0:0:
368,186,136468,1,0,0:0:0:0:
346,204,136540,1,0,0:0:0:0:
323,219,136611,1,0,0:0:0:0:
298,231,136682,1,0,0:0:0:0:
272,240,136754,1,0,0:0:0:0:
245,245,136825,5,0,0:0:0:0:
217,246,136897,1,0,0:0:0:0:
190,242,136968,1,0,0:0:0:0:
163,233,137040,1,0,0:0:0:0:
139,220,137111,1,0,0:0:0:0:
117,203,137182,1,0,0:0:0:0:
98,183,137254,1,0,0:0:0:0:
82,161,137325,1,0,0:0:0:0:
68,136,137397,1,0,0:0:0:0:
58,111,137468,1,0,0:0:0:0:
52,84,137540,1,0,0:0:0:0:
60,60,137611,5,0,0:0:0:0:
84,48,137682,1,0,0:0:0:0:
116,40,137753,1,0,0:0:0:0:
143,40,137825,1,0,0:0:0:0:
176,44,137896,1,0,0:0:0:0:
203,48,137968,1,0,0:0:0:0:
230,55,138039,1,0,0:0:0:0:
257,63,138111,1,0,0:0:0:0:
282,74,138182,1,0,0:0:0:0:
306,88,138253,1,0,0:0:0:0:
332,112,138325,1,0,0:0:0:0:
351,133,138396,5,0,0:0:0:0:
365,156,138468,1,0,0:0:0:0:
373,183,138539,1,0,0:0:0:0:
373,210,138611,1,0,0:0:0:0:
366,237,138682,1,0,0:0:0:0:
353,262,138753,1,0,0:0:0:0:
336,283,138825,1,0,0:0:0:0:
321,308,138896,1,0,0:0:0:0:
300,336,138968,1,0,0:0:0:0:
282,356,139039,1,0,0:0:0:0:
258,372,139111,1,0,0:0:0:0:
230,376,139182,1,0,0:0:0:0:
198,364,139254,5,0,0:0:0:0:
172,336,139325,1,0,0:0:0:0:
156,308,139396,1,0,0:0:0:0:
148,280,139468,1,0,0:0:0:0:
148,256,139539,1,0,0:0:0:0:
149,228,139611,1,0,0:0:0:0:
158,202,139682,1,0,0:0:0:0:
172,177,139754,1,0,0:0:0:0:
188,155,139825,1,0,0:0:0:0:
206,134,139896,1,0,0:0:0:0:
227,115,139968,1,0,0:0:0:0:
248,98,140039,1,0,0:0:0:0:
271,82,140111,1,0,0:0:0:0:
294,67,140182,1,0,0:0:0:0:
318,54,140254,1,0,0:0:0:0:
343,41,140325,1,0,0:0:0:0:
376,32,140397,2,0,P|409:19|448:20,1,63.7500024318696
256,192,140611,12,0,141682,0:0:0:0:
212,120,141754,6,0,P|144:132|92:72,1,123.250003761292
228,288,142039,2,0,P|300:292|344:320,1,123.250003761292
340,120,142325,2,0,P|280:88|224:88,1,123.250003761292
336,328,142611,1,0,0:0:0:0:
160,264,142754,1,0,0:0:0:0:
344,112,142897,2,0,P|272:136|212:108,1,123.250003761292
392,292,143182,2,0,P|416:224|448:176,1,123.250003761292
216,256,143468,2,0,P|160:224|100:216,1,123.250003761292
324,128,143754,1,0,0:0:0:0:
132,88,143896,1,0,0:0:0:0:
388,104,144039,5,0,0:0:0:0:
356,292,144182,1,0,0:0:0:0:
176,280,144325,1,0,0:0:0:0:
244,104,144468,1,0,0:0:0:0:
408,220,144611,1,0,0:0:0:0:
316,68,144754,1,0,0:0:0:0:
336,284,144896,1,0,0:0:0:0:
188,184,145039,1,0,0:0:0:0:
156,56,145182,6,0,P|120:112|128:176,1,123.250003761292
212,280,145468,2,0,L|272:164,1,123.250003761292
384,352,145754,1,0,0:0:0:0:
416,236,145896,1,0,0:0:0:0:
380,124,146039,1,0,0:0:0:0:
208,148,146182,1,0,0:0:0:0:
356,236,146325,2,0,P|288:268|232:260,1,123.250003761292
136,320,146611,1,0,0:0:0:0:
276,128,146754,1,0,0:0:0:0:
140,64,146896,5,0,0:0:0:0:
264,248,147039,1,0,0:0:0:0:
368,84,147182,1,0,0:0:0:0:
264,176,147325,1,0,0:0:0:0:
340,268,147468,2,0,P|284:316|228:316,1,123.250003761292
148,76,147754,2,0,P|216:52|276:52,1,123.250003761292
220,168,148039,2,0,P|280:192|312:148,1,123.250003761292
168,228,148325,2,0,P|104:244|68:204,1,123.250003761292
432,244,148611,6,0,P|368:272|284:264,1,123.250003761292
256,88,148896,1,0,0:0:0:0:
317,277,149039,1,0,0:0:0:0:
156,160,149182,1,0,0:0:0:0:
376,128,149325,1,0,0:0:0:0:
196,288,149468,1,0,0:0:0:0:
284,52,149611,1,0,0:0:0:0:
120,76,149754,5,0,0:0:0:0:
133,136,149825,1,0,0:0:0:0:
157,193,149896,1,0,0:0:0:0:
193,243,149968,1,0,0:0:0:0:
238,285,150039,1,0,0:0:0:0:
291,317,150111,1,0,0:0:0:0:
349,338,150182,1,0,0:0:0:0:
410,347,150254,1,0,0:0:0:0:
471,346,150325,1,0,0:0:0:0:
360,264,150468,5,0,0:0:0:0:
344,152,150611,1,0,0:0:0:0:
176,172,150754,1,0,0:0:0:0:
168,40,150897,2,0,P|240:44|312:72,1,123.250003761292
360,296,151182,1,0,0:0:0:0:
156,236,151325,2,0,P|128:172|84:144,1,123.250003761292
248,72,151611,1,0,0:0:0:0:
372,212,151754,1,0,0:0:0:0:
204,296,151897,2,0,P|144:236|116:176,1,123.250003761292
336,124,152182,6,0,P|372:184|380:248,1,123.250003761292
156,344,152468,1,0,0:0:0:0:
216,184,152611,1,0,0:0:0:0:
400,280,152754,1,0,0:0:0:0:
216,304,152897,2,0,P|156:272|120:224,1,123.250003761292
272,92,153182,2,0,P|328:136|364:180,1,123.250003761292
224,296,153468,1,0,0:0:0:0:
376,304,153611,1,0,0:0:0:0:
428,172,153754,1,0,0:0:0:0:
304,160,153896,5,0,0:0:0:0:
256,332,154039,1,0,0:0:0:0:
100,292,154182,2,0,P|76:232|104:168,1,123.250003761292
252,112,154468,1,0,0:0:0:0:
252,112,154539,1,0,0:0:0:0:
252,112,154611,2,0,P|308:80|380:92,1,123.250003761292
160,224,154896,1,0,0:0:0:0:
324,92,155039,1,0,0:0:0:0:
372,256,155182,2,0,P|312:308|240:320,1,123.250003761292
156,136,155468,1,0,0:0:0:0:
380,106,155611,5,0,0:0:0:0:
405,279,155754,1,0,0:0:0:0:
260,224,155896,1,0,0:0:0:0:
106,279,156039,1,0,0:0:0:0:
104,136,156182,1,0,0:0:0:0:
240,72,156325,1,0,0:0:0:0:
400,76,156468,1,0,0:0:0:0:
368,240,156611,2,0,P|320:192|264:156,1,123.250003761292
156,72,156896,1,0,0:0:0:0:
364,276,157039,5,0,0:0:0:0:
232,84,157182,2,0,P|188:36|128:32,1,123.250003761292
124,224,157468,2,0,P|184:268|244:248,1,123.250003761292
332,304,157754,2,0,P|280:360|208:372,1,123.250003761292
392,120,158039,1,0,0:0:0:0:
208,112,158182,1,0,0:0:0:0:
224,272,158325,1,0,0:0:0:0:
400,252,158468,1,0,0:0:0:0:
288,132,158611,1,0,0:0:0:0:
148,248,158754,1,0,0:0:0:0:
50,331,158897,5,0,0:0:0:0:
90,330,158968,1,0,0:0:0:0:
131,327,159039,1,0,0:0:0:0:
171,321,159111,1,0,0:0:0:0:
211,313,159182,1,0,0:0:0:0:
250,302,159254,1,0,0:0:0:0:
288,288,159325,1,0,0:0:0:0:
325,271,159397,1,0,0:0:0:0:
360,250,159468,1,0,0:0:0:0:
392,225,159539,1,0,0:0:0:0:
420,196,159611,1,0,0:0:0:0:
443,162,159682,1,0,0:0:0:0:
458,124,159754,1,0,0:0:0:0:
172,100,159897,5,0,0:0:0:0:
108,284,160040,1,0,0:0:0:0:
336,212,160183,1,0,0:0:0:0:
344,344,160325,2,0,P|272:340|196:308,1,140.250001337528
148,140,160611,1,0,0:0:0:0:
356,148,160754,2,0,P|384:212|436:268,1,140.250001337528
240,264,161040,1,0,0:0:0:0:
140,136,161183,1,0,0:0:0:0:
308,88,161325,2,0,P|368:148|400:216,1,140.250001337528
92,260,161611,6,0,P|152:292|252:324,1,140.250001337528
384,332,161897,1,0,0:0:0:0:
320,212,162040,1,0,0:0:0:0:
144,160,162183,1,0,0:0:0:0:
296,80,162325,2,0,P|356:112|400:172,1,140.250001337528
264,224,162611,2,0,P|208:180|164:120,1,140.250001337528
315,54,162897,1,0,0:0:0:0:
88,84,163040,1,0,0:0:0:0:
124,264,163183,1,0,0:0:0:0:
272,300,163325,5,0,0:0:0:0:
208,140,163468,1,0,0:0:0:0:
376,100,163611,2,0,P|400:160|368:232,1,140.250001337528
260,272,163897,1,0,0:0:0:0:
260,272,163968,1,0,0:0:0:0:
260,272,164040,2,0,P|204:304|128:288,1,140.250001337528
352,160,164325,1,0,0:0:0:0:
256,288,164468,1,0,0:0:0:0:
140,128,164611,2,0,P|200:76|280:64,1,140.250001337528
288,324,164897,1,0,0:0:0:0:
132,278,165040,5,0,0:0:0:0:
107,105,165183,1,0,0:0:0:0:
257,44,165325,1,0,0:0:0:0:
406,105,165468,1,0,0:0:0:0:
368,284,165611,1,0,0:0:0:0:
172,272,165754,1,0,0:0:0:0:
264,136,165897,1,0,0:0:0:0:
56,136,166040,2,0,P|104:184|164:284,1,140.250001337528
356,312,166325,1,0,0:0:0:0:
160,176,166468,5,0,0:0:0:0:
276,284,166611,2,0,P|320:332|396:336,1,140.250001337528
424,208,166897,2,0,P|364:164|296:192,1,140.250001337528
104,140,167183,2,0,P|156:84|236:76,1,140.250001337528
132,240,167468,1,0,0:0:0:0:
284,284,167611,1,0,0:0:0:0:
256,100,167754,1,0,0:0:0:0:
184,240,167897,1,0,0:0:0:0:
364,176,168040,1,0,0:0:0:0:
473,34,168182,5,0,0:0:0:0:
430,35,168253,1,0,0:0:0:0:
389,38,168324,1,0,0:0:0:0:
347,44,168396,1,0,0:0:0:0:
306,52,168467,1,0,0:0:0:0:
265,63,168539,1,0,0:0:0:0:
226,78,168610,1,0,0:0:0:0:
188,96,168682,1,0,0:0:0:0:
151,117,168753,1,0,0:0:0:0:
118,143,168824,1,0,0:0:0:0:
89,173,168896,1,0,0:0:0:0:
64,207,168967,1,0,0:0:0:0:
46,245,169039,1,0,0:0:0:0:
36,286,169110,1,0,0:0:0:0:
61,315,169182,6,0,P|116:316|200:245,1,140.250001337528
360,88,169468,1,0,0:0:0:0:
300,292,169611,2,0,P|236:320|160:280,1,140.250001337528
136,200,169897,1,0,0:0:0:0:
356,108,170040,1,0,0:0:0:0:
360,244,170182,2,0,P|300:304|228:336,1,140.250001337528
188,112,170468,6,0,P|248:76|320:68,1,140.250001337528
408,292,170754,1,0,0:0:0:0:
248,232,170897,1,0,0:0:0:0:
408,96,171040,1,0,0:0:0:0:
368,232,171182,2,0,P|336:292|276:336,1,140.250001337528
156,176,171468,2,0,P|200:120|256:76,1,140.250001337528
356,276,171754,1,0,0:0:0:0:
368,108,171897,1,0,0:0:0:0:
176,60,172040,1,0,0:0:0:0:
200,240,172182,5,0,0:0:0:0:
412,160,172325,1,0,0:0:0:0:
416,304,172468,2,0,P|356:328|280:292,1,140.250001337528
176,196,172754,1,0,0:0:0:0:
176,196,172825,1,0,0:0:0:0:
176,196,172897,2,0,P|144:140|160:60,1,140.250001337528
288,288,173182,1,0,0:0:0:0:
156,124,173325,1,0,0:0:0:0:
320,76,173468,2,0,P|372:136|388:224,1,140.250001337528
200,292,173754,1,0,0:0:0:0:
170,68,173897,5,0,0:0:0:0:
343,43,174040,1,0,0:0:0:0:
256,192,174182,1,0,0:0:0:0:
343,342,174325,1,0,0:0:0:0:
183,321,174468,1,0,0:0:0:0:
204,188,174611,1,0,0:0:0:0:
140,48,174754,1,0,0:0:0:0:
304,80,174897,2,0,P|256:128|216:200,1,140.250001337528
352,308,175182,1,0,0:0:0:0:
340,84,175325,5,0,0:0:0:0:
148,216,175468,2,0,P|100:260|92:340,1,140.250001337528
288,324,175754,2,0,P|332:264|308:200,1,140.250001337528
368,112,176040,2,0,P|424:168|436:240,1,140.250001337528
208,68,176325,1,0,0:0:0:0:
164,220,176468,1,0,0:0:0:0:
380,248,176611,1,0,0:0:0:0:
316,92,176754,1,0,0:0:0:0:
220,264,176897,1,0,0:0:0:0:
88,124,177040,1,0,0:0:0:0:
176,40,177182,5,0,0:0:0:0:
228,24,177253,1,0,0:0:0:0:
289,27,177324,1,0,0:0:0:0:
348,42,177396,1,0,0:0:0:0:
399,77,177467,1,0,0:0:0:0:
421,133,177539,1,0,0:0:0:0:
397,187,177610,1,0,0:0:0:0:
344,219,177681,1,0,0:0:0:0:
283,227,177753,1,0,0:0:0:0:
222,221,177824,1,0,0:0:0:0:
162,226,177896,1,0,0:0:0:0:
119,270,177967,1,0,0:0:0:0:
95,326,178039,1,0,0:0:0:0:
348,92,178325,6,0,P|396:96|440:152,1,114.750000437737
124,160,178611,1,0,0:0:0:0:
312,148,178754,1,0,0:0:0:0:
180,328,178897,2,0,P|216:280|212:208,1,114.750000437737
144,72,179182,1,0,0:0:0:0:
216,260,179325,1,0,0:0:0:0:
384,96,179468,1,0,0:0:0:0:
472,244,179611,1,0,0:0:0:0:
284,100,179754,2,0,P|244:152|248:212,1,114.750000437737
272,340,180040,2,0,P|332:300|364:252,1,114.750000437737
260,100,180325,1,0,0:0:0:0:
356,248,180468,1,8,0:0:0:0:
172,212,180611,5,0,0:0:0:0:
208,68,180754,1,0,0:0:0:0:
388,72,180897,1,0,0:0:0:0:
304,232,181040,1,0,0:0:0:0:
460,200,181182,2,0,P|456:268|408:312,1,114.750000437737
160,272,181468,1,0,0:0:0:0:
368,120,181754,6,0,P|424:200|424:252,1,114.750000437737
288,328,182040,2,0,P|244:256|248:208,1,114.750000437737
153,171,182325,1,0,0:0:0:0:
408,240,182468,1,0,0:0:0:0:
260,220,182611,1,0,0:0:0:0:
235,248,182682,1,0,0:0:0:0:
208,274,182753,1,0,0:0:0:0:
180,298,182825,1,0,0:0:0:0:
151,321,182896,1,0,0:0:0:0:
332,48,183040,5,0,0:0:0:0:
408,192,183182,1,0,0:0:0:0:
316,320,183325,1,0,0:0:0:0:
228,80,183468,2,0,P|188:144|172:236,1,114.750000437737
100,316,183754,2,0,P|72:260|72:204,1,114.750000437737
292,52,184040,1,0,0:0:0:0:
244,172,184182,1,0,0:0:0:0:
360,228,184325,2,0,P|412:268|368:316,1,114.750000437737
184,344,184611,2,0,P|224:296|220:240,1,114.750000437737
108,248,184897,5,0,0:0:0:0:
160,104,185040,1,0,0:0:0:0:
328,116,185182,1,0,0:0:0:0:
300,308,185325,1,0,0:0:0:0:
412,252,185468,1,0,0:0:0:0:
280,192,185611,1,0,0:0:0:0:
208,80,185754,1,0,0:0:0:0:
116,228,185897,1,0,0:0:0:0:
240,348,186040,1,0,0:0:0:0:
240,348,186111,1,0,0:0:0:0:
240,348,186182,1,0,0:0:0:0:
120,328,186325,5,0,0:0:0:0:
156,311,186396,1,0,0:0:0:0:
192,291,186467,1,0,0:0:0:0:
226,271,186539,1,0,0:0:0:0:
259,248,186610,1,0,0:0:0:0:
292,225,186682,1,0,0:0:0:0:
323,200,186753,1,0,0:0:0:0:
354,173,186825,1,0,0:0:0:0:
383,146,186896,1,0,0:0:0:0:
200,232,187182,1,0,0:0:0:0:
320,156,187325,1,0,0:0:0:0:
164,292,187468,2,0,P|116:288|72:232,1,114.750000437737
388,224,187754,5,0,0:0:0:0:
200,236,187897,1,0,0:0:0:0:
332,56,188040,2,0,P|296:104|300:176,1,114.750000437737
368,312,188325,1,0,0:0:0:0:
296,124,188468,1,0,0:0:0:0:
128,288,188611,1,0,0:0:0:0:
40,140,188754,1,0,0:0:0:0:
228,284,188897,2,0,P|268:232|264:172,1,114.750000437737
240,44,189183,2,0,P|180:84|148:132,1,114.750000437737
252,284,189468,1,0,0:0:0:0:
340,172,189754,5,0,0:0:0:0:
304,316,189897,1,0,0:0:0:0:
124,312,190040,1,0,0:0:0:0:
280,152,190183,1,0,0:0:0:0:
52,184,190325,2,0,P|56:116|104:72,1,114.750000437737
352,112,190611,1,0,0:0:0:0:
144,264,190897,6,0,P|88:184|88:132,1,114.750000437737
224,56,191183,2,0,P|268:128|264:176,1,114.750000437737
359,213,191468,1,0,0:0:0:0:
104,144,191611,1,0,0:0:0:0:
252,164,191754,1,0,0:0:0:0:
277,136,191825,1,0,0:0:0:0:
304,110,191896,1,0,0:0:0:0:
332,86,191968,1,0,0:0:0:0:
361,63,192039,1,0,0:0:0:0:
180,336,192183,5,0,0:0:0:0:
104,192,192325,1,0,0:0:0:0:
196,64,192468,1,0,0:0:0:0:
284,304,192611,2,0,P|324:240|340:148,1,114.750000437737
412,68,192897,2,0,P|440:124|440:180,1,114.750000437737
220,332,193183,1,0,0:0:0:0:
336,144,193325,1,0,0:0:0:0:
152,156,193468,2,0,P|100:116|144:68,1,114.750000437737
328,40,193754,2,0,P|288:88|292:144,1,114.750000437737
404,136,194040,5,0,0:0:0:0:
352,280,194183,1,0,0:0:0:0:
184,268,194325,1,0,0:0:0:0:
212,76,194468,1,0,0:0:0:0:
68,212,194611,1,0,0:0:0:0:
292,168,194754,1,0,0:0:0:0:
240,328,194897,1,0,0:0:0:0:
392,168,195040,1,0,0:0:0:0:
272,36,195183,1,0,0:0:0:0:
272,36,195254,1,0,0:0:0:0:
272,36,195325,1,0,0:0:0:0:
392,56,195468,5,0,0:0:0:0:
356,73,195539,1,0,0:0:0:0:
320,93,195610,1,0,0:0:0:0:
286,113,195682,1,0,0:0:0:0:
253,136,195753,1,0,0:0:0:0:
220,159,195825,1,0,0:0:0:0:
189,184,195896,1,0,0:0:0:0:
158,211,195968,1,0,0:0:0:0:
129,238,196039,1,0,0:0:0:0:
276,44,196325,1,0,0:0:0:0:
260,164,196468,1,0,0:0:0:0:
160,268,196611,2,0,L|60:356,1,127.500004863739
344,80,196897,5,0,0:0:0:0:
172,88,197040,1,0,0:0:0:0:
328,208,197182,2,0,L|212:300,1,127.500004863739
88,160,197468,2,0,P|152:108|208:96,1,127.500004863739
332,116,197754,2,0,P|384:168|408:224,1,127.500004863739
216,288,198040,1,0,0:0:0:0:
80,240,198182,1,0,0:0:0:0:
220,144,198325,1,0,0:0:0:0:
376,72,198468,1,0,0:0:0:0:
424,208,198611,2,0,P|396:280|356:328,1,127.500004863739
96,232,198897,6,0,P|152:160|224:140,1,127.500004863739
304,108,199182,2,0,P|256:40|200:32,1,127.500004863739
108,224,199468,1,0,0:0:0:0:
324,272,199611,1,0,0:0:0:0:
336,104,199754,1,0,0:0:0:0:
104,276,199897,2,0,P|56:216|56:132,1,127.500004863739
184,40,200182,1,0,0:0:0:0:
236,168,200325,1,0,0:0:0:0:
360,292,200468,2,0,P|416:216|424:128,1,127.500004863739
352,36,200754,1,0,0:0:0:0:
240,168,200897,1,0,0:0:0:0:
160,280,201182,6,0,P|144:216|136:120,1,127.500004863739
288,96,201468,2,0,P|352:148|416:168,1,127.500004863739
376,308,201754,1,0,0:0:0:0:
112,304,201897,1,0,0:0:0:0:
200,64,202040,1,0,0:0:0:0:
400,184,202182,1,0,0:0:0:0:
280,288,202325,2,0,P|152:260|144:252,1,127.500004863739
132,108,202611,2,0,P|76:184|12:224,1,127.500004863739
208,328,202897,1,0,0:0:0:0:
344,148,203040,1,0,0:0:0:0:
144,80,203182,1,0,0:0:0:0:
208,300,203325,1,0,0:0:0:0:
256,192,203468,12,0,205040,0:0:0:0:
352,144,205182,5,0,0:0:0:0:
116,268,205468,1,0,0:0:0:0:
112,52,205754,2,0,B|288:48|124:276|336:344|380:372|464:188,1,535.499983657837
