osu file format v14

[General]
AudioFilename: audio.mp3
AudioLeadIn: 0
PreviewTime: 141111
Countdown: 0
SampleSet: Normal
StackLeniency: 0.3
Mode: 0
LetterboxInBreaks: 0
WidescreenStoryboard: 1

[Editor]
DistanceSpacing: 1.2
BeatDivisor: 4
GridSize: 4
TimelineZoom: 3.099999

[Metadata]
Title:Elder Dragon Legend
TitleUnicode:Elder Dragon Legend
Artist:t+pazolite with Kabocha
ArtistUnicode:t+pazolite with かぼけゃ
Creator:DJMUKISOKU
Version:Insane
Source:
Tags:t+pazolite dragon kabocha
BeatmapID:1088735
BeatmapSetID:482798

[Difficulty]
HPDrainRate:4
CircleSize:4
OverallDifficulty:6
ApproachRate:8
SliderMultiplier:1.4
SliderTickRate:1

[Events]
//Background and Video events
0,0,"insane.png",0,0
//Break Periods
2,27667,35711
//Storyboard Layer 0 (Background)
//Storyboard Layer 1 (Fail)
//Storyboard Layer 2 (Pass)
//Storyboard Layer 3 (Foreground)
//Storyboard Sound Samples

[TimingPoints]
40,285.714285714286,4,2,0,45,1,0
9182,-100,4,3,0,55,0,0
18325,-100,4,1,0,65,0,0
27468,-200,4,2,0,25,0,0
36611,-100,4,1,0,65,0,0
45754,-100,4,3,0,50,0,0
56040,-100,4,1,0,70,0,1
74325,-100,4,3,0,55,0,0
83468,-100,4,1,0,65,0,0
92611,-200,4,2,0,25,0,0
110897,-100,4,1,0,65,0,0
129182,-100,4,3,0,50,0,0
141754,-100,4,1,0,70,0,1
178325,-100,4,3,0,55,0,0
187468,-100,4,1,0,65,0,0
196611,-100,4,3,0,70,0,0
205754,-100,4,3,0,50,0,0

[Colours]
Combo1 : 128,64,64
Combo2 : 186,239,114
Combo3 : 116,237,119
Combo4 : 0,0,132
Combo5 : 3,37,129
Combo6 : 156,78,78

[HitObjects]
164,48,9182,6,0,L|228:80,1,70
344,160,9468,2,0,L|268:192,1,70
176,272,9754,2,0,L|264:292,1,70
364,312,10040,1,0,0:0:0:0:
440,64,10325,6,0,L|372:124,1,70
300,172,10611,2,0,L|208:132,1,70
148,96,10897,2,0,L|92:160,1,70
40,224,11182,1,0,0:0:0:0:
256,344,11468,6,0,L|320:288,1,70
388,216,11754,2,0,L|340:148,1,70
284,76,12040,2,0,L|224:120,1,70
136,208,12325,2,0,L|204:256,1,70
328,320,12611,2,0,P|400:252|360:152,1,210
264,104,13182,2,0,P|268:148|252:176,1,70
200,264,13468,2,0,P|152:260|128:240,1,70
64,176,13754,1,0,0:0:0:0:
152,60,14040,2,0,L|228:104,1,70
312,136,14325,2,0,L|408:104,1,70
488,80,14611,2,0,L|476:176,1,70
468,248,14897,1,0,0:0:0:0:
348,332,15182,2,0,L|264:300,1,70
192,280,15468,2,0,P|104:244|80:140,1,210
112,48,16040,1,0,0:0:0:0:
216,32,16182,2,0,P|276:80|308:148,1,140
336,248,16611,1,0,0:0:0:0:
440,196,16754,2,0,P|424:116|376:72,1,140
268,40,17182,2,0,P|208:44|180:56,2,70
444,40,17754,2,0,L|480:28,6,35
332,76,18325,2,0,P|284:104|264:136,1,70
216,200,18611,2,0,P|176:240|148:244,1,70
56,240,18897,2,0,P|68:204|100:176,1,70
188,188,19182,2,0,P|228:176|256:144,1,70
312,104,19468,1,0,0:0:0:0:
364,24,19611,1,0,0:0:0:0:
260,28,19754,1,0,0:0:0:0:
192,76,19897,2,0,P|156:104|128:144,1,70
160,216,20182,2,0,P|192:200|216:164,1,70
276,108,20468,2,0,P|308:100|356:108,1,70
440,144,20754,1,0,0:0:0:0:
472,236,20897,1,0,0:0:0:0:
428,324,21040,2,0,B|328:292|248:336|212:316,1,210
128,280,21611,2,0,P|128:240|160:208,1,70
200,148,21897,2,0,P|200:108|232:72,2,70
248,244,22325,1,0,0:0:0:0:
352,240,22468,1,0,0:0:0:0:
424,324,22611,2,0,P|448:296|464:248,1,70
464,172,22897,2,0,P|432:188|384:196,1,70
308,192,23182,1,0,0:0:0:0:
240,256,23325,1,0,0:0:0:0:
328,284,23468,1,0,0:0:0:0:
392,216,23611,2,0,B|432:252|432:308|392:344,1,140
288,360,24040,1,0,0:0:0:0:
192,324,24182,1,0,0:0:0:0:
96,352,24325,2,0,P|60:320|64:288,1,70
84,220,24611,2,0,P|80:172|52:132,1,70
28,64,24897,2,0,P|64:36|104:32,1,70
176,72,25182,2,0,P|216:76|256:60,1,70
344,28,25468,1,0,0:0:0:0:
332,124,25611,1,0,0:0:0:0:
436,64,25754,2,0,P|468:100|468:148,1,70
476,216,26040,2,0,P|448:240|404:240,1,70
312,224,26325,2,0,L|284:256,6,35
372,144,26897,1,0,0:0:0:0:
312,52,27040,1,0,0:0:0:0:
192,24,27182,2,0,B|152:40|192:112|108:140,1,140
240,124,36611,6,0,P|280:136|312:172,1,70
368,232,36897,1,0,0:0:0:0:
296,284,37040,2,0,P|284:292|264:296,2,35
368,232,37325,1,0,0:0:0:0:
420,156,37468,2,0,P|444:148|476:144,2,35
312,180,37754,1,0,0:0:0:0:
216,240,37897,2,0,P|220:268|240:288,2,35
216,148,38182,1,0,0:0:0:0:
260,68,38325,2,0,P|280:72|296:72,2,35
176,56,38611,2,0,P|152:40|128:36,2,35
368,232,38897,1,0,0:0:0:0:
368,232,39325,1,0,0:0:0:0:
420,156,39468,2,0,P|444:148|476:144,2,35
312,180,39754,1,0,0:0:0:0:
216,240,39897,2,0,P|220:268|240:288,2,35
216,148,40182,1,0,0:0:0:0:
260,68,40325,2,0,P|280:72|296:72,2,35
