osu file format v14

[General]
AudioFilename: audio.mp3
AudioLeadIn: 0
PreviewTime: 141111
Countdown: 0
SampleSet: Normal
StackLeniency: 0.7
Mode: 0
LetterboxInBreaks: 0
WidescreenStoryboard: 1

[Editor]
Bookmarks: 92611,110040,110325,124611,129182,141754,145754,150897,154325,160040,164040,169182,172611
DistanceSpacing: 1.2
BeatDivisor: 4
GridSize: 4
TimelineZoom: 4.100004

[Metadata]
Title:Elder Dragon Legend
TitleUnicode:Elder Dragon Legend
Artist:t+pazolite with Kabocha
ArtistUnicode:t+pazolite with かぼけゃ
Creator:DJMUKISOKU
Version:Fire Dragon
Source:
Tags:t+pazolite dragon kabocha
BeatmapID:1092516
BeatmapSetID:482798

[Difficulty]
HPDrainRate:7
CircleSize:4
OverallDifficulty:8
ApproachRate:9.6
SliderMultiplier:1.7
SliderTickRate:1

[Events]
//Background and Video events
0,0,"fire dragon.png",0,0
//Break Periods
2,92811,107245
//Storyboard Layer 0 (Background)
//Storyboard Layer 1 (Fail)
//Storyboard Layer 2 (Pass)
//Storyboard Layer 3 (Foreground)
//Storyboard Sound Samples

[TimingPoints]
40,285.714285714286,4,1,0,100,1,0
40,-111.111111111111,4,1,0,65,0,0
9182,-90.9090909090909,4,1,0,65,0,0
18325,-74.0740740740741,4,1,0,75,0,0
27468,-133.333333333333,4,1,0,50,0,0
36611,-100,4,1,0,75,0,0
45754,-86.9565217391304,4,1,0,80,0,0
50325,-80,4,1,0,90,0,0
56040,-68.9655172413793,4,1,0,100,0,1
74325,-74.0740740740741,4,1,0,75,0,0
83468,-68.9655172413793,4,1,0,75,0,0
92611,-133.333333333333,4,1,0,50,0,0
110325,-74.0740740740741,4,1,0,75,0,0
129182,-100,4,1,0,70,0,0
133754,-80,4,1,0,80,0,0
136040,-68.9655172413793,4,1,0,90,0,0
141611,-68.9655172413793,4,1,0,100,0,1
178325,-74.0740740740741,4,1,0,75,0,0
196611,-100,4,1,0,65,0,0
205754,-111.111111111111,4,1,0,50,0,0

[Colours]
Combo1 : 255,192,0
Combo2 : 0,202,0
Combo3 : 18,124,255
Combo4 : 242,24,57

[HitObjects]
56,156,40,6,0,B|80:180|120:196,1,76.4999976654053
200,228,325,1,0,0:0:0:0:
304,224,468,1,0,0:0:0:0:
432,212,611,2,0,P|416:252|380:280,1,76.4999976654053
248,312,897,2,0,B|276:272|276:224,1,76.4999976654053
296,144,1182,5,0,0:0:0:0:
344,72,1325,1,0,0:0:0:0:
292,8,1468,2,0,B|256:36|208:48,1,76.4999976654053
104,88,1754,2,0,B|80:120|88:164,1,76.4999976654053
120,264,2040,2,0,B|168:260|208:216,1,76.4999976654053
324,124,2325,6,0,B|292:96|244:112,1,76.4999976654053
156,144,2611,1,0,0:0:0:0:
116,228,2754,1,0,0:0:0:0:
32,288,2897,2,0,B|64:312|120:316,1,76.4999976654053
240,336,3182,2,0,B|276:304|272:244,1,76.4999976654053
268,120,3468,6,0,B|240:164|196:180,1,76.4999976654053
132,264,3754,2,0,B|172:284|224:276,1,76.4999976654053
332,272,4040,1,0,0:0:0:0:
416,208,4182,1,0,0:0:0:0:
444,112,4325,1,0,0:0:0:0:
404,28,4468,1,0,0:0:0:0:
300,8,4611,6,0,B|264:36|224:48,1,76.4999976654053
148,88,4897,1,0,0:0:0:0:
64,40,5040,1,0,0:0:0:0:
24,124,5182,2,0,B|52:160|112:168,1,76.4999976654053
228,200,5468,2,0,B|216:248|180:272,1,76.4999976654053
112,336,5754,5,0,0:0:0:0:
220,352,5897,1,0,0:0:0:0:
336,312,6040,2,0,B|304:276|320:224,1,76.4999976654053
336,72,6325,2,0,B|312:100|260:120,1,76.4999976654053
124,176,6611,2,0,B|144:216|200:240,1,76.4999976654053
328,276,6897,6,0,B|340:244|312:176,1,76.4999976654053
288,104,7182,1,0,0:0:0:0:
392,120,7325,1,0,0:0:0:0:
460,200,7468,2,0,B|440:240|384:248,1,76.4999976654053
296,272,7754,2,0,B|248:284|220:308,1,76.4999976654053
132,344,8040,6,0,B|80:328|60:288,1,76.4999976654053
69,302,8325,2,0,B|85:266|73:206,1,76.4999976654053
60,128,8611,1,0,0:0:0:0:
80,36,8754,1,0,0:0:0:0:
176,28,8897,1,0,0:0:0:0:
220,104,9040,1,0,0:0:0:0:
200,196,9182,6,4,B|228:224|288:240,1,93.5000028533936
376,280,9468,1,0,0:0:0:0:
472,224,9611,1,0,0:0:0:0:
444,344,9754,2,0,B|400:360|340:344,1,93.5000028533936
248,336,10040,2,0,B|184:324|140:340,1,93.5000028533936
48,340,10325,5,0,0:0:0:0:
112,240,10468,1,0,0:0:0:0:
60,136,10611,2,0,B|104:128|160:88,1,93.5000028533936
244,68,10897,2,0,B|232:112|248:160,1,93.5000028533936
344,180,11182,2,0,B|352:140|332:64,1,93.5000028533936
250,69,11468,6,4,P|238:105|244:164,1,93.5000028533936
256,248,11754,1,0,0:0:0:0:
308,336,11897,1,0,0:0:0:0:
412,376,12040,2,0,B|440:348|444:276,1,93.5000028533936
464,224,12325,2,0,B|448:180|464:120,1,93.5000028533936
484,48,12611,6,2,B|440:40|388:56,1,93.5000028533936
324,92,12897,2,0,P|336:132|320:184,1,93.5000028533936
284,272,13182,1,0,0:0:0:0:
200,320,13325,1,0,0:0:0:0:
196,216,13468,1,0,0:0:0:0:
284,272,13611,1,0,0:0:0:0:
200,320,13754,6,2,B|156:308|104:272,1,93.5000028533936
40,224,14040,1,0,0:0:0:0:
120,148,14182,1,0,0:0:0:0:
41,65,14325,2,0,B|34:115|55:163,1,93.5000028533936
96,264,14611,2,0,P|132:284|184:280,1,93.5000028533936
352,234,14897,5,2,0:0:0:0:
302,334,15040,1,0,0:0:0:0:
238,224,15182,2,0,P|230:172|262:124,1,93.5000028533936
346,50,15468,2,0,B|398:82|418:142,1,93.5000028533936
446,248,15754,2,0,B|394:268|366:296,1,93.5000028533936
301,343,16040,6,2,B|257:311|237:259,1,93.5000028533936
176,145,16325,1,0,0:0:0:0:
294,195,16468,1,0,0:0:0:0:
404,128,16611,2,2,P|444:160|468:200,1,93.5000028533936
464,360,16897,2,2,B|390:359|360:344,1,93.5000028533936
208,264,17182,6,2,B|268:264|308:232,1,93.5000028533936
460,168,17468,2,0,P|440:224|400:256,1,93.5000028533936
280,339,17754,5,0,0:0:0:0:
242,345,17825,1,0,0:0:0:0:
204,346,17897,1,0,0:0:0:0:
166,339,17968,1,0,0:0:0:0:
130,322,18040,1,0,0:0:0:0:
101,296,18111,1,0,0:0:0:0:
77,265,18182,1,0,0:0:0:0:
61,229,18254,1,0,0:0:0:0:
52,184,18325,6,0,B|80:136|136:96,1,114.750000437737
250,35,18611,1,0,0:0:0:0:
409,64,18754,1,0,0:0:0:0:
473,224,18897,2,0,B|435:277|364:290,1,114.750000437737
123,313,19182,2,0,P|179:277|199:215,1,114.750000437737
215,69,19468,5,0,0:0:0:0:
103,134,19611,1,0,0:0:0:0:
354,190,19754,2,0,B|285:215|257:251,1,114.750000437737
65,348,20040,6,0,B|116:315|145:248,1,114.750000437737
96,63,20325,2,0,B|41:108|35:186,1,114.750000437737
182,249,20611,6,0,P|212:293|278:324,1,114.750000437737
418,356,20897,1,0,0:0:0:0:
361,216,21040,1,0,0:0:0:0:
408,84,21182,2,0,P|347:106|303:137,1,114.750000437737
212,308,21468,2,0,B|278:299|330:264,1,114.750000437737
475,168,21754,6,0,B|427:124|371:112,1,114.750000437737
299,250,22040,2,0,P|231:258|163:234,1,114.750000437737
84,198,22325,1,0,0:0:0:0:
217,50,22468,1,0,0:0:0:0:
84,8,22611,1,0,0:0:0:0:
55,32,22682,1,0,0:0:0:0:
37,65,22754,1,0,0:0:0:0:
27,101,22825,1,0,0:0:0:0:
26,139,22897,1,0,0:0:0:0:
52,312,23040,5,0,0:0:0:0:
220,352,23182,1,0,0:0:0:0:
300,196,23325,1,0,0:0:0:0:
444,60,23468,2,0,B|411:133|368:152,1,114.750000437737
230,16,23754,2,0,B|203:68|216:147,1,114.750000437737
237,292,24040,5,0,0:0:0:0:
152,200,24182,1,0,0:0:0:0:
24,179,24325,2,0,P|41:247|92:287,1,114.750000437737
222,351,24611,1,0,0:0:0:0:
179,224,24754,1,0,0:0:0:0:
305,281,24897,2,0,P|357:269|409:205,1,114.750000437737
483,101,25182,6,0,P|425:58|354:58,1,114.750000437737
255,58,25468,1,0,0:0:0:0:
163,163,25611,1,0,0:0:0:0:
136,45,25754,2,0,B|108:109|96:169,1,114.750000437737
90,266,26040,2,0,B|150:284|206:270,1,114.750000437737
440,172,26325,5,0,0:0:0:0:
430,211,26397,1,0,0:0:0:0:
411,246,26468,1,0,0:0:0:0:
380,272,26540,1,0,0:0:0:0:
341,283,26611,1,0,0:0:0:0:
303,295,26682,1,0,0:0:0:0:
265,310,26754,1,0,0:0:0:0:
233,334,26825,1,0,0:0:0:0:
197,353,26897,1,0,0:0:0:0:
157,360,26968,1,0,0:0:0:0:
116,355,27040,1,0,0:0:0:0:
81,334,27111,1,0,0:0:0:0:
61,299,27182,1,0,0:0:0:0:
28,194,27325,1,0,0:0:0:0:
96,108,27468,5,0,0:0:0:0:
168,36,27611,1,0,0:0:0:0:
256,88,27754,1,0,0:0:0:0:
200,176,27897,1,0,0:0:0:0:
232,276,28040,1,0,0:0:0:0:
112,56,28754,5,0,0:0:0:0:
192,164,28897,1,0,0:0:0:0:
304,144,29040,1,0,0:0:0:0:
336,32,29182,1,0,0:0:0:0:
420,316,29897,5,0,0:0:0:0:
376,212,30040,1,0,0:0:0:0:
480,120,30182,1,0,0:0:0:0:
432,40,30325,1,0,0:0:0:0:
472,232,31040,5,0,0:0:0:0:
348,200,31182,1,0,0:0:0:0:
312,320,31325,1,0,0:0:0:0:
432,368,31468,1,0,0:0:0:0:
96,132,32182,5,0,0:0:0:0:
184,32,32325,1,0,0:0:0:0:
220,160,32468,1,0,0:0:0:0:
92,128,32611,1,0,0:0:0:0:
124,173,33325,5,0,0:0:0:0:
253,104,33468,1,0,0:0:0:0:
144,76,33611,1,0,0:0:0:0:
222,200,33754,1,0,0:0:0:0:
416,104,34468,5,0,0:0:0:0:
308,48,34611,1,0,0:0:0:0:
355,194,34754,1,0,0:0:0:0:
249,140,34897,1,0,0:0:0:0:
52,156,35611,5,0,0:0:0:0:
52,156,35754,1,0,0:0:0:0:
52,156,35897,2,0,P|33:215|44:237,1,63.7500024318696
67,257,36111,5,0,0:0:0:0:
105,283,36182,1,0,0:0:0:0:
149,300,36254,1,0,0:0:0:0:
194,310,36325,1,0,0:0:0:0:
241,316,36397,1,0,0:0:0:0:
287,314,36468,1,0,0:0:0:0:
333,302,36540,1,0,0:0:0:0:
381,283,36611,1,0,0:0:0:0:
472,208,36754,5,0,0:0:0:0:
484,104,36897,1,0,0:0:0:0:
472,88,36968,1,0,0:0:0:0:
456,72,37040,1,0,0:0:0:0:
352,8,37182,5,0,0:0:0:0:
332,136,37325,1,0,0:0:0:0:
208,88,37468,1,0,0:0:0:0:
212,108,37540,1,0,0:0:0:0:
208,128,37611,1,0,0:0:0:0:
152,228,37754,5,0,0:0:0:0:
284,216,37897,1,0,0:0:0:0:
248,328,38040,5,0,0:0:0:0:
268,332,38111,1,0,0:0:0:0:
288,332,38182,1,0,0:0:0:0:
424,312,38325,5,0,0:0:0:0:
344,228,38468,1,0,0:0:0:0:
456,196,38611,1,0,0:0:0:0:
436,192,38682,1,0,0:0:0:0:
420,180,38754,1,0,0:0:0:0:
360,72,38897,5,0,0:0:0:0:
300,172,39040,1,0,0:0:0:0:
224,76,39182,1,0,0:0:0:0:
244,80,39254,1,0,0:0:0:0:
260,92,39325,1,0,0:0:0:0:
320,184,39468,5,0,0:0:0:0:
416,232,39611,1,0,0:0:0:0:
468,320,39754,1,0,0:0:0:0:
448,328,39825,1,0,0:0:0:0:
428,328,39897,1,0,0:0:0:0:
320,304,40040,5,0,0:0:0:0:
224,328,40182,1,0,0:0:0:0:
108,276,40325,1,0,0:0:0:0:
124,260,40397,1,0,0:0:0:0:
144,252,40468,1,0,0:0:0:0:
244,224,40611,1,0,0:0:0:0:
352,204,40754,5,0,0:0:0:0:
368,192,40825,1,0,0:0:0:0:
448,108,40968,1,0,0:0:0:0:
456,128,41040,1,0,0:0:0:0:
476,244,41182,5,0,0:0:0:0:
400,324,41325,1,0,0:0:0:0:
272,296,41468,1,0,0:0:0:0:
252,300,41540,1,0,0:0:0:0:
232,308,41611,1,0,0:0:0:0:
136,336,41754,5,0,0:0:0:0:
40,272,41897,1,0,0:0:0:0:
28,148,42040,1,0,0:0:0:0:
48,148,42111,1,0,0:0:0:0:
68,156,42182,1,0,0:0:0:0:
168,208,42325,5,0,0:0:0:0:
156,96,42468,1,0,0:0:0:0:
264,24,42611,1,0,0:0:0:0:
268,44,42682,1,0,0:0:0:0:
284,60,42754,1,0,0:0:0:0:
420,120,42897,1,0,0:0:0:0:
384,232,43040,5,0,0:0:0:0:
364,240,43111,1,0,0:0:0:0:
272,312,43254,1,0,0:0:0:0:
252,308,43325,1,0,0:0:0:0:
140,264,43468,5,0,0:0:0:0:
120,172,43611,1,0,0:0:0:0:
168,72,43754,1,0,0:0:0:0:
180,88,43825,1,0,0:0:0:0:
200,100,43897,1,0,0:0:0:0:
288,164,44040,5,0,0:0:0:0:
404,132,44182,1,0,0:0:0:0:
436,248,44325,1,0,0:0:0:0:
416,260,44397,1,0,0:0:0:0:
396,264,44468,1,0,0:0:0:0:
244,260,44611,5,0,0:0:0:0:
210,254,44682,1,0,0:0:0:0:
178,242,44754,1,0,0:0:0:0:
150,222,44825,1,0,0:0:0:0:
126,198,44897,1,0,0:0:0:0:
110,166,44968,1,0,0:0:0:0:
102,130,45040,1,0,0:0:0:0:
106,94,45111,1,0,0:0:0:0:
122,62,45182,1,0,0:0:0:0:
471,76,45468,6,0,P|428:108|416:164,1,85
376,272,45754,6,0,B|356:164|268:96,1,195.500003728867
144,24,46182,1,0,0:0:0:0:
76,208,46325,2,0,B|60:152|72:96,1,97.7500018644333
212,172,46611,2,0,B|224:228|264:284,1,97.7500018644333
336,364,46897,5,0,0:0:0:0:
456,284,47040,1,0,0:0:0:0:
448,104,47182,1,0,0:0:0:0:
324,192,47325,1,0,0:0:0:0:
176,164,47468,2,0,B|120:184|92:232,1,97.7500018644333
160,356,47754,6,0,B|212:321|257:315,1,97.7500018644333
440,256,48040,2,0,B|500:160|392:64,1,195.500003728867
308,12,48468,1,0,0:0:0:0:
460,56,48611,2,0,B|396:96|332:104,1,97.7500018644333
240,128,48897,2,0,B|232:184|264:228,1,97.7500018644333
440,268,49182,6,0,B|418:314|365:343,1,97.7500018644333
216,344,49468,2,0,B|162:336|115:302,1,97.7500018644333
179,223,49754,2,0,B|220:186|227:115,1,97.7500018644333
249,29,50040,2,0,B|305:17|356:50,1,97.7500018644333
463,131,50325,5,0,0:0:0:0:
463,131,50468,1,0,0:0:0:0:
463,131,50611,1,0,0:0:0:0:
429,269,50754,5,0,0:0:0:0:
429,269,50897,1,0,0:0:0:0:
429,269,51040,1,0,0:0:0:0:
324,162,51182,5,0,0:0:0:0:
324,162,51325,1,0,0:0:0:0:
324,162,51468,1,0,0:0:0:0:
292,301,51611,5,0,0:0:0:0:
292,301,51754,1,0,0:0:0:0:
292,301,51897,1,0,0:0:0:0:
166,212,52040,5,0,0:0:0:0:
166,212,52182,1,0,0:0:0:0:
166,212,52325,1,0,0:0:0:0:
80,83,52611,5,0,0:0:0:0:
126,58,52682,1,0,0:0:0:0:
177,42,52754,1,0,0:0:0:0:
227,33,52825,1,0,0:0:0:0:
283,29,52897,1,0,0:0:0:0:
340,29,52968,1,0,0:0:0:0:
392,41,53040,1,0,0:0:0:0:
437,68,53111,1,0,0:0:0:0:
472,106,53182,1,0,0:0:0:0:
494,154,53254,1,0,0:0:0:0:
499,206,53325,1,0,0:0:0:0:
488,257,53397,1,0,0:0:0:0:
464,304,53468,1,0,0:0:0:0:
420,335,53540,1,0,0:0:0:0:
368,344,53611,1,0,0:0:0:0:
315,345,53682,5,0,0:0:0:0:
263,332,53754,1,0,0:0:0:0:
218,303,53825,1,0,0:0:0:0:
193,255,53897,1,0,0:0:0:0:
198,202,53968,1,0,0:0:0:0:
226,156,54040,1,0,0:0:0:0:
248,108,54111,1,0,0:0:0:0:
249,55,54182,1,0,0:0:0:0:
210,17,54254,1,0,0:0:0:0:
158,3,54325,1,0,0:0:0:0:
105,12,54397,1,0,0:0:0:0:
61,41,54468,1,0,0:0:0:0:
38,89,54540,1,0,0:0:0:0:
35,141,54611,1,0,0:0:0:0:
49,191,54682,1,0,0:0:0:0:
74,238,54754,1,0,0:0:0:0:
197,90,56040,5,0,0:0:0:0:
357,133,56182,1,0,0:0:0:0:
314,293,56325,1,0,0:0:0:0:
154,250,56468,1,0,0:0:0:0:
197,90,56611,1,0,0:0:0:0:
357,133,56754,1,0,0:0:0:0:
314,293,56897,1,0,0:0:0:0:
154,250,57040,1,0,0:0:0:0:
197,90,57182,6,0,B|183:167|145:226,1,123.250003761292
0,248,57468,2,0,B|4:176|56:96,1,123.250003761292
256,56,57754,6,0,B|242:137|284:204,1,123.250003761292
420,252,58040,2,0,B|408:172|376:120,1,123.250003761292
264,68,58325,6,0,P|268:124|296:196,1,123.250003761292
352,340,58611,5,0,0:0:0:0:
200,288,58754,1,0,0:0:0:0:
176,128,58897,2,0,P|124:172|92:240,1,123.250003761292
18,296,59182,2,0,B|63:327|155:328,1,123.250003761292
328,240,59468,2,0,B|368:188|376:112,1,123.250003761292
257,3,59754,6,0,B|189:67|169:123,1,123.250003761292
104,267,60040,1,0,0:0:0:0:
286,225,60182,1,0,0:0:0:0:
476,304,60325,2,0,B|404:336|344:344,1,123.250003761292
81,236,60611,2,0,P|136:266|199:279,1,123.250003761292
372,300,60897,5,0,0:0:0:0:
464,188,61040,1,0,0:0:0:0:
344,148,61182,2,0,B|304:204|228:232,1,123.250003761292
132,284,61468,1,0,0:0:0:0:
182,159,61611,1,0,0:0:0:0:
44,208,61754,6,0,B|108:236|188:224,1,123.250003761292
360,184,62040,2,0,B|304:152|228:152,1,123.250003761292
120,152,62325,1,0,0:0:0:0:
448,340,62611,1,0,0:0:0:0:
164,84,62897,6,0,B|224:56|292:44,1,123.250003761292
460,44,63182,1,0,0:0:0:0:
360,168,63325,1,0,0:0:0:0:
476,304,63468,2,0,B|424:264|348:264,1,123.250003761292
224,264,63754,5,0,0:0:0:0:
76,204,63897,2,0,B|48:264|52:324,1,123.250003761292
288,352,64182,5,0,0:0:0:0:
296,360,64254,1,0,0:0:0:0:
296,360,64325,1,0,0:0:0:0:
384,220,64468,1,0,0:0:0:0:
219,248,64611,1,0,0:0:0:0:
388,292,64754,1,0,0:0:0:0:
312,178,64897,1,0,0:0:0:0:
441,124,65040,1,0,0:0:0:0:
444,244,65182,6,0,B|392:192|384:116,1,123.250003761292
360,24,65468,1,0,0:0:0:0:
294,239,65611,1,0,0:0:0:0:
215,31,65754,1,0,0:0:0:0:
112,197,65897,1,0,0:0:0:0:
68,316,66040,6,0,B|128:340|217:331,1,123.250003761292
387,298,66325,1,0,0:0:0:0:
352,176,66468,1,0,0:0:0:0:
261,274,66611,2,0,B|257:194|173:158,1,123.250003761292
88,128,66897,2,0,B|144:88|216:80,1,123.250003761292
372,80,67182,1,0,0:0:0:0:
312,192,67325,1,0,0:0:0:0:
432,308,67468,2,0,B|380:332|304:312,1,123.250003761292
136,284,67754,6,0,B|200:252|276:240,1,123.250003761292
424,220,68040,1,0,0:0:0:0:
288,144,68182,1,0,0:0:0:0:
352,312,68325,1,0,0:0:0:0:
400,136,68468,1,0,0:0:0:0:
424,24,68611,2,0,B|368:28|288:56,1,123.250003761292
240,180,68897,2,0,B|172:206|120:164,1,123.250003761292
8,96,69182,5,0,0:0:0:0:
192,44,69325,1,0,0:0:0:0:
116,208,69468,2,0,B|184:224|240:260,1,123.250003761292
360,344,69754,2,0,B|412:296|444:244,1,123.250003761292
504,120,70040,5,0,0:0:0:0:
348,184,70182,1,0,0:0:0:0:
240,56,70325,2,0,B|172:64|124:120,1,123.250003761292
44,240,70611,1,0,0:0:0:0:
200,236,70754,1,0,0:0:0:0:
84,80,70897,2,0,L|188:164,1,123.250003761292
308,256,71182,2,0,B|228:300|164:288,1,123.250003761292
84,208,71468,2,0,B|128:160|236:148,1,123.250003761292
192,154,71754,2,0,B|264:144|320:104,1,123.250003761292
444,56,72040,5,0,0:0:0:0:
476,116,72111,1,0,0:0:0:0:
486,182,72182,1,0,0:0:0:0:
474,249,72254,1,0,0:0:0:0:
432,302,72325,1,0,0:0:0:0:
367,323,72397,1,0,0:0:0:0:
302,303,72468,1,0,0:0:0:0:
234,289,72540,1,0,0:0:0:0:
166,291,72611,1,0,0:0:0:0:
98,292,72682,1,0,0:0:0:0:
35,264,72754,1,0,0:0:0:0:
3,204,72825,1,0,0:0:0:0:
10,136,72897,1,0,0:0:0:0:
37,74,72968,1,0,0:0:0:0:
98,44,73040,1,0,0:0:0:0:
165,50,73111,1,0,0:0:0:0:
225,79,73182,1,0,0:0:0:0:
275,125,73254,1,0,0:0:0:0:
293,189,73325,1,0,0:0:0:0:
293,257,73397,1,0,0:0:0:0:
343,301,73468,5,0,0:0:0:0:
408,318,73540,1,0,0:0:0:0:
471,296,73611,1,0,0:0:0:0:
499,235,73682,1,0,0:0:0:0:
508,167,73754,1,0,0:0:0:0:
489,102,73825,1,0,0:0:0:0:
439,55,73897,1,0,0:0:0:0:
376,28,73968,1,0,0:0:0:0:
307,23,74040,1,0,0:0:0:0:
240,33,74111,1,0,0:0:0:0:
179,62,74182,1,0,0:0:0:0:
131,110,74254,1,0,0:0:0:0:
101,165,74325,1,0,0:0:0:0:
52,284,74468,5,2,0:0:0:0:
180,360,74611,1,0,0:0:0:0:
320,288,74754,1,0,0:0:0:0:
192,232,74897,2,0,P|144:200|112:152,1,114.750000437737
184,88,75182,2,0,P|240:120|280:168,1,114.750000437737
344,268,75468,5,0,0:0:0:0:
392,116,75611,1,0,0:0:0:0:
448,288,75754,2,0,P|392:320|340:316,1,114.750000437737
244,220,76040,2,0,P|200:264|124:280,1,114.750000437737
40,236,76325,2,0,P|72:188|136:144,1,114.750000437737
45,157,76611,6,0,P|101:189|189:181,1,114.750000437737
344,160,76897,1,0,0:0:0:0:
236,272,77040,1,0,0:0:0:0:
212,112,77182,2,0,P|240:152|344:204,1,114.750000437737
452,256,77468,2,0,P|396:300|328:324,1,114.750000437737
228,272,77754,2,0,P|168:288|108:344,2,114.750000437737
380,240,78182,1,0,0:0:0:0:
248,348,78325,2,0,P|184:324|144:280,1,114.750000437737
48,164,78611,5,0,0:0:0:0:
192,116,78754,1,0,0:0:0:0:
168,264,78897,1,0,0:0:0:0:
104,104,79040,1,0,0:0:0:0:
260,140,79182,1,0,0:0:0:0:
116,196,79325,1,0,0:0:0:0:
136,36,79468,2,0,B|192:36|260:68,1,114.750000437737
344,152,79754,2,0,P|304:172|232:176,1,114.750000437737
72,144,80040,5,0,0:0:0:0:
172,264,80182,1,0,0:0:0:0:
164,120,80325,2,0,B|156:180|104:224,1,114.750000437737
264,156,80611,2,0,B|220:216|220:264,1,114.750000437737
236,364,80897,1,0,0:0:0:0:
356,340,81040,1,0,0:0:0:0:
456,232,81182,6,0,B|444:176|410:127,1,114.750000437737
312,140,81468,2,0,B|304:204|340:247,1,114.750000437737
456,232,81754,6,0,B|444:176|410:127,1,114.750000437737
340,247,82040,2,0,B|304:204|312:140,1,114.750000437737
328,28,82325,5,0,0:0:0:0:
270,23,82397,1,0,0:0:0:0:
213,28,82468,1,0,0:0:0:0:
156,38,82540,1,0,0:0:0:0:
104,63,82611,1,0,0:0:0:0:
64,104,82682,1,0,0:0:0:0:
43,157,82754,1,0,0:0:0:0:
34,213,82825,1,0,0:0:0:0:
46,269,82897,1,0,0:0:0:0:
77,316,82968,1,0,0:0:0:0:
125,347,83040,1,0,0:0:0:0:
181,357,83111,1,0,0:0:0:0:
238,358,83182,1,0,0:0:0:0:
295,354,83254,1,0,0:0:0:0:
349,338,83325,1,0,0:0:0:0:
402,315,83397,1,0,0:0:0:0:
447,274,83468,1,0,0:0:0:0:
500,143,83611,5,0,0:0:0:0:
415,40,83754,1,0,0:0:0:0:
342,155,83897,1,0,0:0:0:0:
257,259,84040,2,0,B|186:270|134:231,1,123.250003761292
9,163,84325,1,0,0:0:0:0:
150,139,84468,1,0,0:0:0:0:
29,245,84611,5,0,0:0:0:0:
72,97,84754,1,0,0:0:0:0:
170,224,84897,2,0,B|244:234|302:263,1,123.250003761292
452,295,85182,2,0,B|393:250|379:194,1,123.250003761292
335,53,85468,1,0,0:0:0:0:
287,274,85611,1,0,0:0:0:0:
226,20,85754,5,0,0:0:0:0:
171,274,85897,1,0,0:0:0:0:
125,55,86040,1,0,0:0:0:0:
72,181,86182,1,0,0:0:0:0:
33,321,86325,2,0,B|101:306|164:313,1,123.250003761292
304,324,86611,2,0,B|379:306|408:238,1,123.250003761292
414,71,86897,6,0,B|454:128|454:197,1,123.250003761292
425,337,87182,1,0,0:0:0:0:
341,212,87325,1,0,0:0:0:0:
479,271,87468,1,0,0:0:0:0:
307,295,87611,1,0,0:0:0:0:
188,271,87754,5,0,0:0:0:0:
142,250,87826,1,0,0:0:0:0:
102,220,87897,1,0,0:0:0:0:
70,181,87969,1,0,0:0:0:0:
48,137,88040,1,0,0:0:0:0:
12,40,88182,5,0,0:0:0:0:
217,58,88325,1,0,0:0:0:0:
82,163,88468,1,0,0:0:0:0:
179,267,88611,2,0,B|240:283|313:260,1,123.250003761292
413,187,88897,2,0,B|346:162|292:167,1,123.250003761292
148,211,89182,5,0,0:0:0:0:
26,145,89325,1,0,0:0:0:0:
97,25,89468,2,0,B|141:81|211:108,1,123.250003761292
325,168,89754,2,0,B|254:191|225:240,1,123.250003761292
276,342,90040,2,0,B|349:330|378:258,1,123.250003761292
423,148,90325,5,0,0:0:0:0:
284,85,90468,1,0,0:0:0:0:
314,226,90611,1,0,0:0:0:0:
385,75,90754,1,0,0:0:0:0:
251,162,90897,2,0,B|173:155|113:112,1,123.250003761292
23,23,91182,2,0,B|73:25|173:31,1,123.250003761292
276,31,91468,5,0,0:0:0:0:
338,27,91540,1,0,0:0:0:0:
396,45,91611,1,0,0:0:0:0:
444,82,91682,1,0,0:0:0:0:
476,134,91754,1,0,0:0:0:0:
486,194,91825,1,0,0:0:0:0:
474,254,91897,1,0,0:0:0:0:
433,299,91968,1,0,0:0:0:0:
381,321,92040,1,0,0:0:0:0:
328,337,92111,1,0,0:0:0:0:
273,343,92182,1,0,0:0:0:0:
217,333,92254,1,0,0:0:0:0:
176,318,92325,1,0,0:0:0:0:
139,294,92397,1,0,0:0:0:0:
109,263,92468,1,0,0:0:0:0:
89,224,92540,1,0,0:0:0:0:
76,183,92611,1,0,0:0:0:0:
48,48,107754,6,0,B|205:102|205:102|248:200|336:52|336:52|432:60|504:152|460:252|460:252|328:172|208:304|208:304|144:236,1,988.125037693979
104,156,110111,2,0,L|160:149,9,31.8750012159348
308,136,110897,6,0,P|357:188|380:256,1,114.750000437737
428,352,111182,1,0,0:0:0:0:
264,288,111325,1,0,0:0:0:0:
144,112,111468,6,0,P|80:160|56:228,1,114.750000437737
40,324,111754,1,0,0:0:0:0:
200,304,111897,1,0,0:0:0:0:
224,164,112040,6,0,B|232:100|296:72,1,114.750000437737
440,32,112325,1,0,0:0:0:0:
440,152,112468,1,0,0:0:0:0:
420,320,112611,6,0,B|352:332|284:312,1,114.750000437737
160,280,112897,1,0,0:0:0:0:
60,180,113040,1,0,0:0:0:0:
32,24,113182,6,0,B|104:36|184:60,1,114.750000437737
316,92,113468,1,0,0:0:0:0:
96,328,113754,1,0,0:0:0:0:
60,44,114040,1,0,0:0:0:0:
308,312,114325,6,0,B|356:272|388:204,1,114.750000437737
336,64,114611,2,0,B|296:92|248:168,1,114.750000437737
308,312,114897,2,0,B|356:272|388:204,1,114.750000437737
488,36,115182,2,0,B|500:108|464:188,1,114.750000437737
412,332,115468,2,0,B|336:356|276:344,1,114.750000437737
156,324,115754,5,0,0:0:0:0:
32,52,116040,1,0,0:0:0:0:
412,120,116325,1,0,0:0:0:0:
44,304,116611,1,0,0:0:0:0:
248,28,116897,6,0,B|308:36|376:80,1,114.750000437737
464,216,117182,2,0,B|408:256|336:264,1,114.750000437737
188,296,117468,1,0,0:0:0:0:
340,360,117611,1,0,0:0:0:0:
408,216,117754,6,0,B|436:152|424:88,1,114.750000437737
268,24,118040,2,0,B|208:44|152:100,1,114.750000437737
292,244,118325,2,0,B|240:292|172:308,1,114.750000437737
24,228,118611,2,0,B|32:180|72:116,1,114.750000437737
192,32,118897,5,0,0:0:0:0:
236,20,118968,1,0,0:0:0:0:
284,24,119040,1,0,0:0:0:0:
324,44,119111,1,0,0:0:0:0:
356,80,119182,1,0,0:0:0:0:
368,124,119254,1,0,0:0:0:0:
388,164,119325,1,0,0:0:0:0:
416,200,119397,1,0,0:0:0:0:
452,228,119468,1,0,0:0:0:0:
480,264,119540,1,0,0:0:0:0:
476,308,119611,1,0,0:0:0:0:
448,344,119682,1,0,0:0:0:0:
404,360,119754,1,0,0:0:0:0:
360,364,119825,1,0,0:0:0:0:
316,356,119897,1,0,0:0:0:0:
272,340,119968,1,0,0:0:0:0:
232,320,120040,1,0,0:0:0:0:
116,264,120182,5,0,0:0:0:0:
36,140,120325,1,0,0:0:0:0:
184,124,120468,1,0,0:0:0:0:
56,216,120611,2,0,B|120:196|200:220,1,114.750000437737
316,300,120897,2,0,B|368:288|420:236,1,114.750000437737
432,64,121182,6,0,B|368:68|312:108,1,114.750000437737
136,252,121468,2,0,B|184:292|256:312,1,114.750000437737
408,292,121754,2,0,B|344:260|316:200,1,114.750000437737
368,28,122040,2,0,B|422:76|436:132,1,114.750000437737
408,256,122325,6,0,B|376:316|376:316|296:240|184:336|184:336|60:312|84:212,1,459.000001750946
80,112,123040,2,0,B|148:64|148:64|244:96|344:44|344:44|388:96|468:96|468:96|396:176|440:256,1,573.750002188683
472,356,123897,1,0,0:0:0:0:
316,296,124040,1,0,0:0:0:0:
240,176,124182,1,0,0:0:0:0:
64,220,124325,2,0,B|100:264|168:308,1,114.750000437737
280,336,124611,5,0,0:0:0:0:
335,321,124682,1,0,0:0:0:0:
385,292,124754,1,0,0:0:0:0:
425,251,124825,1,0,0:0:0:0:
451,199,124897,1,0,0:0:0:0:
460,142,124968,1,0,0:0:0:0:
447,85,125040,1,0,0:0:0:0:
412,39,125111,1,0,0:0:0:0:
357,20,125182,1,0,0:0:0:0:
299,14,125254,1,0,0:0:0:0:
242,19,125325,1,0,0:0:0:0:
189,43,125397,1,0,0:0:0:0:
148,82,125468,1,0,0:0:0:0:
140,139,125540,1,0,0:0:0:0:
159,192,125611,1,0,0:0:0:0:
200,231,125682,1,0,0:0:0:0:
255,246,125754,1,0,0:0:0:0:
311,242,125825,1,0,0:0:0:0:
367,230,125897,1,0,0:0:0:0:
423,232,125968,5,0,0:0:0:0:
459,276,126040,1,0,0:0:0:0:
453,332,126111,1,0,0:0:0:0:
409,369,126182,1,0,0:0:0:0:
352,380,126254,1,0,0:0:0:0:
295,370,126325,1,0,0:0:0:0:
250,333,126397,1,0,0:0:0:0:
241,276,126468,1,0,0:0:0:0:
266,224,126540,1,0,0:0:0:0:
311,189,126611,1,0,0:0:0:0:
345,143,126682,1,0,0:0:0:0:
349,85,126754,1,0,0:0:0:0:
319,36,126825,1,0,0:0:0:0:
261,27,126897,1,0,0:0:0:0:
205,39,126968,1,0,0:0:0:0:
159,74,127040,1,0,0:0:0:0:
127,121,127111,5,0,0:0:0:0:
123,177,127182,1,0,0:0:0:0:
144,230,127254,1,0,0:0:0:0:
167,282,127325,1,0,0:0:0:0:
156,338,127397,1,0,0:0:0:0:
156,338,127468,1,0,0:0:0:0:
156,338,127540,1,0,0:0:0:0:
110,304,127611,1,0,0:0:0:0:
90,250,127682,1,0,0:0:0:0:
95,192,127754,1,0,0:0:0:0:
125,143,127825,1,0,0:0:0:0:
168,105,127897,1,0,0:0:0:0:
224,94,127968,1,0,0:0:0:0:
281,99,128040,1,0,0:0:0:0:
333,122,128111,1,0,0:0:0:0:
379,154,128182,5,0,0:0:0:0:
379,154,128254,1,0,0:0:0:0:
379,154,128325,1,0,0:0:0:0:
376,96,128397,1,0,0:0:0:0:
344,48,128468,1,0,0:0:0:0:
290,26,128540,1,0,0:0:0:0:
233,20,128611,1,0,0:0:0:0:
176,25,128682,1,0,0:0:0:0:
125,53,128754,1,0,0:0:0:0:
84,93,128825,1,0,0:0:0:0:
60,145,128897,1,0,0:0:0:0:
70,201,128968,1,0,0:0:0:0:
103,248,129040,1,0,0:0:0:0:
146,284,129111,1,0,0:0:0:0:
187,291,129182,1,0,0:0:0:0:
456,236,129468,5,0,0:0:0:0:
356,112,129611,1,0,0:0:0:0:
280,260,129754,1,0,0:0:0:0:
200,84,130040,2,0,P|144:120|128:172,1,85
100,256,130325,1,0,0:0:0:0:
232,216,130468,1,0,0:0:0:0:
364,160,130611,6,0,B|408:196|404:252,1,85
316,348,130897,2,0,B|264:352|232:328,1,85
120,252,131182,1,0,0:0:0:0:
72,128,131325,1,0,0:0:0:0:
168,32,131468,6,0,B|192:80|236:96,1,85
360,160,131754,1,0,0:0:0:0:
216,196,131897,1,0,0:0:0:0:
360,280,132040,2,0,B|332:308|280:332,1,85
108,328,132325,2,0,B|140:296|176:256,1,85
296,152,132611,6,0,B|238:138|214:108,1,85
56,36,132897,2,0,B|24:76|40:128,1,85
68,272,133182,2,0,B|88:312|128:340,1,85
296,328,133468,2,0,B|260:280|272:238,1,85
284,136,133754,1,0,0:0:0:0:
408,64,134040,5,0,0:0:0:0:
452,176,134325,1,0,0:0:0:0:
328,136,134611,1,0,0:0:0:0:
208,48,134897,5,0,0:0:0:0:
180,216,135182,1,0,0:0:0:0:
52,104,135468,1,0,0:0:0:0:
356,168,135754,1,0,0:0:0:0:
456,328,136040,5,0,0:0:0:0:
403,345,136111,1,0,0:0:0:0:
348,349,136182,1,0,0:0:0:0:
292,342,136254,1,0,0:0:0:0:
238,327,136325,1,0,0:0:0:0:
192,294,136397,1,0,0:0:0:0:
155,252,136468,1,0,0:0:0:0:
130,201,136540,1,0,0:0:0:0:
119,146,136611,1,0,0:0:0:0:
122,91,136682,1,0,0:0:0:0:
148,41,136754,1,0,0:0:0:0:
199,21,136825,1,0,0:0:0:0:
254,24,136897,1,0,0:0:0:0:
304,46,136968,1,0,0:0:0:0:
331,94,137040,1,0,0:0:0:0:
336,148,137111,1,0,0:0:0:0:
295,193,137182,5,0,0:0:0:0:
234,208,137254,1,0,0:0:0:0:
173,195,137325,1,0,0:0:0:0:
110,198,137397,1,0,0:0:0:0:
60,234,137468,1,0,0:0:0:0:
57,296,137540,1,0,0:0:0:0:
102,337,137611,1,0,0:0:0:0:
162,349,137682,1,0,0:0:0:0:
223,343,137754,1,0,0:0:0:0:
276,313,137825,1,0,0:0:0:0:
337,304,137897,1,0,0:0:0:0:
398,304,137968,1,0,0:0:0:0:
452,273,138040,1,0,0:0:0:0:
477,217,138111,1,0,0:0:0:0:
467,156,138182,1,0,0:0:0:0:
415,121,138254,1,0,0:0:0:0:
350,100,138325,5,0,0:0:0:0:
282,113,138397,1,0,0:0:0:0:
223,146,138468,1,0,0:0:0:0:
167,186,138540,1,0,0:0:0:0:
100,173,138611,1,0,0:0:0:0:
60,118,138682,1,0,0:0:0:0:
67,50,138754,1,0,0:0:0:0:
123,12,138825,1,0,0:0:0:0:
190,20,138897,1,0,0:0:0:0:
243,60,138968,1,0,0:0:0:0:
294,104,139040,1,0,0:0:0:0:
360,114,139111,1,0,0:0:0:0:
425,129,139182,1,0,0:0:0:0:
473,176,139254,1,0,0:0:0:0:
471,243,139325,1,0,0:0:0:0:
428,296,139397,1,0,0:0:0:0:
355,308,139468,5,0,0:0:0:0:
284,284,139540,1,0,0:0:0:0:
228,236,139611,1,0,0:0:0:0:
169,191,139682,1,0,0:0:0:0:
94,184,139754,1,0,0:0:0:0:
29,148,139825,1,0,0:0:0:0:
18,74,139897,1,0,0:0:0:0:
73,26,139968,1,0,0:0:0:0:
146,15,140040,1,0,0:0:0:0:
217,31,140111,1,0,0:0:0:0:
274,77,140182,1,0,0:0:0:0:
301,146,140254,1,0,0:0:0:0:
358,191,140325,1,0,0:0:0:0:
431,201,140397,1,0,0:0:0:0:
487,154,140468,1,0,0:0:0:0:
511,83,140540,1,0,0:0:0:0:
84,48,141754,6,0,B|104:112|156:148,1,123.250003761292
316,276,142040,1,8,3:0:0:0:
456,76,142182,1,0,0:0:0:0:
204,68,142325,1,0,0:0:0:0:
432,248,142468,1,0,0:0:0:0:
320,24,142611,1,0,0:0:0:0:
192,208,142754,1,0,0:0:0:0:
424,68,142897,1,0,0:0:0:0:
136,40,143040,1,0,0:0:0:0:
284,252,143182,2,0,B|352:272|432:228,1,123.250003761292
504,84,143468,2,0,P|420:72|368:92,1,123.250003761292
156,136,143754,2,0,B|128:192|140:260,1,123.250003761292
292,336,144040,5,0,0:0:0:0:
368,108,144182,1,0,0:0:0:0:
472,280,144325,2,0,B|424:340|360:328,1,123.250003761292
160,280,144611,1,0,0:0:0:0:
320,160,144754,1,0,0:0:0:0:
104,56,144897,2,0,B|168:112|168:168,1,123.250003761292
148,344,145182,2,0,B|68:344|40:276,1,123.250003761292
4,144,145468,1,0,0:0:0:0:
220,208,145611,1,0,0:0:0:0:
136,24,145754,1,0,0:0:0:0:
56,224,145897,1,0,0:0:0:0:
204,336,146040,2,0,B|284:356|336:336,1,123.250003761292
480,216,146325,6,0,B|428:168|336:156,1,123.250003761292
140,112,146611,1,0,0:0:0:0:
256,304,146754,1,0,0:0:0:0:
292,48,146897,2,0,B|344:76|376:136,1,123.250003761292
448,308,147182,1,0,0:0:0:0:
240,224,147325,1,0,0:0:0:0:
448,128,147468,1,0,0:0:0:0:
316,328,147611,1,0,0:0:0:0:
132,304,147754,2,0,B|120:240|176:144,1,123.250003761292
240,36,148040,1,0,0:0:0:0:
448,96,148182,1,0,0:0:0:0:
392,304,148325,1,0,0:0:0:0:
188,248,148468,1,0,0:0:0:0:
220,36,148611,6,0,B|152:60|112:120,1,123.250003761292
56,296,148897,2,0,B|108:320|204:336,1,123.250003761292
364,352,149182,1,0,0:0:0:0:
488,172,149325,1,0,0:0:0:0:
316,20,149468,1,0,0:0:0:0:
112,80,149611,1,0,0:0:0:0:
40,240,149754,2,0,B|88:284|164:264,1,123.250003761292
320,204,150040,1,0,0:0:0:0:
276,332,150182,1,0,0:0:0:0:
200,136,150325,2,0,B|228:76|300:56,1,123.250003761292
436,20,150611,2,0,B|449:102|420:156,1,123.250003761292
320,312,150897,6,0,B|248:340|192:320,1,123.250003761292
40,196,151182,2,0,B|81:134|132:104,1,123.250003761292
276,48,151468,1,0,0:0:0:0:
476,112,151611,1,0,0:0:0:0:
292,192,151754,1,0,0:0:0:0:
408,32,151897,1,0,0:0:0:0:
424,220,152040,2,0,B|388:284|300:304,1,123.250003761292
80,244,152325,2,0,B|132:288|196:304,1,123.250003761292
448,252,152611,2,0,B|400:312|348:324,1,123.250003761292
108,336,152897,2,0,B|52:272|48:216,1,123.250003761292
40,36,153182,1,0,0:0:0:0:
192,160,153325,1,0,0:0:0:0:
332,44,153468,6,0,B|404:56|448:116,1,123.250003761292
472,264,153754,1,0,0:0:0:0:
328,344,153897,1,0,0:0:0:0:
204,176,154040,1,0,0:0:0:0:
104,340,154182,2,0,B|48:308|24:232,1,123.250003761292
76,48,154468,2,0,P|28:104|28:192,1,123.250003761292
40,304,154754,1,0,0:0:0:0:
168,212,154897,2,0,P|231:187|320:216,1,123.250003761292
440,256,155182,2,0,P|400:320|336:344,1,123.250003761292
156,328,155468,6,0,B|88:288|64:220,1,123.250003761292
16,112,155754,1,0,0:0:0:0:
176,152,155897,1,0,0:0:0:0:
300,32,156040,1,0,0:0:0:0:
440,144,156182,1,0,0:0:0:0:
332,292,156325,2,0,B|240:312|176:284,1,123.250003761292
24,248,156611,1,0,0:0:0:0:
140,136,156754,1,0,0:0:0:0:
152,328,156897,1,0,0:0:0:0:
44,144,157040,1,0,0:0:0:0:
204,240,157182,2,0,P|268:264|372:228,1,123.250003761292
468,216,157468,1,0,0:0:0:0:
348,120,157611,1,0,0:0:0:0:
128,120,157754,6,0,P|180:76|240:52,1,123.250003761292
404,20,158040,1,0,0:0:0:0:
316,180,158182,1,0,0:0:0:0:
452,112,158325,2,0,B|504:168|464:264,1,123.250003761292
432,360,158611,1,0,0:0:0:0:
316,232,158754,1,0,0:0:0:0:
200,108,158897,2,0,P|159:171|160:232,1,123.250003761292
196,352,159182,2,0,B|254:319|324:336,1,123.250003761292
464,360,159468,1,0,0:0:0:0:
280,192,159611,1,0,0:0:0:0:
456,96,159754,1,0,0:0:0:0:
448,256,159897,1,0,0:0:0:0:
304,80,160040,5,0,0:0:0:0:
476,180,160182,1,0,0:0:0:0:
304,264,160325,2,0,B|376:224|384:176,1,123.250003761292
384,20,160611,2,0,B|304:28|252:64,1,123.250003761292
84,180,160897,1,0,0:0:0:0:
56,24,161040,2,0,B|104:80|152:104,1,123.250003761292
292,200,161325,1,0,0:0:0:0:
448,36,161468,1,0,0:0:0:0:
232,28,161611,2,0,B|152:32|120:80,1,123.250003761292
12,228,161897,1,0,0:0:0:0:
200,128,162040,1,0,0:0:0:0:
112,320,162182,1,0,0:0:0:0:
264,212,162325,2,0,B|288:144|352:108,1,123.250003761292
480,20,162611,5,0,0:0:0:0:
500,176,162754,1,0,0:0:0:0:
452,312,162897,2,0,B|408:352|332:348,1,123.250003761292
168,340,163182,1,0,0:0:0:0:
228,184,163325,1,0,0:0:0:0:
416,220,163468,1,0,0:0:0:0:
480,48,163611,1,0,0:0:0:0:
312,20,163754,2,0,B|228:44|196:80,1,123.250003761292
96,188,164040,1,0,0:0:0:0:
32,332,164182,1,0,0:0:0:0:
212,376,164325,1,0,0:0:0:0:
280,240,164468,1,0,0:0:0:0:
384,80,164611,2,0,B|424:136|404:220,1,123.250003761292
232,136,164897,6,0,B|232:208|284:256,1,123.250003761292
380,352,165182,1,0,0:0:0:0:
180,328,165325,1,0,0:0:0:0:
296,192,165468,1,0,0:0:0:0:
456,248,165611,2,0,B|432:324|352:336,1,123.250003761292
184,328,165897,1,0,0:0:0:0:
64,220,166040,2,0,B|28:152|76:100,1,123.250003761292
264,24,166325,2,0,B|332:72|340:128,1,123.250003761292
372,320,166611,1,0,0:0:0:0:
216,252,166754,1,0,0:0:0:0:
80,332,166897,2,0,B|28:288|20:196,1,123.250003761292
48,100,167182,6,0,B|99:35|180:24,1,123.250003761292
336,24,167468,1,0,0:0:0:0:
216,160,167611,1,0,0:0:0:0:
412,136,167754,2,0,B|392:208|340:240,1,123.250003761292
216,320,168040,1,0,0:0:0:0:
68,228,168182,1,0,0:0:0:0:
116,76,168325,2,0,B|164:92|256:104,1,123.250003761292
416,116,168611,1,0,0:0:0:0:
308,224,168754,1,0,0:0:0:0:
344,28,168897,2,0,B|296:84|332:152,1,123.250003761292
400,284,169182,5,0,0:0:0:0:
216,128,169325,1,0,0:0:0:0:
288,316,169468,1,0,0:0:0:0:
116,148,169611,1,0,0:0:0:0:
168,312,169754,2,0,B|112:272|68:196,1,123.250003761292
12,104,170040,1,0,0:0:0:0:
192,148,170182,1,0,0:0:0:0:
120,24,170325,2,0,B|200:32|240:68,1,123.250003761292
312,232,170611,2,0,B|375:198|396:132,1,123.250003761292
440,24,170897,1,0,0:0:0:0:
492,208,171040,1,0,0:0:0:0:
408,336,171182,1,0,0:0:0:0:
232,316,171325,1,0,0:0:0:0:
92,216,171468,6,0,B|176:248|220:232,1,123.250003761292
416,208,171754,2,0,B|396:140|340:104,1,123.250003761292
188,24,172040,1,0,0:0:0:0:
252,168,172182,1,0,0:0:0:0:
76,116,172325,2,0,B|96:196|148:236,1,123.250003761292
256,304,172611,1,0,0:0:0:0:
396,256,172754,1,0,0:0:0:0:
472,136,172897,2,0,B|424:96|344:100,1,123.250003761292
204,108,173182,1,0,0:0:0:0:
352,216,173325,1,0,0:0:0:0:
152,212,173468,2,0,B|208:284|256:296,1,123.250003761292
400,352,173754,2,0,B|464:308|466:253,1,123.250003761292
408,60,174040,5,0,0:0:0:0:
452,192,174182,1,0,0:0:0:0:
328,80,174325,2,0,B|271:132|212:92,1,123.250003761292
68,16,174611,1,0,0:0:0:0:
52,180,174754,1,0,0:0:0:0:
132,316,174897,2,0,B|192:260|276:264,1,123.250003761292
448,232,175182,2,0,B|372:192|320:184,1,123.250003761292
32,180,175468,1,0,0:0:0:0:
444,32,175754,1,0,0:0:0:0:
84,336,176040,6,0,B|144:356|215:336,1,123.250003761292
400,264,176325,1,0,0:0:0:0:
316,120,176468,1,0,0:0:0:0:
176,200,176611,2,0,B|104:192|60:116,1,123.250003761292
8,16,176897,1,0,0:0:0:0:
184,36,177040,1,0,0:0:0:0:
268,144,177182,2,0,B|256:204|200:256,1,123.250003761292
92,356,177468,1,0,0:0:0:0:
60,196,177611,1,0,0:0:0:0:
224,256,177754,1,0,0:0:0:0:
32,304,177897,1,0,0:0:0:0:
108,144,178040,1,0,0:0:0:0:
176,328,178182,1,0,0:0:0:0:
40,216,178325,6,0,B|104:236|164:204,1,114.750000437737
288,164,178611,1,0,0:0:0:0:
208,32,178754,1,0,0:0:0:0:
44,96,178897,2,0,B|12:172|28:216,1,114.750000437737
96,336,179182,2,0,B|164:352|216:340,1,114.750000437737
408,328,179468,1,0,0:0:0:0:
288,232,179611,1,0,0:0:0:0:
460,136,179754,2,0,B|432:76|369:64,1,114.750000437737
184,32,180040,2,0,B|120:72|104:120,1,114.750000437737
84,280,180325,1,0,0:0:0:0:
208,340,180468,1,0,0:0:0:0:
208,196,180611,6,0,B|268:156|292:108,1,114.750000437737
408,24,180897,2,0,B|456:76|464:124,1,114.750000437737
456,324,181182,2,0,B|388:312|324:320,1,114.750000437737
216,280,181468,2,0,B|144:292|88:232,1,114.750000437737
12,140,181754,1,0,0:0:0:0:
112,0,181897,1,0,0:0:0:0:
228,104,182040,2,0,B|252:145|320:184,1,114.750000437737
464,256,182325,1,0,0:0:0:0:
376,360,182468,1,0,0:0:0:0:
272,272,182611,1,0,0:0:0:0:
364,176,182754,1,0,0:0:0:0:
464,256,182897,1,0,0:0:0:0:
376,360,183040,5,0,0:0:0:0:
272,272,183182,1,0,0:0:0:0:
228,136,183325,1,0,0:0:0:0:
104,44,183468,2,0,B|68:92|68:188,1,114.750000437737
96,328,183754,2,0,B|156:304|216:268,1,114.750000437737
304,216,184040,1,0,0:0:0:0:
372,92,184182,1,0,0:0:0:0:
200,68,184325,2,0,B|172:116|96:164,1,114.750000437737
8,260,184611,2,0,B|32:316|116:336,1,114.750000437737
252,348,184897,1,0,0:0:0:0:
412,280,185040,1,0,0:0:0:0:
424,124,185182,6,0,P|336:188|284:188,1,114.750000437737
168,148,185468,2,0,B|100:172|72:240,1,114.750000437737
60,348,185754,2,0,B|120:360|184:336,1,114.750000437737
272,264,186040,2,0,B|316:224|352:156,1,114.750000437737
464,88,186325,5,0,0:0:0:0:
476,144,186397,1,0,0:0:0:0:
480,200,186468,1,0,0:0:0:0:
460,256,186540,1,0,0:0:0:0:
424,300,186611,1,0,0:0:0:0:
372,324,186682,1,0,0:0:0:0:
316,344,186754,1,0,0:0:0:0:
260,348,186825,1,0,0:0:0:0:
204,340,186897,1,0,0:0:0:0:
152,316,186968,1,0,0:0:0:0:
104,280,187040,1,0,0:0:0:0:
76,232,187111,1,0,0:0:0:0:
64,176,187182,1,0,0:0:0:0:
68,120,187254,1,0,0:0:0:0:
92,68,187325,1,0,0:0:0:0:
136,32,187397,1,0,0:0:0:0:
192,16,187468,1,0,0:0:0:0:
332,8,187611,5,0,0:0:0:0:
268,136,187754,1,0,0:0:0:0:
416,116,187897,1,0,0:0:0:0:
368,276,188040,2,0,B|308:320|240:312,1,114.750000437737
124,304,188325,1,0,0:0:0:0:
36,176,188468,1,0,0:0:0:0:
96,28,188611,2,0,B|152:84|196:96,1,114.750000437737
332,144,188897,1,0,0:0:0:0:
464,212,189040,1,0,0:0:0:0:
480,344,189182,2,0,B|416:356|356:320,1,114.750000437737
240,260,189468,1,0,0:0:0:0:
340,124,189611,1,0,0:0:0:0:
168,100,189754,1,0,0:0:0:0:
320,232,189897,5,0,0:0:0:0:
260,64,190040,1,0,0:0:0:0:
144,200,190182,1,0,0:0:0:0:
224,332,190325,2,0,B|276:312|320:240,1,114.750000437737
252,164,190611,2,0,B|248:228|328:268,1,114.750000437737
380,170,190897,2,0,B|346:254|272:270,1,114.750000437737
389,337,191182,2,0,B|320:287|293:229,1,114.750000437737
224,120,191468,1,0,0:0:0:0:
84,184,191611,1,0,0:0:0:0:
160,300,191754,5,0,0:0:0:0:
216,316,191825,1,0,0:0:0:0:
272,324,191897,1,0,0:0:0:0:
328,312,191968,1,0,0:0:0:0:
380,288,192040,1,0,0:0:0:0:
464,216,192182,5,0,0:0:0:0:
472,80,192325,1,0,0:0:0:0:
372,144,192468,1,0,0:0:0:0:
312,24,192611,2,0,B|228:48|196:72,1,114.750000437737
76,148,192897,2,0,B|90:215|152:252,1,114.750000437737
272,320,193182,1,0,0:0:0:0:
264,184,193325,1,0,0:0:0:0:
352,64,193468,2,0,B|400:116|424:192,1,114.750000437737
464,304,193754,1,0,0:0:0:0:
324,268,193897,1,0,0:0:0:0:
220,336,194040,1,0,0:0:0:0:
124,272,194182,1,0,0:0:0:0:
148,152,194325,5,0,0:0:0:0:
68,56,194468,1,0,0:0:0:0:
12,176,194611,2,0,B|44:236|120:228,1,114.750000437737
248,136,194897,2,0,B|300:172|319:235,1,114.750000437737
240,276,195182,2,0,B|172:228|176:168,1,114.750000437737
188,32,195468,5,0,0:0:0:0:
132,48,195540,1,0,0:0:0:0:
84,80,195611,1,0,0:0:0:0:
60,132,195682,1,0,0:0:0:0:
52,188,195754,1,0,0:0:0:0:
72,244,195825,1,0,0:0:0:0:
104,292,195897,1,0,0:0:0:0:
152,324,195968,1,0,0:0:0:0:
208,336,196040,1,0,0:0:0:0:
264,336,196111,1,0,0:0:0:0:
316,312,196182,1,0,0:0:0:0:
336,260,196254,1,0,0:0:0:0:
312,208,196325,1,0,0:0:0:0:
272,168,196397,1,0,0:0:0:0:
236,124,196468,1,0,0:0:0:0:
240,68,196540,1,0,0:0:0:0:
364,32,196754,5,0,0:0:0:0:
392,44,196825,1,0,0:0:0:0:
416,64,196897,1,0,0:0:0:0:
480,176,197040,1,0,0:0:0:0:
456,296,197182,5,0,0:0:0:0:
432,312,197254,1,0,0:0:0:0:
404,324,197325,1,0,0:0:0:0:
280,352,197468,1,0,0:0:0:0:
340,264,197611,5,0,0:0:0:0:
352,236,197682,1,0,0:0:0:0:
352,208,197754,1,0,0:0:0:0:
332,104,197897,1,0,0:0:0:0:
192,40,198040,1,0,0:0:0:0:
224,184,198182,1,0,0:0:0:0:
164,316,198325,1,0,0:0:0:0:
64,184,198468,1,0,0:0:0:0:
152,84,198611,2,0,B|176:48|232:32,1,85
360,20,198897,5,0,0:0:0:0:
432,108,199040,1,0,0:0:0:0:
404,136,199111,1,0,0:0:0:0:
368,152,199182,1,0,0:0:0:0:
268,164,199325,5,0,0:0:0:0:
152,208,199468,1,0,0:0:0:0:
128,232,199540,1,0,0:0:0:0:
108,260,199611,1,0,0:0:0:0:
52,356,199754,5,0,0:0:0:0:
160,356,199897,1,0,0:0:0:0:
188,340,199968,1,0,0:0:0:0:
212,316,200040,1,0,0:0:0:0:
300,184,200182,5,0,0:0:0:0:
432,120,200325,1,0,0:0:0:0:
444,252,200468,1,0,0:0:0:0:
340,320,200611,6,0,B|284:312|236:280,1,85
260,188,200897,6,0,B|232:148|160:132,1,85
72,68,201182,5,0,0:0:0:0:
68,176,201325,1,0,0:0:0:0:
96,192,201397,1,0,0:0:0:0:
128,204,201468,1,0,0:0:0:0:
228,232,201611,5,0,0:0:0:0:
340,204,201754,1,0,0:0:0:0:
364,184,201825,1,0,0:0:0:0:
384,156,201897,1,0,0:0:0:0:
444,56,202040,5,0,0:0:0:0:
488,144,202182,1,0,0:0:0:0:
484,180,202254,1,0,0:0:0:0:
468,212,202325,1,0,0:0:0:0:
388,300,202468,5,0,0:0:0:0:
272,328,202611,1,0,0:0:0:0:
240,320,202682,1,0,0:0:0:0:
204,320,202754,1,0,0:0:0:0:
96,324,202897,5,0,0:0:0:0:
20,264,203040,1,0,0:0:0:0:
8,232,203111,1,0,0:0:0:0:
8,200,203182,1,0,0:0:0:0:
40,88,203325,5,0,0:0:0:0:
200,112,203468,2,0,B|276:132|276:132|284:-16|418:64|418:64|392:128,1,350
364,240,204325,5,0,0:0:0:0:
460,320,204468,1,0,0:0:0:0:
344,352,204611,1,0,0:0:0:0:
272,232,204754,5,0,0:0:0:0:
184,312,204897,1,0,0:0:0:0:
132,192,205040,1,0,0:0:0:0:
48,236,205182,6,0,B|56:296|88:316,1,85
196,344,205468,2,0,B|236:360|294:342,1,85
372,296,205754,6,0,B|448:248|448:248|396:160|424:64|424:64|304:84|224:16|224:16|176:60,1,535.499983657837
