osu file format v14

[General]
AudioFilename: audio.mp3
AudioLeadIn: 0
PreviewTime: 76814
Countdown: 0
SampleSet: Normal
StackLeniency: 0.7
Mode: 1
LetterboxInBreaks: 0
WidescreenStoryboard: 1

[Editor]
Bookmarks: 58,8706,17355,26003,34652,43301,51949,60598,69247,77895,94922,95193,112490,120868
DistanceSpacing: 0.8
BeatDivisor: 4
GridSize: 32
TimelineZoom: 2.1

[Metadata]
Title:IZANA
TitleUnicode:IZANA
Artist:t+pazolite vs. P*Light
ArtistUnicode:t+pazolite vs. P*Light
Creator:eiri-
Version:Oni
Source:Arcaea
Tags:Ayyri Realazy AyyLazy Instrumental Electronic Video Game lowiro Happy HARDCORE TANO*C TANOC tpz
BeatmapID:2294847
BeatmapSetID:1098381

[Difficulty]
HPDrainRate:5.5
CircleSize:2
OverallDifficulty:5.5
ApproachRate:10
SliderMultiplier:1.4
SliderTickRate:1

[Events]
//Background and Video events
0,0,"IZANA.jpg",0,5
//Break Periods
//Storyboard Layer 0 (Background)
//Storyboard Layer 1 (Fail)
//Storyboard Layer 2 (Pass)
//Storyboard Layer 3 (Foreground)
//Storyboard Layer 4 (Overlay)
//Storyboard Sound Samples

[TimingPoints]
58,270.27027027027,4,1,0,60,1,0
7591,-100,4,1,0,75,0,0
8672,-100,4,1,0,80,0,0
25970,-100,4,1,0,85,0,0
34618,-100,4,1,0,90,0,0
43267,-100,4,1,0,95,0,0
51916,-100,4,1,0,60,0,0
60564,-100,4,1,0,75,0,0
69213,-100,4,1,0,80,0,0
73537,-100,4,1,0,90,0,0
77895,-100,4,1,0,100,0,1
94922,-100,4,1,0,100,0,0
95193,-100,4,1,0,100,0,1
112490,-100,4,1,0,85,0,0
120835,-100,4,1,0,100,0,0

[HitObjects]
256,192,58,5,0,0:0:0:0:
256,192,868,1,8,0:0:0:0:
256,192,1139,1,8,0:0:0:0:
256,192,2220,1,0,0:0:0:0:
256,192,2760,1,8,0:0:0:0:
256,192,3166,1,0,0:0:0:0:
256,192,3301,1,8,0:0:0:0:
256,192,4382,1,0,0:0:0:0:
256,192,5193,1,8,0:0:0:0:
256,192,5463,1,0,0:0:0:0:
256,192,6003,1,0,0:0:0:0:
256,192,6409,1,0,0:0:0:0:
256,192,6544,1,8,0:0:0:0:
256,192,7625,1,0,0:0:0:0:
256,192,7760,1,8,0:0:0:0:
256,192,7895,1,0,0:0:0:0:
256,192,8030,1,8,0:0:0:0:
256,192,8166,1,0,0:0:0:0:
256,192,8233,1,8,0:0:0:0:
256,192,8301,1,0,0:0:0:0:
256,192,8436,1,12,0:0:0:0:
256,192,8706,1,4,0:0:0:0:
256,192,8841,1,8,0:0:0:0:
256,192,8976,1,0,0:0:0:0:
256,192,9044,1,0,0:0:0:0:
256,192,9112,1,0,0:0:0:0:
256,192,9247,1,12,0:0:0:0:
256,192,9382,1,0,0:0:0:0:
256,192,9517,1,12,0:0:0:0:
256,192,9787,1,4,0:0:0:0:
256,192,9922,1,8,0:0:0:0:
256,192,10057,1,0,0:0:0:0:
256,192,10125,1,0,0:0:0:0:
256,192,10193,1,0,0:0:0:0:
256,192,10328,1,8,0:0:0:0:
256,192,10463,1,0,0:0:0:0:
256,192,10598,1,12,0:0:0:0:
256,192,10868,1,4,0:0:0:0:
256,192,11003,1,4,0:0:0:0:
256,192,11139,1,8,0:0:0:0:
256,192,11274,1,4,0:0:0:0:
256,192,11409,1,4,0:0:0:0:
256,192,11544,1,8,0:0:0:0:
256,192,11679,1,8,0:0:0:0:
256,192,11814,1,0,0:0:0:0:
256,192,11949,1,8,0:0:0:0:
256,192,12152,1,8,0:0:0:0:
256,192,12220,1,8,0:0:0:0:
256,192,12355,1,8,0:0:0:0:
256,192,12625,1,0,0:0:0:0:
256,192,12760,1,8,0:0:0:0:
256,192,12895,1,0,0:0:0:0:
256,192,13030,1,12,0:0:0:0:
256,192,13233,1,8,0:0:0:0:
256,192,13301,1,0,0:0:0:0:
256,192,13436,1,8,0:0:0:0:
256,192,13571,1,4,0:0:0:0:
256,192,13706,1,8,0:0:0:0:
256,192,13841,1,4,0:0:0:0:
256,192,14112,1,12,0:0:0:0:
256,192,14247,1,0,0:0:0:0:
256,192,14382,1,8,0:0:0:0:
256,192,14449,1,8,0:0:0:0:
256,192,14517,1,8,0:0:0:0:
256,192,14652,1,0,0:0:0:0:
256,192,14787,1,0,0:0:0:0:
256,192,14922,1,12,0:0:0:0:
256,192,15193,1,4,0:0:0:0:
256,192,15328,1,4,0:0:0:0:
256,192,15463,1,8,0:0:0:0:
256,192,15598,1,0,0:0:0:0:
256,192,15733,1,8,0:0:0:0:
256,192,15868,1,8,0:0:0:0:
256,192,16003,1,8,0:0:0:0:
256,192,16139,1,8,0:0:0:0:
256,192,16274,1,4,0:0:0:0:
256,192,16544,1,12,0:0:0:0:
256,192,16814,1,4,0:0:0:0:
256,192,17085,1,12,0:0:0:0:
256,192,17355,1,4,0:0:0:0:
256,192,17490,1,8,0:0:0:0:
256,192,17625,1,0,0:0:0:0:
256,192,17693,1,0,0:0:0:0:
256,192,17760,1,0,0:0:0:0:
256,192,17895,1,12,0:0:0:0:
256,192,18030,1,0,0:0:0:0:
256,192,18166,1,12,0:0:0:0:
256,192,18436,1,4,0:0:0:0:
256,192,18571,1,8,0:0:0:0:
256,192,18706,1,0,0:0:0:0:
256,192,18774,1,0,0:0:0:0:
256,192,18841,1,0,0:0:0:0:
256,192,18976,1,8,0:0:0:0:
256,192,19112,1,0,0:0:0:0:
256,192,19247,1,12,0:0:0:0:
256,192,19517,1,4,0:0:0:0:
256,192,19652,1,4,0:0:0:0:
256,192,19787,1,8,0:0:0:0:
256,192,19922,1,4,0:0:0:0:
256,192,20057,1,4,0:0:0:0:
256,192,20193,1,8,0:0:0:0:
256,192,20328,1,8,0:0:0:0:
256,192,20463,1,0,0:0:0:0:
256,192,20598,1,8,0:0:0:0:
256,192,20801,1,8,0:0:0:0:
256,192,20868,1,8,0:0:0:0:
256,192,21003,1,8,0:0:0:0:
256,192,21274,1,0,0:0:0:0:
256,192,21409,1,8,0:0:0:0:
256,192,21544,1,0,0:0:0:0:
256,192,21679,1,12,0:0:0:0:
256,192,21814,1,0,0:0:0:0:
256,192,21949,1,0,0:0:0:0:
256,192,22017,1,0,0:0:0:0:
256,192,22085,1,0,0:0:0:0:
256,192,22220,1,12,0:0:0:0:
256,192,22355,1,4,0:0:0:0:
256,192,22490,1,12,0:0:0:0:
256,192,22760,1,12,0:0:0:0:
256,192,22895,1,0,0:0:0:0:
256,192,22963,1,0,0:0:0:0:
256,192,23030,1,8,0:0:0:0:
256,192,23166,1,0,0:0:0:0:
256,192,23301,1,12,0:0:0:0:
256,192,23436,1,8,0:0:0:0:
256,192,23571,1,0,0:0:0:0:
256,192,23841,1,12,0:0:0:0:
256,192,23976,1,0,0:0:0:0:
256,192,24112,1,12,0:0:0:0:
256,192,24247,1,0,0:0:0:0:
256,192,24382,1,12,0:0:0:0:
256,192,24517,1,0,0:0:0:0:
256,192,24652,1,12,0:0:0:0:
256,192,24787,1,0,0:0:0:0:
256,192,24922,1,12,0:0:0:0:
256,192,25463,1,0,0:0:0:0:
256,192,25598,1,0,0:0:0:0:
256,192,25666,1,0,0:0:0:0:
256,192,25733,1,0,0:0:0:0:
256,192,25868,1,8,0:0:0:0:
256,192,26003,1,4,0:0:0:0:
256,192,26274,1,8,0:0:0:0:
256,192,26409,1,4,0:0:0:0:
256,192,26679,1,8,0:0:0:0:
256,192,26814,1,4,0:0:0:0:
256,192,27085,1,4,0:0:0:0:
256,192,27355,1,8,0:0:0:0:
256,192,27490,1,4,0:0:0:0:
256,192,27760,1,0,0:0:0:0:
256,192,27895,1,8,0:0:0:0:
256,192,28030,1,8,0:0:0:0:
256,192,28166,1,4,0:0:0:0:
256,192,28436,1,8,0:0:0:0:
256,192,28571,1,4,0:0:0:0:
256,192,28841,1,8,0:0:0:0:
256,192,28976,1,4,0:0:0:0:
256,192,29247,1,4,0:0:0:0:
256,192,29517,1,8,0:0:0:0:
256,192,29652,1,4,0:0:0:0:
256,192,29922,1,8,0:0:0:0:
256,192,29990,1,8,0:0:0:0:
256,192,30057,1,8,0:0:0:0:
256,192,30193,1,0,0:0:0:0:
256,192,30328,1,12,0:0:0:0:
256,192,30463,1,0,0:0:0:0:
256,192,30598,1,8,0:0:0:0:
256,192,30733,1,8,0:0:0:0:
256,192,30868,1,12,0:0:0:0:
256,192,31139,1,8,0:0:0:0:
256,192,31274,1,8,0:0:0:0:
256,192,31409,1,12,0:0:0:0:
256,192,31544,1,0,0:0:0:0:
256,192,31679,1,8,0:0:0:0:
256,192,31814,1,8,0:0:0:0:
256,192,31949,1,12,0:0:0:0:
256,192,32220,1,8,0:0:0:0:
256,192,32355,1,8,0:0:0:0:
256,192,32490,1,12,0:0:0:0:
256,192,32625,1,0,0:0:0:0:
256,192,32760,1,12,0:0:0:0:
256,192,32895,1,0,0:0:0:0:
256,192,33030,1,12,0:0:0:0:
256,192,33166,1,0,0:0:0:0:
256,192,33301,1,12,0:0:0:0:
256,192,33436,1,0,0:0:0:0:
256,192,33571,1,8,0:0:0:0:
256,192,33706,1,0,0:0:0:0:
256,192,33841,1,8,0:0:0:0:
256,192,33976,1,8,0:0:0:0:
256,192,34112,1,0,0:0:0:0:
256,192,34179,1,0,0:0:0:0:
256,192,34247,1,0,0:0:0:0:
256,192,34382,1,12,0:0:0:0:
256,192,34652,1,4,0:0:0:0:
256,192,34787,1,8,0:0:0:0:
256,192,34922,1,0,0:0:0:0:
256,192,35057,1,8,0:0:0:0:
256,192,35125,1,8,0:0:0:0:
256,192,35193,1,0,0:0:0:0:
256,192,35328,1,8,0:0:0:0:
256,192,35463,1,0,0:0:0:0:
256,192,35530,1,0,0:0:0:0:
256,192,35598,1,8,0:0:0:0:
256,192,35666,1,8,0:0:0:0:
256,192,35733,1,0,0:0:0:0:
256,192,36003,1,8,0:0:0:0:
256,192,36139,1,0,0:0:0:0:
256,192,36274,1,8,0:0:0:0:
256,192,36476,1,8,0:0:0:0:
256,192,36544,1,0,0:0:0:0:
256,192,36679,1,8,0:0:0:0:
256,192,36814,1,4,0:0:0:0:
256,192,37085,1,8,0:0:0:0:
256,192,37220,1,0,0:0:0:0:
256,192,37287,1,0,0:0:0:0:
256,192,37355,1,0,0:0:0:0:
256,192,37490,1,8,0:0:0:0:
256,192,37625,1,0,0:0:0:0:
256,192,37693,1,0,0:0:0:0:
256,192,37760,1,8,0:0:0:0:
256,192,37895,1,4,0:0:0:0:
256,192,38166,1,8,0:0:0:0:
256,192,38436,1,0,0:0:0:0:
256,192,38706,1,8,0:0:0:0:
256,192,38976,1,4,0:0:0:0:
256,192,39112,1,8,0:0:0:0:
256,192,39247,1,0,0:0:0:0:
256,192,39382,1,8,0:0:0:0:
256,192,39449,1,8,0:0:0:0:
256,192,39517,1,0,0:0:0:0:
256,192,39652,1,8,0:0:0:0:
256,192,39787,1,8,0:0:0:0:
256,192,39855,1,8,0:0:0:0:
256,192,39922,1,0,0:0:0:0:
256,192,39990,1,0,0:0:0:0:
256,192,40057,1,8,0:0:0:0:
256,192,40260,1,0,0:0:0:0:
256,192,40328,1,0,0:0:0:0:
256,192,40463,1,8,0:0:0:0:
256,192,40598,1,0,0:0:0:0:
256,192,40733,1,0,0:0:0:0:
256,192,40868,1,8,0:0:0:0:
256,192,40936,1,0,0:0:0:0:
256,192,41003,1,8,0:0:0:0:
256,192,41139,1,12,0:0:0:0:
256,192,41409,1,8,0:0:0:0:
256,192,41544,1,0,0:0:0:0:
256,192,41814,1,0,0:0:0:0:
256,192,41949,1,8,0:0:0:0:
256,192,42220,1,0,0:0:0:0:
256,192,42490,1,8,0:0:0:0:
256,192,42625,1,0,0:0:0:0:
256,192,42760,1,0,0:0:0:0:
256,192,42828,1,0,0:0:0:0:
256,192,42895,1,0,0:0:0:0:
256,192,43030,1,12,0:0:0:0:
256,192,43301,1,4,0:0:0:0:
256,192,43436,1,8,0:0:0:0:
256,192,43571,1,0,0:0:0:0:
256,192,43706,1,8,0:0:0:0:
256,192,43774,1,8,0:0:0:0:
256,192,43841,1,0,0:0:0:0:
256,192,43976,1,8,0:0:0:0:
256,192,44112,1,0,0:0:0:0:
256,192,44179,1,0,0:0:0:0:
256,192,44247,1,8,0:0:0:0:
256,192,44314,1,8,0:0:0:0:
256,192,44382,1,0,0:0:0:0:
256,192,44652,1,8,0:0:0:0:
256,192,44787,1,0,0:0:0:0:
256,192,44922,1,8,0:0:0:0:
256,192,45125,1,8,0:0:0:0:
256,192,45193,1,0,0:0:0:0:
256,192,45328,1,8,0:0:0:0:
256,192,45463,1,4,0:0:0:0:
256,192,45733,1,8,0:0:0:0:
256,192,45868,1,0,0:0:0:0:
256,192,45936,1,0,0:0:0:0:
256,192,46003,1,0,0:0:0:0:
256,192,46139,1,8,0:0:0:0:
256,192,46274,1,0,0:0:0:0:
256,192,46341,1,0,0:0:0:0:
256,192,46409,1,8,0:0:0:0:
256,192,46544,1,12,0:0:0:0:
256,192,46747,1,12,0:0:0:0:
256,192,46949,1,12,0:0:0:0:
256,192,47152,1,12,0:0:0:0:
256,192,47355,1,12,0:0:0:0:
256,192,47625,1,12,0:0:0:0:
256,192,47895,1,0,0:0:0:0:
256,192,48030,1,0,0:0:0:0:
256,192,48166,1,8,0:0:0:0:
256,192,48301,1,8,0:0:0:0:
256,192,48436,1,0,0:0:0:0:
256,192,48706,1,8,0:0:0:0:
256,192,48841,1,8,0:0:0:0:
256,192,48976,1,0,0:0:0:0:
256,192,49112,1,0,0:0:0:0:
256,192,49247,1,8,0:0:0:0:
256,192,49517,1,0,0:0:0:0:
256,192,49652,1,0,0:0:0:0:
256,192,49787,1,8,0:0:0:0:
256,192,49855,1,8,0:0:0:0:
256,192,49922,1,0,0:0:0:0:
256,192,50057,1,8,0:0:0:0:
256,192,50193,1,0,0:0:0:0:
256,192,50328,1,8,0:0:0:0:
256,192,50463,1,8,0:0:0:0:
256,192,50598,1,0,0:0:0:0:
256,192,50666,1,0,0:0:0:0:
256,192,50733,1,0,0:0:0:0:
256,192,50868,1,8,0:0:0:0:
256,192,51003,1,0,0:0:0:0:
256,192,51139,1,8,0:0:0:0:
256,192,51206,1,8,0:0:0:0:
256,192,51274,1,8,0:0:0:0:
256,192,51341,1,8,0:0:0:0:
256,192,51409,1,0,0:0:0:0:
256,192,51679,1,12,0:0:0:0:
256,192,51949,1,4,0:0:0:0:
256,192,52760,1,8,0:0:0:0:
256,192,53030,1,8,0:0:0:0:
256,192,54112,1,0,0:0:0:0:
256,192,54652,1,8,0:0:0:0:
256,192,55057,1,0,0:0:0:0:
256,192,55193,1,8,0:0:0:0:
256,192,56274,1,0,0:0:0:0:
256,192,57085,1,8,0:0:0:0:
256,192,57355,1,8,0:0:0:0:
256,192,58436,1,0,0:0:0:0:
256,192,58976,1,8,0:0:0:0:
256,192,59517,1,0,0:0:0:0:
256,192,60598,1,4,0:0:0:0:
256,192,61139,1,8,0:0:0:0:
256,192,61409,1,0,0:0:0:0:
256,192,61679,1,0,0:0:0:0:
256,192,62220,1,8,0:0:0:0:
256,192,62760,1,0,0:0:0:0:
256,192,63301,1,8,0:0:0:0:
256,192,63571,1,8,0:0:0:0:
256,192,63706,1,0,0:0:0:0:
256,192,63841,1,0,0:0:0:0:
256,192,64382,1,8,0:0:0:0:
256,192,64922,1,0,0:0:0:0:
256,192,65463,1,8,0:0:0:0:
256,192,65733,1,0,0:0:0:0:
256,192,66003,1,0,0:0:0:0:
256,192,66544,1,8,0:0:0:0:
256,192,66949,1,0,0:0:0:0:
256,192,67085,1,0,0:0:0:0:
256,192,67625,1,8,0:0:0:0:
256,192,67895,1,8,0:0:0:0:
256,192,68166,1,0,0:0:0:0:
256,192,68706,1,8,0:0:0:0:
256,192,69247,1,12,0:0:0:0:
256,192,69517,1,0,0:0:0:0:
256,192,69787,1,0,0:0:0:0:
256,192,70057,1,0,0:0:0:0:
256,192,70328,1,8,0:0:0:0:
256,192,70598,1,0,0:0:0:0:
256,192,70868,1,0,0:0:0:0:
256,192,71139,1,0,0:0:0:0:
256,192,71409,1,8,0:0:0:0:
256,192,71679,1,0,0:0:0:0:
256,192,71949,1,0,0:0:0:0:
256,192,72220,1,0,0:0:0:0:
256,192,72490,1,8,0:0:0:0:
256,192,72760,1,0,0:0:0:0:
256,192,73030,1,0,0:0:0:0:
256,192,73301,1,0,0:0:0:0:
256,192,73571,1,8,0:0:0:0:
256,192,73706,1,8,0:0:0:0:
256,192,73841,1,0,0:0:0:0:
256,192,73976,1,0,0:0:0:0:
256,192,74112,1,8,0:0:0:0:
256,192,74247,1,8,0:0:0:0:
256,192,74382,1,0,0:0:0:0:
256,192,74652,1,8,0:0:0:0:
256,192,74787,1,8,0:0:0:0:
256,192,74922,1,0,0:0:0:0:
256,192,75057,1,0,0:0:0:0:
256,192,75193,1,8,0:0:0:0:
256,192,75328,1,8,0:0:0:0:
256,192,75463,1,0,0:0:0:0:
256,192,75733,1,8,0:0:0:0:
256,192,75801,1,8,0:0:0:0:
256,192,75868,1,0,0:0:0:0:
256,192,76003,1,8,0:0:0:0:
256,192,76139,1,0,0:0:0:0:
256,192,76274,1,8,0:0:0:0:
256,192,76409,1,8,0:0:0:0:
256,192,76544,1,8,0:0:0:0:
256,192,76612,1,8,0:0:0:0:
256,192,76679,1,8,0:0:0:0:
256,192,76814,1,4,0:0:0:0:
256,192,77085,1,0,0:0:0:0:
256,192,77220,1,8,0:0:0:0:
256,192,77355,1,0,0:0:0:0:
256,192,77422,1,0,0:0:0:0:
256,192,77490,1,0,0:0:0:0:
256,192,77625,1,12,0:0:0:0:
256,192,77895,1,4,0:0:0:0:
256,192,78166,1,8,0:0:0:0:
256,192,78301,1,0,0:0:0:0:
256,192,78436,1,8,0:0:0:0:
256,192,78571,1,8,0:0:0:0:
256,192,78639,1,8,0:0:0:0:
256,192,78706,1,0,0:0:0:0:
256,192,78841,1,8,0:0:0:0:
256,192,78976,1,0,0:0:0:0:
256,192,79112,1,8,0:0:0:0:
256,192,79179,1,8,0:0:0:0:
256,192,79247,1,8,0:0:0:0:
256,192,79382,1,0,0:0:0:0:
256,192,79517,1,8,0:0:0:0:
256,192,79720,1,0,0:0:0:0:
256,192,79787,1,8,0:0:0:0:
256,192,79922,1,8,0:0:0:0:
256,192,80057,1,0,0:0:0:0:
256,192,80328,1,8,0:0:0:0:
256,192,80463,1,0,0:0:0:0:
256,192,80598,1,8,0:0:0:0:
256,192,80733,1,8,0:0:0:0:
256,192,80801,1,8,0:0:0:0:
256,192,80868,1,0,0:0:0:0:
256,192,81003,1,8,0:0:0:0:
256,192,81139,1,0,0:0:0:0:
256,192,81274,1,8,0:0:0:0:
256,192,81341,1,8,0:0:0:0:
256,192,81409,1,8,0:0:0:0:
256,192,81544,1,0,0:0:0:0:
256,192,81679,1,0,0:0:0:0:
256,192,81814,1,8,0:0:0:0:
256,192,81949,1,0,0:0:0:0:
256,192,82085,1,8,0:0:0:0:
256,192,82220,1,4,0:0:0:0:
256,192,82490,1,0,0:0:0:0:
256,192,82625,1,8,0:0:0:0:
256,192,82760,1,0,0:0:0:0:
256,192,82895,1,8,0:0:0:0:
256,192,82963,1,8,0:0:0:0:
256,192,83030,1,0,0:0:0:0:
256,192,83166,1,8,0:0:0:0:
256,192,83301,1,0,0:0:0:0:
256,192,83436,1,8,0:0:0:0:
256,192,83503,1,8,0:0:0:0:
256,192,83571,1,8,0:0:0:0:
256,192,83706,1,0,0:0:0:0:
256,192,83841,1,8,0:0:0:0:
256,192,84044,1,8,0:0:0:0:
256,192,84112,1,0,0:0:0:0:
256,192,84247,1,8,0:0:0:0:
256,192,84382,1,4,0:0:0:0:
256,192,84652,1,8,0:0:0:0:
256,192,84787,1,4,0:0:0:0:
256,192,85057,1,8,0:0:0:0:
256,192,85193,1,4,0:0:0:0:
256,192,85463,1,8,0:0:0:0:
256,192,85598,1,4,0:0:0:0:
256,192,85868,1,8,0:0:0:0:
256,192,86003,1,4,0:0:0:0:
256,192,86274,1,12,0:0:0:0:
256,192,86544,1,4,0:0:0:0:
256,192,86814,1,8,0:0:0:0:
256,192,86949,1,0,0:0:0:0:
256,192,87085,1,8,0:0:0:0:
256,192,87220,1,8,0:0:0:0:
256,192,87287,1,8,0:0:0:0:
256,192,87355,1,0,0:0:0:0:
256,192,87490,1,8,0:0:0:0:
256,192,87625,1,0,0:0:0:0:
256,192,87760,1,8,0:0:0:0:
256,192,87828,1,8,0:0:0:0:
256,192,87895,1,8,0:0:0:0:
256,192,88030,1,0,0:0:0:0:
256,192,88166,1,8,0:0:0:0:
256,192,88301,1,0,0:0:0:0:
256,192,88436,1,8,0:0:0:0:
256,192,88503,1,8,0:0:0:0:
256,192,88571,1,8,0:0:0:0:
256,192,88706,1,0,0:0:0:0:
256,192,88976,1,8,0:0:0:0:
256,192,89112,1,0,0:0:0:0:
256,192,89247,1,8,0:0:0:0:
256,192,89382,1,8,0:0:0:0:
256,192,89449,1,8,0:0:0:0:
256,192,89517,1,0,0:0:0:0:
256,192,89652,1,8,0:0:0:0:
256,192,89787,1,0,0:0:0:0:
256,192,89922,1,8,0:0:0:0:
256,192,89990,1,8,0:0:0:0:
256,192,90057,1,8,0:0:0:0:
256,192,90193,1,0,0:0:0:0:
256,192,90328,1,0,0:0:0:0:
256,192,90463,1,8,0:0:0:0:
256,192,90598,1,0,0:0:0:0:
256,192,90733,1,8,0:0:0:0:
256,192,90868,1,4,0:0:0:0:
256,192,91071,1,8,0:0:0:0:
256,192,91139,1,0,0:0:0:0:
256,192,91274,1,8,0:0:0:0:
256,192,91409,1,0,0:0:0:0:
256,192,91612,1,0,0:0:0:0:
256,192,91679,1,8,0:0:0:0:
256,192,91814,1,8,0:0:0:0:
256,192,91949,1,4,0:0:0:0:
256,192,92085,1,8,0:0:0:0:
256,192,92220,1,0,0:0:0:0:
256,192,92490,1,0,0:0:0:0:
256,192,92625,1,0,0:0:0:0:
256,192,92693,1,0,0:0:0:0:
256,192,92760,1,0,0:0:0:0:
256,192,92895,1,8,0:0:0:0:
256,192,93030,1,4,0:0:0:0:
256,192,93166,1,8,0:0:0:0:
256,192,93301,1,0,0:0:0:0:
256,192,93436,1,8,0:0:0:0:
256,192,93571,1,4,0:0:0:0:
256,192,93706,1,0,0:0:0:0:
256,192,93774,1,0,0:0:0:0:
256,192,93841,1,8,0:0:0:0:
256,192,93976,1,0,0:0:0:0:
256,192,94112,1,8,0:0:0:0:
256,192,94179,1,8,0:0:0:0:
256,192,94247,1,0,0:0:0:0:
256,192,94314,1,0,0:0:0:0:
256,192,94382,1,8,0:0:0:0:
256,192,94517,1,0,0:0:0:0:
256,192,94652,1,12,0:0:0:0:
256,192,94922,1,12,0:0:0:0:
256,192,95193,1,4,0:0:0:0:
256,192,95328,1,8,0:0:0:0:
256,192,95463,1,0,0:0:0:0:
256,192,95530,1,0,0:0:0:0:
256,192,95598,1,0,0:0:0:0:
256,192,95733,1,12,0:0:0:0:
256,192,95868,1,0,0:0:0:0:
256,192,96003,1,12,0:0:0:0:
256,192,96274,1,4,0:0:0:0:
256,192,96409,1,8,0:0:0:0:
256,192,96544,1,0,0:0:0:0:
256,192,96612,1,0,0:0:0:0:
256,192,96679,1,0,0:0:0:0:
256,192,96814,1,8,0:0:0:0:
256,192,96949,1,0,0:0:0:0:
256,192,97085,1,12,0:0:0:0:
256,192,97355,1,4,0:0:0:0:
256,192,97490,1,4,0:0:0:0:
256,192,97625,1,8,0:0:0:0:
256,192,97760,1,4,0:0:0:0:
256,192,97895,1,4,0:0:0:0:
256,192,98030,1,8,0:0:0:0:
256,192,98166,1,8,0:0:0:0:
256,192,98301,1,0,0:0:0:0:
256,192,98436,1,8,0:0:0:0:
256,192,98639,1,8,0:0:0:0:
256,192,98706,1,8,0:0:0:0:
256,192,98841,1,8,0:0:0:0:
256,192,98976,1,0,0:0:0:0:
256,192,99112,1,8,0:0:0:0:
256,192,99247,1,8,0:0:0:0:
256,192,99382,1,0,0:0:0:0:
256,192,99517,1,12,0:0:0:0:
256,192,99720,1,8,0:0:0:0:
256,192,99787,1,0,0:0:0:0:
256,192,99922,1,8,0:0:0:0:
256,192,100057,1,4,0:0:0:0:
256,192,100193,1,8,0:0:0:0:
256,192,100328,1,4,0:0:0:0:
256,192,100598,1,12,0:0:0:0:
256,192,100733,1,0,0:0:0:0:
256,192,100868,1,8,0:0:0:0:
256,192,100936,1,8,0:0:0:0:
256,192,101003,1,8,0:0:0:0:
256,192,101139,1,0,0:0:0:0:
256,192,101274,1,0,0:0:0:0:
256,192,101409,1,12,0:0:0:0:
256,192,101679,1,4,0:0:0:0:
256,192,101949,1,8,0:0:0:0:
256,192,102085,1,4,0:0:0:0:
256,192,102355,1,8,0:0:0:0:
256,192,102490,1,4,0:0:0:0:
256,192,102760,1,8,0:0:0:0:
256,192,102895,1,4,0:0:0:0:
256,192,103166,1,8,0:0:0:0:
256,192,103301,1,4,0:0:0:0:
256,192,103571,1,12,0:0:0:0:
256,192,103841,1,4,0:0:0:0:
256,192,103976,1,8,0:0:0:0:
256,192,104112,1,0,0:0:0:0:
256,192,104179,1,0,0:0:0:0:
256,192,104247,1,0,0:0:0:0:
256,192,104382,1,12,0:0:0:0:
256,192,104517,1,0,0:0:0:0:
256,192,104652,1,12,0:0:0:0:
256,192,104922,1,4,0:0:0:0:
256,192,105057,1,8,0:0:0:0:
256,192,105193,1,0,0:0:0:0:
256,192,105260,1,0,0:0:0:0:
256,192,105328,1,0,0:0:0:0:
256,192,105463,1,8,0:0:0:0:
256,192,105598,1,0,0:0:0:0:
256,192,105733,1,12,0:0:0:0:
256,192,106003,1,4,0:0:0:0:
256,192,106139,1,4,0:0:0:0:
256,192,106274,1,8,0:0:0:0:
256,192,106409,1,4,0:0:0:0:
256,192,106544,1,4,0:0:0:0:
256,192,106679,1,8,0:0:0:0:
256,192,106814,1,8,0:0:0:0:
256,192,106949,1,0,0:0:0:0:
256,192,107085,1,8,0:0:0:0:
256,192,107287,1,8,0:0:0:0:
256,192,107355,1,8,0:0:0:0:
256,192,107490,1,8,0:0:0:0:
256,192,107625,1,0,0:0:0:0:
256,192,107760,1,8,0:0:0:0:
256,192,107895,1,8,0:0:0:0:
256,192,108030,1,0,0:0:0:0:
256,192,108166,1,12,0:0:0:0:
256,192,108301,1,0,0:0:0:0:
256,192,108436,1,0,0:0:0:0:
256,192,108503,1,0,0:0:0:0:
256,192,108571,1,0,0:0:0:0:
256,192,108706,1,12,0:0:0:0:
256,192,108841,1,4,0:0:0:0:
256,192,108976,1,12,0:0:0:0:
256,192,109247,1,12,0:0:0:0:
256,192,109382,1,0,0:0:0:0:
256,192,109449,1,0,0:0:0:0:
256,192,109517,1,8,0:0:0:0:
256,192,109652,1,8,0:0:0:0:
256,192,109787,1,0,0:0:0:0:
256,192,109922,1,12,0:0:0:0:
256,192,110057,1,0,0:0:0:0:
256,192,110193,1,0,0:0:0:0:
256,192,110328,1,8,0:0:0:0:
256,192,110463,1,8,0:0:0:0:
256,192,110598,1,8,0:0:0:0:
256,192,110733,1,8,0:0:0:0:
256,192,110868,1,8,0:0:0:0:
256,192,111003,1,8,0:0:0:0:
256,192,111139,1,8,0:0:0:0:
256,192,111274,1,8,0:0:0:0:
256,192,111409,1,12,0:0:0:0:
256,192,111949,1,0,0:0:0:0:
256,192,112085,1,0,0:0:0:0:
256,192,112152,1,0,0:0:0:0:
256,192,112220,1,0,0:0:0:0:
256,192,112355,1,8,0:0:0:0:
256,192,112490,1,4,0:0:0:0:
256,192,112760,1,8,0:0:0:0:
256,192,112895,1,4,0:0:0:0:
256,192,113166,1,8,0:0:0:0:
256,192,113301,1,4,0:0:0:0:
256,192,113571,1,4,0:0:0:0:
256,192,113841,1,8,0:0:0:0:
256,192,113976,1,4,0:0:0:0:
256,192,114247,1,0,0:0:0:0:
256,192,114382,1,8,0:0:0:0:
256,192,114517,1,8,0:0:0:0:
256,192,114652,1,4,0:0:0:0:
256,192,114922,1,8,0:0:0:0:
256,192,115057,1,4,0:0:0:0:
256,192,115328,1,8,0:0:0:0:
256,192,115463,1,4,0:0:0:0:
256,192,115733,1,4,0:0:0:0:
256,192,116003,1,8,0:0:0:0:
256,192,116139,1,4,0:0:0:0:
256,192,116409,1,8,0:0:0:0:
256,192,116476,1,8,0:0:0:0:
256,192,116544,1,8,0:0:0:0:
256,192,116679,1,0,0:0:0:0:
256,192,116814,1,12,0:0:0:0:
256,192,116949,1,0,0:0:0:0:
256,192,117085,1,8,0:0:0:0:
256,192,117220,1,8,0:0:0:0:
256,192,117355,1,12,0:0:0:0:
256,192,117625,1,8,0:0:0:0:
256,192,117760,1,8,0:0:0:0:
256,192,117895,1,12,0:0:0:0:
256,192,118030,1,0,0:0:0:0:
256,192,118166,1,8,0:0:0:0:
256,192,118301,1,8,0:0:0:0:
256,192,118436,1,12,0:0:0:0:
256,192,118706,1,8,0:0:0:0:
256,192,118841,1,8,0:0:0:0:
256,192,118976,1,12,0:0:0:0:
256,192,119112,1,0,0:0:0:0:
256,192,119247,1,12,0:0:0:0:
256,192,119382,1,0,0:0:0:0:
256,192,119517,1,12,0:0:0:0:
256,192,119652,1,0,0:0:0:0:
256,192,119787,1,12,0:0:0:0:
256,192,119922,1,0,0:0:0:0:
256,192,120057,1,8,0:0:0:0:
256,192,120193,1,0,0:0:0:0:
256,192,120328,1,8,0:0:0:0:
256,192,120463,1,8,0:0:0:0:
256,192,120598,1,0,0:0:0:0:
256,192,120666,1,0,0:0:0:0:
256,192,120733,1,0,0:0:0:0:
256,192,120868,1,12,0:0:0:0:
