osu file format v14

[General]
AudioFilename: audio.mp3
AudioLeadIn: 0
PreviewTime: 76814
Countdown: 0
SampleSet: Normal
StackLeniency: 0.7
Mode: 1
LetterboxInBreaks: 0
WidescreenStoryboard: 1

[Editor]
Bookmarks: 58,8706,17355,26003,34652,43301,51949,60598,69247,77895,94922,95193,112490,120868
DistanceSpacing: 0.8
BeatDivisor: 4
GridSize: 32
TimelineZoom: 2.1

[Metadata]
Title:IZANA
TitleUnicode:IZANA
Artist:t+pazolite vs. P*Light
ArtistUnicode:t+pazolite vs. P*Light
Creator:eiri-
Version:Futsuu
Source:Arcaea
Tags:Ayyri Realazy AyyLazy Instrumental Electronic Video Game lowiro Happy HARDCORE TANO*C TANOC tpz
BeatmapID:2294845
BeatmapSetID:1098381

[Difficulty]
HPDrainRate:6
CircleSize:2
OverallDifficulty:4
ApproachRate:10
SliderMultiplier:1.4
SliderTickRate:1

[Events]
//Background and Video events
0,0,"IZANA.jpg",0,5
//Break Periods
//Storyboard Layer 0 (Background)
//Storyboard Layer 1 (Fail)
//Storyboard Layer 2 (Pass)
//Storyboard Layer 3 (Foreground)
//Storyboard Layer 4 (Overlay)
//Storyboard Sound Samples

[TimingPoints]
58,270.27027027027,4,1,0,60,1,0
7591,-100,4,1,0,75,0,0
8672,-100,4,1,0,80,0,0
25970,-100,4,1,0,85,0,0
34618,-100,4,1,0,90,0,0
43267,-100,4,1,0,95,0,0
51916,-100,4,1,0,60,0,0
60564,-100,4,1,0,75,0,0
69213,-100,4,1,0,80,0,0
73537,-100,4,1,0,90,0,0
77895,-100,4,1,0,100,0,1
94922,-100,4,1,0,100,0,0
95193,-100,4,1,0,100,0,1
112490,-100,4,1,0,85,0,0
120835,-100,4,1,0,100,0,0

[HitObjects]
256,192,58,5,0,0:0:0:0:
256,192,868,1,8,0:0:0:0:
256,192,1139,1,8,0:0:0:0:
256,192,2220,1,0,0:0:0:0:
256,192,2760,1,8,0:0:0:0:
256,192,3301,1,8,0:0:0:0:
256,192,4382,1,0,0:0:0:0:
256,192,5193,1,8,0:0:0:0:
256,192,5463,1,0,0:0:0:0:
256,192,6003,1,0,0:0:0:0:
256,192,6544,1,8,0:0:0:0:
256,192,7625,1,0,0:0:0:0:
256,192,7895,1,8,0:0:0:0:
256,192,8166,1,0,0:0:0:0:
256,192,8301,1,0,0:0:0:0:
256,192,8436,1,12,0:0:0:0:
256,192,8706,1,4,0:0:0:0:
256,192,8976,1,8,0:0:0:0:
256,192,9112,1,8,0:0:0:0:
256,192,9247,1,4,0:0:0:0:
256,192,9517,1,4,0:0:0:0:
256,192,9787,1,12,0:0:0:0:
256,192,9922,1,0,0:0:0:0:
256,192,10057,1,8,0:0:0:0:
256,192,10328,1,0,0:0:0:0:
256,192,10598,1,12,0:0:0:0:
256,192,10868,1,4,0:0:0:0:
256,192,11274,1,4,0:0:0:0:
256,192,11679,1,8,0:0:0:0:
256,192,11814,1,8,0:0:0:0:
256,192,11949,1,0,0:0:0:0:
256,192,12220,1,8,0:0:0:0:
256,192,12355,1,0,0:0:0:0:
256,192,12625,1,0,0:0:0:0:
256,192,12760,1,8,0:0:0:0:
256,192,13030,1,12,0:0:0:0:
256,192,13571,1,4,0:0:0:0:
256,192,13841,1,4,0:0:0:0:
256,192,14112,1,12,0:0:0:0:
256,192,14247,1,0,0:0:0:0:
256,192,14382,1,8,0:0:0:0:
256,192,14652,1,0,0:0:0:0:
256,192,14922,1,12,0:0:0:0:
256,192,15193,1,4,0:0:0:0:
256,192,15733,1,8,0:0:0:0:
256,192,15868,1,8,0:0:0:0:
256,192,16003,1,8,0:0:0:0:
256,192,16274,1,4,0:0:0:0:
256,192,16814,1,4,0:0:0:0:
256,192,17355,1,4,0:0:0:0:
256,192,17625,1,8,0:0:0:0:
256,192,17760,1,8,0:0:0:0:
256,192,17895,1,4,0:0:0:0:
256,192,18166,1,4,0:0:0:0:
256,192,18436,1,12,0:0:0:0:
256,192,18571,1,0,0:0:0:0:
256,192,18706,1,8,0:0:0:0:
256,192,18976,1,0,0:0:0:0:
256,192,19247,1,12,0:0:0:0:
256,192,19517,1,4,0:0:0:0:
256,192,19922,1,4,0:0:0:0:
256,192,20328,1,8,0:0:0:0:
256,192,20463,1,8,0:0:0:0:
256,192,20598,1,0,0:0:0:0:
256,192,20868,1,8,0:0:0:0:
256,192,21003,1,0,0:0:0:0:
256,192,21274,1,0,0:0:0:0:
256,192,21409,1,8,0:0:0:0:
256,192,21679,1,12,0:0:0:0:
256,192,22220,1,12,0:0:0:0:
256,192,22490,1,4,0:0:0:0:
256,192,22760,1,12,0:0:0:0:
256,192,23301,1,12,0:0:0:0:
256,192,23571,1,0,0:0:0:0:
256,192,23841,1,12,0:0:0:0:
256,192,24112,1,12,0:0:0:0:
256,192,24382,1,12,0:0:0:0:
256,192,24652,1,12,0:0:0:0:
256,192,24922,1,12,0:0:0:0:
256,192,25463,1,0,0:0:0:0:
256,192,26003,1,4,0:0:0:0:
256,192,26274,1,8,0:0:0:0:
256,192,26409,1,4,0:0:0:0:
256,192,26679,1,8,0:0:0:0:
256,192,26814,1,4,0:0:0:0:
256,192,27085,1,4,0:0:0:0:
256,192,27355,1,8,0:0:0:0:
256,192,27490,1,4,0:0:0:0:
256,192,28166,1,4,0:0:0:0:
256,192,28436,1,8,0:0:0:0:
256,192,28571,1,4,0:0:0:0:
256,192,28841,1,8,0:0:0:0:
256,192,28976,1,4,0:0:0:0:
256,192,29247,1,4,0:0:0:0:
256,192,29517,1,8,0:0:0:0:
256,192,29652,1,4,0:0:0:0:
256,192,30328,1,12,0:0:0:0:
256,192,30598,1,0,0:0:0:0:
256,192,30868,1,12,0:0:0:0:
256,192,31139,1,0,0:0:0:0:
256,192,31409,1,12,0:0:0:0:
256,192,31679,1,0,0:0:0:0:
256,192,31949,1,12,0:0:0:0:
256,192,32220,1,0,0:0:0:0:
256,192,32355,1,0,0:0:0:0:
256,192,32490,1,12,0:0:0:0:
256,192,32760,1,12,0:0:0:0:
256,192,33030,1,12,0:0:0:0:
256,192,33301,1,12,0:0:0:0:
256,192,33571,1,8,0:0:0:0:
256,192,34112,1,0,0:0:0:0:
256,192,34382,1,12,0:0:0:0:
256,192,34652,1,4,0:0:0:0:
256,192,34922,1,8,0:0:0:0:
256,192,35057,1,0,0:0:0:0:
256,192,35193,1,8,0:0:0:0:
256,192,35463,1,0,0:0:0:0:
256,192,35598,1,0,0:0:0:0:
256,192,35733,1,8,0:0:0:0:
256,192,36003,1,0,0:0:0:0:
256,192,36274,1,8,0:0:0:0:
256,192,36814,1,4,0:0:0:0:
256,192,37085,1,8,0:0:0:0:
256,192,37220,1,8,0:0:0:0:
256,192,37355,1,0,0:0:0:0:
256,192,37625,1,0,0:0:0:0:
256,192,37760,1,8,0:0:0:0:
256,192,37895,1,4,0:0:0:0:
256,192,38706,1,8,0:0:0:0:
256,192,38976,1,4,0:0:0:0:
256,192,39247,1,8,0:0:0:0:
256,192,39382,1,0,0:0:0:0:
256,192,39517,1,0,0:0:0:0:
256,192,39787,1,0,0:0:0:0:
256,192,39922,1,8,0:0:0:0:
256,192,40057,1,0,0:0:0:0:
256,192,40328,1,0,0:0:0:0:
256,192,40598,1,8,0:0:0:0:
256,192,40733,1,0,0:0:0:0:
256,192,41139,1,12,0:0:0:0:
256,192,41544,1,0,0:0:0:0:
256,192,41949,1,0,0:0:0:0:
256,192,42220,1,0,0:0:0:0:
256,192,43030,1,12,0:0:0:0:
256,192,43301,1,4,0:0:0:0:
256,192,43571,1,0,0:0:0:0:
256,192,43706,1,8,0:0:0:0:
256,192,43841,1,8,0:0:0:0:
256,192,44112,1,8,0:0:0:0:
256,192,44247,1,0,0:0:0:0:
256,192,44382,1,8,0:0:0:0:
256,192,44652,1,0,0:0:0:0:
256,192,44922,1,8,0:0:0:0:
256,192,45463,1,4,0:0:0:0:
256,192,45733,1,8,0:0:0:0:
256,192,45868,1,8,0:0:0:0:
256,192,46003,1,0,0:0:0:0:
256,192,46274,1,0,0:0:0:0:
256,192,46409,1,0,0:0:0:0:
256,192,46544,1,12,0:0:0:0:
256,192,46949,1,12,0:0:0:0:
256,192,47355,1,12,0:0:0:0:
256,192,47625,1,12,0:0:0:0:
256,192,47895,1,0,0:0:0:0:
256,192,48030,1,0,0:0:0:0:
256,192,48166,1,8,0:0:0:0:
256,192,48436,1,0,0:0:0:0:
256,192,48706,1,8,0:0:0:0:
256,192,48841,1,8,0:0:0:0:
256,192,48976,1,0,0:0:0:0:
256,192,49247,1,8,0:0:0:0:
256,192,49517,1,0,0:0:0:0:
256,192,49787,1,8,0:0:0:0:
256,192,49922,1,8,0:0:0:0:
256,192,50057,1,0,0:0:0:0:
256,192,50193,1,0,0:0:0:0:
256,192,50328,1,8,0:0:0:0:
256,192,50598,1,0,0:0:0:0:
256,192,50868,1,8,0:0:0:0:
256,192,51003,1,8,0:0:0:0:
256,192,51139,1,8,0:0:0:0:
256,192,51409,1,0,0:0:0:0:
256,192,51679,1,12,0:0:0:0:
256,192,51949,1,4,0:0:0:0:
256,192,52760,1,8,0:0:0:0:
256,192,53030,1,8,0:0:0:0:
256,192,54112,1,0,0:0:0:0:
256,192,54652,1,8,0:0:0:0:
256,192,55193,1,8,0:0:0:0:
256,192,56274,1,0,0:0:0:0:
256,192,57085,1,8,0:0:0:0:
256,192,57355,1,8,0:0:0:0:
256,192,58436,1,0,0:0:0:0:
256,192,58976,1,8,0:0:0:0:
256,192,59517,1,0,0:0:0:0:
256,192,60598,1,4,0:0:0:0:
256,192,61139,1,8,0:0:0:0:
256,192,61409,1,0,0:0:0:0:
256,192,61679,1,0,0:0:0:0:
256,192,62220,1,8,0:0:0:0:
256,192,62760,1,0,0:0:0:0:
256,192,63301,1,8,0:0:0:0:
256,192,63571,1,8,0:0:0:0:
256,192,63841,1,0,0:0:0:0:
256,192,64382,1,8,0:0:0:0:
256,192,64922,1,0,0:0:0:0:
256,192,65463,1,8,0:0:0:0:
256,192,65733,1,0,0:0:0:0:
256,192,66003,1,0,0:0:0:0:
256,192,66544,1,8,0:0:0:0:
256,192,66949,1,0,0:0:0:0:
256,192,67085,1,0,0:0:0:0:
256,192,67625,1,8,0:0:0:0:
256,192,67895,1,8,0:0:0:0:
256,192,68166,1,0,0:0:0:0:
256,192,68706,1,8,0:0:0:0:
256,192,69247,1,12,0:0:0:0:
256,192,69517,1,0,0:0:0:0:
256,192,69787,1,0,0:0:0:0:
256,192,70057,1,0,0:0:0:0:
256,192,70328,1,8,0:0:0:0:
256,192,70868,1,0,0:0:0:0:
256,192,71409,1,8,0:0:0:0:
256,192,71679,1,0,0:0:0:0:
256,192,71949,1,0,0:0:0:0:
256,192,72220,1,0,0:0:0:0:
256,192,72490,1,8,0:0:0:0:
256,192,73030,1,0,0:0:0:0:
256,192,73571,1,8,0:0:0:0:
256,192,73706,1,8,0:0:0:0:
256,192,73841,1,0,0:0:0:0:
256,192,74112,1,8,0:0:0:0:
256,192,74382,1,0,0:0:0:0:
256,192,74652,1,8,0:0:0:0:
256,192,74787,1,8,0:0:0:0:
256,192,74922,1,0,0:0:0:0:
256,192,75193,1,8,0:0:0:0:
256,192,75463,1,0,0:0:0:0:
256,192,75733,1,8,0:0:0:0:
256,192,75868,1,0,0:0:0:0:
256,192,76003,1,8,0:0:0:0:
256,192,76274,1,8,0:0:0:0:
256,192,76544,1,8,0:0:0:0:
256,192,76679,1,8,0:0:0:0:
256,192,76814,1,4,0:0:0:0:
256,192,77625,1,12,0:0:0:0:
256,192,77895,1,4,0:0:0:0:
256,192,78166,1,8,0:0:0:0:
256,192,78436,1,0,0:0:0:0:
256,192,78571,1,0,0:0:0:0:
256,192,78841,1,8,0:0:0:0:
256,192,78976,1,0,0:0:0:0:
256,192,79112,1,8,0:0:0:0:
256,192,79382,1,0,0:0:0:0:
256,192,79517,1,8,0:0:0:0:
256,192,79787,1,8,0:0:0:0:
256,192,80328,1,8,0:0:0:0:
256,192,80598,1,0,0:0:0:0:
256,192,80733,1,0,0:0:0:0:
256,192,81003,1,8,0:0:0:0:
256,192,81139,1,0,0:0:0:0:
256,192,81274,1,8,0:0:0:0:
256,192,81544,1,0,0:0:0:0:
256,192,81679,1,8,0:0:0:0:
256,192,81949,1,8,0:0:0:0:
256,192,82220,1,4,0:0:0:0:
256,192,82490,1,8,0:0:0:0:
256,192,82760,1,0,0:0:0:0:
256,192,82895,1,0,0:0:0:0:
256,192,83166,1,8,0:0:0:0:
256,192,83706,1,0,0:0:0:0:
256,192,83841,1,8,0:0:0:0:
256,192,84112,1,8,0:0:0:0:
256,192,84382,1,4,0:0:0:0:
256,192,84787,1,4,0:0:0:0:
256,192,85193,1,4,0:0:0:0:
256,192,85598,1,4,0:0:0:0:
256,192,86003,1,4,0:0:0:0:
256,192,86274,1,12,0:0:0:0:
256,192,86544,1,4,0:0:0:0:
256,192,86814,1,8,0:0:0:0:
256,192,87085,1,8,0:0:0:0:
256,192,87220,1,8,0:0:0:0:
256,192,87490,1,8,0:0:0:0:
256,192,87625,1,0,0:0:0:0:
256,192,87760,1,8,0:0:0:0:
256,192,88030,1,0,0:0:0:0:
256,192,88166,1,8,0:0:0:0:
256,192,88436,1,8,0:0:0:0:
256,192,88976,1,8,0:0:0:0:
256,192,89247,1,8,0:0:0:0:
256,192,89382,1,8,0:0:0:0:
256,192,89652,1,8,0:0:0:0:
256,192,89787,1,0,0:0:0:0:
256,192,89922,1,8,0:0:0:0:
256,192,90193,1,0,0:0:0:0:
256,192,90328,1,8,0:0:0:0:
256,192,90598,1,8,0:0:0:0:
256,192,90868,1,4,0:0:0:0:
256,192,91139,1,8,0:0:0:0:
256,192,91409,1,0,0:0:0:0:
256,192,91949,1,4,0:0:0:0:
256,192,92220,1,8,0:0:0:0:
256,192,92490,1,0,0:0:0:0:
256,192,92625,1,0,0:0:0:0:
256,192,92760,1,8,0:0:0:0:
256,192,93030,1,4,0:0:0:0:
256,192,93571,1,4,0:0:0:0:
256,192,93841,1,8,0:0:0:0:
256,192,94112,1,4,0:0:0:0:
256,192,94652,1,0,0:0:0:0:
256,192,94922,1,12,0:0:0:0:
256,192,95193,1,4,0:0:0:0:
256,192,95463,1,8,0:0:0:0:
256,192,95598,1,8,0:0:0:0:
256,192,95733,1,4,0:0:0:0:
256,192,96003,1,4,0:0:0:0:
256,192,96274,1,12,0:0:0:0:
256,192,96409,1,0,0:0:0:0:
256,192,96544,1,8,0:0:0:0:
256,192,96814,1,0,0:0:0:0:
256,192,97085,1,12,0:0:0:0:
256,192,97355,1,4,0:0:0:0:
256,192,97760,1,4,0:0:0:0:
256,192,98030,1,0,0:0:0:0:
256,192,98166,1,8,0:0:0:0:
256,192,98436,1,0,0:0:0:0:
256,192,98706,1,8,0:0:0:0:
256,192,98841,1,0,0:0:0:0:
256,192,99112,1,0,0:0:0:0:
256,192,99247,1,8,0:0:0:0:
256,192,99517,1,12,0:0:0:0:
256,192,100057,1,4,0:0:0:0:
256,192,100328,1,4,0:0:0:0:
256,192,100598,1,12,0:0:0:0:
256,192,100868,1,8,0:0:0:0:
256,192,101003,1,8,0:0:0:0:
256,192,101139,1,0,0:0:0:0:
256,192,101409,1,12,0:0:0:0:
256,192,101679,1,4,0:0:0:0:
256,192,102085,1,4,0:0:0:0:
256,192,102490,1,4,0:0:0:0:
256,192,102895,1,4,0:0:0:0:
256,192,103301,1,4,0:0:0:0:
256,192,103571,1,12,0:0:0:0:
256,192,103841,1,4,0:0:0:0:
256,192,104112,1,8,0:0:0:0:
256,192,104247,1,8,0:0:0:0:
256,192,104382,1,4,0:0:0:0:
256,192,104652,1,4,0:0:0:0:
256,192,104922,1,12,0:0:0:0:
256,192,105463,1,0,0:0:0:0:
256,192,105733,1,12,0:0:0:0:
256,192,106003,1,4,0:0:0:0:
256,192,106409,1,4,0:0:0:0:
256,192,106679,1,0,0:0:0:0:
256,192,106814,1,8,0:0:0:0:
256,192,107085,1,0,0:0:0:0:
256,192,107355,1,8,0:0:0:0:
256,192,107490,1,0,0:0:0:0:
256,192,107760,1,0,0:0:0:0:
256,192,107895,1,8,0:0:0:0:
256,192,108166,1,12,0:0:0:0:
256,192,108706,1,12,0:0:0:0:
256,192,108976,1,4,0:0:0:0:
256,192,109247,1,12,0:0:0:0:
256,192,109787,1,0,0:0:0:0:
256,192,109922,1,12,0:0:0:0:
256,192,110057,1,0,0:0:0:0:
256,192,110328,1,8,0:0:0:0:
256,192,110598,1,8,0:0:0:0:
256,192,110868,1,8,0:0:0:0:
256,192,111003,1,8,0:0:0:0:
256,192,111139,1,8,0:0:0:0:
256,192,111409,1,12,0:0:0:0:
256,192,111949,1,0,0:0:0:0:
256,192,112220,1,8,0:0:0:0:
256,192,112490,1,4,0:0:0:0:
256,192,112760,1,8,0:0:0:0:
256,192,112895,1,4,0:0:0:0:
256,192,113166,1,8,0:0:0:0:
256,192,113301,1,4,0:0:0:0:
256,192,113571,1,4,0:0:0:0:
256,192,113841,1,8,0:0:0:0:
256,192,113976,1,4,0:0:0:0:
256,192,114652,1,4,0:0:0:0:
256,192,114922,1,8,0:0:0:0:
256,192,115057,1,4,0:0:0:0:
256,192,115328,1,8,0:0:0:0:
256,192,115463,1,4,0:0:0:0:
256,192,115733,1,4,0:0:0:0:
256,192,116003,1,8,0:0:0:0:
256,192,116139,1,4,0:0:0:0:
256,192,116814,1,12,0:0:0:0:
256,192,117085,1,0,0:0:0:0:
256,192,117355,1,12,0:0:0:0:
256,192,117625,1,0,0:0:0:0:
256,192,117895,1,12,0:0:0:0:
256,192,118166,1,0,0:0:0:0:
256,192,118436,1,12,0:0:0:0:
256,192,118706,1,0,0:0:0:0:
256,192,118841,1,0,0:0:0:0:
256,192,118976,1,12,0:0:0:0:
256,192,119247,1,12,0:0:0:0:
256,192,119517,1,12,0:0:0:0:
256,192,119787,1,12,0:0:0:0:
256,192,120057,1,8,0:0:0:0:
256,192,120598,1,0,0:0:0:0:
256,192,120733,1,0,0:0:0:0:
256,192,120868,1,12,0:0:0:0:
