osu file format v14

[General]
AudioFilename: audio.mp3
AudioLeadIn: 0
PreviewTime: 8697
Countdown: 0
SampleSet: Soft
StackLeniency: 0.7
Mode: 3
LetterboxInBreaks: 0
SpecialStyle: 0
WidescreenStoryboard: 1

[Editor]
DistanceSpacing: 0.8
BeatDivisor: 4
GridSize: 8
TimelineZoom: 2.4

[Metadata]
Title:IZANA
TitleUnicode:IZANA
Artist:t+pazolite vs. P*Light
ArtistUnicode:t+pazolite vs. P*Light
Creator:araragigun
Version:Present
Source:Arcaea
Tags:HARDCORE TANO*C tanoc tpz lowiro rhythm game nagu TCDR-0037 instrumental electronic techno j-core Remuring Fresh Chicken Aruel FAMoss
BeatmapID:2415432
BeatmapSetID:1112619

[Difficulty]
HPDrainRate:8
CircleSize:4
OverallDifficulty:8
ApproachRate:5
SliderMultiplier:1.4
SliderTickRate:1

[Events]
//Background and Video events
0,0,"maxresdefault.jpg",0,0
//Break Periods
//Storyboard Layer 0 (Background)
//Storyboard Layer 1 (Fail)
//Storyboard Layer 2 (Pass)
//Storyboard Layer 3 (Foreground)
//Storyboard Layer 4 (Overlay)
//Storyboard Sound Samples
Sample,27893,0,"uh.wav",100
Sample,28028,0,"LR_J Hit Pong.wav",70
Sample,32083,0,"LR_J Hit.wav",70
Sample,32623,0,"LR_J Hit Pong.wav",70
Sample,32893,0,"LR_J Hit.wav",70
Sample,33164,0,"LR_J Hit Pong.wav",70
Sample,33434,0,"LR_J Hit.wav",70
Sample,114380,0,"uh.wav",100
Sample,114515,0,"LR_J Hit Pong.wav",70
Sample,118569,0,"LR_J Hit.wav",70
Sample,119110,0,"LR_J Hit Pong.wav",70
Sample,119380,0,"LR_J Hit.wav",70
Sample,119650,0,"LR_J Hit Pong.wav",70
Sample,119920,0,"LR_J Hit.wav",70

[TimingPoints]
56,270.27027027027,4,2,1,50,1,0
26001,-100,4,2,1,50,0,1
34650,-100,4,2,1,50,0,0
112488,-100,4,2,1,50,0,1
121137,-100,4,2,1,50,0,0

[HitObjects]
64,192,56,128,0,866:0:0:0:70:LR4_BassKickReverbXD.wav
192,192,56,1,0,0:0:0:0:
320,192,866,128,0,1001:0:0:0:0:
320,192,1137,128,0,2218:0:0:0:0:
192,192,2218,128,0,2758:0:0:0:0:
448,192,2758,128,0,3164:0:0:0:0:
64,192,3164,128,0,3299:0:0:0:0:
320,192,3299,128,0,4380:0:0:0:0:
192,192,4380,128,0,5191:0:0:0:0:
448,192,5191,128,0,5461:0:0:0:0:
64,192,5461,128,0,6001:0:0:0:0:
320,192,6001,128,0,6407:0:0:0:0:
64,192,6407,128,0,6542:0:0:0:0:
192,192,6542,128,0,7623:0:0:0:0:
448,192,7623,1,0,0:0:0:70:LR_Snare Drum 2.wav
192,192,7758,1,2,0:0:0:0:
320,192,7893,1,0,0:0:0:70:tom02.wav
64,192,8028,1,2,0:0:0:0:
448,192,8164,1,0,0:0:0:70:LR_Snare Drum 3.wav
64,192,8299,1,2,0:0:0:0:
192,192,8299,1,0,0:0:0:0:
64,192,8434,1,0,0:0:0:70:strike.wav
320,192,8434,1,0,0:0:0:0:
448,192,8434,1,0,0:0:0:0:
64,192,8704,128,2,8974:0:0:0:0:
192,192,8704,1,4,0:0:0:0:
448,192,8974,1,8,0:0:0:0:
320,192,9042,1,0,0:0:0:0:
64,192,9110,1,0,0:0:0:0:
192,192,9177,1,0,0:0:0:0:
320,192,9245,1,2,0:0:0:0:
448,192,9245,128,0,9380:0:0:0:0:
192,192,9380,1,0,0:0:0:0:
320,192,9515,1,8,0:0:0:0:
448,192,9515,128,0,9650:0:0:0:0:
192,192,9650,1,0,0:0:0:0:
64,192,9785,1,2,0:0:0:0:
448,192,9785,1,0,0:0:0:0:
64,192,9920,1,0,0:0:0:0:
320,192,10055,1,8,0:0:0:0:
448,192,10055,1,0,0:0:0:0:
192,192,10191,1,0,0:0:0:0:
64,192,10326,1,2,0:0:0:0:
448,192,10326,1,0,0:0:0:0:
320,192,10461,1,0,0:0:0:0:
192,192,10596,1,8,0:0:0:0:
448,192,10596,128,0,10866:0:0:0:0:
192,192,10731,1,0,0:0:0:0:
64,192,10866,1,2,0:0:0:0:
320,192,10866,1,0,0:0:0:0:
320,192,11001,1,0,0:0:0:0:
64,192,11137,1,8,0:0:0:0:
192,192,11137,1,0,0:0:0:0:
320,192,11272,1,0,0:0:0:0:
320,192,11407,1,2,0:0:0:0:
448,192,11407,1,0,0:0:0:0:
64,192,11542,1,0,0:0:0:0:
64,192,11677,1,8,0:0:0:0:
320,192,11677,1,0,0:0:0:0:
192,192,11812,1,0,0:0:0:0:
320,192,11947,1,2,0:0:0:0:
448,192,11947,1,0,0:0:0:0:
320,192,12083,1,0,0:0:0:0:
192,192,12150,1,0,0:0:0:0:
64,192,12218,1,8,0:0:0:0:
448,192,12218,1,0,0:0:0:0:
64,192,12353,1,0,0:0:0:0:
320,192,12488,1,2,0:0:0:0:
448,192,12488,1,0,0:0:0:0:
192,192,12623,1,0,0:0:0:0:
320,192,12691,1,0,0:0:0:0:
64,192,12758,1,8,0:0:0:0:
448,192,12758,1,0,0:0:0:0:
192,192,12893,1,0,0:0:0:0:
320,192,13028,1,2,0:0:0:0:
448,192,13028,1,4,0:0:0:0:
192,192,13231,1,0,0:0:0:0:
64,192,13299,1,8,0:0:0:0:
448,192,13299,1,0,0:0:0:0:
320,192,13434,1,0,0:0:0:0:
64,192,13569,128,2,13704:0:0:0:0:
192,192,13569,1,0,0:0:0:0:
320,192,13704,1,0,0:0:0:0:
64,192,13839,128,8,13974:0:0:0:0:
192,192,13839,1,0,0:0:0:0:
320,192,13974,1,0,0:0:0:0:
64,192,14110,1,2,0:0:0:0:
448,192,14110,1,0,0:0:0:0:
448,192,14245,1,0,0:0:0:0:
64,192,14380,1,8,0:0:0:0:
192,192,14380,1,0,0:0:0:0:
320,192,14515,1,0,0:0:0:0:
64,192,14650,1,2,0:0:0:0:
448,192,14650,1,0,0:0:0:0:
320,192,14785,1,0,0:0:0:0:
192,192,14920,1,8,0:0:0:0:
448,192,14920,128,0,15191:0:0:0:0:
192,192,15055,1,0,0:0:0:0:
64,192,15191,1,2,0:0:0:0:
320,192,15191,1,0,0:0:0:0:
320,192,15326,1,0,0:0:0:0:
64,192,15461,1,8,0:0:0:0:
192,192,15461,1,0,0:0:0:0:
320,192,15596,1,0,0:0:0:0:
64,192,15731,1,2,0:0:0:0:
448,192,15731,1,0,0:0:0:0:
192,192,15866,1,0,0:0:0:0:
320,192,16001,1,8,0:0:0:0:
448,192,16001,1,0,0:0:0:0:
192,192,16137,1,0,0:0:0:0:
64,192,16272,1,0,0:0:0:50:K.wav
448,192,16272,128,0,16542:0:0:0:0:
64,192,16542,1,0,0:0:0:50:K.wav
320,192,16542,128,0,16812:0:0:0:0:
64,192,16812,1,0,0:0:0:50:K.wav
192,192,16812,128,0,17083:0:0:0:0:
448,192,17083,1,2,0:0:0:0:
320,192,17150,1,0,0:0:0:0:
192,192,17218,1,0,0:0:0:0:
64,192,17285,1,0,0:0:0:0:
320,192,17353,1,2,0:0:0:0:
448,192,17353,128,4,17623:0:0:0:0:
64,192,17623,1,8,0:0:0:0:
192,192,17691,1,0,0:0:0:0:
448,192,17758,1,0,0:0:0:0:
320,192,17826,1,0,0:0:0:0:
64,192,17893,128,2,18028:0:0:0:0:
192,192,17893,1,0,0:0:0:0:
320,192,18028,1,0,0:0:0:0:
64,192,18164,128,8,18299:0:0:0:0:
192,192,18164,1,0,0:0:0:0:
320,192,18299,1,0,0:0:0:0:
64,192,18434,1,2,0:0:0:0:
448,192,18434,1,0,0:0:0:0:
448,192,18569,1,0,0:0:0:0:
64,192,18704,1,8,0:0:0:0:
192,192,18704,1,0,0:0:0:0:
320,192,18839,1,0,0:0:0:0:
64,192,18974,1,2,0:0:0:0:
448,192,18974,1,0,0:0:0:0:
192,192,19110,1,0,0:0:0:0:
64,192,19245,128,8,19515:0:0:0:0:
320,192,19245,1,0,0:0:0:0:
320,192,19380,1,0,0:0:0:0:
192,192,19515,1,2,0:0:0:0:
448,192,19515,1,0,0:0:0:0:
192,192,19650,1,0,0:0:0:0:
320,192,19785,1,8,0:0:0:0:
448,192,19785,1,0,0:0:0:0:
192,192,19920,1,0,0:0:0:0:
64,192,20055,1,2,0:0:0:0:
192,192,20055,1,0,0:0:0:0:
448,192,20191,1,0,0:0:0:0:
192,192,20326,1,8,0:0:0:0:
448,192,20326,1,0,0:0:0:0:
320,192,20461,1,0,0:0:0:0:
64,192,20596,1,2,0:0:0:0:
192,192,20596,1,0,0:0:0:0:
192,192,20731,1,0,0:0:0:0:
320,192,20799,1,0,0:0:0:0:
64,192,20866,1,8,0:0:0:0:
448,192,20866,1,0,0:0:0:0:
448,192,21001,1,0,0:0:0:0:
64,192,21137,1,2,0:0:0:0:
192,192,21137,1,0,0:0:0:0:
320,192,21272,1,0,0:0:0:0:
192,192,21339,1,0,0:0:0:0:
64,192,21407,1,8,0:0:0:0:
448,192,21407,1,0,0:0:0:0:
320,192,21542,1,0,0:0:0:0:
64,192,21677,1,2,0:0:0:0:
192,192,21677,1,4,0:0:0:0:
448,192,21812,1,0,0:0:0:0:
192,192,21947,1,8,0:0:0:0:
320,192,22015,1,0,0:0:0:0:
192,192,22083,1,0,0:0:0:0:
320,192,22150,1,0,0:0:0:0:
64,192,22218,1,2,0:0:0:0:
448,192,22218,1,4,0:0:0:0:
192,192,22353,1,0,0:0:0:0:
320,192,22488,1,8,0:0:0:0:
448,192,22488,1,0,0:0:0:0:
192,192,22623,1,0,0:0:0:0:
64,192,22758,1,2,0:0:0:0:
448,192,22758,1,4,0:0:0:0:
64,192,22893,1,0,0:0:0:0:
192,192,22961,1,0,0:0:0:0:
320,192,23028,1,8,0:0:0:0:
448,192,23028,1,0,0:0:0:0:
320,192,23164,1,0,0:0:0:0:
64,192,23299,1,2,0:0:0:0:
192,192,23299,1,4,0:0:0:0:
448,192,23434,1,0,0:0:0:0:
192,192,23569,1,8,0:0:0:0:
320,192,23569,1,0,0:0:0:0:
64,192,23704,1,0,0:0:0:0:
320,192,23839,1,2,0:0:0:0:
448,192,23839,1,4,0:0:0:0:
192,192,23974,1,0,0:0:0:0:
64,192,24110,1,8,0:0:0:0:
448,192,24110,1,4,0:0:0:0:
320,192,24245,1,0,0:0:0:0:
64,192,24380,1,2,0:0:0:0:
192,192,24380,1,4,0:0:0:0:
448,192,24515,1,0,0:0:0:0:
192,192,24650,1,8,0:0:0:0:
320,192,24650,1,4,0:0:0:0:
64,192,24785,1,0,0:0:0:0:
320,192,24920,1,4,0:0:0:0:
448,192,24920,1,2,0:0:0:0:
320,192,25461,1,0,0:0:0:50:tom01.wav
64,192,25596,1,0,0:0:0:50:tom02.wav
192,192,25664,1,0,0:0:0:50:tom02.wav
448,192,25731,1,0,0:0:0:50:tom03.wav
320,192,25866,1,0,0:0:0:50:tom04.wav
64,192,26001,1,2,0:0:0:0:
192,192,26001,1,4,0:0:0:0:
192,192,26272,1,0,0:0:0:50:LR4_SnareBPDT.wav
448,192,26272,1,0,0:0:0:0:
64,192,26407,1,4,0:0:0:0:
320,192,26407,1,2,0:0:0:0:
448,192,26677,1,0,0:0:0:50:LR4_SnareBPDT.wav
320,192,26745,1,0,0:0:0:50:LR4_SnareBPDT.wav
64,192,26812,128,6,27083:0:0:0:0:
192,192,26812,1,0,0:0:0:70:ahhn.wav
320,192,27083,1,2,0:0:0:0:
448,192,27083,1,4,0:0:0:0:
64,192,27353,1,0,0:0:0:50:LR4_SnareBPDT.wav
320,192,27353,1,0,0:0:0:0:
192,192,27488,1,4,0:0:0:0:
448,192,27488,1,2,0:0:0:0:
320,192,27758,1,0,0:0:0:70:LR_J Hit Pong.wav
320,192,27893,128,0,28164:0:0:0:70:LR_J Hit Pong.wav
64,192,28164,1,4,0:0:0:0:
192,192,28164,1,2,0:0:0:0:
64,192,28434,1,0,0:0:0:50:LR4_SnareBPDT.wav
448,192,28434,1,0,0:0:0:0:
192,192,28569,1,2,0:0:0:0:
320,192,28569,1,4,0:0:0:0:
448,192,28839,1,0,0:0:0:50:LR4_SnareBPDT.wav
320,192,28907,1,0,0:0:0:50:LR4_SnareBPDT.wav
64,192,28974,128,6,29245:0:0:0:0:
192,192,28974,1,0,0:0:0:100:what.wav
320,192,29245,1,4,0:0:0:0:
448,192,29245,1,2,0:0:0:0:
64,192,29515,1,0,0:0:0:50:LR4_SnareBPDT.wav
448,192,29515,1,0,0:0:0:0:
192,192,29650,1,2,0:0:0:0:
320,192,29650,1,4,0:0:0:0:
448,192,29785,1,0,0:0:0:70:yeah_.wav
192,192,29920,1,0,0:0:0:70:LR_J Hit.wav
448,192,30055,1,0,0:0:0:70:LR_J Hit.wav
320,192,30191,1,0,0:0:0:70:LR_J Hit.wav
64,192,30326,1,2,0:0:0:0:
192,192,30326,1,4,0:0:0:0:
320,192,30461,1,0,0:0:0:50:S1.wav
64,192,30596,1,2,0:0:0:0:
448,192,30596,1,0,0:0:0:70:LR_J Hit Pong.wav
192,192,30731,1,0,0:0:0:70:LR_J Hit Pong.wav
320,192,30866,1,2,0:0:0:0:
448,192,30866,1,4,0:0:0:0:
192,192,31001,1,0,0:0:0:50:S1.wav
64,192,31137,1,2,0:0:0:0:
448,192,31137,1,0,0:0:0:70:LR_J Hit.wav
320,192,31272,1,0,0:0:0:70:LR_J Hit.wav
64,192,31407,1,4,0:0:0:0:
192,192,31407,1,2,0:0:0:0:
448,192,31542,1,0,0:0:0:50:S1.wav
64,192,31677,1,2,0:0:0:0:
320,192,31677,1,0,0:0:0:70:LR_J Hit Pong.wav
192,192,31812,1,0,0:0:0:70:LR_J Hit Pong.wav
320,192,31947,1,2,0:0:0:0:
448,192,31947,1,4,0:0:0:0:
64,192,32083,1,0,0:0:0:50:S1.wav
192,192,32218,1,2,0:0:0:0:
448,192,32218,1,0,0:0:0:70:LR_J Hit.wav
320,192,32353,1,0,0:0:0:70:LR_J Hit.wav
64,192,32488,1,4,0:0:0:0:
448,192,32488,1,2,0:0:0:0:
192,192,32555,1,0,0:0:0:50:S1.wav
448,192,32623,1,0,0:0:0:50:S1.wav
320,192,32691,1,0,0:0:0:50:S1.wav
64,192,32758,1,2,0:0:0:0:
192,192,32758,1,4,0:0:0:0:
448,192,32826,1,0,0:0:0:50:S1.wav
320,192,32893,1,0,0:0:0:50:S1.wav
192,192,32961,1,0,0:0:0:50:S1.wav
64,192,33028,1,2,0:0:0:0:
448,192,33028,1,4,0:0:0:0:
320,192,33096,1,0,0:0:0:50:S1.wav
64,192,33164,1,0,0:0:0:50:S1.wav
192,192,33231,1,0,0:0:0:50:S1.wav
320,192,33299,1,2,0:0:0:0:
448,192,33299,1,4,0:0:0:0:
64,192,33366,1,0,0:0:0:50:S1.wav
192,192,33434,1,0,0:0:0:50:S1.wav
320,192,33501,1,0,0:0:0:50:S1.wav
64,192,33569,1,0,0:0:0:70:LR_Snare Drum 2.wav
192,192,33704,1,2,0:0:0:0:
448,192,33839,1,0,0:0:0:70:tom02.wav
320,192,33974,1,2,0:0:0:0:
192,192,34110,1,0,0:0:0:70:LR_Snare Drum 3.wav
64,192,34380,1,0,0:0:0:70:strike.wav
320,192,34380,1,0,0:0:0:70:wou.wav
448,192,34380,1,0,0:0:0:0:
320,192,34650,1,2,0:0:0:0:
448,192,34650,1,4,0:0:0:0:
192,192,34785,1,0,0:0:0:0:
64,192,34920,1,8,0:0:0:0:
448,192,34920,1,0,0:0:0:0:
320,192,35055,1,0,0:0:0:0:
64,192,35191,1,2,0:0:0:0:
192,192,35191,1,0,0:0:0:0:
192,192,35326,1,0,0:0:0:0:
448,192,35461,1,8,0:0:0:0:
320,192,35528,1,0,0:0:0:0:
64,192,35596,1,0,0:0:0:0:
192,192,35664,1,0,0:0:0:0:
320,192,35731,1,2,0:0:0:0:
448,192,35731,128,0,36001:0:0:0:0:
64,192,36001,1,8,0:0:0:0:
192,192,36001,1,0,0:0:0:0:
64,192,36137,1,0,0:0:0:0:
320,192,36272,1,2,0:0:0:0:
448,192,36272,1,0,0:0:0:0:
192,192,36407,1,0,0:0:0:0:
64,192,36542,1,8,0:0:0:0:
448,192,36542,128,0,36812:0:0:0:0:
64,192,36812,1,2,0:0:0:0:
192,192,36812,1,0,0:0:0:0:
320,192,36947,1,0,0:0:0:0:
64,192,37083,1,8,0:0:0:0:
448,192,37083,1,0,0:0:0:0:
192,192,37218,1,0,0:0:0:0:
320,192,37353,1,2,0:0:0:0:
448,192,37353,1,0,0:0:0:0:
320,192,37488,1,0,0:0:0:0:
64,192,37623,1,8,0:0:0:0:
192,192,37691,1,0,0:0:0:0:
448,192,37758,1,0,0:0:0:0:
320,192,37826,1,0,0:0:0:0:
64,192,37893,128,2,38164:0:0:0:0:
192,192,37893,1,0,0:0:0:50:LR3_BassDropSSG.wav
320,192,38164,128,0,38299:0:0:0:0:
192,192,38299,128,0,38569:0:0:0:0:
448,192,38569,128,0,38704:0:0:0:0:
320,192,38704,128,0,38839:0:0:0:0:
192,192,38839,128,0,38974:0:0:0:0:
64,192,38974,1,2,0:0:0:0:
448,192,38974,1,4,0:0:0:0:
320,192,39110,1,0,0:0:0:0:
64,192,39245,1,8,0:0:0:0:
192,192,39245,1,0,0:0:0:0:
320,192,39380,1,0,0:0:0:0:
64,192,39515,1,0,0:0:0:0:
448,192,39515,1,2,0:0:0:0:
448,192,39650,1,0,0:0:0:0:
64,192,39785,1,8,0:0:0:0:
192,192,39853,1,0,0:0:0:0:
448,192,39920,1,0,0:0:0:0:
320,192,39988,1,0,0:0:0:0:
64,192,40055,1,2,0:0:0:0:
192,192,40055,1,0,0:0:0:0:
64,192,40258,1,2,0:0:0:0:
192,192,40258,1,0,0:0:0:0:
320,192,40326,1,8,0:0:0:0:
448,192,40326,1,0,0:0:0:0:
320,192,40461,1,0,0:0:0:0:
64,192,40596,1,2,0:0:0:0:
192,192,40596,1,0,0:0:0:0:
64,192,40731,1,2,0:0:0:0:
448,192,40731,1,0,0:0:0:0:
320,192,40866,1,0,0:0:0:0:
192,192,40934,1,0,0:0:0:0:
320,192,41001,1,0,0:0:0:0:
192,192,41069,1,0,0:0:0:0:
64,192,41137,1,2,0:0:0:0:
448,192,41137,128,4,41407:0:0:0:0:
192,192,41407,128,0,41542:0:0:0:0:
320,192,41542,128,2,41812:0:0:0:0:
448,192,41542,1,0,0:0:0:0:
64,192,41812,128,0,41947:0:0:0:0:
192,192,41947,128,2,42083:0:0:0:0:
448,192,41947,1,0,0:0:0:0:
320,192,42083,128,0,42218:0:0:0:0:
64,192,42218,128,2,42353:0:0:0:0:
192,192,42218,1,0,0:0:0:0:
448,192,42353,128,0,42623:0:0:0:0:
64,192,42623,1,2,0:0:0:0:
192,192,42623,128,0,42758:0:0:0:0:
320,192,42758,128,0,42893:0:0:0:0:
64,192,42893,128,0,43028:0:0:0:0:
320,192,43028,1,0,0:0:0:70:strike.wav
448,192,43028,1,0,0:0:0:0:
64,192,43299,1,2,0:0:0:0:
192,192,43299,1,4,0:0:0:0:
320,192,43434,1,0,0:0:0:0:
64,192,43569,1,8,0:0:0:0:
448,192,43569,1,0,0:0:0:0:
192,192,43704,1,0,0:0:0:0:
320,192,43839,1,2,0:0:0:0:
448,192,43839,1,0,0:0:0:0:
320,192,43974,1,0,0:0:0:0:
64,192,44110,1,8,0:0:0:0:
192,192,44177,1,0,0:0:0:0:
320,192,44245,1,0,0:0:0:0:
448,192,44312,1,0,0:0:0:0:
64,192,44380,128,0,44650:0:0:0:0:
192,192,44380,1,2,0:0:0:0:
448,192,44650,1,0,0:0:0:0:
320,192,44650,1,8,0:0:0:0:
448,192,44785,1,0,0:0:0:0:
64,192,44920,1,2,0:0:0:0:
192,192,44920,1,0,0:0:0:0:
320,192,45055,1,0,0:0:0:0:
64,192,45191,128,0,45461:0:0:0:0:
448,192,45191,1,8,0:0:0:0:
320,192,45461,1,2,0:0:0:0:
448,192,45461,1,0,0:0:0:0:
192,192,45596,1,0,0:0:0:0:
64,192,45731,1,8,0:0:0:0:
448,192,45731,1,0,0:0:0:0:
320,192,45866,1,0,0:0:0:0:
64,192,46001,1,2,0:0:0:0:
192,192,46001,1,0,0:0:0:0:
192,192,46137,1,0,0:0:0:0:
448,192,46272,1,8,0:0:0:0:
320,192,46339,1,0,0:0:0:0:
192,192,46407,1,0,0:0:0:0:
64,192,46474,1,0,0:0:0:0:
320,192,46542,1,2,0:0:0:0:
448,192,46542,1,4,0:0:0:0:
192,192,46745,1,8,0:0:0:0:
64,192,46745,1,4,0:0:0:0:
320,192,46947,1,2,0:0:0:0:
448,192,46947,1,4,0:0:0:0:
192,192,47150,1,8,0:0:0:0:
64,192,47150,1,4,0:0:0:0:
320,192,47353,1,2,0:0:0:0:
448,192,47353,1,4,0:0:0:0:
192,192,47623,1,2,0:0:0:0:
64,192,47623,1,0,0:0:0:0:
448,192,47623,128,4,47893:0:0:0:0:
64,192,47893,1,8,0:0:0:0:
192,192,47893,1,0,0:0:0:0:
192,192,48028,1,2,0:0:0:0:
448,192,48028,1,0,0:0:0:0:
64,192,48164,1,2,0:0:0:0:
320,192,48164,1,4,0:0:0:0:
320,192,48299,1,2,0:0:0:0:
448,192,48299,1,0,0:0:0:0:
64,192,48434,1,8,0:0:0:0:
192,192,48434,1,0,0:0:0:0:
64,192,48569,1,2,0:0:0:0:
192,192,48569,1,0,0:0:0:0:
320,192,48704,1,2,0:0:0:0:
448,192,48704,1,4,0:0:0:0:
320,192,48839,1,2,0:0:0:0:
448,192,48839,1,0,0:0:0:0:
64,192,48974,1,8,0:0:0:0:
192,192,48974,1,0,0:0:0:0:
192,192,49110,1,2,0:0:0:0:
448,192,49110,1,0,0:0:0:0:
64,192,49245,1,2,0:0:0:0:
320,192,49245,1,4,0:0:0:0:
320,192,49380,1,2,0:0:0:0:
448,192,49380,1,0,0:0:0:0:
64,192,49515,1,8,0:0:0:0:
192,192,49515,1,0,0:0:0:0:
64,192,49650,1,2,0:0:0:0:
192,192,49650,1,0,0:0:0:0:
448,192,49785,1,6,0:0:0:0:
320,192,49853,1,2,0:0:0:0:
64,192,49920,1,2,0:0:0:0:
192,192,49988,1,2,0:0:0:0:
448,192,50055,1,12,0:0:0:0:
320,192,50123,1,2,0:0:0:0:
64,192,50191,1,2,0:0:0:0:
192,192,50258,1,2,0:0:0:0:
320,192,50326,1,6,0:0:0:0:
448,192,50393,1,2,0:0:0:0:
192,192,50461,1,2,0:0:0:0:
64,192,50528,1,2,0:0:0:0:
320,192,50596,1,12,0:0:0:0:
448,192,50664,1,2,0:0:0:0:
192,192,50731,1,2,0:0:0:0:
64,192,50799,1,2,0:0:0:0:
448,192,50866,1,6,0:0:0:0:
192,192,50934,1,2,0:0:0:0:
320,192,51001,1,2,0:0:0:0:
64,192,51069,1,2,0:0:0:0:
448,192,51137,1,12,0:0:0:0:
192,192,51204,1,2,0:0:0:0:
320,192,51272,1,2,0:0:0:0:
64,192,51339,1,2,0:0:0:0:
320,192,51407,1,2,0:0:0:0:
448,192,51407,1,4,0:0:0:0:
64,192,51677,1,0,0:0:0:70:strike.wav
320,192,51677,1,0,0:0:0:0:
448,192,51677,1,0,0:0:0:0:
64,192,51947,1,0,0:0:0:50:LR3_BassDropSSG.wav
320,192,52758,1,0,0:0:0:0:
320,192,53028,1,0,0:0:0:0:
192,192,54110,1,0,0:0:0:0:
448,192,54650,1,0,0:0:0:0:
64,192,55055,1,0,0:0:0:0:
320,192,55191,1,0,0:0:0:0:
64,192,56272,1,0,0:0:0:0:
320,192,57083,1,0,0:0:0:0:
320,192,57353,1,0,0:0:0:0:
192,192,58434,1,0,0:0:0:0:
448,192,58974,1,0,0:0:0:0:
320,192,59515,1,0,0:0:0:0:
64,192,60596,128,0,61407:0:0:0:70:LR4_BassKickReverbXD.wav
192,192,60596,1,0,0:0:0:0:
448,192,61137,1,0,0:0:0:70:Clap.wav
320,192,61407,128,0,61542:0:0:0:0:
320,192,61677,128,0,62758:0:0:0:0:
64,192,62218,1,0,0:0:0:70:Clap.wav
192,192,62758,128,0,63299:0:0:0:0:
64,192,63299,1,0,0:0:0:70:Clap.wav
448,192,63299,128,0,63704:0:0:0:0:
320,192,63569,1,0,0:0:0:0:
192,192,63704,128,0,63839:0:0:0:0:
320,192,63839,128,0,64920:0:0:0:0:
64,192,64380,1,0,0:0:0:70:Clap.wav
192,192,64920,128,0,65731:0:0:0:0:
448,192,65461,1,0,0:0:0:70:Clap.wav
448,192,65731,128,0,66001:0:0:0:0:
64,192,66001,128,0,66542:0:0:0:0:
320,192,66542,128,0,66947:0:0:0:70:Clap.wav
448,192,66542,1,0,0:0:0:0:
64,192,66812,1,0,0:0:0:0:
192,192,66947,128,0,67083:0:0:0:0:
64,192,67083,128,0,68704:0:0:0:0:
320,192,67623,1,0,0:0:0:70:Clap.wav
448,192,67893,1,0,0:0:0:0:
448,192,68704,128,0,73569:0:0:0:70:Clap.wav
64,192,69245,1,2,0:0:0:0:
192,192,69245,1,4,0:0:0:0:
64,192,69515,1,0,0:0:0:50:S1.wav
64,192,69785,1,0,0:0:0:50:S1.wav
64,192,70055,1,0,0:0:0:50:S1.wav
64,192,70326,1,0,0:0:0:50:S1.wav
64,192,70596,1,0,0:0:0:50:S1.wav
64,192,70866,1,0,0:0:0:50:S1.wav
192,192,70866,128,0,71001:0:0:0:0:
64,192,71137,1,0,0:0:0:50:S1.wav
192,192,71137,128,0,71272:0:0:0:0:
64,192,71407,1,0,0:0:0:50:S1.wav
64,192,71677,1,0,0:0:0:50:S1.wav
64,192,71947,1,0,0:0:0:50:S1.wav
192,192,71947,128,0,72083:0:0:0:0:
64,192,72218,1,0,0:0:0:50:S1.wav
192,192,72218,128,0,72353:0:0:0:0:
64,192,72488,1,0,0:0:0:50:S1.wav
64,192,72758,1,0,0:0:0:50:S1.wav
64,192,73028,1,0,0:0:0:50:S1.wav
192,192,73028,128,0,73164:0:0:0:0:
64,192,73299,1,0,0:0:0:50:S1.wav
192,192,73299,128,0,73434:0:0:0:0:
64,192,73569,1,0,0:0:0:50:S1.wav
192,192,73569,1,0,0:0:0:0:
320,192,73704,1,0,0:0:0:50:S1.wav
64,192,73839,1,0,0:0:0:50:S1.wav
448,192,73839,1,0,0:0:0:0:
192,192,73974,1,0,0:0:0:50:S1.wav
320,192,74110,1,0,0:0:0:50:S1.wav
448,192,74110,1,0,0:0:0:0:
192,192,74245,1,0,0:0:0:50:S1.wav
64,192,74380,1,0,0:0:0:50:S1.wav
448,192,74380,1,0,0:0:0:0:
320,192,74515,1,0,0:0:0:50:S1.wav
64,192,74650,1,0,0:0:0:50:S1.wav
192,192,74650,1,0,0:0:0:0:
320,192,74785,1,0,0:0:0:50:S1.wav
64,192,74920,1,0,0:0:0:50:S1.wav
448,192,74920,1,0,0:0:0:0:
192,192,75055,1,0,0:0:0:50:S1.wav
320,192,75191,1,0,0:0:0:50:S1.wav
448,192,75191,1,0,0:0:0:0:
192,192,75326,1,0,0:0:0:50:S1.wav
64,192,75461,1,0,0:0:0:50:S1.wav
448,192,75461,1,0,0:0:0:0:
320,192,75596,1,0,0:0:0:50:S1.wav
64,192,75731,1,0,0:0:0:50:S1.wav
192,192,75799,1,0,0:0:0:50:S1.wav
320,192,75866,1,0,0:0:0:50:S1.wav
448,192,75934,1,0,0:0:0:50:S1.wav
64,192,76001,1,0,0:0:0:50:S1.wav
192,192,76069,1,0,0:0:0:50:S1.wav
448,192,76137,1,0,0:0:0:50:S1.wav
320,192,76204,1,0,0:0:0:50:S1.wav
192,192,76272,1,0,0:0:0:50:S1.wav
64,192,76339,1,0,0:0:0:50:S1.wav
320,192,76407,1,0,0:0:0:50:S1.wav
448,192,76474,1,0,0:0:0:50:S1.wav
64,192,76542,1,0,0:0:0:50:S1.wav
192,192,76610,1,0,0:0:0:50:S1.wav
320,192,76677,1,0,0:0:0:50:S1.wav
448,192,76745,1,0,0:0:0:50:S1.wav
64,192,76812,1,0,0:0:0:50:LR3_BassDropSSG.wav
192,192,76812,1,0,0:0:0:0:
192,192,77353,1,0,0:0:0:50:tom01.wav
448,192,77488,1,0,0:0:0:50:tom02.wav
320,192,77555,1,0,0:0:0:50:tom02.wav
64,192,77623,1,0,0:0:0:70:strike.wav
192,192,77623,1,0,0:0:0:0:
192,192,77893,1,2,0:0:0:0:
320,192,77893,1,4,0:0:0:0:
448,192,77893,1,0,0:0:0:0:
64,192,78164,1,8,0:0:0:0:
448,192,78164,1,0,0:0:0:0:
320,192,78299,1,0,0:0:0:0:
64,192,78434,1,2,0:0:0:0:
448,192,78434,1,0,0:0:0:0:
192,192,78569,1,0,0:0:0:0:
320,192,78704,1,8,0:0:0:0:
448,192,78704,1,0,0:0:0:0:
64,192,78839,128,0,79110:0:0:0:0:
320,192,78974,1,2,0:0:0:0:
448,192,78974,1,0,0:0:0:0:
320,192,79110,128,0,79515:0:0:0:0:
64,192,79245,1,8,0:0:0:0:
192,192,79245,1,0,0:0:0:0:
64,192,79515,128,0,79785:0:0:0:0:
448,192,79515,1,2,0:0:0:0:
192,192,79785,128,0,80055:0:0:0:0:
448,192,79785,1,8,0:0:0:0:
320,192,80055,1,2,0:0:0:0:
448,192,80055,1,0,0:0:0:0:
64,192,80326,1,8,0:0:0:0:
192,192,80326,1,0,0:0:0:0:
448,192,80461,1,0,0:0:0:0:
64,192,80596,1,2,0:0:0:0:
192,192,80596,1,0,0:0:0:0:
320,192,80731,1,0,0:0:0:0:
64,192,80866,1,8,0:0:0:0:
448,192,80866,1,0,0:0:0:0:
320,192,81001,128,0,81272:0:0:0:0:
64,192,81137,1,2,0:0:0:0:
192,192,81137,1,0,0:0:0:0:
64,192,81272,128,0,81677:0:0:0:0:
320,192,81407,1,8,0:0:0:0:
448,192,81407,1,0,0:0:0:0:
192,192,81677,1,2,0:0:0:0:
448,192,81677,128,0,81947:0:0:0:0:
192,192,81947,1,8,0:0:0:0:
320,192,81947,128,0,82218:0:0:0:0:
64,192,82218,1,2,0:0:0:0:
448,192,82218,1,4,0:0:0:0:
320,192,82488,1,8,0:0:0:0:
448,192,82488,1,0,0:0:0:0:
64,192,82623,1,0,0:0:0:0:
320,192,82758,1,2,0:0:0:0:
448,192,82758,1,0,0:0:0:0:
192,192,82893,1,0,0:0:0:0:
64,192,83028,1,8,0:0:0:0:
448,192,83028,1,0,0:0:0:0:
192,192,83164,128,0,83434:0:0:0:0:
320,192,83299,1,2,0:0:0:0:
448,192,83299,1,0,0:0:0:0:
448,192,83434,128,0,83839:0:0:0:0:
64,192,83569,1,8,0:0:0:0:
192,192,83569,1,0,0:0:0:0:
64,192,83839,128,0,84110:0:0:0:0:
320,192,83839,1,2,0:0:0:0:
192,192,84110,128,0,84380:0:0:0:0:
320,192,84110,1,8,0:0:0:0:
64,192,84380,1,2,0:0:0:0:
448,192,84380,128,4,84650:0:0:0:0:
64,192,84785,128,4,85055:0:0:0:0:
448,192,84785,1,2,0:0:0:0:
320,192,85191,128,4,85461:0:0:0:0:
448,192,85191,1,2,0:0:0:0:
64,192,85596,1,2,0:0:0:0:
192,192,85596,128,4,85866:0:0:0:0:
64,192,86001,1,4,0:0:0:0:
448,192,86001,1,2,0:0:0:0:
64,192,86272,1,2,0:0:0:0:
448,192,86272,1,4,0:0:0:0:
320,192,86542,1,2,0:0:0:0:
448,192,86542,1,4,0:0:0:0:
192,192,86677,1,0,0:0:0:0:
64,192,86812,1,8,0:0:0:0:
448,192,86812,1,0,0:0:0:0:
320,192,86947,1,0,0:0:0:0:
64,192,87083,1,2,0:0:0:0:
448,192,87083,1,0,0:0:0:0:
192,192,87218,1,0,0:0:0:0:
320,192,87353,1,8,0:0:0:0:
448,192,87353,1,0,0:0:0:0:
64,192,87488,1,0,0:0:0:0:
192,192,87623,1,2,0:0:0:0:
448,192,87623,1,0,0:0:0:0:
320,192,87758,1,0,0:0:0:0:
64,192,87893,1,8,0:0:0:0:
448,192,87893,1,0,0:0:0:0:
192,192,88028,1,0,0:0:0:0:
320,192,88164,1,2,0:0:0:0:
448,192,88164,1,0,0:0:0:0:
192,192,88299,1,0,0:0:0:0:
64,192,88434,1,8,0:0:0:0:
448,192,88434,1,0,0:0:0:0:
320,192,88569,1,0,0:0:0:0:
64,192,88704,1,2,0:0:0:0:
192,192,88704,1,0,0:0:0:0:
320,192,88839,1,0,0:0:0:0:
64,192,88974,1,8,0:0:0:0:
448,192,88974,1,0,0:0:0:0:
192,192,89110,1,0,0:0:0:0:
64,192,89245,1,2,0:0:0:0:
448,192,89245,1,0,0:0:0:0:
320,192,89380,1,0,0:0:0:0:
64,192,89515,1,8,0:0:0:0:
192,192,89515,1,0,0:0:0:0:
448,192,89650,1,0,0:0:0:0:
64,192,89785,1,2,0:0:0:0:
320,192,89785,1,0,0:0:0:0:
192,192,89920,1,0,0:0:0:0:
64,192,90055,1,8,0:0:0:0:
448,192,90055,1,0,0:0:0:0:
320,192,90191,1,0,0:0:0:0:
64,192,90326,1,2,0:0:0:0:
192,192,90326,1,0,0:0:0:0:
192,192,90461,1,0,0:0:0:0:
320,192,90596,1,8,0:0:0:0:
448,192,90596,1,0,0:0:0:0:
320,192,90731,1,0,0:0:0:0:
64,192,90866,1,2,0:0:0:0:
192,192,90866,1,4,0:0:0:0:
192,192,91069,1,0,0:0:0:0:
320,192,91137,1,8,0:0:0:0:
448,192,91137,1,0,0:0:0:0:
192,192,91272,1,0,0:0:0:0:
64,192,91407,1,2,0:0:0:0:
448,192,91407,1,0,0:0:0:0:
320,192,91542,1,0,0:0:0:0:
64,192,91610,1,2,0:0:0:0:
192,192,91610,1,0,0:0:0:0:
320,192,91677,1,8,0:0:0:0:
448,192,91677,1,0,0:0:0:0:
320,192,91812,1,2,0:0:0:0:
448,192,91812,1,0,0:0:0:0:
64,192,91947,1,2,0:0:0:0:
192,192,91947,1,4,0:0:0:0:
64,192,92083,1,2,0:0:0:0:
192,192,92083,1,0,0:0:0:0:
320,192,92218,1,8,0:0:0:0:
448,192,92218,1,0,0:0:0:0:
192,192,92353,1,0,0:0:0:0:
64,192,92488,1,2,0:0:0:0:
448,192,92488,1,0,0:0:0:0:
192,192,92623,1,2,0:0:0:0:
320,192,92691,1,2,0:0:0:0:
448,192,92691,1,0,0:0:0:0:
64,192,92758,1,8,0:0:0:0:
192,192,92758,1,0,0:0:0:0:
64,192,92893,1,2,0:0:0:0:
192,192,92893,1,0,0:0:0:0:
320,192,93028,1,2,0:0:0:0:
448,192,93028,1,4,0:0:0:0:
192,192,93164,1,2,0:0:0:0:
448,192,93164,1,0,0:0:0:0:
64,192,93299,1,8,0:0:0:0:
320,192,93299,1,0,0:0:0:0:
64,192,93434,1,2,0:0:0:0:
192,192,93434,1,0,0:0:0:0:
448,192,93569,1,6,0:0:0:0:
320,192,93637,1,2,0:0:0:0:
64,192,93704,1,2,0:0:0:0:
192,192,93772,1,2,0:0:0:0:
320,192,93839,1,8,0:0:0:0:
448,192,93839,1,0,0:0:0:0:
64,192,93974,1,2,0:0:0:0:
192,192,94042,1,2,0:0:0:0:
448,192,94110,1,6,0:0:0:0:
320,192,94177,1,2,0:0:0:0:
64,192,94245,1,2,0:0:0:0:
192,192,94312,1,2,0:0:0:0:
448,192,94380,1,6,0:0:0:0:
320,192,94447,1,2,0:0:0:0:
64,192,94515,1,2,0:0:0:0:
192,192,94583,1,2,0:0:0:0:
320,192,94650,1,2,0:0:0:0:
448,192,94650,1,4,0:0:0:0:
192,192,94785,1,0,0:0:0:0:
64,192,94920,1,0,0:0:0:70:strike.wav
448,192,94920,1,0,0:0:0:0:
320,192,95055,1,0,0:0:0:0:
64,192,95191,128,4,95461:0:0:0:0:
192,192,95191,1,2,0:0:0:0:
448,192,95461,1,8,0:0:0:0:
320,192,95528,1,0,0:0:0:0:
64,192,95596,1,0,0:0:0:0:
192,192,95664,1,0,0:0:0:0:
320,192,95731,1,2,0:0:0:0:
448,192,95731,128,0,95866:0:0:0:0:
192,192,95866,1,0,0:0:0:0:
320,192,96001,1,8,0:0:0:0:
448,192,96001,128,0,96137:0:0:0:0:
192,192,96137,1,0,0:0:0:0:
64,192,96272,1,2,0:0:0:0:
448,192,96272,1,0,0:0:0:0:
64,192,96407,1,0,0:0:0:0:
320,192,96542,1,8,0:0:0:0:
448,192,96542,1,0,0:0:0:0:
192,192,96677,1,0,0:0:0:0:
64,192,96812,1,2,0:0:0:0:
448,192,96812,1,0,0:0:0:0:
320,192,96947,1,0,0:0:0:0:
64,192,97083,1,8,0:0:0:0:
448,192,97083,128,0,97353:0:0:0:0:
192,192,97218,1,0,0:0:0:0:
64,192,97353,1,2,0:0:0:0:
320,192,97353,1,0,0:0:0:0:
320,192,97488,1,0,0:0:0:0:
64,192,97623,1,8,0:0:0:0:
192,192,97623,1,0,0:0:0:0:
320,192,97758,1,0,0:0:0:0:
320,192,97893,1,2,0:0:0:0:
448,192,97893,1,0,0:0:0:0:
64,192,98028,1,0,0:0:0:0:
64,192,98164,1,8,0:0:0:0:
320,192,98164,1,0,0:0:0:0:
192,192,98299,1,0,0:0:0:0:
320,192,98434,1,2,0:0:0:0:
448,192,98434,1,0,0:0:0:0:
320,192,98569,1,0,0:0:0:0:
192,192,98637,1,0,0:0:0:0:
64,192,98704,1,8,0:0:0:0:
448,192,98704,1,0,0:0:0:0:
64,192,98839,1,0,0:0:0:0:
320,192,98974,1,2,0:0:0:0:
448,192,98974,1,0,0:0:0:0:
192,192,99110,1,0,0:0:0:0:
320,192,99177,1,0,0:0:0:0:
64,192,99245,1,8,0:0:0:0:
448,192,99245,1,0,0:0:0:0:
192,192,99380,1,0,0:0:0:0:
320,192,99515,1,2,0:0:0:0:
448,192,99515,1,4,0:0:0:0:
192,192,99718,1,0,0:0:0:0:
64,192,99785,1,8,0:0:0:0:
448,192,99785,1,0,0:0:0:0:
320,192,99920,1,0,0:0:0:0:
64,192,100055,128,0,100191:0:0:0:0:
192,192,100055,1,2,0:0:0:0:
320,192,100191,1,0,0:0:0:0:
64,192,100326,128,0,100461:0:0:0:0:
192,192,100326,1,8,0:0:0:0:
320,192,100461,1,0,0:0:0:0:
64,192,100596,1,2,0:0:0:0:
448,192,100596,1,0,0:0:0:0:
448,192,100731,1,0,0:0:0:0:
64,192,100866,1,8,0:0:0:0:
192,192,100866,1,0,0:0:0:0:
320,192,101001,1,0,0:0:0:0:
64,192,101137,1,2,0:0:0:0:
448,192,101137,1,0,0:0:0:0:
320,192,101272,1,0,0:0:0:0:
64,192,101407,1,8,0:0:0:0:
448,192,101407,128,0,101677:0:0:0:0:
192,192,101542,1,0,0:0:0:0:
64,192,101677,128,2,101947:0:0:0:0:
320,192,101677,1,4,0:0:0:0:
192,192,102083,1,4,0:0:0:0:
448,192,102083,128,2,102353:0:0:0:0:
64,192,102488,1,4,0:0:0:0:
192,192,102488,128,2,102758:0:0:0:0:
320,192,102893,128,2,103164:0:0:0:0:
448,192,102893,1,4,0:0:0:0:
64,192,103299,1,4,0:0:0:0:
448,192,103299,1,2,0:0:0:0:
64,192,103569,1,2,0:0:0:0:
448,192,103569,1,4,0:0:0:0:
320,192,103839,1,2,0:0:0:0:
448,192,103839,128,4,104110:0:0:0:0:
64,192,104110,1,8,0:0:0:0:
192,192,104177,1,0,0:0:0:0:
448,192,104245,1,0,0:0:0:0:
320,192,104312,1,0,0:0:0:0:
64,192,104380,128,0,104515:0:0:0:0:
192,192,104380,1,2,0:0:0:0:
320,192,104515,1,0,0:0:0:0:
64,192,104650,128,0,104785:0:0:0:0:
192,192,104650,1,8,0:0:0:0:
320,192,104785,1,0,0:0:0:0:
64,192,104920,1,2,0:0:0:0:
448,192,104920,1,0,0:0:0:0:
448,192,105055,1,0,0:0:0:0:
64,192,105191,1,8,0:0:0:0:
192,192,105191,1,0,0:0:0:0:
320,192,105326,1,0,0:0:0:0:
64,192,105461,1,2,0:0:0:0:
448,192,105461,1,0,0:0:0:0:
192,192,105596,1,0,0:0:0:0:
64,192,105731,128,0,106001:0:0:0:0:
448,192,105731,1,8,0:0:0:0:
320,192,105866,1,0,0:0:0:0:
192,192,106001,1,2,0:0:0:0:
448,192,106001,1,0,0:0:0:0:
192,192,106137,1,0,0:0:0:0:
320,192,106272,1,8,0:0:0:0:
448,192,106272,1,0,0:0:0:0:
192,192,106407,1,0,0:0:0:0:
64,192,106542,1,2,0:0:0:0:
192,192,106542,1,0,0:0:0:0:
448,192,106677,1,0,0:0:0:0:
192,192,106812,1,8,0:0:0:0:
448,192,106812,1,0,0:0:0:0:
320,192,106947,1,0,0:0:0:0:
64,192,107083,1,2,0:0:0:0:
192,192,107083,1,0,0:0:0:0:
192,192,107218,1,0,0:0:0:0:
320,192,107285,1,0,0:0:0:0:
64,192,107353,1,8,0:0:0:0:
448,192,107353,1,0,0:0:0:0:
448,192,107488,1,0,0:0:0:0:
64,192,107623,1,2,0:0:0:0:
192,192,107623,1,0,0:0:0:0:
320,192,107758,1,0,0:0:0:0:
192,192,107826,1,0,0:0:0:0:
64,192,107893,1,8,0:0:0:0:
448,192,107893,1,0,0:0:0:0:
320,192,108028,1,0,0:0:0:0:
64,192,108164,1,2,0:0:0:0:
192,192,108164,1,4,0:0:0:0:
448,192,108299,1,0,0:0:0:0:
192,192,108434,1,8,0:0:0:0:
320,192,108501,1,0,0:0:0:0:
192,192,108569,1,0,0:0:0:0:
320,192,108637,1,0,0:0:0:0:
64,192,108704,1,2,0:0:0:0:
448,192,108704,1,0,0:0:0:0:
192,192,108839,1,0,0:0:0:0:
320,192,108974,1,8,0:0:0:0:
448,192,108974,1,0,0:0:0:0:
192,192,109110,1,0,0:0:0:0:
64,192,109245,1,2,0:0:0:0:
448,192,109245,1,0,0:0:0:0:
64,192,109380,1,0,0:0:0:0:
192,192,109447,1,0,0:0:0:0:
320,192,109515,1,8,0:0:0:0:
448,192,109515,1,0,0:0:0:0:
320,192,109650,1,0,0:0:0:0:
64,192,109785,1,2,0:0:0:0:
192,192,109785,1,0,0:0:0:0:
448,192,109920,1,0,0:0:0:0:
192,192,110055,1,8,0:0:0:0:
320,192,110055,1,0,0:0:0:0:
64,192,110191,1,0,0:0:0:0:
320,192,110326,1,2,0:0:0:0:
448,192,110326,1,0,0:0:0:0:
192,192,110461,1,0,0:0:0:0:
64,192,110596,1,8,0:0:0:0:
448,192,110596,1,0,0:0:0:0:
320,192,110731,1,0,0:0:0:0:
64,192,110866,1,2,0:0:0:0:
192,192,110866,1,0,0:0:0:0:
448,192,111001,1,0,0:0:0:0:
192,192,111137,1,8,0:0:0:0:
320,192,111137,1,0,0:0:0:0:
64,192,111272,1,0,0:0:0:0:
320,192,111407,1,4,0:0:0:0:
448,192,111407,1,2,0:0:0:0:
192,192,111947,1,0,0:0:0:50:tom01.wav
448,192,112083,1,0,0:0:0:50:tom02.wav
320,192,112150,1,0,0:0:0:50:tom02.wav
64,192,112218,1,0,0:0:0:50:tom03.wav
192,192,112353,1,0,0:0:0:50:tom04.wav
320,192,112488,1,2,0:0:0:0:
448,192,112488,1,4,0:0:0:0:
64,192,112758,1,0,0:0:0:50:LR4_SnareBPDT.wav
320,192,112758,1,0,0:0:0:0:
192,192,112893,1,4,0:0:0:0:
448,192,112893,1,2,0:0:0:0:
64,192,113164,1,0,0:0:0:50:LR4_SnareBPDT.wav
192,192,113231,1,0,0:0:0:50:LR4_SnareBPDT.wav
320,192,113299,1,6,0:0:0:0:
448,192,113299,128,0,113569:0:0:0:70:ahhn.wav
64,192,113569,1,2,0:0:0:0:
192,192,113569,1,4,0:0:0:0:
192,192,113839,1,0,0:0:0:50:LR4_SnareBPDT.wav
448,192,113839,1,0,0:0:0:0:
64,192,113974,1,4,0:0:0:0:
320,192,113974,1,2,0:0:0:0:
192,192,114245,1,0,0:0:0:70:LR_J Hit Pong.wav
192,192,114380,128,0,114650:0:0:0:70:LR_J Hit Pong.wav
320,192,114650,1,4,0:0:0:0:
448,192,114650,1,2,0:0:0:0:
64,192,114920,1,0,0:0:0:50:LR4_SnareBPDT.wav
448,192,114920,1,0,0:0:0:0:
192,192,115055,1,2,0:0:0:0:
320,192,115055,1,4,0:0:0:0:
64,192,115326,1,0,0:0:0:50:LR4_SnareBPDT.wav
192,192,115393,1,0,0:0:0:50:LR4_SnareBPDT.wav
320,192,115461,1,6,0:0:0:0:
448,192,115461,128,0,115731:0:0:0:100:what.wav
64,192,115731,1,4,0:0:0:0:
192,192,115731,1,2,0:0:0:0:
64,192,116001,1,0,0:0:0:50:LR4_SnareBPDT.wav
448,192,116001,1,0,0:0:0:0:
192,192,116137,1,2,0:0:0:0:
320,192,116137,1,4,0:0:0:0:
64,192,116272,1,0,0:0:0:70:yeah_.wav
320,192,116407,1,0,0:0:0:70:LR_J Hit.wav
64,192,116542,1,0,0:0:0:70:LR_J Hit.wav
192,192,116677,1,0,0:0:0:70:LR_J Hit.wav
320,192,116812,1,2,0:0:0:0:
448,192,116812,1,4,0:0:0:0:
192,192,116947,1,0,0:0:0:50:S1.wav
64,192,117083,1,2,0:0:0:0:
448,192,117083,1,0,0:0:0:70:LR_J Hit Pong.wav
320,192,117218,1,0,0:0:0:70:LR_J Hit Pong.wav
64,192,117353,1,2,0:0:0:0:
192,192,117353,1,4,0:0:0:0:
320,192,117488,1,0,0:0:0:50:S1.wav
64,192,117623,1,2,0:0:0:0:
448,192,117623,1,0,0:0:0:70:LR_J Hit.wav
192,192,117758,1,0,0:0:0:70:LR_J Hit.wav
320,192,117893,1,4,0:0:0:0:
448,192,117893,1,2,0:0:0:0:
64,192,118028,1,0,0:0:0:50:S1.wav
192,192,118164,1,2,0:0:0:0:
448,192,118164,1,0,0:0:0:70:LR_J Hit Pong.wav
320,192,118299,1,0,0:0:0:70:LR_J Hit Pong.wav
64,192,118434,1,2,0:0:0:0:
192,192,118434,1,4,0:0:0:0:
448,192,118569,1,0,0:0:0:50:S1.wav
64,192,118704,1,2,0:0:0:0:
320,192,118704,1,0,0:0:0:70:LR_J Hit.wav
192,192,118839,1,0,0:0:0:70:LR_J Hit.wav
64,192,118974,1,4,0:0:0:0:
448,192,118974,1,2,0:0:0:0:
320,192,119042,1,0,0:0:0:50:S1.wav
64,192,119110,1,0,0:0:0:50:S1.wav
192,192,119177,1,0,0:0:0:50:S1.wav
320,192,119245,1,2,0:0:0:0:
448,192,119245,1,4,0:0:0:0:
64,192,119312,1,0,0:0:0:50:S1.wav
192,192,119380,1,0,0:0:0:50:S1.wav
320,192,119447,1,0,0:0:0:50:S1.wav
64,192,119515,1,2,0:0:0:0:
448,192,119515,1,4,0:0:0:0:
192,192,119583,1,0,0:0:0:50:S1.wav
448,192,119650,1,0,0:0:0:50:S1.wav
320,192,119718,1,0,0:0:0:50:S1.wav
64,192,119785,1,2,0:0:0:0:
192,192,119785,1,4,0:0:0:0:
448,192,119853,1,0,0:0:0:50:S1.wav
320,192,119920,1,0,0:0:0:50:S1.wav
192,192,119988,1,0,0:0:0:50:S1.wav
448,192,120055,1,0,0:0:0:70:LR_Snare Drum 2.wav
320,192,120191,1,2,0:0:0:0:
64,192,120326,1,0,0:0:0:70:tom02.wav
192,192,120461,1,2,0:0:0:0:
320,192,120596,1,0,0:0:0:70:LR_Snare Drum 3.wav
64,192,120866,1,2,0:0:0:0:
192,192,120866,1,4,0:0:0:0:
448,192,120866,1,0,0:0:0:70:wou.wav
