osu file format v14

[General]
AudioFilename: audio.mp3
AudioLeadIn: 0
PreviewTime: 95064
Countdown: 0
SampleSet: Normal
StackLeniency: 0.7
Mode: 1
LetterboxInBreaks: 0
WidescreenStoryboard: 1

[Editor]
DistanceSpacing: 1.7
BeatDivisor: 4
GridSize: 16
TimelineZoom: 1.3

[Metadata]
Title:IZANA
TitleUnicode:IZANA
Artist:t+pazolite vs. P*Light
ArtistUnicode:t+pazolite vs. P*Light
Creator:Yuemiao
Version:MUZUKASHII
Source:Arcaea
Tags:TCDR-0037 Happy HARDCORE TANO*C TANOC tpz lowiro j-core jcore rhythm Beginner's Taiko Tournament 5 BTT5 Finals LMS Shift Cup 2 TLMS:SC2 Group Stage GroupStage GS NoMod NM Video Game Instrumental Electronic
BeatmapID:2300800
BeatmapSetID:1100797

[Difficulty]
HPDrainRate:6
CircleSize:5
OverallDifficulty:5
ApproachRate:5
SliderMultiplier:1.4
SliderTickRate:1

[Events]
//Background and Video events
0,0,"BG.jpg",0,50
//Break Periods
//Storyboard Layer 0 (Background)
//Storyboard Layer 1 (Fail)
//Storyboard Layer 2 (Pass)
//Storyboard Layer 3 (Foreground)
//Storyboard Layer 4 (Overlay)
//Storyboard Sound Samples

[TimingPoints]
65,270.27027027027,4,1,1,75,1,0
65,-105.263157894737,4,1,1,75,0,0
8443,-105.263157894737,4,1,1,85,0,0
8713,-105.263157894737,4,1,1,80,0,0
25470,-111.111111111111,4,1,1,80,0,0
26010,-111.111111111111,4,1,1,75,0,0
31956,-109.89010989011,4,1,1,75,0,0
32227,-108.695652173913,4,1,1,75,0,0
32497,-107.52688172043,4,1,1,80,0,0
34659,-105.263157894737,4,1,1,80,0,0
38713,-105.263157894737,4,1,1,85,0,0
38983,-105.263157894737,4,1,1,80,0,0
41146,-105.263157894737,4,1,1,75,0,0
43037,-105.263157894737,4,1,1,85,0,0
43308,-105.263157894737,4,1,1,80,0,0
47632,-105.263157894737,4,1,1,85,0,0
51956,-105.263157894737,4,1,1,70,0,0
60605,-105.263157894737,4,1,1,75,0,0
69254,-105.263157894737,4,1,1,80,0,0
73578,-105.263157894737,4,1,1,85,0,0
77362,-104.166666666667,4,1,1,75,0,0
77497,-103.092783505155,4,1,1,75,0,0
77632,-102.040816326531,4,1,1,90,0,0
77902,-100,4,1,1,85,0,1
84389,-100,4,1,1,80,0,0
86551,-100,4,1,1,85,0,1
94929,-100,4,1,1,95,0,0
95200,-100,4,1,1,90,0,1
95470,-100,4,1,1,90,0,1
101686,-100,4,1,1,80,0,0
103848,-100,4,1,1,90,0,1
111956,-111.111111111111,4,1,1,80,0,1
112497,-111.111111111111,4,1,1,75,0,0
118443,-109.89010989011,4,1,1,75,0,0
118713,-108.695652173913,4,1,1,75,0,0
118983,-107.52688172043,4,1,1,75,0,0
120875,-105.263157894737,4,1,1,85,0,0

[HitObjects]
256,192,65,5,4,0:0:0:0:
256,192,875,1,8,0:0:0:0:
256,192,1146,1,8,0:0:0:0:
256,192,2227,1,0,0:0:0:0:
256,192,2767,1,8,0:0:0:0:
256,192,3173,1,0,0:0:0:0:
256,192,3308,1,8,0:0:0:0:
256,192,4389,1,0,0:0:0:0:
256,192,5200,1,8,0:0:0:0:
256,192,5470,1,0,0:0:0:0:
256,192,6010,1,8,0:0:0:0:
256,192,6416,1,0,0:0:0:0:
256,192,6551,1,8,0:0:0:0:
256,192,7632,1,0,0:0:0:0:
256,192,7902,1,0,0:0:0:0:
256,192,8173,1,0,0:0:0:0:
256,192,8443,1,12,0:0:0:0:
256,192,8713,1,4,0:0:0:0:
256,192,8983,1,8,0:0:0:0:
256,192,9119,1,8,0:0:0:0:
256,192,9254,1,4,0:0:0:0:
256,192,9524,1,4,0:0:0:0:
256,192,9794,1,4,0:0:0:0:
256,192,9929,1,8,0:0:0:0:
256,192,10064,1,0,0:0:0:0:
256,192,10132,1,0,0:0:0:0:
256,192,10200,1,0,0:0:0:0:
256,192,10335,1,8,0:0:0:0:
256,192,10605,1,12,0:0:0:0:
256,192,10875,1,8,0:0:0:0:
256,192,11010,1,0,0:0:0:0:
256,192,11281,1,8,0:0:0:0:
256,192,11416,1,0,0:0:0:0:
256,192,11551,1,8,0:0:0:0:
256,192,11686,1,8,0:0:0:0:
256,192,11956,1,0,0:0:0:0:
256,192,12159,1,8,0:0:0:0:
256,192,12227,1,8,0:0:0:0:
256,192,12362,1,8,0:0:0:0:
256,192,12767,1,8,0:0:0:0:
256,192,13037,1,4,0:0:0:0:
256,192,13578,1,12,0:0:0:0:
256,192,13848,1,12,0:0:0:0:
256,192,14119,1,4,0:0:0:0:
256,192,14254,1,8,0:0:0:0:
256,192,14389,1,0,0:0:0:0:
256,192,14456,1,0,0:0:0:0:
256,192,14524,1,0,0:0:0:0:
256,192,14659,1,8,0:0:0:0:
256,192,14929,1,12,0:0:0:0:
256,192,15200,1,8,0:0:0:0:
256,192,15335,1,0,0:0:0:0:
256,192,15740,1,0,0:0:0:0:
256,192,15875,1,0,0:0:0:0:
256,192,16010,1,8,0:0:0:0:
256,192,16146,1,8,0:0:0:0:
256,192,16281,1,4,0:0:0:0:
256,192,16551,1,4,0:0:0:0:
256,192,16821,1,4,0:0:0:0:
256,192,17092,1,12,0:0:0:0:
256,192,17362,1,4,0:0:0:0:
256,192,17632,1,8,0:0:0:0:
256,192,17767,1,8,0:0:0:0:
256,192,17902,1,4,0:0:0:0:
256,192,18173,1,4,0:0:0:0:
256,192,18443,1,4,0:0:0:0:
256,192,18578,1,8,0:0:0:0:
256,192,18713,1,0,0:0:0:0:
256,192,18781,1,0,0:0:0:0:
256,192,18848,1,0,0:0:0:0:
256,192,18983,1,8,0:0:0:0:
256,192,19254,1,12,0:0:0:0:
256,192,19524,1,8,0:0:0:0:
256,192,19659,1,0,0:0:0:0:
256,192,19929,1,8,0:0:0:0:
256,192,20064,1,0,0:0:0:0:
256,192,20200,1,8,0:0:0:0:
256,192,20335,1,8,0:0:0:0:
256,192,20605,1,0,0:0:0:0:
256,192,20808,1,8,0:0:0:0:
256,192,20875,1,8,0:0:0:0:
256,192,21010,1,8,0:0:0:0:
256,192,21416,1,8,0:0:0:0:
256,192,21686,1,4,0:0:0:0:
256,192,21956,1,0,0:0:0:0:
256,192,22092,1,0,0:0:0:0:
256,192,22227,1,12,0:0:0:0:
256,192,22497,1,12,0:0:0:0:
256,192,22767,1,12,0:0:0:0:
256,192,22902,1,0,0:0:0:0:
256,192,23037,1,8,0:0:0:0:
256,192,23173,1,8,0:0:0:0:
256,192,23308,1,4,0:0:0:0:
256,192,23578,1,12,0:0:0:0:
256,192,23848,1,0,0:0:0:0:
256,192,24119,1,0,0:0:0:0:
256,192,24254,1,8,0:0:0:0:
256,192,24389,1,0,0:0:0:0:
256,192,24524,1,0,0:0:0:0:
256,192,24659,1,8,0:0:0:0:
256,192,24794,1,8,0:0:0:0:
256,192,24929,1,0,0:0:0:0:
256,192,25740,1,8,0:0:0:0:
256,192,26010,1,4,0:0:0:0:
256,192,26281,1,8,0:0:0:0:
256,192,26416,1,4,0:0:0:0:
256,192,26686,1,8,0:0:0:0:
256,192,26821,1,4,0:0:0:0:
256,192,27092,1,4,0:0:0:0:
256,192,27362,1,8,0:0:0:0:
256,192,27497,1,4,0:0:0:0:
256,192,27902,1,8,0:0:0:0:
256,192,28173,1,4,0:0:0:0:
256,192,28443,1,8,0:0:0:0:
256,192,28578,1,4,0:0:0:0:
256,192,28848,1,8,0:0:0:0:
256,192,28983,1,4,0:0:0:0:
256,192,29254,1,4,0:0:0:0:
256,192,29524,1,8,0:0:0:0:
256,192,29659,1,4,0:0:0:0:
256,192,30064,1,8,0:0:0:0:
256,192,30335,1,4,0:0:0:0:
256,192,30605,1,8,0:0:0:0:
256,192,30740,1,8,0:0:0:0:
256,192,30875,1,4,0:0:0:0:
256,192,31146,1,8,0:0:0:0:
256,192,31416,1,4,0:0:0:0:
256,192,31686,1,8,0:0:0:0:
256,192,31821,1,8,0:0:0:0:
256,192,31956,1,4,0:0:0:0:
256,192,32227,1,8,0:0:0:0:
256,192,32497,1,4,0:0:0:0:
256,192,32767,1,0,0:0:0:0:
256,192,32902,1,8,0:0:0:0:
256,192,33037,1,0,0:0:0:0:
256,192,33173,1,8,0:0:0:0:
256,192,33240,1,8,0:0:0:0:
256,192,33308,1,8,0:0:0:0:
256,192,33443,1,8,0:0:0:0:
256,192,33578,1,0,0:0:0:0:
256,192,33848,1,8,0:0:0:0:
256,192,34119,1,0,0:0:0:0:
256,192,34254,1,0,0:0:0:0:
256,192,34389,1,12,0:0:0:0:
256,192,34659,1,4,0:0:0:0:
256,192,34929,1,0,0:0:0:0:
256,192,35064,1,8,0:0:0:0:
256,192,35200,1,0,0:0:0:0:
256,192,35335,1,0,0:0:0:0:
256,192,35470,1,8,0:0:0:0:
256,192,35605,1,0,0:0:0:0:
256,192,35740,1,8,0:0:0:0:
256,192,36146,1,8,0:0:0:0:
256,192,36281,1,0,0:0:0:0:
256,192,36483,1,8,0:0:0:0:
256,192,36686,1,8,0:0:0:0:
256,192,36821,1,4,0:0:0:0:
256,192,37092,1,0,0:0:0:0:
256,192,37227,1,8,0:0:0:0:
256,192,37362,1,0,0:0:0:0:
256,192,37497,1,0,0:0:0:0:
256,192,37632,1,8,0:0:0:0:
256,192,37700,1,8,0:0:0:0:
256,192,37767,1,8,0:0:0:0:
256,192,37902,1,0,0:0:0:0:
256,192,38173,1,0,0:0:0:0:
256,192,38443,1,0,0:0:0:0:
256,192,38713,1,8,0:0:0:0:
256,192,38983,1,4,0:0:0:0:
256,192,39254,1,0,0:0:0:0:
256,192,39389,1,8,0:0:0:0:
256,192,39524,1,0,0:0:0:0:
256,192,39659,1,0,0:0:0:0:
256,192,39794,1,8,0:0:0:0:
256,192,39929,1,0,0:0:0:0:
256,192,40064,1,8,0:0:0:0:
256,192,40335,1,0,0:0:0:0:
256,192,40470,1,8,0:0:0:0:
256,192,40605,1,0,0:0:0:0:
256,192,40740,1,0,0:0:0:0:
256,192,40875,1,8,0:0:0:0:
256,192,40943,1,8,0:0:0:0:
256,192,41010,1,8,0:0:0:0:
256,192,41146,1,4,0:0:0:0:
256,192,41551,1,0,0:0:0:0:
256,192,41821,1,8,0:0:0:0:
256,192,41956,1,0,0:0:0:0:
256,192,42227,1,0,0:0:0:0:
256,192,42362,1,0,0:0:0:0:
256,192,42497,1,8,0:0:0:0:
256,192,42632,1,0,0:0:0:0:
256,192,42767,1,8,0:0:0:0:
256,192,43037,1,12,0:0:0:0:
256,192,43308,1,4,0:0:0:0:
256,192,43578,1,0,0:0:0:0:
256,192,43713,1,8,0:0:0:0:
256,192,43848,1,0,0:0:0:0:
256,192,43983,1,0,0:0:0:0:
256,192,44119,1,8,0:0:0:0:
256,192,44254,1,0,0:0:0:0:
256,192,44389,1,8,0:0:0:0:
256,192,44794,1,8,0:0:0:0:
256,192,44929,1,0,0:0:0:0:
256,192,45132,1,8,0:0:0:0:
256,192,45335,1,8,0:0:0:0:
256,192,45470,1,4,0:0:0:0:
256,192,45740,1,0,0:0:0:0:
256,192,45875,1,8,0:0:0:0:
256,192,46010,1,0,0:0:0:0:
256,192,46078,1,0,0:0:0:0:
256,192,46146,1,0,0:0:0:0:
256,192,46281,1,8,0:0:0:0:
256,192,46551,1,12,0:0:0:0:
256,192,46956,1,12,0:0:0:0:
256,192,47159,1,12,0:0:0:0:
256,192,47362,1,12,0:0:0:0:
256,192,47632,1,4,0:0:0:0:
256,192,48037,1,0,0:0:0:0:
256,192,48173,1,0,0:0:0:0:
256,192,48308,1,8,0:0:0:0:
256,192,48443,1,8,0:0:0:0:
256,192,48713,1,0,0:0:0:0:
256,192,48983,1,8,0:0:0:0:
256,192,49119,1,0,0:0:0:0:
256,192,49254,1,0,0:0:0:0:
256,192,49389,1,8,0:0:0:0:
256,192,49524,1,8,0:0:0:0:
256,192,49794,1,0,0:0:0:0:
256,192,49929,1,0,0:0:0:0:
256,192,50064,1,8,0:0:0:0:
256,192,50200,1,0,0:0:0:0:
256,192,50335,1,0,0:0:0:0:
256,192,50470,1,8,0:0:0:0:
256,192,50537,1,8,0:0:0:0:
256,192,50605,1,8,0:0:0:0:
256,192,50875,12,0,51416,0:0:0:0:
256,192,51686,5,12,0:0:0:0:
256,192,51956,1,0,0:0:0:0:
256,192,52767,1,8,0:0:0:0:
256,192,53037,1,8,0:0:0:0:
256,192,54119,1,0,0:0:0:0:
256,192,54659,1,8,0:0:0:0:
256,192,55064,1,0,0:0:0:0:
256,192,55200,1,8,0:0:0:0:
256,192,56281,1,0,0:0:0:0:
256,192,57092,1,8,0:0:0:0:
256,192,57362,1,8,0:0:0:0:
256,192,58443,1,0,0:0:0:0:
256,192,58983,1,0,0:0:0:0:
256,192,59524,1,8,0:0:0:0:
256,192,60605,1,4,0:0:0:0:
256,192,61146,1,8,0:0:0:0:
256,192,61416,1,0,0:0:0:0:
256,192,61686,1,0,0:0:0:0:
256,192,62227,1,8,0:0:0:0:
256,192,62767,1,0,0:0:0:0:
256,192,63308,1,8,0:0:0:0:
256,192,63578,1,8,0:0:0:0:
256,192,63713,1,8,0:0:0:0:
256,192,63848,1,0,0:0:0:0:
256,192,64389,1,8,0:0:0:0:
256,192,64929,1,0,0:0:0:0:
256,192,65470,1,8,0:0:0:0:
256,192,65740,1,0,0:0:0:0:
256,192,66010,1,0,0:0:0:0:
256,192,66551,1,8,0:0:0:0:
256,192,66956,1,8,0:0:0:0:
256,192,67092,1,0,0:0:0:0:
256,192,67632,1,8,0:0:0:0:
256,192,67902,1,8,0:0:0:0:
256,192,68173,1,0,0:0:0:0:
256,192,68713,1,8,0:0:0:0:
256,192,69254,1,4,0:0:0:0:
256,192,69794,1,0,0:0:0:0:
256,192,70335,1,0,0:0:0:0:
256,192,70875,1,8,0:0:0:0:
256,192,71146,1,8,0:0:0:0:
256,192,71416,1,0,0:0:0:0:
256,192,71956,1,8,0:0:0:0:
256,192,72227,1,8,0:0:0:0:
256,192,72497,1,0,0:0:0:0:
256,192,73037,1,8,0:0:0:0:
256,192,73308,1,8,0:0:0:0:
256,192,73443,1,0,0:0:0:0:
256,192,73578,1,8,0:0:0:0:
256,192,73848,1,0,0:0:0:0:
256,192,73983,1,0,0:0:0:0:
256,192,74119,1,8,0:0:0:0:
256,192,74389,1,8,0:0:0:0:
256,192,74524,1,0,0:0:0:0:
256,192,74659,1,8,0:0:0:0:
256,192,74794,1,8,0:0:0:0:
256,192,74929,1,0,0:0:0:0:
256,192,75064,1,0,0:0:0:0:
256,192,75200,1,8,0:0:0:0:
256,192,75470,1,8,0:0:0:0:
256,192,75605,1,0,0:0:0:0:
256,192,75740,1,8,0:0:0:0:
256,192,75808,1,8,0:0:0:0:
256,192,75875,1,8,0:0:0:0:
256,192,76010,1,0,0:0:0:0:
256,192,76281,1,0,0:0:0:0:
256,192,76348,1,0,0:0:0:0:
256,192,76416,1,0,0:0:0:0:
256,192,76551,1,8,0:0:0:0:
256,192,76686,1,8,0:0:0:0:
256,192,76821,1,4,0:0:0:0:
256,192,77362,1,0,0:0:0:0:
256,192,77497,1,0,0:0:0:0:
256,192,77632,1,12,0:0:0:0:
256,192,77902,1,4,0:0:0:0:
256,192,78173,1,8,0:0:0:0:
256,192,78308,1,8,0:0:0:0:
256,192,78443,1,0,0:0:0:0:
256,192,78578,1,8,0:0:0:0:
256,192,78848,1,8,0:0:0:0:
256,192,78983,1,0,0:0:0:0:
256,192,79119,1,8,0:0:0:0:
256,192,79186,1,8,0:0:0:0:
256,192,79254,1,8,0:0:0:0:
256,192,79389,1,8,0:0:0:0:
256,192,79524,1,0,0:0:0:0:
256,192,79794,1,8,0:0:0:0:
256,192,80335,1,8,0:0:0:0:
256,192,80470,1,0,0:0:0:0:
256,192,80605,1,8,0:0:0:0:
256,192,80740,1,8,0:0:0:0:
256,192,81010,1,0,0:0:0:0:
256,192,81146,1,8,0:0:0:0:
256,192,81281,1,8,0:0:0:0:
256,192,81348,1,8,0:0:0:0:
256,192,81416,1,8,0:0:0:0:
256,192,81551,1,0,0:0:0:0:
256,192,81686,1,8,0:0:0:0:
256,192,81956,1,8,0:0:0:0:
256,192,82227,1,4,0:0:0:0:
256,192,82497,1,8,0:0:0:0:
256,192,82632,1,8,0:0:0:0:
256,192,82767,1,0,0:0:0:0:
256,192,82902,1,8,0:0:0:0:
256,192,83173,1,8,0:0:0:0:
256,192,83308,1,0,0:0:0:0:
256,192,83443,1,8,0:0:0:0:
256,192,83510,1,8,0:0:0:0:
256,192,83578,1,8,0:0:0:0:
256,192,83713,1,8,0:0:0:0:
256,192,83848,1,0,0:0:0:0:
256,192,84119,1,8,0:0:0:0:
256,192,84389,1,4,0:0:0:0:
256,192,84794,1,4,0:0:0:0:
256,192,85200,1,4,0:0:0:0:
256,192,85470,1,8,0:0:0:0:
256,192,85605,1,4,0:0:0:0:
256,192,86010,1,12,0:0:0:0:
256,192,86281,1,12,0:0:0:0:
256,192,86551,1,4,0:0:0:0:
256,192,86821,1,8,0:0:0:0:
256,192,86956,1,8,0:0:0:0:
256,192,87092,1,0,0:0:0:0:
256,192,87227,1,8,0:0:0:0:
256,192,87497,1,8,0:0:0:0:
256,192,87632,1,0,0:0:0:0:
256,192,87767,1,8,0:0:0:0:
256,192,87835,1,8,0:0:0:0:
256,192,87902,1,8,0:0:0:0:
256,192,88037,1,8,0:0:0:0:
256,192,88173,1,0,0:0:0:0:
256,192,88443,1,8,0:0:0:0:
256,192,88983,1,8,0:0:0:0:
256,192,89119,1,0,0:0:0:0:
256,192,89254,1,8,0:0:0:0:
256,192,89389,1,8,0:0:0:0:
256,192,89659,1,0,0:0:0:0:
256,192,89794,1,8,0:0:0:0:
256,192,89929,1,8,0:0:0:0:
256,192,89997,1,8,0:0:0:0:
256,192,90064,1,8,0:0:0:0:
256,192,90200,1,0,0:0:0:0:
256,192,90335,1,8,0:0:0:0:
256,192,90605,1,8,0:0:0:0:
256,192,90875,1,4,0:0:0:0:
256,192,91146,1,8,0:0:0:0:
256,192,91281,1,8,0:0:0:0:
256,192,91416,1,0,0:0:0:0:
256,192,91551,1,8,0:0:0:0:
256,192,91821,1,8,0:0:0:0:
256,192,91956,1,4,0:0:0:0:
256,192,92092,1,8,0:0:0:0:
256,192,92227,1,8,0:0:0:0:
256,192,92497,1,0,0:0:0:0:
256,192,92632,1,0,0:0:0:0:
256,192,92700,1,0,0:0:0:0:
256,192,92767,1,0,0:0:0:0:
256,192,92902,1,8,0:0:0:0:
256,192,93037,1,4,0:0:0:0:
256,192,93308,1,8,0:0:0:0:
256,192,93713,1,0,0:0:0:0:
256,192,93848,1,8,0:0:0:0:
256,192,93983,1,0,0:0:0:0:
256,192,94119,1,0,0:0:0:0:
256,192,94254,1,8,0:0:0:0:
256,192,94389,1,8,0:0:0:0:
256,192,94456,1,8,0:0:0:0:
256,192,94524,1,8,0:0:0:0:
256,192,94659,1,0,0:0:0:0:
256,192,94929,1,12,0:0:0:0:
256,192,95200,1,4,0:0:0:0:
256,192,95470,1,8,0:0:0:0:
256,192,95605,1,8,0:0:0:0:
256,192,95740,1,4,0:0:0:0:
256,192,96010,1,4,0:0:0:0:
256,192,96281,1,4,0:0:0:0:
256,192,96416,1,8,0:0:0:0:
256,192,96551,1,0,0:0:0:0:
256,192,96619,1,0,0:0:0:0:
256,192,96686,1,0,0:0:0:0:
256,192,96821,1,8,0:0:0:0:
256,192,97092,1,12,0:0:0:0:
256,192,97362,1,8,0:0:0:0:
256,192,97497,1,0,0:0:0:0:
256,192,97767,1,8,0:0:0:0:
256,192,97902,1,0,0:0:0:0:
256,192,98037,1,8,0:0:0:0:
256,192,98173,1,8,0:0:0:0:
256,192,98443,1,0,0:0:0:0:
256,192,98646,1,8,0:0:0:0:
256,192,98713,1,8,0:0:0:0:
256,192,98848,1,8,0:0:0:0:
256,192,99254,1,8,0:0:0:0:
256,192,99524,1,4,0:0:0:0:
256,192,99794,1,0,0:0:0:0:
256,192,99929,1,0,0:0:0:0:
256,192,100064,1,12,0:0:0:0:
256,192,100335,1,12,0:0:0:0:
256,192,100605,1,4,0:0:0:0:
256,192,100740,1,8,0:0:0:0:
256,192,100875,1,0,0:0:0:0:
256,192,100943,1,0,0:0:0:0:
256,192,101010,1,0,0:0:0:0:
256,192,101146,1,8,0:0:0:0:
256,192,101416,1,12,0:0:0:0:
256,192,101686,1,4,0:0:0:0:
256,192,102092,1,4,0:0:0:0:
256,192,102497,1,4,0:0:0:0:
256,192,102767,1,8,0:0:0:0:
256,192,102902,1,4,0:0:0:0:
256,192,103308,1,12,0:0:0:0:
256,192,103578,1,12,0:0:0:0:
256,192,103848,1,4,0:0:0:0:
256,192,104119,1,8,0:0:0:0:
256,192,104254,1,8,0:0:0:0:
256,192,104389,1,4,0:0:0:0:
256,192,104659,1,4,0:0:0:0:
256,192,104929,1,4,0:0:0:0:
256,192,105064,1,8,0:0:0:0:
256,192,105200,1,0,0:0:0:0:
256,192,105267,1,0,0:0:0:0:
256,192,105335,1,0,0:0:0:0:
256,192,105470,1,8,0:0:0:0:
256,192,105740,1,12,0:0:0:0:
256,192,106010,1,8,0:0:0:0:
256,192,106146,1,0,0:0:0:0:
256,192,106416,1,8,0:0:0:0:
256,192,106551,1,0,0:0:0:0:
256,192,106686,1,8,0:0:0:0:
256,192,106821,1,8,0:0:0:0:
256,192,107092,1,0,0:0:0:0:
256,192,107294,1,8,0:0:0:0:
256,192,107362,1,8,0:0:0:0:
256,192,107497,1,8,0:0:0:0:
256,192,107902,1,8,0:0:0:0:
256,192,108173,1,4,0:0:0:0:
256,192,108443,1,0,0:0:0:0:
256,192,108578,1,0,0:0:0:0:
256,192,108713,1,12,0:0:0:0:
256,192,108983,1,12,0:0:0:0:
256,192,109254,1,12,0:0:0:0:
256,192,109389,1,0,0:0:0:0:
256,192,109524,1,8,0:0:0:0:
256,192,109659,1,8,0:0:0:0:
256,192,109794,1,4,0:0:0:0:
256,192,110064,1,12,0:0:0:0:
256,192,110335,1,0,0:0:0:0:
256,192,110605,1,0,0:0:0:0:
256,192,110740,1,8,0:0:0:0:
256,192,110875,1,0,0:0:0:0:
256,192,111010,1,0,0:0:0:0:
256,192,111146,1,8,0:0:0:0:
256,192,111281,1,8,0:0:0:0:
256,192,111416,1,0,0:0:0:0:
256,192,112227,1,8,0:0:0:0:
256,192,112497,1,4,0:0:0:0:
256,192,112767,1,8,0:0:0:0:
256,192,112902,1,4,0:0:0:0:
256,192,113173,1,8,0:0:0:0:
256,192,113308,1,4,0:0:0:0:
256,192,113578,1,4,0:0:0:0:
256,192,113848,1,8,0:0:0:0:
256,192,113983,1,4,0:0:0:0:
256,192,114389,1,8,0:0:0:0:
256,192,114659,1,4,0:0:0:0:
256,192,114929,1,8,0:0:0:0:
256,192,115064,1,4,0:0:0:0:
256,192,115335,1,8,0:0:0:0:
256,192,115470,1,4,0:0:0:0:
256,192,115740,1,4,0:0:0:0:
256,192,116010,1,8,0:0:0:0:
256,192,116146,1,4,0:0:0:0:
256,192,116551,1,8,0:0:0:0:
256,192,116821,1,4,0:0:0:0:
256,192,117092,1,8,0:0:0:0:
256,192,117227,1,8,0:0:0:0:
256,192,117362,1,4,0:0:0:0:
256,192,117632,1,8,0:0:0:0:
256,192,117902,1,4,0:0:0:0:
256,192,118173,1,8,0:0:0:0:
256,192,118308,1,8,0:0:0:0:
256,192,118443,1,4,0:0:0:0:
256,192,118713,1,8,0:0:0:0:
256,192,118983,1,4,0:0:0:0:
256,192,119254,1,0,0:0:0:0:
256,192,119389,1,8,0:0:0:0:
256,192,119524,1,0,0:0:0:0:
256,192,119659,1,8,0:0:0:0:
256,192,119727,1,8,0:0:0:0:
256,192,119794,1,8,0:0:0:0:
256,192,119929,1,8,0:0:0:0:
256,192,120064,1,0,0:0:0:0:
256,192,120335,1,8,0:0:0:0:
256,192,120605,1,0,0:0:0:0:
256,192,120673,1,0,0:0:0:0:
256,192,120740,1,0,0:0:0:0:
256,192,120875,1,12,0:0:0:0:
