osu file format v14

[General]
AudioFilename: audio.mp3
AudioLeadIn: 0
PreviewTime: 1850
Countdown: 0
SampleSet: Normal
StackLeniency: 0.7
Mode: 1
LetterboxInBreaks: 0
WidescreenStoryboard: 0

[Editor]
Bookmarks: 42129,72339,108843
DistanceSpacing: 0.6
BeatDivisor: 4
GridSize: 32
TimelineZoom: 3.399999

[Metadata]
Title:See you Never
TitleUnicode:See you Never
Artist:t+pazolite vs RoughSketch
ArtistUnicode:t+pazolite vs RoughSketch
Creator:Kith190
Version:See you inNever
Source:
Tags:
BeatmapID:1655582
BeatmapSetID:788833

[Difficulty]
HPDrainRate:5
CircleSize:5
OverallDifficulty:5
ApproachRate:5
SliderMultiplier:1.4
SliderTickRate:1

[Events]
//Background and Video events
0,0,"Konachan.com - 265476 sample.jpg",0,0
//Break Periods
2,47155,67782
//Storyboard Layer 0 (Background)
//Storyboard Layer 1 (Fail)
//Storyboard Layer 2 (Pass)
//Storyboard Layer 3 (Foreground)
//Storyboard Sound Samples

[TimingPoints]
1850,419.58041958042,4,1,0,100,1,0
28283,-25,4,1,0,100,0,0
28493,-50,4,1,0,100,0,0
68982,-100,4,1,0,100,0,0
75696,-90.9090909090909,4,1,0,100,0,0
82409,-83.3333333333333,4,1,0,100,0,0
85766,-76.9230769230769,4,1,0,100,0,0
89122,-71.4285714285714,4,1,0,100,0,0
92479,-66.6666666666667,4,1,0,100,0,0
93108,-68.9655172413794,4,1,0,100,0,0
93213,-71.4285714285714,4,1,0,100,0,0
93318,-74.0740740740739,4,1,0,100,0,0
93528,-79.9999999999999,4,1,0,100,0,0
93738,-74.0740740740741,4,1,0,100,0,0
93947,-66.6666666666667,4,1,0,100,0,0
94157,-60.6060606060606,4,1,0,100,0,0
95416,-50,4,1,0,100,0,0

[HitObjects]
256,192,1850,5,0,0:0:0:0:
256,192,2059,1,0,0:0:0:0:
256,192,2164,1,0,0:0:0:0:
256,192,2269,1,0,0:0:0:0:
256,192,2479,1,0,0:0:0:0:
256,192,2689,1,8,0:0:0:0:
256,192,2898,1,8,0:0:0:0:
256,192,3003,1,8,0:0:0:0:
256,192,3108,1,0,0:0:0:0:
256,192,3318,1,0,0:0:0:0:
256,192,3528,1,8,0:0:0:0:
256,192,3738,1,0,0:0:0:0:
256,192,3843,1,0,0:0:0:0:
256,192,3947,1,8,0:0:0:0:
256,192,4157,1,8,0:0:0:0:
256,192,4367,1,0,0:0:0:0:
256,192,4577,1,0,0:0:0:0:
256,192,4787,1,0,0:0:0:0:
256,192,5206,1,0,0:0:0:0:
256,192,5416,1,0,0:0:0:0:
256,192,5521,1,0,0:0:0:0:
256,192,5626,1,0,0:0:0:0:
256,192,5836,1,0,0:0:0:0:
256,192,6045,1,8,0:0:0:0:
256,192,6255,1,8,0:0:0:0:
256,192,6360,1,8,0:0:0:0:
256,192,6465,1,0,0:0:0:0:
256,192,6675,1,0,0:0:0:0:
256,192,6884,1,8,0:0:0:0:
256,192,7094,1,8,0:0:0:0:
256,192,7199,1,0,0:0:0:0:
256,192,7304,1,0,0:0:0:0:
256,192,7514,1,8,0:0:0:0:
256,192,7724,1,8,0:0:0:0:
256,192,7933,1,0,0:0:0:0:
256,192,8038,1,8,0:0:0:0:
256,192,8143,1,8,0:0:0:0:
256,192,8563,1,8,0:0:0:0:
256,192,8773,1,8,0:0:0:0:
256,192,8877,1,8,0:0:0:0:
256,192,8982,1,8,0:0:0:0:
256,192,9192,1,8,0:0:0:0:
288,192,9402,1,8,0:0:0:0:
288,192,9472,1,8,0:0:0:0:
288,192,9542,1,8,0:0:0:0:
288,192,9612,1,8,0:0:0:0:
256,192,9717,1,0,0:0:0:0:
256,192,9822,1,8,0:0:0:0:
288,192,10031,1,0,0:0:0:0:
288,192,10241,1,8,0:0:0:0:
288,192,10451,1,0,0:0:0:0:
288,192,10661,1,8,0:0:0:0:
288,192,10870,1,0,0:0:0:0:
288,192,11080,1,8,0:0:0:0:
288,192,11290,1,8,0:0:0:0:
288,192,11500,1,0,0:0:0:0:
288,192,11710,1,0,0:0:0:0:
288,192,11919,1,8,0:0:0:0:
288,192,12129,1,0,0:0:0:0:
288,192,12234,1,0,0:0:0:0:
288,192,12339,1,0,0:0:0:0:
288,192,12549,1,8,0:0:0:0:
288,192,12759,1,0,0:0:0:0:
288,192,13178,1,0,0:0:0:0:
288,192,13388,1,8,0:0:0:0:
288,192,13598,1,0,0:0:0:0:
288,192,13808,1,8,0:0:0:0:
288,192,13912,1,0,0:0:0:0:
288,192,14017,1,0,0:0:0:0:
320,192,14227,1,0,0:0:0:0:
288,192,14437,1,8,0:0:0:0:
288,192,14856,1,8,0:0:0:0:
288,192,14961,1,8,0:0:0:0:
288,192,15066,1,8,0:0:0:0:
288,192,15171,1,8,0:0:0:0:
288,192,15276,1,0,0:0:0:0:
256,192,15485,1,0,0:0:0:0:
256,192,15590,1,0,0:0:0:0:
256,192,15695,1,0,0:0:0:0:
256,192,15905,1,0,0:0:0:0:
256,192,16115,1,8,0:0:0:0:
256,192,16324,1,8,0:0:0:0:
256,192,16429,1,8,0:0:0:0:
256,192,16534,1,0,0:0:0:0:
256,192,16744,1,0,0:0:0:0:
256,192,16954,1,8,0:0:0:0:
256,192,17164,1,0,0:0:0:0:
256,192,17269,1,0,0:0:0:0:
256,192,17373,1,8,0:0:0:0:
256,192,17583,1,8,0:0:0:0:
256,192,17793,1,0,0:0:0:0:
256,192,18003,1,0,0:0:0:0:
256,192,18213,1,0,0:0:0:0:
256,192,18632,1,0,0:0:0:0:
256,192,18842,1,0,0:0:0:0:
256,192,18947,1,0,0:0:0:0:
256,192,19052,1,0,0:0:0:0:
256,192,19262,1,0,0:0:0:0:
256,192,19471,1,8,0:0:0:0:
256,192,19681,1,8,0:0:0:0:
256,192,19786,1,8,0:0:0:0:
256,192,19891,1,0,0:0:0:0:
256,192,20101,1,0,0:0:0:0:
256,192,20310,1,8,0:0:0:0:
256,192,20520,1,8,0:0:0:0:
256,192,20625,1,0,0:0:0:0:
256,192,20730,1,0,0:0:0:0:
256,192,20940,1,8,0:0:0:0:
256,192,21150,1,8,0:0:0:0:
256,192,21359,1,0,0:0:0:0:
256,192,21464,1,8,0:0:0:0:
256,192,21569,1,8,0:0:0:0:
256,192,21989,1,8,0:0:0:0:
256,192,22199,1,8,0:0:0:0:
256,192,22303,1,8,0:0:0:0:
256,192,22408,1,8,0:0:0:0:
256,192,22618,1,8,0:0:0:0:
288,192,22828,1,8,0:0:0:0:
288,192,22898,1,8,0:0:0:0:
288,192,22968,1,8,0:0:0:0:
288,192,23038,1,8,0:0:0:0:
256,192,23143,1,0,0:0:0:0:
256,192,23248,1,8,0:0:0:0:
288,192,23318,1,8,0:0:0:0:
288,192,23458,1,0,0:0:0:0:
288,192,23667,1,8,0:0:0:0:
288,192,23877,1,0,0:0:0:0:
288,192,24087,1,8,0:0:0:0:
288,192,24157,1,8,0:0:0:0:
288,192,24296,1,0,0:0:0:0:
288,192,24506,1,8,0:0:0:0:
288,192,24716,1,8,0:0:0:0:
288,192,24926,1,0,0:0:0:0:
288,192,25136,1,0,0:0:0:0:
288,192,25345,1,8,0:0:0:0:
288,192,25556,1,8,0:0:0:0:
288,192,25661,1,8,0:0:0:0:
288,192,25766,1,0,0:0:0:0:
288,192,25975,1,0,0:0:0:0:
288,192,26185,1,8,0:0:0:0:
288,192,26605,1,0,0:0:0:0:
288,192,26815,1,8,0:0:0:0:
288,192,27024,1,0,0:0:0:0:
288,192,27444,1,8,0:0:0:0:
288,192,27863,1,0,0:0:0:0:
288,192,28283,1,12,0:0:0:0:
256,192,28703,1,4,0:0:0:0:
288,192,31430,1,4,0:0:0:0:
288,192,31640,1,4,0:0:0:0:
288,192,31850,1,4,0:0:0:0:
288,192,32059,1,4,0:0:0:0:
288,192,33947,1,4,0:0:0:0:
288,192,34157,1,4,0:0:0:0:
288,192,34367,1,4,0:0:0:0:
288,192,34577,1,0,0:0:0:0:
288,192,34682,1,0,0:0:0:0:
288,192,34787,1,0,0:0:0:0:
288,192,34891,1,0,0:0:0:0:
288,192,34996,1,8,0:0:0:0:
288,192,35101,1,8,0:0:0:0:
288,192,35206,1,8,0:0:0:0:
288,192,35311,1,8,0:0:0:0:
288,192,35416,1,4,0:0:0:0:
288,192,35836,1,8,0:0:0:0:
288,192,36255,1,4,0:0:0:0:
288,192,36675,1,8,0:0:0:0:
288,192,37094,1,4,0:0:0:0:
288,192,37514,1,8,0:0:0:0:
288,192,37933,1,4,0:0:0:0:
288,192,38353,1,8,0:0:0:0:
288,192,38772,1,4,0:0:0:0:
288,192,39192,1,4,0:0:0:0:
288,192,39402,1,8,0:0:0:0:
288,192,39611,1,4,0:0:0:0:
288,192,39822,1,8,0:0:0:0:
288,192,40031,1,4,0:0:0:0:
288,192,40241,1,8,0:0:0:0:
288,192,40450,1,4,0:0:0:0:
288,192,41080,1,0,0:0:0:0:
288,192,41185,1,0,0:0:0:0:
288,192,41290,1,0,0:0:0:0:
288,192,41395,1,0,0:0:0:0:
288,192,41500,1,0,0:0:0:0:
288,192,41605,1,0,0:0:0:0:
288,192,41710,1,8,0:0:0:0:
288,160,41762,1,8,0:0:0:0:
288,160,41815,1,8,0:0:0:0:
288,192,41867,1,8,0:0:0:0:
288,192,41919,1,8,0:0:0:0:
288,192,41972,1,8,0:0:0:0:
288,192,42024,1,8,0:0:0:0:
288,192,42077,1,8,0:0:0:0:
288,192,42129,1,0,0:0:0:0:
288,192,42339,1,8,0:0:0:0:
288,192,42391,1,8,0:0:0:0:
288,192,42444,1,8,0:0:0:0:
288,192,42549,1,0,0:0:0:0:
288,192,42654,1,0,0:0:0:0:
288,192,42759,1,8,0:0:0:0:
288,192,42969,1,0,0:0:0:0:
288,192,43073,1,0,0:0:0:0:
288,192,43179,1,8,0:0:0:0:
288,192,43231,1,8,0:0:0:0:
288,192,43283,1,8,0:0:0:0:
288,192,43336,1,8,0:0:0:0:
288,192,43388,1,0,0:0:0:0:
288,192,43493,1,0,0:0:0:0:
288,192,43598,1,8,0:0:0:0:
288,192,43808,1,0,0:0:0:0:
288,192,43912,1,0,0:0:0:0:
288,192,44017,1,8,0:0:0:0:
288,192,44070,1,8,0:0:0:0:
288,192,44122,1,8,0:0:0:0:
288,192,44227,1,0,0:0:0:0:
288,192,44332,1,0,0:0:0:0:
288,192,44384,1,0,0:0:0:0:
288,192,44437,1,8,0:0:0:0:
288,192,44647,1,0,0:0:0:0:
288,192,44752,1,0,0:0:0:0:
288,192,44804,1,0,0:0:0:0:
256,192,44856,1,8,0:0:0:0:
288,192,44909,1,8,0:0:0:0:
288,192,44961,1,8,0:0:0:0:
288,192,45067,1,0,0:0:0:0:
288,192,45171,1,0,0:0:0:0:
288,192,45276,1,12,0:0:0:0:
256,192,45381,1,12,0:0:0:0:
288,192,45486,1,4,0:0:0:0:
288,192,45696,1,0,0:0:0:0:
288,192,45905,1,0,0:0:0:0:
288,192,46115,1,0,0:0:0:0:
288,192,46325,1,0,0:0:0:0:
288,192,46535,1,0,0:0:0:0:
288,192,46745,1,0,0:0:0:0:
288,192,46955,1,0,0:0:0:0:
256,192,68982,5,0,0:0:0:0:
256,192,69192,1,8,0:0:0:0:
256,192,69402,1,0,0:0:0:0:
256,192,69611,1,8,0:0:0:0:
256,192,69821,1,0,0:0:0:0:
256,192,70031,1,8,0:0:0:0:
256,192,70241,1,0,0:0:0:0:
256,192,70451,1,8,0:0:0:0:
256,192,70661,1,0,0:0:0:0:
256,192,70871,1,8,0:0:0:0:
256,192,70975,1,8,0:0:0:0:
256,192,71081,1,0,0:0:0:0:
256,192,71290,1,8,0:0:0:0:
256,192,71500,1,0,0:0:0:0:
256,192,71710,1,8,0:0:0:0:
256,192,71920,1,0,0:0:0:0:
256,192,72130,1,8,0:0:0:0:
256,192,72339,1,0,0:0:0:0:
256,192,72549,1,8,0:0:0:0:
256,192,72759,1,0,0:0:0:0:
256,192,72968,1,8,0:0:0:0:
256,192,73178,1,0,0:0:0:0:
256,192,73283,1,0,0:0:0:0:
256,192,73388,1,8,0:0:0:0:
256,192,73493,1,8,0:0:0:0:
256,192,73598,1,0,0:0:0:0:
256,192,73808,1,8,0:0:0:0:
256,192,74017,1,0,0:0:0:0:
256,192,74227,1,8,0:0:0:0:
256,192,74437,1,0,0:0:0:0:
256,192,74647,1,8,0:0:0:0:
256,192,74856,1,0,0:0:0:0:
256,192,75066,1,8,0:0:0:0:
256,192,75276,1,8,0:0:0:0:
256,192,75486,1,8,0:0:0:0:
256,192,75696,1,0,0:0:0:0:
256,192,75905,1,8,0:0:0:0:
256,192,76010,1,8,0:0:0:0:
256,192,76115,1,0,0:0:0:0:
256,192,76325,1,8,0:0:0:0:
256,192,76535,1,0,0:0:0:0:
256,192,76745,1,8,0:0:0:0:
256,192,76850,1,0,0:0:0:0:
256,192,76954,1,0,0:0:0:0:
256,192,77164,1,8,0:0:0:0:
256,192,77374,1,0,0:0:0:0:
256,192,77584,1,8,0:0:0:0:
256,192,77689,1,8,0:0:0:0:
256,192,77794,1,0,0:0:0:0:
256,192,78003,1,8,0:0:0:0:
256,192,78213,1,0,0:0:0:0:
256,192,78318,1,0,0:0:0:0:
256,192,78423,1,8,0:0:0:0:
256,192,78528,1,8,0:0:0:0:
256,192,78633,1,0,0:0:0:0:
256,192,78843,1,8,0:0:0:0:
256,192,79052,1,0,0:0:0:0:
256,192,79262,1,8,0:0:0:0:
256,192,79367,1,8,0:0:0:0:
256,192,79472,1,0,0:0:0:0:
256,192,79682,1,8,0:0:0:0:
256,192,79891,1,0,0:0:0:0:
256,192,80101,1,8,0:0:0:0:
256,192,80206,1,0,0:0:0:0:
256,192,80311,1,0,0:0:0:0:
256,192,80521,1,8,0:0:0:0:
256,192,80731,1,0,0:0:0:0:
256,192,80940,1,8,0:0:0:0:
256,192,81045,1,8,0:0:0:0:
256,192,81150,1,0,0:0:0:0:
256,192,81360,1,8,0:0:0:0:
256,192,81570,1,0,0:0:0:0:
256,192,81675,1,0,0:0:0:0:
256,192,81780,1,0,0:0:0:0:
256,192,81884,1,0,0:0:0:0:
256,192,81989,1,8,0:0:0:0:
256,192,82059,1,8,0:0:0:0:
256,192,82129,1,8,0:0:0:0:
256,192,82199,1,8,0:0:0:0:
256,192,82269,1,8,0:0:0:0:
256,192,82339,1,8,0:0:0:0:
256,192,82409,1,0,0:0:0:0:
256,192,82618,1,0,0:0:0:0:
256,192,82723,1,0,0:0:0:0:
256,192,82828,1,0,0:0:0:0:
256,192,83038,1,0,0:0:0:0:
256,192,83248,1,8,0:0:0:0:
256,192,83457,1,8,0:0:0:0:
256,192,83562,1,8,0:0:0:0:
256,192,83667,1,0,0:0:0:0:
256,192,83877,1,0,0:0:0:0:
256,192,84087,1,8,0:0:0:0:
256,192,84297,1,0,0:0:0:0:
256,192,84402,1,0,0:0:0:0:
256,192,84506,1,8,0:0:0:0:
256,192,84716,1,8,0:0:0:0:
256,192,84926,1,0,0:0:0:0:
256,192,85136,1,0,0:0:0:0:
256,192,85346,1,0,0:0:0:0:
256,192,85765,1,0,0:0:0:0:
256,192,85975,1,0,0:0:0:0:
256,192,86080,1,0,0:0:0:0:
256,192,86185,1,0,0:0:0:0:
256,192,86395,1,0,0:0:0:0:
256,192,86604,1,8,0:0:0:0:
256,192,86814,1,8,0:0:0:0:
256,192,86919,1,8,0:0:0:0:
256,192,87024,1,0,0:0:0:0:
256,192,87234,1,0,0:0:0:0:
256,192,87443,1,8,0:0:0:0:
256,192,87653,1,8,0:0:0:0:
256,192,87758,1,0,0:0:0:0:
256,192,87863,1,0,0:0:0:0:
256,192,88073,1,8,0:0:0:0:
256,192,88283,1,8,0:0:0:0:
256,192,88492,1,0,0:0:0:0:
256,192,88597,1,8,0:0:0:0:
256,192,88702,1,8,0:0:0:0:
256,192,89122,1,8,0:0:0:0:
256,192,89332,1,8,0:0:0:0:
256,192,89436,1,8,0:0:0:0:
256,192,89541,1,8,0:0:0:0:
256,192,89751,1,8,0:0:0:0:
288,192,89961,1,8,0:0:0:0:
288,192,90031,1,8,0:0:0:0:
288,192,90101,1,8,0:0:0:0:
288,192,90171,1,8,0:0:0:0:
256,192,90276,1,0,0:0:0:0:
256,192,90381,1,8,0:0:0:0:
288,192,90590,1,0,0:0:0:0:
288,192,90800,1,8,0:0:0:0:
288,192,91010,1,0,0:0:0:0:
288,192,91220,1,8,0:0:0:0:
288,192,91429,1,0,0:0:0:0:
288,192,91639,1,8,0:0:0:0:
288,192,91849,1,8,0:0:0:0:
288,192,92059,1,0,0:0:0:0:
288,192,92269,1,0,0:0:0:0:
288,192,92478,1,8,0:0:0:0:
288,192,92688,1,0,0:0:0:0:
288,192,92793,1,0,0:0:0:0:
288,192,92898,1,8,0:0:0:0:
288,192,93003,1,8,0:0:0:0:
288,192,93108,1,8,0:0:0:0:
288,192,93213,1,8,0:0:0:0:
288,192,93318,1,0,0:0:0:0:
288,192,93528,1,0,0:0:0:0:
288,192,93738,1,8,0:0:0:0:
288,192,93947,1,0,0:0:0:0:
288,192,94157,1,8,0:0:0:0:
288,192,94367,1,8,0:0:0:0:
288,192,94471,1,0,0:0:0:0:
288,192,94576,1,0,0:0:0:0:
320,192,94786,1,0,0:0:0:0:
288,192,94839,1,0,0:0:0:0:
288,192,94891,1,0,0:0:0:0:
288,192,94944,1,0,0:0:0:0:
288,192,94996,1,8,0:0:0:0:
288,192,95416,1,8,0:0:0:0:
288,192,95468,1,8,0:0:0:0:
288,192,95521,1,8,0:0:0:0:
288,192,95573,1,8,0:0:0:0:
288,192,95626,1,8,0:0:0:0:
288,192,95678,1,8,0:0:0:0:
288,192,95731,1,8,0:0:0:0:
288,192,95783,1,8,0:0:0:0:
256,192,95836,1,4,0:0:0:0:
256,192,96045,1,0,0:0:0:0:
256,192,96150,1,4,0:0:0:0:
256,192,96255,1,0,0:0:0:0:
256,192,96465,1,4,0:0:0:0:
256,192,96570,1,4,0:0:0:0:
256,192,96675,1,12,0:0:0:0:
256,192,96884,1,8,0:0:0:0:
256,192,96989,1,12,0:0:0:0:
256,192,97094,1,0,0:0:0:0:
256,192,97304,1,4,0:0:0:0:
256,192,97409,1,4,0:0:0:0:
256,192,97514,1,12,0:0:0:0:
256,192,97724,1,0,0:0:0:0:
256,192,97829,1,4,0:0:0:0:
256,192,97933,1,8,0:0:0:0:
256,192,98143,1,12,0:0:0:0:
256,192,98353,1,0,0:0:0:0:
256,192,98563,1,8,0:0:0:0:
256,192,98668,1,8,0:0:0:0:
256,192,98773,1,0,0:0:0:0:
256,192,98982,1,8,0:0:0:0:
256,192,99192,1,4,0:0:0:0:
256,192,99402,1,0,0:0:0:0:
256,192,99507,1,4,0:0:0:0:
256,192,99612,1,0,0:0:0:0:
256,192,99822,1,4,0:0:0:0:
256,192,99926,1,4,0:0:0:0:
256,192,100031,1,12,0:0:0:0:
256,192,100241,1,8,0:0:0:0:
256,192,100346,1,12,0:0:0:0:
256,192,100451,1,0,0:0:0:0:
256,192,100661,1,4,0:0:0:0:
256,192,100766,1,4,0:0:0:0:
256,192,100870,1,12,0:0:0:0:
256,192,101080,1,8,0:0:0:0:
256,192,101185,1,4,0:0:0:0:
256,192,101290,1,0,0:0:0:0:
256,192,101500,1,0,0:0:0:0:
256,192,101710,1,8,0:0:0:0:
256,192,101919,1,0,0:0:0:0:
256,192,102024,1,8,0:0:0:0:
256,192,102129,1,8,0:0:0:0:
256,192,102549,1,12,0:0:0:0:
256,192,102759,1,8,0:0:0:0:
256,192,102863,1,12,0:0:0:0:
256,192,102968,1,8,0:0:0:0:
256,192,103178,1,0,0:0:0:0:
256,192,103283,1,0,0:0:0:0:
288,192,103388,1,8,0:0:0:0:
288,192,103458,1,8,0:0:0:0:
288,192,103528,1,8,0:0:0:0:
288,192,103598,1,8,0:0:0:0:
256,192,103703,1,0,0:0:0:0:
256,192,103808,1,8,0:0:0:0:
288,224,103877,1,8,0:0:0:0:
288,192,103947,1,8,0:0:0:0:
288,192,104017,1,0,0:0:0:0:
288,192,104122,1,4,0:0:0:0:
288,192,104227,1,8,0:0:0:0:
288,192,104437,1,4,0:0:0:0:
288,192,104542,1,4,0:0:0:0:
288,192,104647,1,12,0:0:0:0:
288,192,104856,1,0,0:0:0:0:
288,192,105066,1,8,0:0:0:0:
288,192,105276,1,8,0:0:0:0:
288,192,105486,1,0,0:0:0:0:
288,192,105696,1,0,0:0:0:0:
288,192,105905,1,12,0:0:0:0:
288,192,106115,1,12,0:0:0:0:
288,192,106220,1,8,0:0:0:0:
288,192,106325,1,0,0:0:0:0:
288,192,106535,1,0,0:0:0:0:
288,192,106745,1,4,0:0:0:0:
288,192,107164,1,4,0:0:0:0:
288,192,107374,1,8,0:0:0:0:
288,192,107479,1,12,0:0:0:0:
288,192,107584,1,0,0:0:0:0:
288,192,107898,1,0,0:0:0:0:
288,192,108003,1,12,0:0:0:0:
288,192,108213,1,8,0:0:0:0:
288,192,108283,1,8,0:0:0:0:
256,192,108353,1,8,0:0:0:0:
288,192,108423,1,0,0:0:0:0:
256,192,108843,12,0,109157,0:0:0:0:
