osu file format v14

[General]
AudioFilename: audio.mp3
AudioLeadIn: 0
PreviewTime: 19105
Countdown: 0
SampleSet: None
StackLeniency: 0.7
Mode: 3
LetterboxInBreaks: 0
SpecialStyle: 0
WidescreenStoryboard: 0

[Editor]
DistanceSpacing: 1.2
BeatDivisor: 4
GridSize: 8
TimelineZoom: 1

[Metadata]
Title:Readymade Luv
TitleUnicode:Readymade Luv
Artist:t+pazolite vs RoughSketch
ArtistUnicode:t+pazolite vs RoughSketch
Creator:Chronocide
Version:Insane
Source:108 Sketches 4
Tags:2015
BeatmapID:1780940
BeatmapSetID:851953

[Difficulty]
HPDrainRate:8
CircleSize:4
OverallDifficulty:9
ApproachRate:5
SliderMultiplier:1.4
SliderTickRate:1

[Events]
//Background and Video events
0,0,"Konachan.com - 216075 sample.jpg",0,0
//Break Periods
//Storyboard Layer 0 (Background)
//Storyboard Layer 1 (Fail)
//Storyboard Layer 2 (Pass)
//Storyboard Layer 3 (Foreground)
//Storyboard Sound Samples

[TimingPoints]
0,315.789473684211,4,1,0,60,1,0

[HitObjects]
64,192,0,5,0,0:0:0:0:
192,192,315,5,0,0:0:0:0:
64,192,631,1,0,0:0:0:0:
448,192,631,1,0,0:0:0:0:
448,192,947,1,0,0:0:0:0:
64,192,1263,1,0,0:0:0:0:
320,192,1578,1,0,0:0:0:0:
64,192,1894,1,0,0:0:0:0:
448,192,1894,1,0,0:0:0:0:
320,192,2210,1,0,0:0:0:0:
64,192,2526,1,0,0:0:0:0:
192,192,2842,1,0,0:0:0:0:
64,192,3157,1,0,0:0:0:0:
448,192,3157,1,0,0:0:0:0:
448,192,3473,1,0,0:0:0:0:
64,192,3789,1,0,0:0:0:0:
320,192,4105,1,0,0:0:0:0:
64,192,4421,1,0,0:0:0:0:
448,192,4421,1,0,0:0:0:0:
320,192,4578,1,0,0:0:0:0:
64,192,4578,1,0,0:0:0:0:
192,192,4736,1,0,0:0:0:0:
448,192,4736,1,0,0:0:0:0:
320,192,4894,1,0,0:0:0:0:
192,192,4894,1,0,0:0:0:0:
64,192,5052,1,0,0:0:0:0:
448,192,5052,1,0,0:0:0:0:
320,192,5368,1,0,0:0:0:0:
448,192,5684,1,0,0:0:0:0:
64,192,5684,1,0,0:0:0:0:
64,192,6000,1,0,0:0:0:0:
448,192,6315,1,0,0:0:0:0:
192,192,6631,1,0,0:0:0:0:
448,192,6947,1,0,0:0:0:0:
64,192,6947,1,0,0:0:0:0:
192,192,7263,1,0,0:0:0:0:
448,192,7578,1,0,0:0:0:0:
320,192,7894,1,0,0:0:0:0:
448,192,8210,1,0,0:0:0:0:
64,192,8210,1,0,0:0:0:0:
64,192,8526,1,0,0:0:0:0:
448,192,8842,1,0,0:0:0:0:
192,192,9157,1,0,0:0:0:0:
448,192,9473,1,0,0:0:0:0:
64,192,9473,1,0,0:0:0:0:
192,192,9552,1,0,0:0:0:0:
320,192,9552,1,0,0:0:0:0:
64,192,9631,1,0,0:0:0:0:
448,192,9631,1,0,0:0:0:0:
320,192,9789,1,0,0:0:0:0:
192,192,9789,1,0,0:0:0:0:
192,192,9947,1,0,0:0:0:0:
320,192,9947,1,0,0:0:0:0:
448,192,10105,1,0,0:0:0:0:
320,192,10105,1,0,0:0:0:0:
64,192,10105,1,0,0:0:0:0:
192,192,10105,1,0,0:0:0:0:
64,192,10421,1,0,0:0:0:0:
320,192,10421,1,0,0:0:0:0:
192,192,10421,1,0,0:0:0:0:
64,192,10736,1,0,0:0:0:0:
448,192,10736,1,0,0:0:0:0:
192,192,10736,1,0,0:0:0:0:
448,192,11052,1,0,0:0:0:0:
320,192,11052,1,0,0:0:0:0:
64,192,11052,1,0,0:0:0:0:
320,192,11368,1,0,0:0:0:0:
192,192,11368,1,0,0:0:0:0:
448,192,11368,1,0,0:0:0:0:
64,192,11684,1,0,0:0:0:0:
192,192,11684,1,0,0:0:0:0:
320,192,11684,1,0,0:0:0:0:
448,192,12000,1,0,0:0:0:0:
192,192,12000,1,0,0:0:0:0:
64,192,12000,1,0,0:0:0:0:
64,192,12315,1,0,0:0:0:0:
320,192,12315,1,0,0:0:0:0:
448,192,12315,1,0,0:0:0:0:
320,192,12473,1,0,0:0:0:0:
192,192,12473,1,0,0:0:0:0:
320,192,12631,1,0,0:0:0:0:
192,192,12631,1,0,0:0:0:0:
64,192,12631,1,0,0:0:0:0:
448,192,12631,1,0,0:0:0:0:
320,192,12947,1,0,0:0:0:0:
192,192,12947,1,0,0:0:0:0:
448,192,12947,1,0,0:0:0:0:
64,192,13263,1,0,0:0:0:0:
320,192,13263,1,0,0:0:0:0:
448,192,13263,1,0,0:0:0:0:
448,192,13578,1,0,0:0:0:0:
192,192,13578,1,0,0:0:0:0:
64,192,13578,1,0,0:0:0:0:
320,192,13894,1,0,0:0:0:0:
192,192,13894,1,0,0:0:0:0:
64,192,13894,1,0,0:0:0:0:
448,192,14210,1,0,0:0:0:0:
320,192,14210,1,0,0:0:0:0:
192,192,14210,1,0,0:0:0:0:
64,192,14526,1,0,0:0:0:0:
320,192,14526,1,0,0:0:0:0:
448,192,14526,1,0,0:0:0:0:
192,192,14684,1,0,0:0:0:0:
320,192,14684,1,0,0:0:0:0:
64,192,14763,1,0,0:0:0:0:
448,192,14763,1,0,0:0:0:0:
192,192,14842,1,0,0:0:0:0:
320,192,14842,1,0,0:0:0:0:
448,192,15000,1,0,0:0:0:0:
192,192,15157,1,0,0:0:0:0:
64,192,15157,1,0,0:0:0:0:
64,192,15315,1,0,0:0:0:0:
320,192,15315,1,0,0:0:0:0:
192,192,15473,1,0,0:0:0:0:
320,192,15473,1,0,0:0:0:0:
192,192,15631,1,0,0:0:0:0:
448,192,15631,1,0,0:0:0:0:
448,192,15789,1,0,0:0:0:0:
320,192,15789,1,0,0:0:0:0:
448,192,15947,1,0,0:0:0:0:
192,192,15947,1,0,0:0:0:0:
320,192,16105,1,0,0:0:0:0:
192,192,16105,1,0,0:0:0:0:
320,192,16263,1,0,0:0:0:0:
64,192,16263,1,0,0:0:0:0:
192,192,16421,1,0,0:0:0:0:
64,192,16421,1,0,0:0:0:0:
64,192,16578,1,0,0:0:0:0:
320,192,16578,1,0,0:0:0:0:
192,192,16736,1,0,0:0:0:0:
320,192,16736,1,0,0:0:0:0:
448,192,16894,1,0,0:0:0:0:
192,192,16894,1,0,0:0:0:0:
448,192,17052,1,0,0:0:0:0:
320,192,17052,1,0,0:0:0:0:
448,192,17210,1,0,0:0:0:0:
192,192,17210,1,0,0:0:0:0:
320,192,17368,1,0,0:0:0:0:
192,192,17368,1,0,0:0:0:0:
320,192,17526,1,0,0:0:0:0:
64,192,17526,1,0,0:0:0:0:
64,192,17684,1,0,0:0:0:0:
448,192,17684,1,0,0:0:0:0:
192,192,17763,1,0,0:0:0:0:
320,192,17842,1,0,0:0:0:0:
448,192,17842,1,0,0:0:0:0:
192,192,17921,1,0,0:0:0:0:
64,192,18000,1,0,0:0:0:0:
448,192,18000,1,0,0:0:0:0:
320,192,18078,1,0,0:0:0:0:
192,192,18157,1,0,0:0:0:0:
64,192,18157,1,0,0:0:0:0:
320,192,18236,1,0,0:0:0:0:
448,192,18315,1,0,0:0:0:0:
64,192,18315,1,0,0:0:0:0:
192,192,18394,1,0,0:0:0:0:
320,192,18473,1,0,0:0:0:0:
448,192,18473,1,0,0:0:0:0:
192,192,18552,1,0,0:0:0:0:
64,192,18631,1,0,0:0:0:0:
448,192,18631,1,0,0:0:0:0:
320,192,18710,1,0,0:0:0:0:
192,192,18789,1,0,0:0:0:0:
64,192,18789,1,0,0:0:0:0:
320,192,18868,1,0,0:0:0:0:
448,192,18947,1,0,0:0:0:0:
64,192,18947,1,0,0:0:0:0:
192,192,18947,1,0,0:0:0:0:
64,192,20210,1,0,0:0:0:0:
448,192,20210,1,0,0:0:0:0:
192,192,20289,1,0,0:0:0:0:
320,192,20368,1,0,0:0:0:0:
448,192,20447,1,0,0:0:0:0:
192,192,20526,1,0,0:0:0:0:
64,192,20526,1,0,0:0:0:0:
320,192,20605,1,0,0:0:0:0:
192,192,20684,1,0,0:0:0:0:
64,192,20684,1,0,0:0:0:0:
320,192,20763,1,0,0:0:0:0:
448,192,20842,1,0,0:0:0:0:
64,192,20842,1,0,0:0:0:0:
192,192,20921,1,0,0:0:0:0:
320,192,21000,1,0,0:0:0:0:
64,192,21078,1,0,0:0:0:0:
192,192,21157,1,0,0:0:0:0:
448,192,21157,1,0,0:0:0:0:
320,192,21236,1,0,0:0:0:0:
192,192,21315,1,0,0:0:0:0:
64,192,21394,1,0,0:0:0:0:
320,192,21473,1,0,0:0:0:0:
448,192,21473,1,0,0:0:0:0:
192,192,21552,1,0,0:0:0:0:
320,192,21631,1,0,0:0:0:0:
448,192,21631,1,0,0:0:0:0:
64,192,21710,1,0,0:0:0:0:
192,192,21789,1,0,0:0:0:0:
448,192,21789,1,0,0:0:0:0:
320,192,21868,1,0,0:0:0:0:
64,192,21947,1,0,0:0:0:0:
192,192,21947,1,0,0:0:0:0:
320,192,22026,1,0,0:0:0:0:
448,192,22105,1,0,0:0:0:0:
64,192,22105,1,0,0:0:0:0:
192,192,22184,1,0,0:0:0:0:
320,192,22263,1,0,0:0:0:0:
448,192,22342,1,0,0:0:0:0:
192,192,22421,1,0,0:0:0:0:
64,192,22421,1,0,0:0:0:0:
320,192,22500,1,0,0:0:0:0:
192,192,22578,1,0,0:0:0:0:
64,192,22578,1,0,0:0:0:0:
448,192,22657,1,0,0:0:0:0:
192,192,22736,1,0,0:0:0:0:
64,192,22789,1,0,0:0:0:0:
320,192,22842,1,0,0:0:0:0:
192,192,22894,1,0,0:0:0:0:
448,192,22947,1,0,0:0:0:0:
320,192,23000,1,0,0:0:0:0:
64,192,23052,1,0,0:0:0:0:
320,192,23131,1,0,0:0:0:0:
448,192,23210,1,0,0:0:0:0:
64,192,23210,1,0,0:0:0:0:
192,192,23289,1,0,0:0:0:0:
64,192,23368,1,0,0:0:0:0:
448,192,23368,1,0,0:0:0:0:
320,192,23447,1,0,0:0:0:0:
192,192,23526,1,0,0:0:0:0:
448,192,23605,1,0,0:0:0:0:
64,192,23684,1,0,0:0:0:0:
320,192,23684,1,0,0:0:0:0:
192,192,23763,1,0,0:0:0:0:
320,192,23842,1,0,0:0:0:0:
64,192,23921,1,0,0:0:0:0:
192,192,24000,1,0,0:0:0:0:
448,192,24000,1,0,0:0:0:0:
320,192,24078,1,0,0:0:0:0:
64,192,24157,1,0,0:0:0:0:
448,192,24157,1,0,0:0:0:0:
192,192,24236,1,0,0:0:0:0:
64,192,24315,1,0,0:0:0:0:
320,192,24315,1,0,0:0:0:0:
192,192,24394,1,0,0:0:0:0:
320,192,24473,1,0,0:0:0:0:
448,192,24473,1,0,0:0:0:0:
192,192,24552,1,0,0:0:0:0:
64,192,24552,1,0,0:0:0:0:
320,192,24631,1,0,0:0:0:0:
448,192,24631,1,0,0:0:0:0:
64,192,24710,1,0,0:0:0:0:
320,192,24789,1,0,0:0:0:0:
448,192,24789,1,0,0:0:0:0:
64,192,24868,1,0,0:0:0:0:
448,192,24947,1,0,0:0:0:0:
320,192,24986,1,0,0:0:0:0:
192,192,25026,1,0,0:0:0:0:
64,192,25065,1,0,0:0:0:0:
448,192,25105,1,0,0:0:0:0:
320,192,25144,1,0,0:0:0:0:
192,192,25184,1,0,0:0:0:0:
64,192,25223,1,0,0:0:0:0:
320,192,25263,1,0,0:0:0:0:
448,192,25263,1,0,0:0:0:0:
192,192,25342,1,0,0:0:0:0:
320,192,25421,1,0,0:0:0:0:
192,192,25500,1,0,0:0:0:0:
64,192,25578,1,0,0:0:0:0:
448,192,25578,1,0,0:0:0:0:
320,192,25657,1,0,0:0:0:0:
192,192,25736,1,0,0:0:0:0:
64,192,25736,1,0,0:0:0:0:
320,192,25815,1,0,0:0:0:0:
64,192,25894,1,0,0:0:0:0:
448,192,25894,1,0,0:0:0:0:
192,192,25973,1,0,0:0:0:0:
320,192,26052,1,0,0:0:0:0:
192,192,26131,1,0,0:0:0:0:
320,192,26210,1,0,0:0:0:0:
448,192,26210,1,0,0:0:0:0:
64,192,26289,1,0,0:0:0:0:
192,192,26368,1,0,0:0:0:0:
320,192,26447,1,0,0:0:0:0:
64,192,26526,1,0,0:0:0:0:
448,192,26526,1,0,0:0:0:0:
192,192,26605,1,0,0:0:0:0:
320,192,26684,1,0,0:0:0:0:
448,192,26684,1,0,0:0:0:0:
192,192,26763,1,0,0:0:0:0:
64,192,26842,1,0,0:0:0:0:
448,192,26842,1,0,0:0:0:0:
320,192,26921,1,0,0:0:0:0:
192,192,27000,1,0,0:0:0:0:
64,192,27000,1,0,0:0:0:0:
320,192,27078,1,0,0:0:0:0:
448,192,27157,1,0,0:0:0:0:
192,192,27157,1,0,0:0:0:0:
64,192,27236,1,0,0:0:0:0:
448,192,27315,1,0,0:0:0:0:
320,192,27394,1,0,0:0:0:0:
192,192,27473,1,0,0:0:0:0:
64,192,27473,1,0,0:0:0:0:
448,192,27552,1,0,0:0:0:0:
192,192,27631,1,0,0:0:0:0:
320,192,27631,1,0,0:0:0:0:
64,192,27710,1,0,0:0:0:0:
320,192,27789,1,0,0:0:0:0:
448,192,27789,1,0,0:0:0:0:
192,192,27868,1,0,0:0:0:0:
320,192,27947,1,0,0:0:0:0:
64,192,28026,1,0,0:0:0:0:
192,192,28105,1,0,0:0:0:0:
448,192,28105,1,0,0:0:0:0:
320,192,28184,1,0,0:0:0:0:
64,192,28263,1,0,0:0:0:0:
448,192,28263,1,0,0:0:0:0:
192,192,28342,1,0,0:0:0:0:
320,192,28421,1,0,0:0:0:0:
448,192,28421,1,0,0:0:0:0:
192,192,28500,1,0,0:0:0:0:
64,192,28578,1,0,0:0:0:0:
448,192,28657,1,0,0:0:0:0:
320,192,28736,1,0,0:0:0:0:
192,192,28736,1,0,0:0:0:0:
64,192,28815,1,0,0:0:0:0:
448,192,28894,1,0,0:0:0:0:
320,192,28973,1,0,0:0:0:0:
192,192,29052,1,0,0:0:0:0:
64,192,29052,1,0,0:0:0:0:
448,192,29131,1,0,0:0:0:0:
192,192,29210,1,0,0:0:0:0:
64,192,29210,1,0,0:0:0:0:
448,192,29289,1,0,0:0:0:0:
192,192,29368,1,0,0:0:0:0:
64,192,29368,1,0,0:0:0:0:
320,192,29447,1,0,0:0:0:0:
192,192,29526,1,0,0:0:0:0:
448,192,29526,1,0,0:0:0:0:
64,192,29684,1,0,0:0:0:0:
192,192,29723,1,0,0:0:0:0:
320,192,29763,1,0,0:0:0:0:
448,192,29802,1,0,0:0:0:0:
64,192,29842,1,0,0:0:0:0:
192,192,29881,1,0,0:0:0:0:
320,192,29921,1,0,0:0:0:0:
448,192,29960,1,0,0:0:0:0:
64,192,30000,1,0,0:0:0:0:
192,192,30039,1,0,0:0:0:0:
320,192,30078,1,0,0:0:0:0:
448,192,30118,1,0,0:0:0:0:
320,192,30157,1,0,0:0:0:0:
192,192,30197,1,0,0:0:0:0:
64,192,30236,1,0,0:0:0:0:
192,192,30276,1,0,0:0:0:0:
448,192,30315,1,0,0:0:0:0:
320,192,30315,1,0,0:0:0:0:
448,192,30473,1,0,0:0:0:0:
64,192,30473,1,0,0:0:0:0:
192,192,30473,1,0,0:0:0:0:
64,192,30631,1,0,0:0:0:0:
320,192,30631,1,0,0:0:0:0:
448,192,30631,1,0,0:0:0:0:
192,192,30710,1,0,0:0:0:0:
320,192,30789,1,0,0:0:0:0:
64,192,30868,1,0,0:0:0:0:
320,192,30947,1,0,0:0:0:0:
448,192,30947,1,0,0:0:0:0:
192,192,31026,1,0,0:0:0:0:
64,192,31105,1,0,0:0:0:0:
448,192,31105,1,0,0:0:0:0:
320,192,31184,1,0,0:0:0:0:
192,192,31263,1,0,0:0:0:0:
64,192,31263,1,0,0:0:0:0:
448,192,31342,1,0,0:0:0:0:
192,192,31421,1,0,0:0:0:0:
320,192,31500,1,0,0:0:0:0:
64,192,31578,1,0,0:0:0:0:
448,192,31578,1,0,0:0:0:0:
192,192,31657,1,0,0:0:0:0:
320,192,31736,1,0,0:0:0:0:
448,192,31736,1,0,0:0:0:0:
192,192,31815,1,0,0:0:0:0:
448,192,31894,1,0,0:0:0:0:
64,192,31894,1,0,0:0:0:0:
320,192,31973,1,0,0:0:0:0:
192,192,32052,1,0,0:0:0:0:
448,192,32052,1,0,0:0:0:0:
320,192,32131,1,0,0:0:0:0:
192,192,32210,1,0,0:0:0:0:
64,192,32210,1,0,0:0:0:0:
448,192,32289,1,0,0:0:0:0:
320,192,32368,1,0,0:0:0:0:
192,192,32447,1,0,0:0:0:0:
448,192,32526,1,0,0:0:0:0:
320,192,32526,1,0,0:0:0:0:
64,192,32605,1,0,0:0:0:0:
192,192,32684,1,0,0:0:0:0:
320,192,32684,1,0,0:0:0:0:
448,192,32763,1,0,0:0:0:0:
192,192,32842,1,0,0:0:0:0:
64,192,32894,1,0,0:0:0:0:
320,192,32947,1,0,0:0:0:0:
192,192,33000,1,0,0:0:0:0:
448,192,33052,1,0,0:0:0:0:
320,192,33105,1,0,0:0:0:0:
192,192,33157,1,0,0:0:0:0:
64,192,33157,1,0,0:0:0:0:
448,192,33236,1,0,0:0:0:0:
320,192,33315,1,0,0:0:0:0:
64,192,33315,1,0,0:0:0:0:
192,192,33394,1,0,0:0:0:0:
320,192,33473,1,0,0:0:0:0:
448,192,33473,1,0,0:0:0:0:
64,192,33552,1,0,0:0:0:0:
192,192,33631,1,0,0:0:0:0:
320,192,33710,1,0,0:0:0:0:
64,192,33789,1,0,0:0:0:0:
448,192,33789,1,0,0:0:0:0:
192,192,33868,1,0,0:0:0:0:
320,192,33947,1,0,0:0:0:0:
192,192,34026,1,0,0:0:0:0:
320,192,34105,1,0,0:0:0:0:
64,192,34105,1,0,0:0:0:0:
448,192,34184,1,0,0:0:0:0:
64,192,34263,1,0,0:0:0:0:
192,192,34263,1,0,0:0:0:0:
320,192,34342,1,0,0:0:0:0:
192,192,34421,1,0,0:0:0:0:
448,192,34421,1,0,0:0:0:0:
64,192,34500,1,0,0:0:0:0:
448,192,34578,1,0,0:0:0:0:
320,192,34578,1,0,0:0:0:0:
192,192,34657,1,0,0:0:0:0:
64,192,34657,1,0,0:0:0:0:
320,192,34736,1,0,0:0:0:0:
448,192,34736,1,0,0:0:0:0:
192,192,34815,1,0,0:0:0:0:
320,192,34894,1,0,0:0:0:0:
448,192,34894,1,0,0:0:0:0:
192,192,34973,1,0,0:0:0:0:
448,192,35052,1,0,0:0:0:0:
320,192,35092,1,0,0:0:0:0:
64,192,35131,1,0,0:0:0:0:
192,192,35171,1,0,0:0:0:0:
448,192,35210,1,0,0:0:0:0:
320,192,35250,1,0,0:0:0:0:
64,192,35289,1,0,0:0:0:0:
192,192,35328,1,0,0:0:0:0:
320,192,35368,1,0,0:0:0:0:
448,192,35368,1,0,0:0:0:0:
192,192,35447,1,0,0:0:0:0:
320,192,35526,1,0,0:0:0:0:
448,192,35605,1,0,0:0:0:0:
64,192,35684,1,0,0:0:0:0:
192,192,35684,1,0,0:0:0:0:
320,192,35763,1,0,0:0:0:0:
448,192,35842,1,0,0:0:0:0:
64,192,35842,1,0,0:0:0:0:
192,192,35921,1,0,0:0:0:0:
320,192,36000,1,0,0:0:0:0:
448,192,36000,1,0,0:0:0:0:
64,192,36078,1,0,0:0:0:0:
320,192,36157,1,0,0:0:0:0:
448,192,36157,1,0,0:0:0:0:
192,192,36236,1,0,0:0:0:0:
64,192,36236,1,0,0:0:0:0:
448,192,36315,1,0,0:0:0:0:
320,192,36315,1,0,0:0:0:0:
64,192,36394,1,0,0:0:0:0:
192,192,36473,1,0,0:0:0:0:
320,192,36552,1,0,0:0:0:0:
192,192,36631,1,0,0:0:0:0:
64,192,36631,1,0,0:0:0:0:
448,192,36710,1,0,0:0:0:0:
192,192,36789,1,0,0:0:0:0:
64,192,36789,1,0,0:0:0:0:
448,192,36868,1,0,0:0:0:0:
320,192,36868,1,0,0:0:0:0:
192,192,36947,1,0,0:0:0:0:
64,192,36947,1,0,0:0:0:0:
320,192,37026,1,0,0:0:0:0:
448,192,37105,1,0,0:0:0:0:
192,192,37105,1,0,0:0:0:0:
64,192,37184,1,0,0:0:0:0:
320,192,37263,1,0,0:0:0:0:
448,192,37263,1,0,0:0:0:0:
192,192,37342,1,0,0:0:0:0:
448,192,37421,1,0,0:0:0:0:
64,192,37421,1,0,0:0:0:0:
320,192,37500,1,0,0:0:0:0:
192,192,37578,1,0,0:0:0:0:
64,192,37578,1,0,0:0:0:0:
448,192,37578,1,0,0:0:0:0:
448,192,37736,1,0,0:0:0:0:
320,192,37736,1,0,0:0:0:0:
64,192,37736,1,0,0:0:0:0:
64,192,37894,1,0,0:0:0:0:
192,192,37894,1,0,0:0:0:0:
320,192,37973,1,0,0:0:0:0:
448,192,37973,1,0,0:0:0:0:
192,192,38052,1,0,0:0:0:0:
64,192,38052,1,0,0:0:0:0:
448,192,38131,1,0,0:0:0:0:
320,192,38210,1,0,0:0:0:0:
64,192,38210,1,0,0:0:0:0:
192,192,38210,1,0,0:0:0:0:
448,192,38368,1,0,0:0:0:0:
64,192,38368,1,0,0:0:0:0:
192,192,38368,1,0,0:0:0:0:
64,192,38526,1,0,0:0:0:0:
448,192,38526,1,0,0:0:0:0:
320,192,38526,1,0,0:0:0:0:
192,192,38684,1,0,0:0:0:0:
448,192,38684,1,0,0:0:0:0:
320,192,38684,1,0,0:0:0:0:
192,192,38842,1,0,0:0:0:0:
320,192,38842,1,0,0:0:0:0:
64,192,38842,1,0,0:0:0:0:
448,192,39000,1,0,0:0:0:0:
192,192,39000,1,0,0:0:0:0:
64,192,39000,1,0,0:0:0:0:
320,192,39157,1,0,0:0:0:0:
448,192,39315,1,0,0:0:0:0:
320,192,39315,1,0,0:0:0:0:
448,192,39473,1,0,0:0:0:0:
192,192,39473,1,0,0:0:0:0:
448,192,39631,1,0,0:0:0:0:
320,192,39631,1,0,0:0:0:0:
64,192,39631,1,0,0:0:0:0:
64,192,39789,1,0,0:0:0:0:
192,192,39789,1,0,0:0:0:0:
448,192,39789,1,0,0:0:0:0:
320,192,39789,1,0,0:0:0:0:
64,192,40105,1,0,0:0:0:0:
192,192,40105,1,0,0:0:0:0:
320,192,40105,1,0,0:0:0:0:
448,192,40105,1,0,0:0:0:0:
320,192,40421,128,0,40500:0:0:0:0:
192,192,40421,1,0,0:0:0:0:
192,192,40736,128,0,40815:0:0:0:0:
448,192,40736,1,0,0:0:0:0:
320,192,40894,128,0,40973:0:0:0:0:
64,192,41052,128,0,41131:0:0:0:0:
192,192,41368,128,0,41447:0:0:0:0:
448,192,41368,1,0,0:0:0:0:
448,192,41684,128,0,41763:0:0:0:0:
64,192,42000,128,0,42078:0:0:0:0:
320,192,42000,1,0,0:0:0:0:
320,192,42315,128,0,42394:0:0:0:0:
64,192,42631,1,0,0:0:0:0:
448,192,42947,128,0,43026:0:0:0:0:
192,192,42947,128,0,43026:0:0:0:0:
320,192,43263,128,0,43342:0:0:0:0:
64,192,43263,1,0,0:0:0:0:
192,192,43421,128,0,43500:0:0:0:0:
448,192,43578,128,0,43657:0:0:0:0:
192,192,43894,128,0,43973:0:0:0:0:
320,192,43894,1,0,0:0:0:0:
64,192,44210,128,0,44289:0:0:0:0:
320,192,44210,128,0,44289:0:0:0:0:
192,192,44526,128,0,44605:0:0:0:0:
448,192,44526,1,0,0:0:0:0:
448,192,44842,128,0,44921:0:0:0:0:
320,192,45157,128,0,45236:0:0:0:0:
192,192,45157,1,0,0:0:0:0:
64,192,45473,128,0,45552:0:0:0:0:
448,192,45473,1,0,0:0:0:0:
320,192,45789,128,0,45868:0:0:0:0:
192,192,45789,1,0,0:0:0:0:
192,192,45947,1,0,0:0:0:0:
448,192,45947,128,0,46026:0:0:0:0:
64,192,46105,128,0,46184:0:0:0:0:
320,192,46105,1,0,0:0:0:0:
320,192,46421,128,0,46500:0:0:0:0:
192,192,46421,1,0,0:0:0:0:
448,192,46736,128,0,46815:0:0:0:0:
320,192,46736,1,0,0:0:0:0:
64,192,47052,128,0,47131:0:0:0:0:
448,192,47052,1,0,0:0:0:0:
192,192,47368,128,0,47447:0:0:0:0:
320,192,47368,1,0,0:0:0:0:
448,192,47684,1,0,0:0:0:0:
64,192,47684,1,0,0:0:0:0:
320,192,48000,1,0,0:0:0:0:
448,192,48000,128,0,48078:0:0:0:0:
320,192,48315,128,0,48394:0:0:0:0:
192,192,48315,1,0,0:0:0:0:
192,192,48473,1,0,0:0:0:0:
448,192,48473,128,0,48552:0:0:0:0:
64,192,48631,128,0,48710:0:0:0:0:
320,192,48631,1,0,0:0:0:0:
192,192,48947,128,0,49026:0:0:0:0:
448,192,48947,1,0,0:0:0:0:
448,192,49263,128,0,49342:0:0:0:0:
320,192,49263,1,0,0:0:0:0:
192,192,49578,128,0,49657:0:0:0:0:
320,192,49578,1,0,0:0:0:0:
448,192,49894,128,0,49973:0:0:0:0:
64,192,49894,1,0,0:0:0:0:
192,192,50210,128,0,50289:0:0:0:0:
320,192,50526,128,0,50763:0:0:0:0:
64,192,50526,1,0,0:0:0:0:
448,192,50526,1,0,0:0:0:0:
192,192,50842,128,0,50921:0:0:0:0:
448,192,50842,1,0,0:0:0:0:
320,192,51000,128,0,51078:0:0:0:0:
64,192,51000,1,0,0:0:0:0:
64,192,51157,128,0,51394:0:0:0:0:
192,192,51157,1,0,0:0:0:0:
448,192,51157,1,0,0:0:0:0:
192,192,51473,128,0,51710:0:0:0:0:
448,192,51789,128,0,52026:0:0:0:0:
64,192,52105,128,0,52342:0:0:0:0:
320,192,52105,1,0,0:0:0:0:
192,192,52421,128,0,52973:0:0:0:0:
448,192,52421,1,0,0:0:0:0:
320,192,52421,1,0,0:0:0:0:
64,192,52736,1,0,0:0:0:0:
64,192,53052,1,0,0:0:0:0:
448,192,53052,1,0,0:0:0:0:
320,192,53052,128,0,53289:0:0:0:0:
192,192,53368,128,0,53447:0:0:0:0:
64,192,53368,1,0,0:0:0:0:
320,192,53526,128,0,53605:0:0:0:0:
448,192,53526,1,0,0:0:0:0:
192,192,53684,128,0,53921:0:0:0:0:
64,192,53684,1,0,0:0:0:0:
448,192,53684,1,0,0:0:0:0:
64,192,54000,128,0,54236:0:0:0:0:
448,192,54315,128,0,54552:0:0:0:0:
192,192,54631,128,0,54868:0:0:0:0:
64,192,54631,1,0,0:0:0:0:
320,192,54947,128,0,55157:0:0:0:0:
64,192,54947,1,0,0:0:0:0:
448,192,54947,1,0,0:0:0:0:
64,192,55263,128,0,55500:0:0:0:0:
192,192,55263,1,0,0:0:0:0:
320,192,55578,128,0,55815:0:0:0:0:
448,192,55578,1,0,0:0:0:0:
192,192,55894,128,0,55973:0:0:0:0:
64,192,55894,1,0,0:0:0:0:
448,192,55894,1,0,0:0:0:0:
320,192,56052,128,0,56131:0:0:0:0:
64,192,56210,128,0,56447:0:0:0:0:
320,192,56368,1,0,0:0:0:0:
448,192,56368,1,0,0:0:0:0:
192,192,56526,128,0,56736:0:0:0:0:
64,192,56526,1,0,0:0:0:0:
448,192,56526,1,0,0:0:0:0:
448,192,56842,128,0,57078:0:0:0:0:
320,192,56842,1,0,0:0:0:0:
64,192,57157,128,0,57394:0:0:0:0:
320,192,57157,1,0,0:0:0:0:
192,192,57157,1,0,0:0:0:0:
192,192,57473,128,0,58026:0:0:0:0:
320,192,57631,1,0,0:0:0:0:
448,192,57631,1,0,0:0:0:0:
448,192,57789,1,0,0:0:0:0:
64,192,57789,1,0,0:0:0:0:
320,192,58105,128,0,58342:0:0:0:0:
448,192,58105,1,0,0:0:0:0:
192,192,58263,1,0,0:0:0:0:
64,192,58263,1,0,0:0:0:0:
192,192,58421,128,0,58500:0:0:0:0:
448,192,58421,1,0,0:0:0:0:
320,192,58578,128,0,58657:0:0:0:0:
64,192,58578,1,0,0:0:0:0:
192,192,58736,1,0,0:0:0:0:
64,192,58736,1,0,0:0:0:0:
448,192,58815,1,0,0:0:0:0:
320,192,58894,1,0,0:0:0:0:
192,192,58894,1,0,0:0:0:0:
64,192,58973,1,0,0:0:0:0:
192,192,59052,1,0,0:0:0:0:
320,192,59052,1,0,0:0:0:0:
448,192,59131,1,0,0:0:0:0:
320,192,59210,1,0,0:0:0:0:
192,192,59210,1,0,0:0:0:0:
64,192,59289,1,0,0:0:0:0:
192,192,59368,128,0,59526:0:0:0:0:
320,192,59368,128,0,59526:0:0:0:0:
448,192,59526,128,0,59605:0:0:0:0:
192,192,59684,128,0,59763:0:0:0:0:
320,192,59842,128,0,59921:0:0:0:0:
320,192,60000,128,0,60078:0:0:0:0:
192,192,60000,128,0,60078:0:0:0:0:
64,192,60157,128,0,60236:0:0:0:0:
320,192,60157,128,0,60236:0:0:0:0:
192,192,60315,128,0,60552:0:0:0:0:
448,192,60315,128,0,60552:0:0:0:0:
192,192,60631,1,0,0:0:0:0:
448,192,60631,1,0,0:0:0:0:
64,192,60631,128,0,60947:0:0:0:0:
448,192,60947,128,0,61105:0:0:0:0:
320,192,61105,128,0,61421:0:0:0:0:
192,192,61421,128,0,61736:0:0:0:0:
320,192,61736,128,0,62052:0:0:0:0:
192,192,62052,128,0,62210:0:0:0:0:
448,192,62210,128,0,62368:0:0:0:0:
64,192,62368,128,0,62842:0:0:0:0:
192,192,62842,128,0,63157:0:0:0:0:
448,192,63157,128,0,63315:0:0:0:0:
320,192,63315,128,0,63473:0:0:0:0:
64,192,63473,128,0,63631:0:0:0:0:
192,192,63631,128,0,63947:0:0:0:0:
448,192,63947,128,0,64263:0:0:0:0:
320,192,64263,128,0,64578:0:0:0:0:
64,192,64578,128,0,64736:0:0:0:0:
192,192,64736,128,0,64894:0:0:0:0:
448,192,64894,128,0,65210:0:0:0:0:
320,192,65210,128,0,65368:0:0:0:0:
192,192,65368,128,0,65526:0:0:0:0:
64,192,65526,128,0,65684:0:0:0:0:
448,192,65684,128,0,66000:0:0:0:0:
64,192,66000,128,0,66157:0:0:0:0:
192,192,66157,128,0,66473:0:0:0:0:
448,192,66473,128,0,66789:0:0:0:0:
192,192,66789,128,0,67105:0:0:0:0:
320,192,67105,128,0,67263:0:0:0:0:
448,192,67263,128,0,67421:0:0:0:0:
320,192,67421,128,0,67894:0:0:0:0:
64,192,67894,128,0,68210:0:0:0:0:
192,192,68210,128,0,68368:0:0:0:0:
320,192,68368,128,0,68526:0:0:0:0:
448,192,68526,128,0,68684:0:0:0:0:
320,192,68684,128,0,69000:0:0:0:0:
192,192,69000,128,0,69157:0:0:0:0:
64,192,69157,128,0,69315:0:0:0:0:
448,192,69315,128,0,69631:0:0:0:0:
320,192,69631,128,0,69789:0:0:0:0:
192,192,69789,128,0,69947:0:0:0:0:
64,192,69947,128,0,70421:0:0:0:0:
448,192,70421,128,0,70736:0:0:0:0:
192,192,70736,1,0,0:0:0:0:
64,192,70736,1,0,0:0:0:0:
320,192,70894,1,0,0:0:0:0:
192,192,71052,1,0,0:0:0:0:
64,192,71052,1,0,0:0:0:0:
448,192,71210,1,0,0:0:0:0:
192,192,71368,1,0,0:0:0:0:
64,192,71368,1,0,0:0:0:0:
320,192,71526,1,0,0:0:0:0:
192,192,71684,1,0,0:0:0:0:
64,192,71684,1,0,0:0:0:0:
320,192,71842,1,0,0:0:0:0:
448,192,71921,1,0,0:0:0:0:
192,192,72000,1,0,0:0:0:0:
64,192,72000,1,0,0:0:0:0:
320,192,72157,1,0,0:0:0:0:
192,192,72236,1,0,0:0:0:0:
320,192,72315,1,0,0:0:0:0:
448,192,72315,1,0,0:0:0:0:
192,192,72473,1,0,0:0:0:0:
320,192,72552,1,0,0:0:0:0:
192,192,72631,1,0,0:0:0:0:
64,192,72631,1,0,0:0:0:0:
320,192,72789,1,0,0:0:0:0:
192,192,72868,1,0,0:0:0:0:
64,192,72947,1,0,0:0:0:0:
448,192,72947,1,0,0:0:0:0:
320,192,73105,1,0,0:0:0:0:
192,192,73105,1,0,0:0:0:0:
64,192,73263,1,0,0:0:0:0:
448,192,73342,1,0,0:0:0:0:
64,192,73421,1,0,0:0:0:0:
448,192,73500,1,0,0:0:0:0:
192,192,73578,1,0,0:0:0:0:
64,192,73578,1,0,0:0:0:0:
320,192,73736,1,0,0:0:0:0:
192,192,73894,1,0,0:0:0:0:
448,192,73894,1,0,0:0:0:0:
320,192,74052,1,0,0:0:0:0:
192,192,74210,1,0,0:0:0:0:
64,192,74210,1,0,0:0:0:0:
448,192,74368,1,0,0:0:0:0:
320,192,74526,1,0,0:0:0:0:
64,192,74526,1,0,0:0:0:0:
192,192,74684,1,0,0:0:0:0:
448,192,74763,1,0,0:0:0:0:
64,192,74842,1,0,0:0:0:0:
192,192,74842,1,0,0:0:0:0:
320,192,75000,1,0,0:0:0:0:
448,192,75078,1,0,0:0:0:0:
192,192,75157,1,0,0:0:0:0:
64,192,75157,1,0,0:0:0:0:
192,192,75315,1,0,0:0:0:0:
320,192,75315,1,0,0:0:0:0:
64,192,75394,1,0,0:0:0:0:
320,192,75473,1,0,0:0:0:0:
448,192,75473,1,0,0:0:0:0:
192,192,75631,1,0,0:0:0:0:
64,192,75789,1,0,0:0:0:0:
448,192,75789,1,0,0:0:0:0:
320,192,75868,1,0,0:0:0:0:
192,192,75947,1,0,0:0:0:0:
320,192,76105,1,0,0:0:0:0:
448,192,76105,1,0,0:0:0:0:
192,192,76263,1,0,0:0:0:0:
448,192,76263,1,0,0:0:0:0:
448,192,76421,1,0,0:0:0:0:
64,192,76421,1,0,0:0:0:0:
192,192,76578,1,0,0:0:0:0:
320,192,76578,1,0,0:0:0:0:
64,192,76657,1,0,0:0:0:0:
192,192,76736,1,0,0:0:0:0:
448,192,76736,1,0,0:0:0:0:
320,192,76894,1,0,0:0:0:0:
448,192,76894,1,0,0:0:0:0:
192,192,76973,1,0,0:0:0:0:
64,192,76973,1,0,0:0:0:0:
320,192,77052,1,0,0:0:0:0:
448,192,77052,1,0,0:0:0:0:
448,192,77210,1,0,0:0:0:0:
64,192,77210,1,0,0:0:0:0:
192,192,77289,1,0,0:0:0:0:
320,192,77368,1,0,0:0:0:0:
64,192,77368,1,0,0:0:0:0:
448,192,77526,1,0,0:0:0:0:
64,192,77526,1,0,0:0:0:0:
320,192,77605,1,0,0:0:0:0:
192,192,77684,1,0,0:0:0:0:
448,192,77684,1,0,0:0:0:0:
64,192,77763,1,0,0:0:0:0:
320,192,77842,1,0,0:0:0:0:
448,192,77842,1,0,0:0:0:0:
192,192,77921,1,0,0:0:0:0:
64,192,78000,1,0,0:0:0:0:
320,192,78078,1,0,0:0:0:0:
448,192,78157,1,0,0:0:0:0:
192,192,78236,1,0,0:0:0:0:
320,192,78315,1,0,0:0:0:0:
448,192,78315,1,0,0:0:0:0:
192,192,78394,1,0,0:0:0:0:
448,192,78473,1,0,0:0:0:0:
64,192,78473,1,0,0:0:0:0:
320,192,78552,1,0,0:0:0:0:
192,192,78631,1,0,0:0:0:0:
64,192,78631,1,0,0:0:0:0:
320,192,78710,1,0,0:0:0:0:
448,192,78789,1,0,0:0:0:0:
64,192,78789,1,0,0:0:0:0:
192,192,78868,1,0,0:0:0:0:
320,192,78947,1,0,0:0:0:0:
448,192,78947,1,0,0:0:0:0:
192,192,79026,1,0,0:0:0:0:
64,192,79026,1,0,0:0:0:0:
320,192,79105,1,0,0:0:0:0:
448,192,79105,1,0,0:0:0:0:
192,192,79184,1,0,0:0:0:0:
64,192,79184,1,0,0:0:0:0:
448,192,79263,1,0,0:0:0:0:
64,192,79421,1,0,0:0:0:0:
192,192,79736,1,0,0:0:0:0:
320,192,79894,1,0,0:0:0:0:
448,192,80052,1,0,0:0:0:0:
448,192,80210,1,0,0:0:0:0:
64,192,80526,1,0,0:0:0:0:
448,192,80526,1,0,0:0:0:0:
64,192,80842,1,0,0:0:0:0:
448,192,80842,1,0,0:0:0:0:
192,192,80842,128,0,81078:0:0:0:0:
320,192,80842,128,0,81078:0:0:0:0:
192,192,81157,1,0,0:0:0:0:
320,192,81157,1,0,0:0:0:0:
64,192,81157,128,0,81394:0:0:0:0:
448,192,81157,128,0,81394:0:0:0:0:
64,192,81473,128,0,81710:0:0:0:0:
192,192,81473,1,0,0:0:0:0:
320,192,81473,128,0,81710:0:0:0:0:
448,192,81473,1,0,0:0:0:0:
64,192,81789,128,0,82026:0:0:0:0:
192,192,81789,128,0,82026:0:0:0:0:
320,192,81789,1,0,0:0:0:0:
448,192,81789,1,0,0:0:0:0:
320,192,82105,128,0,82342:0:0:0:0:
448,192,82105,128,0,82342:0:0:0:0:
192,192,82105,1,0,0:0:0:0:
64,192,82105,1,0,0:0:0:0:
64,192,82421,128,0,82657:0:0:0:0:
192,192,82421,128,0,82657:0:0:0:0:
320,192,82421,1,0,0:0:0:0:
448,192,82421,1,0,0:0:0:0:
64,192,82736,1,0,0:0:0:0:
192,192,82736,128,0,82815:0:0:0:0:
448,192,82736,128,0,82815:0:0:0:0:
320,192,82736,1,0,0:0:0:0:
320,192,82894,128,0,82973:0:0:0:0:
64,192,82894,128,0,82973:0:0:0:0:
448,192,83052,128,0,83131:0:0:0:0:
192,192,83052,128,0,83131:0:0:0:0:
448,192,83210,1,0,0:0:0:0:
64,192,83210,1,0,0:0:0:0:
64,192,83368,1,0,0:0:0:0:
448,192,83368,1,0,0:0:0:0:
192,192,83368,128,0,83605:0:0:0:0:
320,192,83368,128,0,83605:0:0:0:0:
64,192,83684,128,0,83921:0:0:0:0:
448,192,83684,128,0,83921:0:0:0:0:
320,192,83684,1,0,0:0:0:0:
192,192,83684,1,0,0:0:0:0:
64,192,84000,128,0,84236:0:0:0:0:
320,192,84000,128,0,84236:0:0:0:0:
192,192,84000,1,0,0:0:0:0:
448,192,84000,1,0,0:0:0:0:
64,192,84315,128,0,84552:0:0:0:0:
192,192,84315,128,0,84552:0:0:0:0:
448,192,84315,1,0,0:0:0:0:
320,192,84315,1,0,0:0:0:0:
192,192,84631,1,0,0:0:0:0:
64,192,84631,1,0,0:0:0:0:
320,192,84631,128,0,84710:0:0:0:0:
448,192,84631,128,0,84710:0:0:0:0:
192,192,84789,1,0,0:0:0:0:
64,192,84868,1,0,0:0:0:0:
448,192,84947,1,0,0:0:0:0:
320,192,84947,1,0,0:0:0:0:
64,192,85105,1,0,0:0:0:0:
192,192,85144,1,0,0:0:0:0:
448,192,85184,1,0,0:0:0:0:
320,192,85223,1,0,0:0:0:0:
64,192,85263,128,0,85500:0:0:0:0:
192,192,85263,128,0,85500:0:0:0:0:
64,192,85578,128,0,85815:0:0:0:0:
192,192,85578,128,0,85815:0:0:0:0:
320,192,85578,1,0,0:0:0:0:
448,192,85578,1,0,0:0:0:0:
64,192,85894,1,0,0:0:0:0:
448,192,85894,1,0,0:0:0:0:
192,192,85894,128,0,86131:0:0:0:0:
320,192,85894,128,0,86131:0:0:0:0:
448,192,86210,128,0,86447:0:0:0:0:
64,192,86210,128,0,86447:0:0:0:0:
192,192,86210,1,0,0:0:0:0:
320,192,86210,1,0,0:0:0:0:
448,192,86526,128,0,86763:0:0:0:0:
192,192,86526,128,0,86763:0:0:0:0:
320,192,86526,1,0,0:0:0:0:
64,192,86526,1,0,0:0:0:0:
320,192,86842,128,0,87078:0:0:0:0:
448,192,86842,128,0,87078:0:0:0:0:
64,192,86842,1,0,0:0:0:0:
192,192,86842,1,0,0:0:0:0:
64,192,87157,128,0,87394:0:0:0:0:
192,192,87157,128,0,87394:0:0:0:0:
320,192,87157,1,0,0:0:0:0:
448,192,87157,1,0,0:0:0:0:
320,192,87473,128,0,87710:0:0:0:0:
448,192,87473,128,0,87710:0:0:0:0:
192,192,87473,1,0,0:0:0:0:
64,192,87473,1,0,0:0:0:0:
64,192,87789,128,0,87868:0:0:0:0:
320,192,87789,128,0,87868:0:0:0:0:
192,192,87789,1,0,0:0:0:0:
448,192,87789,1,0,0:0:0:0:
192,192,87947,128,0,88026:0:0:0:0:
448,192,87947,128,0,88026:0:0:0:0:
320,192,88105,128,0,88184:0:0:0:0:
64,192,88105,128,0,88184:0:0:0:0:
64,192,88263,1,0,0:0:0:0:
448,192,88263,1,0,0:0:0:0:
192,192,88421,128,0,88657:0:0:0:0:
320,192,88421,128,0,88657:0:0:0:0:
64,192,88421,1,0,0:0:0:0:
448,192,88421,1,0,0:0:0:0:
64,192,88736,128,0,88973:0:0:0:0:
448,192,88736,128,0,88973:0:0:0:0:
320,192,88736,1,0,0:0:0:0:
192,192,88736,1,0,0:0:0:0:
192,192,89052,128,0,89289:0:0:0:0:
448,192,89052,128,0,89289:0:0:0:0:
320,192,89052,1,0,0:0:0:0:
64,192,89052,1,0,0:0:0:0:
320,192,89368,128,0,89526:0:0:0:0:
448,192,89368,128,0,89526:0:0:0:0:
192,192,89368,1,0,0:0:0:0:
64,192,89368,1,0,0:0:0:0:
192,192,89526,128,0,89605:0:0:0:0:
64,192,89526,128,0,89605:0:0:0:0:
64,192,89842,1,0,0:0:0:0:
448,192,89842,1,0,0:0:0:0:
192,192,90000,1,0,0:0:0:0:
320,192,90000,1,0,0:0:0:0:
448,192,90078,1,0,0:0:0:0:
320,192,90157,1,0,0:0:0:0:
64,192,90157,1,0,0:0:0:0:
192,192,90236,1,0,0:0:0:0:
64,192,90315,1,0,0:0:0:0:
320,192,90315,128,0,90552:0:0:0:0:
448,192,90315,128,0,90552:0:0:0:0:
192,192,90631,128,0,90868:0:0:0:0:
448,192,90631,128,0,90868:0:0:0:0:
320,192,90631,1,0,0:0:0:0:
192,192,90947,128,0,91184:0:0:0:0:
448,192,90947,1,0,0:0:0:0:
64,192,90947,1,0,0:0:0:0:
320,192,90947,128,0,91026:0:0:0:0:
320,192,91105,1,0,0:0:0:0:
192,192,91263,1,0,0:0:0:0:
320,192,91263,1,0,0:0:0:0:
64,192,91263,128,0,91342:0:0:0:0:
448,192,91263,128,0,91500:0:0:0:0:
64,192,91421,1,0,0:0:0:0:
320,192,91578,1,0,0:0:0:0:
64,192,91578,1,0,0:0:0:0:
448,192,91578,128,0,91815:0:0:0:0:
192,192,91578,128,0,91657:0:0:0:0:
192,192,91736,1,0,0:0:0:0:
64,192,91894,128,0,92131:0:0:0:0:
192,192,91894,1,0,0:0:0:0:
448,192,91894,1,0,0:0:0:0:
320,192,91894,128,0,91973:0:0:0:0:
320,192,92052,1,0,0:0:0:0:
192,192,92210,128,0,92447:0:0:0:0:
320,192,92210,1,0,0:0:0:0:
64,192,92210,1,0,0:0:0:0:
448,192,92210,128,0,92289:0:0:0:0:
448,192,92368,1,0,0:0:0:0:
320,192,92526,128,0,92763:0:0:0:0:
192,192,92526,1,0,0:0:0:0:
448,192,92526,1,0,0:0:0:0:
64,192,92526,128,0,92605:0:0:0:0:
64,192,92684,1,0,0:0:0:0:
192,192,92842,128,0,92921:0:0:0:0:
448,192,92842,128,0,92921:0:0:0:0:
64,192,92842,1,0,0:0:0:0:
192,192,93000,128,0,93078:0:0:0:0:
320,192,93000,128,0,93078:0:0:0:0:
320,192,93157,128,0,93236:0:0:0:0:
64,192,93157,128,0,93236:0:0:0:0:
64,192,93315,1,0,0:0:0:0:
448,192,93315,1,0,0:0:0:0:
192,192,93473,128,0,93710:0:0:0:0:
448,192,93473,1,0,0:0:0:0:
64,192,93473,1,0,0:0:0:0:
320,192,93473,128,0,93552:0:0:0:0:
320,192,93631,1,0,0:0:0:0:
192,192,93789,1,0,0:0:0:0:
320,192,93789,1,0,0:0:0:0:
64,192,93789,128,0,94026:0:0:0:0:
448,192,93789,128,0,93868:0:0:0:0:
448,192,93947,1,0,0:0:0:0:
64,192,94105,128,0,94342:0:0:0:0:
320,192,94105,1,0,0:0:0:0:
448,192,94105,1,0,0:0:0:0:
192,192,94105,128,0,94184:0:0:0:0:
192,192,94263,1,0,0:0:0:0:
448,192,94421,128,0,94657:0:0:0:0:
192,192,94421,1,0,0:0:0:0:
64,192,94421,1,0,0:0:0:0:
320,192,94421,128,0,94500:0:0:0:0:
320,192,94578,1,0,0:0:0:0:
192,192,94736,128,0,94815:0:0:0:0:
64,192,94736,128,0,94815:0:0:0:0:
320,192,94736,1,0,0:0:0:0:
448,192,94736,1,0,0:0:0:0:
320,192,94894,1,0,0:0:0:0:
448,192,94973,1,0,0:0:0:0:
192,192,95052,1,0,0:0:0:0:
64,192,95052,1,0,0:0:0:0:
448,192,95210,1,0,0:0:0:0:
320,192,95250,1,0,0:0:0:0:
64,192,95289,1,0,0:0:0:0:
192,192,95328,1,0,0:0:0:0:
448,192,95368,128,0,95605:0:0:0:0:
320,192,95368,128,0,95605:0:0:0:0:
320,192,95684,128,0,95921:0:0:0:0:
448,192,95684,128,0,95921:0:0:0:0:
192,192,95684,1,0,0:0:0:0:
64,192,95684,1,0,0:0:0:0:
320,192,96000,128,0,96236:0:0:0:0:
64,192,96000,1,0,0:0:0:0:
448,192,96000,1,0,0:0:0:0:
192,192,96000,128,0,96078:0:0:0:0:
192,192,96157,1,0,0:0:0:0:
64,192,96315,128,0,96552:0:0:0:0:
320,192,96315,1,0,0:0:0:0:
192,192,96315,1,0,0:0:0:0:
448,192,96315,128,0,96394:0:0:0:0:
448,192,96473,1,0,0:0:0:0:
448,192,96631,128,0,96868:0:0:0:0:
320,192,96631,1,0,0:0:0:0:
64,192,96631,1,0,0:0:0:0:
192,192,96631,128,0,96710:0:0:0:0:
192,192,96789,1,0,0:0:0:0:
192,192,96947,128,0,97026:0:0:0:0:
320,192,96947,128,0,97026:0:0:0:0:
64,192,96947,1,0,0:0:0:0:
448,192,96947,1,0,0:0:0:0:
64,192,97105,1,0,0:0:0:0:
320,192,97263,128,0,97342:0:0:0:0:
64,192,97263,128,0,97500:0:0:0:0:
192,192,97263,1,0,0:0:0:0:
448,192,97263,1,0,0:0:0:0:
320,192,97421,1,0,0:0:0:0:
448,192,97578,1,0,0:0:0:0:
64,192,97578,1,0,0:0:0:0:
192,192,97578,128,0,97657:0:0:0:0:
320,192,97578,128,0,97657:0:0:0:0:
448,192,97736,1,0,0:0:0:0:
448,192,97894,128,0,97973:0:0:0:0:
64,192,97894,128,0,97973:0:0:0:0:
192,192,97894,1,0,0:0:0:0:
320,192,97894,1,0,0:0:0:0:
64,192,98052,128,0,98131:0:0:0:0:
320,192,98052,128,0,98131:0:0:0:0:
192,192,98210,128,0,98289:0:0:0:0:
64,192,98210,128,0,98289:0:0:0:0:
64,192,98368,1,0,0:0:0:0:
448,192,98368,1,0,0:0:0:0:
64,192,98526,1,0,0:0:0:0:
448,192,98526,1,0,0:0:0:0:
320,192,98526,128,0,98763:0:0:0:0:
192,192,98526,128,0,98605:0:0:0:0:
192,192,98684,1,0,0:0:0:0:
448,192,98842,128,0,99078:0:0:0:0:
320,192,98842,1,0,0:0:0:0:
192,192,98842,1,0,0:0:0:0:
64,192,98842,128,0,98921:0:0:0:0:
64,192,99000,1,0,0:0:0:0:
448,192,99157,128,0,99394:0:0:0:0:
192,192,99157,1,0,0:0:0:0:
64,192,99157,1,0,0:0:0:0:
320,192,99157,128,0,99236:0:0:0:0:
320,192,99315,1,0,0:0:0:0:
192,192,99473,128,0,99631:0:0:0:0:
320,192,99473,128,0,99631:0:0:0:0:
64,192,99473,1,0,0:0:0:0:
448,192,99473,1,0,0:0:0:0:
64,192,99631,128,0,99947:0:0:0:0:
448,192,99947,1,0,0:0:0:0:
192,192,100105,1,0,0:0:0:0:
320,192,100184,1,0,0:0:0:0:
192,192,100263,1,0,0:0:0:0:
320,192,100342,1,0,0:0:0:0:
64,192,100421,1,0,0:0:0:0:
64,192,101052,1,0,0:0:0:0:
448,192,101052,1,0,0:0:0:0:
192,192,101131,1,0,0:0:0:0:
320,192,101210,1,0,0:0:0:0:
448,192,101289,1,0,0:0:0:0:
192,192,101368,1,0,0:0:0:0:
64,192,101368,1,0,0:0:0:0:
320,192,101447,1,0,0:0:0:0:
192,192,101526,1,0,0:0:0:0:
320,192,101605,1,0,0:0:0:0:
64,192,101684,1,0,0:0:0:0:
448,192,101684,1,0,0:0:0:0:
192,192,101763,1,0,0:0:0:0:
320,192,101842,1,0,0:0:0:0:
64,192,101921,1,0,0:0:0:0:
192,192,102000,1,0,0:0:0:0:
448,192,102000,1,0,0:0:0:0:
320,192,102078,1,0,0:0:0:0:
192,192,102157,1,0,0:0:0:0:
64,192,102236,1,0,0:0:0:0:
320,192,102315,1,0,0:0:0:0:
448,192,102315,1,0,0:0:0:0:
192,192,102394,1,0,0:0:0:0:
448,192,102473,1,0,0:0:0:0:
64,192,102552,1,0,0:0:0:0:
192,192,102631,1,0,0:0:0:0:
448,192,102631,1,0,0:0:0:0:
320,192,102710,1,0,0:0:0:0:
64,192,102789,1,0,0:0:0:0:
192,192,102868,1,0,0:0:0:0:
448,192,102947,1,0,0:0:0:0:
64,192,102947,1,0,0:0:0:0:
320,192,103026,1,0,0:0:0:0:
192,192,103105,1,0,0:0:0:0:
64,192,103184,1,0,0:0:0:0:
320,192,103263,1,0,0:0:0:0:
448,192,103263,1,0,0:0:0:0:
192,192,103421,1,0,0:0:0:0:
64,192,103421,1,0,0:0:0:0:
320,192,103578,1,0,0:0:0:0:
448,192,103631,1,0,0:0:0:0:
192,192,103684,1,0,0:0:0:0:
320,192,103736,1,0,0:0:0:0:
64,192,103789,1,0,0:0:0:0:
192,192,103842,1,0,0:0:0:0:
448,192,103894,1,0,0:0:0:0:
192,192,103973,1,0,0:0:0:0:
320,192,104052,1,0,0:0:0:0:
64,192,104131,1,0,0:0:0:0:
192,192,104210,1,0,0:0:0:0:
448,192,104210,1,0,0:0:0:0:
320,192,104289,1,0,0:0:0:0:
192,192,104368,1,0,0:0:0:0:
448,192,104447,1,0,0:0:0:0:
320,192,104526,1,0,0:0:0:0:
64,192,104526,1,0,0:0:0:0:
192,192,104605,1,0,0:0:0:0:
320,192,104684,1,0,0:0:0:0:
64,192,104763,1,0,0:0:0:0:
192,192,104842,1,0,0:0:0:0:
448,192,104842,1,0,0:0:0:0:
320,192,104921,1,0,0:0:0:0:
64,192,105000,1,0,0:0:0:0:
192,192,105078,1,0,0:0:0:0:
320,192,105157,1,0,0:0:0:0:
448,192,105157,1,0,0:0:0:0:
448,192,105315,1,0,0:0:0:0:
320,192,105394,1,0,0:0:0:0:
64,192,105473,1,0,0:0:0:0:
192,192,105473,1,0,0:0:0:0:
192,192,105631,1,0,0:0:0:0:
64,192,105631,1,0,0:0:0:0:
320,192,105789,1,0,0:0:0:0:
448,192,105789,1,0,0:0:0:0:
64,192,105789,1,0,0:0:0:0:
448,192,106105,1,0,0:0:0:0:
320,192,106105,1,0,0:0:0:0:
192,192,106184,1,0,0:0:0:0:
320,192,106263,1,0,0:0:0:0:
192,192,106342,1,0,0:0:0:0:
64,192,106421,1,0,0:0:0:0:
448,192,106421,1,0,0:0:0:0:
320,192,106500,1,0,0:0:0:0:
192,192,106578,1,0,0:0:0:0:
320,192,106657,1,0,0:0:0:0:
64,192,106736,1,0,0:0:0:0:
448,192,106736,1,0,0:0:0:0:
192,192,106815,1,0,0:0:0:0:
320,192,106894,1,0,0:0:0:0:
192,192,106973,1,0,0:0:0:0:
320,192,107052,1,0,0:0:0:0:
448,192,107052,1,0,0:0:0:0:
64,192,107131,1,0,0:0:0:0:
192,192,107210,1,0,0:0:0:0:
320,192,107289,1,0,0:0:0:0:
448,192,107368,1,0,0:0:0:0:
64,192,107368,1,0,0:0:0:0:
192,192,107447,1,0,0:0:0:0:
320,192,107526,1,0,0:0:0:0:
192,192,107605,1,0,0:0:0:0:
64,192,107684,1,0,0:0:0:0:
448,192,107684,1,0,0:0:0:0:
320,192,107763,1,0,0:0:0:0:
192,192,107842,1,0,0:0:0:0:
320,192,107921,1,0,0:0:0:0:
448,192,108000,1,0,0:0:0:0:
192,192,108000,1,0,0:0:0:0:
64,192,108078,1,0,0:0:0:0:
448,192,108157,1,0,0:0:0:0:
320,192,108236,1,0,0:0:0:0:
192,192,108315,1,0,0:0:0:0:
64,192,108315,1,0,0:0:0:0:
320,192,108473,1,0,0:0:0:0:
192,192,108473,1,0,0:0:0:0:
320,192,108631,1,0,0:0:0:0:
448,192,108631,1,0,0:0:0:0:
192,192,108710,1,0,0:0:0:0:
320,192,108789,1,0,0:0:0:0:
64,192,108868,1,0,0:0:0:0:
192,192,108947,1,0,0:0:0:0:
448,192,108947,1,0,0:0:0:0:
320,192,109026,1,0,0:0:0:0:
64,192,109105,1,0,0:0:0:0:
192,192,109184,1,0,0:0:0:0:
448,192,109263,1,0,0:0:0:0:
320,192,109263,1,0,0:0:0:0:
192,192,109342,1,0,0:0:0:0:
64,192,109421,1,0,0:0:0:0:
448,192,109500,1,0,0:0:0:0:
320,192,109578,1,0,0:0:0:0:
192,192,109578,1,0,0:0:0:0:
64,192,109736,1,0,0:0:0:0:
448,192,109736,1,0,0:0:0:0:
192,192,109894,1,0,0:0:0:0:
64,192,109894,1,0,0:0:0:0:
448,192,109973,1,0,0:0:0:0:
64,192,110052,1,0,0:0:0:0:
192,192,110052,1,0,0:0:0:0:
448,192,110131,1,0,0:0:0:0:
320,192,110210,1,0,0:0:0:0:
64,192,110210,1,0,0:0:0:0:
192,192,110289,1,0,0:0:0:0:
448,192,110368,1,0,0:0:0:0:
192,192,110447,1,0,0:0:0:0:
64,192,110526,1,0,0:0:0:0:
320,192,110526,1,0,0:0:0:0:
448,192,110605,1,0,0:0:0:0:
320,192,110684,1,0,0:0:0:0:
192,192,110842,1,0,0:0:0:0:
448,192,110842,1,0,0:0:0:0:
64,192,110921,1,0,0:0:0:0:
192,192,111000,1,0,0:0:0:0:
448,192,111157,1,0,0:0:0:0:
64,192,111157,1,0,0:0:0:0:
320,192,111236,1,0,0:0:0:0:
192,192,111315,1,0,0:0:0:0:
64,192,111394,1,0,0:0:0:0:
320,192,111473,1,0,0:0:0:0:
448,192,111473,1,0,0:0:0:0:
192,192,111552,1,0,0:0:0:0:
320,192,111631,1,0,0:0:0:0:
192,192,111710,1,0,0:0:0:0:
448,192,111789,1,0,0:0:0:0:
64,192,111789,1,0,0:0:0:0:
320,192,111868,1,0,0:0:0:0:
192,192,111947,1,0,0:0:0:0:
448,192,112026,1,0,0:0:0:0:
320,192,112105,1,0,0:0:0:0:
64,192,112105,1,0,0:0:0:0:
192,192,112184,1,0,0:0:0:0:
320,192,112263,1,0,0:0:0:0:
448,192,112342,1,0,0:0:0:0:
192,192,112421,1,0,0:0:0:0:
64,192,112421,1,0,0:0:0:0:
320,192,112500,1,0,0:0:0:0:
64,192,112578,1,0,0:0:0:0:
448,192,112657,1,0,0:0:0:0:
320,192,112736,1,0,0:0:0:0:
64,192,112736,1,0,0:0:0:0:
192,192,112815,1,0,0:0:0:0:
448,192,112894,1,0,0:0:0:0:
320,192,112973,1,0,0:0:0:0:
64,192,113052,1,0,0:0:0:0:
448,192,113052,1,0,0:0:0:0:
192,192,113131,1,0,0:0:0:0:
320,192,113210,1,0,0:0:0:0:
448,192,113289,1,0,0:0:0:0:
192,192,113368,1,0,0:0:0:0:
64,192,113368,1,0,0:0:0:0:
320,192,113526,1,0,0:0:0:0:
448,192,113526,1,0,0:0:0:0:
192,192,113684,1,0,0:0:0:0:
64,192,113736,1,0,0:0:0:0:
320,192,113789,1,0,0:0:0:0:
192,192,113842,1,0,0:0:0:0:
448,192,113894,1,0,0:0:0:0:
320,192,113947,1,0,0:0:0:0:
64,192,114000,1,0,0:0:0:0:
320,192,114078,1,0,0:0:0:0:
192,192,114157,1,0,0:0:0:0:
448,192,114236,1,0,0:0:0:0:
320,192,114315,1,0,0:0:0:0:
64,192,114315,1,0,0:0:0:0:
192,192,114394,1,0,0:0:0:0:
320,192,114473,1,0,0:0:0:0:
64,192,114552,1,0,0:0:0:0:
192,192,114631,1,0,0:0:0:0:
448,192,114631,1,0,0:0:0:0:
320,192,114710,1,0,0:0:0:0:
192,192,114789,1,0,0:0:0:0:
448,192,114868,1,0,0:0:0:0:
320,192,114947,1,0,0:0:0:0:
64,192,114947,1,0,0:0:0:0:
192,192,115026,1,0,0:0:0:0:
448,192,115105,1,0,0:0:0:0:
320,192,115184,1,0,0:0:0:0:
192,192,115263,1,0,0:0:0:0:
64,192,115263,1,0,0:0:0:0:
64,192,115421,1,0,0:0:0:0:
192,192,115500,1,0,0:0:0:0:
448,192,115578,1,0,0:0:0:0:
320,192,115578,1,0,0:0:0:0:
320,192,115736,1,0,0:0:0:0:
448,192,115736,1,0,0:0:0:0:
192,192,115894,1,0,0:0:0:0:
64,192,115894,1,0,0:0:0:0:
448,192,115894,1,0,0:0:0:0:
64,192,116210,1,0,0:0:0:0:
192,192,116210,1,0,0:0:0:0:
320,192,116289,1,0,0:0:0:0:
192,192,116368,1,0,0:0:0:0:
320,192,116447,1,0,0:0:0:0:
448,192,116526,1,0,0:0:0:0:
64,192,116526,1,0,0:0:0:0:
192,192,116605,1,0,0:0:0:0:
320,192,116684,1,0,0:0:0:0:
192,192,116763,1,0,0:0:0:0:
448,192,116842,1,0,0:0:0:0:
64,192,116842,1,0,0:0:0:0:
320,192,116921,1,0,0:0:0:0:
192,192,117000,1,0,0:0:0:0:
320,192,117078,1,0,0:0:0:0:
192,192,117157,1,0,0:0:0:0:
64,192,117157,1,0,0:0:0:0:
448,192,117236,1,0,0:0:0:0:
320,192,117315,1,0,0:0:0:0:
192,192,117394,1,0,0:0:0:0:
64,192,117473,1,0,0:0:0:0:
448,192,117473,1,0,0:0:0:0:
320,192,117552,1,0,0:0:0:0:
192,192,117631,1,0,0:0:0:0:
320,192,117710,1,0,0:0:0:0:
448,192,117789,1,0,0:0:0:0:
64,192,117789,1,0,0:0:0:0:
192,192,117868,1,0,0:0:0:0:
320,192,117947,1,0,0:0:0:0:
192,192,118026,1,0,0:0:0:0:
64,192,118105,1,0,0:0:0:0:
320,192,118105,1,0,0:0:0:0:
448,192,118184,1,0,0:0:0:0:
64,192,118263,1,0,0:0:0:0:
192,192,118342,1,0,0:0:0:0:
320,192,118421,1,0,0:0:0:0:
448,192,118421,1,0,0:0:0:0:
192,192,118578,1,0,0:0:0:0:
320,192,118578,1,0,0:0:0:0:
192,192,118736,1,0,0:0:0:0:
64,192,118736,1,0,0:0:0:0:
320,192,118815,1,0,0:0:0:0:
192,192,118894,1,0,0:0:0:0:
448,192,118973,1,0,0:0:0:0:
320,192,119052,1,0,0:0:0:0:
64,192,119052,1,0,0:0:0:0:
320,192,119210,1,0,0:0:0:0:
192,192,119210,1,0,0:0:0:0:
192,192,119368,1,0,0:0:0:0:
448,192,119368,1,0,0:0:0:0:
320,192,119526,1,0,0:0:0:0:
192,192,119526,1,0,0:0:0:0:
64,192,119684,1,0,0:0:0:0:
448,192,119684,1,0,0:0:0:0:
192,192,119842,128,0,119881:0:0:0:0:
320,192,119842,128,0,119881:0:0:0:0:
448,192,120947,1,0,0:0:0:0:
64,192,120947,1,0,0:0:0:0:
448,192,121263,1,0,0:0:0:0:
320,192,121263,1,0,0:0:0:0:
192,192,121263,1,0,0:0:0:0:
64,192,121263,1,0,0:0:0:0:
192,192,121421,1,0,0:0:0:0:
64,192,121500,1,0,0:0:0:0:
448,192,121578,1,0,0:0:0:0:
192,192,121578,1,0,0:0:0:0:
64,192,121736,1,0,0:0:0:0:
320,192,121736,1,0,0:0:0:0:
448,192,121894,1,0,0:0:0:0:
192,192,121894,1,0,0:0:0:0:
64,192,122052,1,0,0:0:0:0:
320,192,122052,1,0,0:0:0:0:
192,192,122368,1,0,0:0:0:0:
320,192,122368,1,0,0:0:0:0:
448,192,122684,1,0,0:0:0:0:
192,192,122684,1,0,0:0:0:0:
192,192,122842,1,0,0:0:0:0:
64,192,122921,1,0,0:0:0:0:
192,192,123000,1,0,0:0:0:0:
448,192,123000,1,0,0:0:0:0:
320,192,123157,1,0,0:0:0:0:
64,192,123157,1,0,0:0:0:0:
192,192,123315,1,0,0:0:0:0:
448,192,123315,1,0,0:0:0:0:
448,192,123473,1,0,0:0:0:0:
64,192,123473,1,0,0:0:0:0:
320,192,123631,1,0,0:0:0:0:
192,192,123631,1,0,0:0:0:0:
448,192,123789,1,0,0:0:0:0:
320,192,123789,1,0,0:0:0:0:
192,192,123789,1,0,0:0:0:0:
64,192,123789,1,0,0:0:0:0:
192,192,123947,1,0,0:0:0:0:
64,192,124026,1,0,0:0:0:0:
448,192,124105,1,0,0:0:0:0:
192,192,124105,1,0,0:0:0:0:
64,192,124263,1,0,0:0:0:0:
320,192,124263,1,0,0:0:0:0:
448,192,124421,1,0,0:0:0:0:
192,192,124421,1,0,0:0:0:0:
64,192,124578,1,0,0:0:0:0:
320,192,124578,1,0,0:0:0:0:
192,192,124894,1,0,0:0:0:0:
320,192,124894,1,0,0:0:0:0:
448,192,125210,1,0,0:0:0:0:
192,192,125210,1,0,0:0:0:0:
192,192,125368,1,0,0:0:0:0:
64,192,125447,1,0,0:0:0:0:
192,192,125526,1,0,0:0:0:0:
448,192,125526,1,0,0:0:0:0:
320,192,125684,1,0,0:0:0:0:
192,192,125684,1,0,0:0:0:0:
320,192,125842,1,0,0:0:0:0:
192,192,125921,1,0,0:0:0:0:
64,192,126000,1,0,0:0:0:0:
448,192,126000,1,0,0:0:0:0:
320,192,126157,1,0,0:0:0:0:
192,192,126157,1,0,0:0:0:0:
448,192,126315,1,0,0:0:0:0:
320,192,126315,1,0,0:0:0:0:
192,192,126315,1,0,0:0:0:0:
64,192,126315,1,0,0:0:0:0:
192,192,126473,1,0,0:0:0:0:
64,192,126552,1,0,0:0:0:0:
448,192,126631,1,0,0:0:0:0:
192,192,126631,1,0,0:0:0:0:
64,192,126789,1,0,0:0:0:0:
320,192,126789,1,0,0:0:0:0:
448,192,126947,1,0,0:0:0:0:
192,192,126947,1,0,0:0:0:0:
64,192,127105,1,0,0:0:0:0:
320,192,127105,1,0,0:0:0:0:
192,192,127421,1,0,0:0:0:0:
320,192,127421,1,0,0:0:0:0:
448,192,127736,1,0,0:0:0:0:
192,192,127736,1,0,0:0:0:0:
192,192,127894,1,0,0:0:0:0:
64,192,127973,1,0,0:0:0:0:
192,192,128052,1,0,0:0:0:0:
448,192,128052,1,0,0:0:0:0:
320,192,128210,1,0,0:0:0:0:
64,192,128210,1,0,0:0:0:0:
192,192,128368,1,0,0:0:0:0:
448,192,128368,1,0,0:0:0:0:
448,192,128526,1,0,0:0:0:0:
64,192,128526,1,0,0:0:0:0:
320,192,128684,1,0,0:0:0:0:
192,192,128684,1,0,0:0:0:0:
192,192,128842,1,0,0:0:0:0:
64,192,128842,1,0,0:0:0:0:
448,192,128842,1,0,0:0:0:0:
320,192,128842,1,0,0:0:0:0:
192,192,129000,1,0,0:0:0:0:
64,192,129078,1,0,0:0:0:0:
192,192,129157,1,0,0:0:0:0:
448,192,129157,1,0,0:0:0:0:
320,192,129315,1,0,0:0:0:0:
64,192,129315,1,0,0:0:0:0:
192,192,129473,1,0,0:0:0:0:
448,192,129473,1,0,0:0:0:0:
320,192,129631,1,0,0:0:0:0:
64,192,129631,1,0,0:0:0:0:
320,192,129947,1,0,0:0:0:0:
192,192,129947,1,0,0:0:0:0:
192,192,130263,1,0,0:0:0:0:
448,192,130263,1,0,0:0:0:0:
192,192,130421,1,0,0:0:0:0:
64,192,130500,1,0,0:0:0:0:
448,192,130578,1,0,0:0:0:0:
192,192,130578,1,0,0:0:0:0:
192,192,130736,1,0,0:0:0:0:
320,192,130736,1,0,0:0:0:0:
64,192,130815,1,0,0:0:0:0:
448,192,130894,1,0,0:0:0:0:
192,192,130894,1,0,0:0:0:0:
64,192,131052,1,0,0:0:0:0:
448,192,131052,1,0,0:0:0:0:
320,192,131210,1,0,0:0:0:0:
192,192,131210,1,0,0:0:0:0:
192,192,131368,1,0,0:0:0:0:
64,192,131368,1,0,0:0:0:0:
448,192,131368,1,0,0:0:0:0:
320,192,131368,1,0,0:0:0:0:
192,192,131526,1,0,0:0:0:0:
64,192,131605,1,0,0:0:0:0:
192,192,131684,1,0,0:0:0:0:
448,192,131684,1,0,0:0:0:0:
320,192,131684,1,0,0:0:0:0:
320,192,131842,1,0,0:0:0:0:
64,192,131842,1,0,0:0:0:0:
192,192,132000,1,0,0:0:0:0:
448,192,132000,1,0,0:0:0:0:
320,192,132000,1,0,0:0:0:0:
320,192,132157,1,0,0:0:0:0:
64,192,132157,1,0,0:0:0:0:
192,192,132315,1,0,0:0:0:0:
64,192,132315,1,0,0:0:0:0:
320,192,132473,1,0,0:0:0:0:
192,192,132473,1,0,0:0:0:0:
320,192,132631,1,0,0:0:0:0:
448,192,132631,1,0,0:0:0:0:
192,192,132789,1,0,0:0:0:0:
448,192,132789,1,0,0:0:0:0:
192,192,132947,1,0,0:0:0:0:
320,192,132947,1,0,0:0:0:0:
64,192,133026,1,0,0:0:0:0:
448,192,133105,1,0,0:0:0:0:
192,192,133105,1,0,0:0:0:0:
64,192,133263,1,0,0:0:0:0:
320,192,133263,1,0,0:0:0:0:
192,192,133263,1,0,0:0:0:0:
448,192,133421,1,0,0:0:0:0:
192,192,133421,1,0,0:0:0:0:
64,192,133578,1,0,0:0:0:0:
448,192,133578,1,0,0:0:0:0:
320,192,133578,1,0,0:0:0:0:
320,192,133736,1,0,0:0:0:0:
192,192,133894,1,0,0:0:0:0:
64,192,133894,1,0,0:0:0:0:
448,192,133894,1,0,0:0:0:0:
320,192,133894,1,0,0:0:0:0:
192,192,134052,1,0,0:0:0:0:
64,192,134131,1,0,0:0:0:0:
192,192,134210,1,0,0:0:0:0:
448,192,134210,1,0,0:0:0:0:
320,192,134210,1,0,0:0:0:0:
320,192,134368,1,0,0:0:0:0:
64,192,134368,1,0,0:0:0:0:
192,192,134526,1,0,0:0:0:0:
448,192,134526,1,0,0:0:0:0:
320,192,134526,1,0,0:0:0:0:
320,192,134684,1,0,0:0:0:0:
64,192,134684,1,0,0:0:0:0:
192,192,134842,1,0,0:0:0:0:
64,192,134842,1,0,0:0:0:0:
320,192,135000,1,0,0:0:0:0:
192,192,135000,1,0,0:0:0:0:
320,192,135157,1,0,0:0:0:0:
448,192,135157,1,0,0:0:0:0:
192,192,135315,5,0,0:0:0:0:
448,192,135315,1,0,0:0:0:0:
192,192,135473,1,0,0:0:0:0:
320,192,135473,1,0,0:0:0:0:
64,192,135552,1,0,0:0:0:0:
448,192,135631,1,0,0:0:0:0:
192,192,135631,1,0,0:0:0:0:
64,192,135789,1,0,0:0:0:0:
320,192,135789,1,0,0:0:0:0:
192,192,135789,1,0,0:0:0:0:
64,192,136105,1,0,0:0:0:0:
448,192,136105,1,0,0:0:0:0:
320,192,136105,1,0,0:0:0:0:
320,192,136263,1,0,0:0:0:0:
192,192,136421,5,0,0:0:0:0:
64,192,136421,1,0,0:0:0:0:
64,192,136578,1,0,0:0:0:0:
320,192,136578,1,0,0:0:0:0:
192,192,136736,1,0,0:0:0:0:
320,192,136736,1,0,0:0:0:0:
192,192,136894,1,0,0:0:0:0:
448,192,136894,1,0,0:0:0:0:
448,192,137052,1,0,0:0:0:0:
320,192,137052,1,0,0:0:0:0:
448,192,137210,1,0,0:0:0:0:
192,192,137210,1,0,0:0:0:0:
320,192,137368,1,0,0:0:0:0:
192,192,137368,1,0,0:0:0:0:
320,192,137526,1,0,0:0:0:0:
64,192,137526,1,0,0:0:0:0:
192,192,137684,1,0,0:0:0:0:
64,192,137684,1,0,0:0:0:0:
64,192,137842,1,0,0:0:0:0:
320,192,137842,1,0,0:0:0:0:
192,192,138000,1,0,0:0:0:0:
320,192,138000,1,0,0:0:0:0:
448,192,138157,1,0,0:0:0:0:
192,192,138157,1,0,0:0:0:0:
448,192,138315,1,0,0:0:0:0:
320,192,138315,1,0,0:0:0:0:
448,192,138473,1,0,0:0:0:0:
192,192,138473,1,0,0:0:0:0:
320,192,138631,1,0,0:0:0:0:
192,192,138631,1,0,0:0:0:0:
320,192,138789,1,0,0:0:0:0:
64,192,138789,1,0,0:0:0:0:
64,192,138947,1,0,0:0:0:0:
448,192,138947,1,0,0:0:0:0:
192,192,139026,1,0,0:0:0:0:
320,192,139105,1,0,0:0:0:0:
448,192,139105,1,0,0:0:0:0:
192,192,139184,1,0,0:0:0:0:
64,192,139263,1,0,0:0:0:0:
448,192,139263,1,0,0:0:0:0:
320,192,139342,1,0,0:0:0:0:
192,192,139421,1,0,0:0:0:0:
64,192,139421,1,0,0:0:0:0:
320,192,139500,1,0,0:0:0:0:
448,192,139578,1,0,0:0:0:0:
64,192,139578,1,0,0:0:0:0:
192,192,139657,1,0,0:0:0:0:
320,192,139736,1,0,0:0:0:0:
448,192,139736,1,0,0:0:0:0:
192,192,139815,1,0,0:0:0:0:
64,192,139894,1,0,0:0:0:0:
448,192,139894,1,0,0:0:0:0:
320,192,139973,1,0,0:0:0:0:
64,192,140052,128,0,140092:0:0:0:0:
192,192,140052,128,0,140092:0:0:0:0:
64,192,141000,128,0,141078:0:0:0:0:
448,192,141157,128,0,141236:0:0:0:0:
64,192,141473,1,0,0:0:0:0:
192,192,141473,1,0,0:0:0:0:
320,192,141473,1,0,0:0:0:0:
448,192,141473,1,0,0:0:0:0:
64,192,141789,1,0,0:0:0:0:
192,192,141842,1,0,0:0:0:0:
320,192,141894,1,0,0:0:0:0:
448,192,141947,1,0,0:0:0:0:
192,192,142000,1,0,0:0:0:0:
64,192,142052,1,0,0:0:0:0:
320,192,142105,1,0,0:0:0:0:
448,192,142105,1,0,0:0:0:0:
448,192,142421,1,0,0:0:0:0:
448,192,142500,1,0,0:0:0:0:
192,192,142578,1,0,0:0:0:0:
64,192,142578,1,0,0:0:0:0:
320,192,142578,1,0,0:0:0:0:
320,192,142736,1,0,0:0:0:0:
192,192,142894,1,0,0:0:0:0:
64,192,143052,1,0,0:0:0:0:
192,192,143052,1,0,0:0:0:0:
448,192,143052,1,0,0:0:0:0:
320,192,143052,1,0,0:0:0:0:
64,192,143210,1,0,0:0:0:0:
192,192,143368,1,0,0:0:0:0:
448,192,143368,1,0,0:0:0:0:
320,192,143526,1,0,0:0:0:0:
64,192,143684,1,0,0:0:0:0:
192,192,143736,1,0,0:0:0:0:
320,192,143789,1,0,0:0:0:0:
448,192,143842,1,0,0:0:0:0:
192,192,143894,1,0,0:0:0:0:
64,192,143947,1,0,0:0:0:0:
320,192,144000,1,0,0:0:0:0:
448,192,144000,1,0,0:0:0:0:
192,192,144000,1,0,0:0:0:0:
448,192,144315,1,0,0:0:0:0:
320,192,144368,1,0,0:0:0:0:
192,192,144421,1,0,0:0:0:0:
64,192,144473,1,0,0:0:0:0:
320,192,144526,1,0,0:0:0:0:
448,192,144578,1,0,0:0:0:0:
192,192,144631,1,0,0:0:0:0:
64,192,144631,1,0,0:0:0:0:
64,192,144947,1,0,0:0:0:0:
64,192,145026,1,0,0:0:0:0:
192,192,145105,1,0,0:0:0:0:
448,192,145105,1,0,0:0:0:0:
320,192,145263,1,0,0:0:0:0:
448,192,145421,1,0,0:0:0:0:
448,192,145578,1,0,0:0:0:0:
320,192,145578,1,0,0:0:0:0:
192,192,145578,1,0,0:0:0:0:
64,192,145578,1,0,0:0:0:0:
64,192,145736,1,0,0:0:0:0:
192,192,145894,1,0,0:0:0:0:
448,192,145894,1,0,0:0:0:0:
320,192,145894,1,0,0:0:0:0:
448,192,146052,128,0,146131:0:0:0:0:
64,192,146210,128,0,146289:0:0:0:0:
64,192,146526,1,0,0:0:0:0:
192,192,146526,1,0,0:0:0:0:
320,192,146526,1,0,0:0:0:0:
448,192,146526,1,0,0:0:0:0:
64,192,146842,1,0,0:0:0:0:
192,192,146894,1,0,0:0:0:0:
320,192,146947,1,0,0:0:0:0:
448,192,147000,1,0,0:0:0:0:
192,192,147052,1,0,0:0:0:0:
64,192,147105,1,0,0:0:0:0:
320,192,147157,1,0,0:0:0:0:
448,192,147157,1,0,0:0:0:0:
448,192,147473,1,0,0:0:0:0:
448,192,147552,1,0,0:0:0:0:
192,192,147631,1,0,0:0:0:0:
64,192,147631,1,0,0:0:0:0:
320,192,147631,1,0,0:0:0:0:
320,192,147789,1,0,0:0:0:0:
192,192,147947,1,0,0:0:0:0:
64,192,148105,1,0,0:0:0:0:
192,192,148105,1,0,0:0:0:0:
448,192,148105,1,0,0:0:0:0:
320,192,148105,1,0,0:0:0:0:
64,192,148263,1,0,0:0:0:0:
192,192,148421,1,0,0:0:0:0:
448,192,148421,1,0,0:0:0:0:
320,192,148578,1,0,0:0:0:0:
64,192,148736,1,0,0:0:0:0:
192,192,148789,1,0,0:0:0:0:
320,192,148842,1,0,0:0:0:0:
448,192,148894,1,0,0:0:0:0:
192,192,148947,1,0,0:0:0:0:
64,192,149000,1,0,0:0:0:0:
320,192,149052,1,0,0:0:0:0:
448,192,149052,1,0,0:0:0:0:
192,192,149052,1,0,0:0:0:0:
448,192,149368,1,0,0:0:0:0:
320,192,149421,1,0,0:0:0:0:
192,192,149473,1,0,0:0:0:0:
64,192,149526,1,0,0:0:0:0:
320,192,149578,1,0,0:0:0:0:
448,192,149631,1,0,0:0:0:0:
192,192,149684,1,0,0:0:0:0:
64,192,149684,1,0,0:0:0:0:
64,192,150000,1,0,0:0:0:0:
64,192,150078,1,0,0:0:0:0:
192,192,150157,1,0,0:0:0:0:
448,192,150157,1,0,0:0:0:0:
320,192,150315,1,0,0:0:0:0:
448,192,150315,1,0,0:0:0:0:
192,192,150394,1,0,0:0:0:0:
64,192,150394,1,0,0:0:0:0:
448,192,150473,1,0,0:0:0:0:
320,192,150473,1,0,0:0:0:0:
64,192,150552,1,0,0:0:0:0:
448,192,150631,1,0,0:0:0:0:
320,192,150631,1,0,0:0:0:0:
192,192,150631,1,0,0:0:0:0:
64,192,150789,1,0,0:0:0:0:
192,192,150947,1,0,0:0:0:0:
448,192,150947,1,0,0:0:0:0:
320,192,150947,1,0,0:0:0:0:
448,192,151105,128,0,151184:0:0:0:0:
64,192,151263,128,0,151342:0:0:0:0:
64,192,151578,1,0,0:0:0:0:
192,192,151578,1,0,0:0:0:0:
320,192,151578,1,0,0:0:0:0:
448,192,151578,1,0,0:0:0:0:
64,192,151894,1,0,0:0:0:0:
192,192,151947,1,0,0:0:0:0:
320,192,152000,1,0,0:0:0:0:
448,192,152052,1,0,0:0:0:0:
192,192,152105,1,0,0:0:0:0:
64,192,152157,1,0,0:0:0:0:
320,192,152210,1,0,0:0:0:0:
448,192,152210,1,0,0:0:0:0:
448,192,152526,1,0,0:0:0:0:
64,192,152526,128,0,152605:0:0:0:0:
192,192,152526,128,0,152605:0:0:0:0:
448,192,152605,1,0,0:0:0:0:
192,192,152684,1,0,0:0:0:0:
64,192,152684,1,0,0:0:0:0:
320,192,152684,1,0,0:0:0:0:
320,192,152842,1,0,0:0:0:0:
192,192,153000,1,0,0:0:0:0:
64,192,153157,1,0,0:0:0:0:
192,192,153157,1,0,0:0:0:0:
320,192,153157,128,0,153236:0:0:0:0:
448,192,153157,128,0,153236:0:0:0:0:
64,192,153315,1,0,0:0:0:0:
192,192,153473,1,0,0:0:0:0:
448,192,153473,1,0,0:0:0:0:
320,192,153631,1,0,0:0:0:0:
64,192,153789,1,0,0:0:0:0:
192,192,153842,1,0,0:0:0:0:
320,192,153894,1,0,0:0:0:0:
448,192,153947,1,0,0:0:0:0:
192,192,154000,1,0,0:0:0:0:
64,192,154052,1,0,0:0:0:0:
320,192,154105,1,0,0:0:0:0:
448,192,154105,1,0,0:0:0:0:
192,192,154105,1,0,0:0:0:0:
448,192,154421,1,0,0:0:0:0:
320,192,154473,1,0,0:0:0:0:
192,192,154526,1,0,0:0:0:0:
64,192,154578,1,0,0:0:0:0:
320,192,154631,1,0,0:0:0:0:
448,192,154684,1,0,0:0:0:0:
192,192,154736,1,0,0:0:0:0:
64,192,154736,1,0,0:0:0:0:
64,192,155052,1,0,0:0:0:0:
448,192,155052,128,0,155131:0:0:0:0:
320,192,155052,128,0,155131:0:0:0:0:
64,192,155131,1,0,0:0:0:0:
192,192,155210,1,0,0:0:0:0:
448,192,155210,1,0,0:0:0:0:
320,192,155368,1,0,0:0:0:0:
448,192,155526,1,0,0:0:0:0:
448,192,155684,1,0,0:0:0:0:
64,192,155684,1,0,0:0:0:0:
320,192,155684,128,0,155763:0:0:0:0:
192,192,155684,128,0,155763:0:0:0:0:
64,192,155842,1,0,0:0:0:0:
192,192,156000,1,0,0:0:0:0:
448,192,156000,1,0,0:0:0:0:
320,192,156000,1,0,0:0:0:0:
448,192,156157,128,0,156236:0:0:0:0:
64,192,156315,128,0,156394:0:0:0:0:
192,192,156315,128,0,156394:0:0:0:0:
320,192,156315,128,0,156394:0:0:0:0:
64,192,156631,1,0,0:0:0:0:
192,192,156631,1,0,0:0:0:0:
320,192,156631,1,0,0:0:0:0:
448,192,156631,1,0,0:0:0:0:
64,192,156947,1,0,0:0:0:0:
192,192,157000,1,0,0:0:0:0:
320,192,157052,1,0,0:0:0:0:
448,192,157105,1,0,0:0:0:0:
192,192,157157,1,0,0:0:0:0:
64,192,157210,1,0,0:0:0:0:
320,192,157263,1,0,0:0:0:0:
448,192,157263,1,0,0:0:0:0:
448,192,157578,1,0,0:0:0:0:
64,192,157578,128,0,157657:0:0:0:0:
192,192,157578,128,0,157657:0:0:0:0:
448,192,157657,1,0,0:0:0:0:
192,192,157736,1,0,0:0:0:0:
64,192,157736,1,0,0:0:0:0:
320,192,157736,1,0,0:0:0:0:
320,192,157894,1,0,0:0:0:0:
192,192,158052,1,0,0:0:0:0:
64,192,158210,1,0,0:0:0:0:
192,192,158210,1,0,0:0:0:0:
320,192,158210,128,0,158289:0:0:0:0:
448,192,158210,128,0,158289:0:0:0:0:
64,192,158368,1,0,0:0:0:0:
192,192,158526,1,0,0:0:0:0:
448,192,158526,1,0,0:0:0:0:
320,192,158684,1,0,0:0:0:0:
64,192,158842,1,0,0:0:0:0:
192,192,158894,1,0,0:0:0:0:
320,192,158947,1,0,0:0:0:0:
448,192,159000,1,0,0:0:0:0:
192,192,159052,1,0,0:0:0:0:
64,192,159105,1,0,0:0:0:0:
320,192,159157,1,0,0:0:0:0:
448,192,159157,1,0,0:0:0:0:
192,192,159157,1,0,0:0:0:0:
448,192,159473,1,0,0:0:0:0:
320,192,159526,1,0,0:0:0:0:
192,192,159578,1,0,0:0:0:0:
64,192,159631,1,0,0:0:0:0:
320,192,159684,1,0,0:0:0:0:
448,192,159736,1,0,0:0:0:0:
192,192,159789,1,0,0:0:0:0:
64,192,159789,1,0,0:0:0:0:
64,192,160105,1,0,0:0:0:0:
320,192,160105,128,0,160184:0:0:0:0:
448,192,160105,128,0,160184:0:0:0:0:
64,192,160184,1,0,0:0:0:0:
192,192,160263,1,0,0:0:0:0:
448,192,160263,1,0,0:0:0:0:
320,192,160421,128,0,160500:0:0:0:0:
64,192,161684,1,0,0:0:0:0:
192,192,161684,1,0,0:0:0:0:
320,192,161684,1,0,0:0:0:0:
448,192,161684,1,0,0:0:0:0:
192,192,161842,1,0,0:0:0:0:
64,192,161921,1,0,0:0:0:0:
192,192,162000,1,0,0:0:0:0:
320,192,162000,1,0,0:0:0:0:
448,192,162000,1,0,0:0:0:0:
448,192,162157,1,0,0:0:0:0:
320,192,162315,1,0,0:0:0:0:
64,192,162315,1,0,0:0:0:0:
192,192,162315,1,0,0:0:0:0:
64,192,162473,1,0,0:0:0:0:
192,192,162631,1,0,0:0:0:0:
320,192,162631,1,0,0:0:0:0:
448,192,162631,1,0,0:0:0:0:
448,192,162789,1,0,0:0:0:0:
320,192,162947,1,0,0:0:0:0:
192,192,162947,1,0,0:0:0:0:
64,192,162947,1,0,0:0:0:0:
64,192,163105,1,0,0:0:0:0:
192,192,163263,1,0,0:0:0:0:
320,192,163263,1,0,0:0:0:0:
448,192,163263,1,0,0:0:0:0:
64,192,163342,1,0,0:0:0:0:
192,192,163421,1,0,0:0:0:0:
64,192,163578,1,0,0:0:0:0:
192,192,163578,1,0,0:0:0:0:
320,192,163578,1,0,0:0:0:0:
448,192,163736,1,0,0:0:0:0:
448,192,163894,1,0,0:0:0:0:
320,192,163894,1,0,0:0:0:0:
192,192,163894,1,0,0:0:0:0:
64,192,164052,1,0,0:0:0:0:
192,192,164052,1,0,0:0:0:0:
320,192,164052,1,0,0:0:0:0:
64,192,164210,1,0,0:0:0:0:
192,192,164210,1,0,0:0:0:0:
320,192,164210,1,0,0:0:0:0:
448,192,164210,1,0,0:0:0:0:
320,192,164368,1,0,0:0:0:0:
192,192,164447,1,0,0:0:0:0:
320,192,164526,1,0,0:0:0:0:
448,192,164526,1,0,0:0:0:0:
64,192,164526,1,0,0:0:0:0:
320,192,164684,1,0,0:0:0:0:
192,192,164842,1,0,0:0:0:0:
64,192,164842,1,0,0:0:0:0:
448,192,164842,1,0,0:0:0:0:
192,192,165000,1,0,0:0:0:0:
64,192,165157,1,0,0:0:0:0:
320,192,165157,1,0,0:0:0:0:
448,192,165157,1,0,0:0:0:0:
320,192,165315,1,0,0:0:0:0:
192,192,165473,1,0,0:0:0:0:
64,192,165473,1,0,0:0:0:0:
448,192,165473,1,0,0:0:0:0:
192,192,165631,1,0,0:0:0:0:
64,192,165789,1,0,0:0:0:0:
320,192,165789,1,0,0:0:0:0:
448,192,165789,1,0,0:0:0:0:
192,192,165868,1,0,0:0:0:0:
320,192,165947,1,0,0:0:0:0:
64,192,166105,1,0,0:0:0:0:
192,192,166105,1,0,0:0:0:0:
320,192,166105,1,0,0:0:0:0:
448,192,166184,1,0,0:0:0:0:
320,192,166263,1,0,0:0:0:0:
192,192,166342,1,0,0:0:0:0:
320,192,166421,1,0,0:0:0:0:
448,192,166421,1,0,0:0:0:0:
64,192,166578,1,0,0:0:0:0:
192,192,166736,1,0,0:0:0:0:
320,192,166736,1,0,0:0:0:0:
448,192,166736,1,0,0:0:0:0:
320,192,166894,1,0,0:0:0:0:
448,192,166973,1,0,0:0:0:0:
320,192,167052,1,0,0:0:0:0:
64,192,167052,1,0,0:0:0:0:
192,192,167052,1,0,0:0:0:0:
64,192,167210,1,0,0:0:0:0:
192,192,167368,1,0,0:0:0:0:
320,192,167368,1,0,0:0:0:0:
448,192,167368,1,0,0:0:0:0:
448,192,167526,1,0,0:0:0:0:
320,192,167684,1,0,0:0:0:0:
192,192,167684,1,0,0:0:0:0:
64,192,167684,1,0,0:0:0:0:
64,192,167842,1,0,0:0:0:0:
192,192,168000,1,0,0:0:0:0:
320,192,168000,1,0,0:0:0:0:
448,192,168000,1,0,0:0:0:0:
448,192,168157,1,0,0:0:0:0:
320,192,168315,1,0,0:0:0:0:
192,192,168315,1,0,0:0:0:0:
64,192,168315,1,0,0:0:0:0:
448,192,168394,1,0,0:0:0:0:
320,192,168473,1,0,0:0:0:0:
320,192,168631,1,0,0:0:0:0:
192,192,168631,1,0,0:0:0:0:
448,192,168631,1,0,0:0:0:0:
64,192,168789,1,0,0:0:0:0:
64,192,168947,1,0,0:0:0:0:
192,192,168947,1,0,0:0:0:0:
320,192,168947,1,0,0:0:0:0:
192,192,169105,1,0,0:0:0:0:
320,192,169105,1,0,0:0:0:0:
448,192,169105,1,0,0:0:0:0:
320,192,169263,1,0,0:0:0:0:
64,192,169263,1,0,0:0:0:0:
192,192,169263,1,0,0:0:0:0:
448,192,169342,1,0,0:0:0:0:
320,192,169421,1,0,0:0:0:0:
192,192,169500,1,0,0:0:0:0:
448,192,169578,1,0,0:0:0:0:
320,192,169578,1,0,0:0:0:0:
64,192,169578,1,0,0:0:0:0:
192,192,169657,1,0,0:0:0:0:
320,192,169736,1,0,0:0:0:0:
448,192,169815,1,0,0:0:0:0:
320,192,169894,1,0,0:0:0:0:
192,192,169894,1,0,0:0:0:0:
64,192,169894,1,0,0:0:0:0:
448,192,169973,1,0,0:0:0:0:
192,192,170052,1,0,0:0:0:0:
64,192,170052,1,0,0:0:0:0:
320,192,170131,1,0,0:0:0:0:
192,192,170210,1,0,0:0:0:0:
64,192,170210,1,0,0:0:0:0:
448,192,170210,1,0,0:0:0:0:
320,192,170289,1,0,0:0:0:0:
64,192,170368,1,0,0:0:0:0:
448,192,170368,1,0,0:0:0:0:
64,192,170684,1,0,0:0:0:0:
448,192,170684,1,0,0:0:0:0:
192,192,170842,1,0,0:0:0:0:
320,192,170842,1,0,0:0:0:0:
64,192,170921,1,0,0:0:0:0:
448,192,170921,1,0,0:0:0:0:
320,192,171000,1,0,0:0:0:0:
192,192,171000,1,0,0:0:0:0:
192,192,171157,1,0,0:0:0:0:
320,192,171157,1,0,0:0:0:0:
448,192,171157,1,0,0:0:0:0:
64,192,171236,1,0,0:0:0:0:
192,192,171315,1,0,0:0:0:0:
192,192,171473,1,0,0:0:0:0:
448,192,171473,1,0,0:0:0:0:
64,192,171473,1,0,0:0:0:0:
320,192,171789,1,0,0:0:0:0:
448,192,171789,1,0,0:0:0:0:
192,192,171868,1,0,0:0:0:0:
448,192,171947,1,0,0:0:0:0:
320,192,172026,1,0,0:0:0:0:
192,192,172105,1,0,0:0:0:0:
64,192,172105,1,0,0:0:0:0:
320,192,172184,1,0,0:0:0:0:
192,192,172263,1,0,0:0:0:0:
64,192,172342,1,0,0:0:0:0:
448,192,172421,1,0,0:0:0:0:
320,192,172421,1,0,0:0:0:0:
192,192,172500,1,0,0:0:0:0:
448,192,172578,1,0,0:0:0:0:
320,192,172657,1,0,0:0:0:0:
192,192,172736,1,0,0:0:0:0:
64,192,172736,1,0,0:0:0:0:
320,192,172815,1,0,0:0:0:0:
448,192,172894,1,0,0:0:0:0:
192,192,172973,1,0,0:0:0:0:
320,192,173052,1,0,0:0:0:0:
448,192,173052,1,0,0:0:0:0:
192,192,173131,1,0,0:0:0:0:
64,192,173210,1,0,0:0:0:0:
320,192,173289,1,0,0:0:0:0:
192,192,173368,1,0,0:0:0:0:
64,192,173368,1,0,0:0:0:0:
320,192,173447,1,0,0:0:0:0:
448,192,173526,1,0,0:0:0:0:
192,192,173605,1,0,0:0:0:0:
448,192,173684,1,0,0:0:0:0:
320,192,173684,1,0,0:0:0:0:
192,192,173763,1,0,0:0:0:0:
64,192,173842,1,0,0:0:0:0:
320,192,173921,1,0,0:0:0:0:
192,192,174000,1,0,0:0:0:0:
64,192,174000,1,0,0:0:0:0:
320,192,174078,1,0,0:0:0:0:
448,192,174157,1,0,0:0:0:0:
192,192,174236,1,0,0:0:0:0:
448,192,174315,1,0,0:0:0:0:
320,192,174315,1,0,0:0:0:0:
64,192,174394,1,0,0:0:0:0:
320,192,174473,1,0,0:0:0:0:
448,192,174552,1,0,0:0:0:0:
192,192,174631,1,0,0:0:0:0:
64,192,174631,1,0,0:0:0:0:
320,192,174710,1,0,0:0:0:0:
64,192,174789,1,0,0:0:0:0:
192,192,174868,1,0,0:0:0:0:
320,192,174947,1,0,0:0:0:0:
448,192,174947,1,0,0:0:0:0:
192,192,175026,1,0,0:0:0:0:
64,192,175105,1,0,0:0:0:0:
448,192,175184,1,0,0:0:0:0:
192,192,175263,1,0,0:0:0:0:
64,192,175263,1,0,0:0:0:0:
320,192,175342,1,0,0:0:0:0:
448,192,175421,1,0,0:0:0:0:
192,192,175500,1,0,0:0:0:0:
448,192,175578,1,0,0:0:0:0:
320,192,175578,1,0,0:0:0:0:
192,192,175657,1,0,0:0:0:0:
64,192,175736,1,0,0:0:0:0:
320,192,175815,1,0,0:0:0:0:
192,192,175894,1,0,0:0:0:0:
64,192,175894,1,0,0:0:0:0:
320,192,175973,1,0,0:0:0:0:
448,192,176052,1,0,0:0:0:0:
320,192,176131,1,0,0:0:0:0:
192,192,176210,1,0,0:0:0:0:
64,192,176210,1,0,0:0:0:0:
448,192,176289,1,0,0:0:0:0:
320,192,176368,1,0,0:0:0:0:
192,192,176447,1,0,0:0:0:0:
320,192,176526,1,0,0:0:0:0:
448,192,176526,1,0,0:0:0:0:
64,192,176605,1,0,0:0:0:0:
192,192,176684,1,0,0:0:0:0:
320,192,176763,1,0,0:0:0:0:
192,192,176842,1,0,0:0:0:0:
64,192,176842,1,0,0:0:0:0:
64,192,177000,1,0,0:0:0:0:
320,192,177000,1,0,0:0:0:0:
192,192,177157,1,0,0:0:0:0:
320,192,177157,1,0,0:0:0:0:
192,192,177315,1,0,0:0:0:0:
448,192,177315,1,0,0:0:0:0:
448,192,177473,1,0,0:0:0:0:
320,192,177473,1,0,0:0:0:0:
448,192,177631,1,0,0:0:0:0:
192,192,177631,1,0,0:0:0:0:
320,192,177789,1,0,0:0:0:0:
192,192,177789,1,0,0:0:0:0:
320,192,177947,1,0,0:0:0:0:
64,192,177947,1,0,0:0:0:0:
192,192,178105,1,0,0:0:0:0:
64,192,178105,1,0,0:0:0:0:
64,192,178263,1,0,0:0:0:0:
320,192,178263,1,0,0:0:0:0:
192,192,178421,1,0,0:0:0:0:
320,192,178421,1,0,0:0:0:0:
448,192,178578,1,0,0:0:0:0:
192,192,178578,1,0,0:0:0:0:
448,192,178736,1,0,0:0:0:0:
320,192,178736,1,0,0:0:0:0:
448,192,178894,1,0,0:0:0:0:
192,192,178894,1,0,0:0:0:0:
320,192,179052,1,0,0:0:0:0:
192,192,179052,1,0,0:0:0:0:
320,192,179210,1,0,0:0:0:0:
64,192,179210,1,0,0:0:0:0:
192,192,179368,1,0,0:0:0:0:
64,192,179368,1,0,0:0:0:0:
320,192,179447,1,0,0:0:0:0:
192,192,179526,1,0,0:0:0:0:
64,192,179526,1,0,0:0:0:0:
448,192,179605,1,0,0:0:0:0:
192,192,179684,1,0,0:0:0:0:
64,192,179684,1,0,0:0:0:0:
320,192,179763,1,0,0:0:0:0:
192,192,179842,1,0,0:0:0:0:
64,192,179842,1,0,0:0:0:0:
448,192,179921,1,0,0:0:0:0:
192,192,180000,1,0,0:0:0:0:
64,192,180000,1,0,0:0:0:0:
320,192,180078,1,0,0:0:0:0:
192,192,180157,1,0,0:0:0:0:
64,192,180157,1,0,0:0:0:0:
448,192,180236,1,0,0:0:0:0:
64,192,180315,1,0,0:0:0:0:
192,192,180315,1,0,0:0:0:0:
320,192,180394,1,0,0:0:0:0:
64,192,180473,128,0,180789:0:0:0:0:
448,192,181578,1,0,0:0:0:0:
64,192,181578,1,0,0:0:0:0:
64,192,181894,128,0,182210:0:0:0:0:
192,192,181894,128,0,182210:0:0:0:0:
448,192,181894,128,0,182210:0:0:0:0:
320,192,181894,1,0,0:0:0:0:
320,192,182210,128,0,182289:0:0:0:0:
448,192,182526,128,0,182605:0:0:0:0:
320,192,182526,128,0,182605:0:0:0:0:
448,192,182684,128,0,182763:0:0:0:0:
192,192,182684,128,0,182763:0:0:0:0:
320,192,182842,128,0,182921:0:0:0:0:
64,192,182842,128,0,182921:0:0:0:0:
64,192,183000,128,0,183157:0:0:0:0:
192,192,183000,128,0,183157:0:0:0:0:
320,192,183315,128,0,183473:0:0:0:0:
64,192,183315,128,0,183473:0:0:0:0:
448,192,183473,128,0,183552:0:0:0:0:
192,192,183473,128,0,183552:0:0:0:0:
320,192,183631,128,0,183789:0:0:0:0:
192,192,183631,128,0,183789:0:0:0:0:
192,192,183947,128,0,184105:0:0:0:0:
320,192,183947,128,0,184105:0:0:0:0:
64,192,184105,128,0,184184:0:0:0:0:
448,192,184105,128,0,184184:0:0:0:0:
64,192,184263,128,0,184342:0:0:0:0:
320,192,184263,128,0,184342:0:0:0:0:
192,192,184421,128,0,184500:0:0:0:0:
64,192,184421,128,0,184500:0:0:0:0:
64,192,184736,128,0,184815:0:0:0:0:
320,192,184736,128,0,184815:0:0:0:0:
192,192,185052,128,0,185131:0:0:0:0:
448,192,185052,128,0,185131:0:0:0:0:
320,192,185210,128,0,185289:0:0:0:0:
448,192,185210,128,0,185289:0:0:0:0:
448,192,185368,128,0,185447:0:0:0:0:
64,192,185368,128,0,185447:0:0:0:0:
192,192,185526,128,0,185605:0:0:0:0:
64,192,185526,128,0,185605:0:0:0:0:
64,192,185842,128,0,185921:0:0:0:0:
320,192,185842,128,0,185921:0:0:0:0:
192,192,186000,128,0,186078:0:0:0:0:
448,192,186000,128,0,186078:0:0:0:0:
320,192,186157,128,0,186236:0:0:0:0:
448,192,186157,128,0,186236:0:0:0:0:
192,192,186473,128,0,186552:0:0:0:0:
448,192,186473,128,0,186552:0:0:0:0:
320,192,186631,128,0,186710:0:0:0:0:
64,192,186631,128,0,186710:0:0:0:0:
64,192,186789,128,0,186868:0:0:0:0:
192,192,186789,128,0,186868:0:0:0:0:
64,192,186947,128,0,187263:0:0:0:0:
192,192,186947,128,0,187263:0:0:0:0:
448,192,186947,128,0,187263:0:0:0:0:
320,192,186947,1,0,0:0:0:0:
320,192,187263,128,0,187342:0:0:0:0:
448,192,187578,128,0,187657:0:0:0:0:
320,192,187578,128,0,187657:0:0:0:0:
448,192,187736,128,0,187815:0:0:0:0:
192,192,187736,128,0,187815:0:0:0:0:
320,192,187894,128,0,187973:0:0:0:0:
64,192,187894,128,0,187973:0:0:0:0:
64,192,188052,128,0,188210:0:0:0:0:
192,192,188052,128,0,188210:0:0:0:0:
192,192,188368,128,0,188447:0:0:0:0:
64,192,188368,128,0,188447:0:0:0:0:
320,192,188526,128,0,188605:0:0:0:0:
64,192,188526,128,0,188605:0:0:0:0:
448,192,188684,128,0,188842:0:0:0:0:
192,192,188684,128,0,188842:0:0:0:0:
192,192,189000,128,0,189157:0:0:0:0:
320,192,189000,128,0,189157:0:0:0:0:
64,192,189157,128,0,189236:0:0:0:0:
448,192,189157,128,0,189236:0:0:0:0:
64,192,189315,128,0,189394:0:0:0:0:
320,192,189315,128,0,189394:0:0:0:0:
192,192,189473,128,0,189552:0:0:0:0:
64,192,189473,128,0,189552:0:0:0:0:
448,192,189473,1,0,0:0:0:0:
320,192,189473,1,0,0:0:0:0:
64,192,189789,128,0,189868:0:0:0:0:
192,192,189789,128,0,189868:0:0:0:0:
192,192,190105,128,0,190184:0:0:0:0:
448,192,190105,128,0,190184:0:0:0:0:
320,192,190263,128,0,190342:0:0:0:0:
448,192,190263,128,0,190342:0:0:0:0:
448,192,190421,128,0,190500:0:0:0:0:
64,192,190421,128,0,190500:0:0:0:0:
448,192,190578,1,0,0:0:0:0:
320,192,190618,1,0,0:0:0:0:
192,192,190657,1,0,0:0:0:0:
64,192,190697,1,0,0:0:0:0:
448,192,190736,1,0,0:0:0:0:
320,192,190776,1,0,0:0:0:0:
192,192,190815,1,0,0:0:0:0:
64,192,190855,1,0,0:0:0:0:
320,192,190894,1,0,0:0:0:0:
448,192,190894,128,0,190973:0:0:0:0:
448,192,191052,128,0,191131:0:0:0:0:
320,192,191052,128,0,191131:0:0:0:0:
192,192,191052,1,0,0:0:0:0:
320,192,191210,128,0,191289:0:0:0:0:
448,192,191210,128,0,191289:0:0:0:0:
64,192,191210,1,0,0:0:0:0:
192,192,191210,128,0,191289:0:0:0:0:
64,192,191368,1,0,0:0:0:0:
448,192,191526,1,0,0:0:0:0:
320,192,191526,1,0,0:0:0:0:
448,192,191605,1,0,0:0:0:0:
320,192,191605,1,0,0:0:0:0:
192,192,191684,1,0,0:0:0:0:
448,192,191842,1,0,0:0:0:0:
64,192,191842,1,0,0:0:0:0:
192,192,191881,1,0,0:0:0:0:
320,192,191921,1,0,0:0:0:0:
192,192,191960,1,0,0:0:0:0:
448,192,192000,128,0,192315:0:0:0:0:
320,192,192000,128,0,192315:0:0:0:0:
64,192,192000,128,0,192315:0:0:0:0:
192,192,192315,128,0,192394:0:0:0:0:
64,192,192631,128,0,192710:0:0:0:0:
192,192,192631,128,0,192710:0:0:0:0:
64,192,192789,128,0,192868:0:0:0:0:
320,192,192789,128,0,192868:0:0:0:0:
192,192,192947,128,0,193026:0:0:0:0:
448,192,192947,128,0,193026:0:0:0:0:
448,192,193105,128,0,193263:0:0:0:0:
320,192,193105,128,0,193263:0:0:0:0:
192,192,193421,128,0,193578:0:0:0:0:
448,192,193421,128,0,193578:0:0:0:0:
64,192,193578,128,0,193657:0:0:0:0:
320,192,193578,128,0,193657:0:0:0:0:
192,192,193736,128,0,193894:0:0:0:0:
320,192,193736,128,0,193894:0:0:0:0:
320,192,194052,128,0,194210:0:0:0:0:
192,192,194052,128,0,194210:0:0:0:0:
448,192,194210,128,0,194289:0:0:0:0:
64,192,194210,128,0,194289:0:0:0:0:
448,192,194368,128,0,194447:0:0:0:0:
192,192,194368,128,0,194447:0:0:0:0:
320,192,194526,128,0,194605:0:0:0:0:
448,192,194526,128,0,194605:0:0:0:0:
192,192,194526,1,0,0:0:0:0:
64,192,194526,1,0,0:0:0:0:
448,192,194842,128,0,194921:0:0:0:0:
192,192,194842,128,0,194921:0:0:0:0:
320,192,195157,128,0,195236:0:0:0:0:
64,192,195157,128,0,195236:0:0:0:0:
192,192,195315,128,0,195394:0:0:0:0:
64,192,195315,128,0,195394:0:0:0:0:
64,192,195473,128,0,195552:0:0:0:0:
448,192,195473,128,0,195552:0:0:0:0:
320,192,195631,128,0,195710:0:0:0:0:
448,192,195631,128,0,195710:0:0:0:0:
448,192,195947,128,0,196026:0:0:0:0:
192,192,195947,128,0,196026:0:0:0:0:
320,192,196105,128,0,196184:0:0:0:0:
64,192,196105,128,0,196184:0:0:0:0:
192,192,196263,128,0,196342:0:0:0:0:
64,192,196263,128,0,196342:0:0:0:0:
320,192,196421,1,0,0:0:0:0:
448,192,196421,1,0,0:0:0:0:
192,192,196500,1,0,0:0:0:0:
320,192,196578,128,0,196657:0:0:0:0:
64,192,196578,128,0,196657:0:0:0:0:
448,192,196657,1,0,0:0:0:0:
192,192,196736,128,0,196815:0:0:0:0:
448,192,196736,128,0,196815:0:0:0:0:
64,192,196736,1,0,0:0:0:0:
448,192,196894,128,0,196973:0:0:0:0:
320,192,196894,128,0,196973:0:0:0:0:
64,192,196894,1,0,0:0:0:0:
192,192,196973,1,0,0:0:0:0:
448,192,197052,128,0,197368:0:0:0:0:
320,192,197052,128,0,197368:0:0:0:0:
64,192,197052,128,0,197368:0:0:0:0:
192,192,197368,128,0,197447:0:0:0:0:
64,192,197684,128,0,197763:0:0:0:0:
192,192,197684,128,0,197763:0:0:0:0:
64,192,197842,128,0,197921:0:0:0:0:
320,192,197842,128,0,197921:0:0:0:0:
192,192,198000,128,0,198078:0:0:0:0:
448,192,198000,128,0,198078:0:0:0:0:
448,192,198157,128,0,198315:0:0:0:0:
320,192,198157,128,0,198315:0:0:0:0:
320,192,198473,128,0,198552:0:0:0:0:
448,192,198473,128,0,198552:0:0:0:0:
192,192,198631,128,0,198710:0:0:0:0:
448,192,198631,128,0,198710:0:0:0:0:
64,192,198789,128,0,198947:0:0:0:0:
320,192,198789,128,0,198947:0:0:0:0:
448,192,198947,1,0,0:0:0:0:
320,192,199105,128,0,199263:0:0:0:0:
192,192,199105,128,0,199263:0:0:0:0:
64,192,199105,1,0,0:0:0:0:
448,192,199184,1,0,0:0:0:0:
448,192,199263,128,0,199342:0:0:0:0:
64,192,199263,128,0,199342:0:0:0:0:
448,192,199421,128,0,199500:0:0:0:0:
192,192,199421,128,0,199500:0:0:0:0:
320,192,199421,1,0,0:0:0:0:
64,192,199500,1,0,0:0:0:0:
320,192,199578,128,0,199657:0:0:0:0:
448,192,199578,128,0,199657:0:0:0:0:
64,192,199578,1,0,0:0:0:0:
192,192,199578,1,0,0:0:0:0:
448,192,199894,128,0,199973:0:0:0:0:
320,192,199894,128,0,199973:0:0:0:0:
320,192,200210,128,0,200289:0:0:0:0:
64,192,200210,128,0,200289:0:0:0:0:
192,192,200368,128,0,200447:0:0:0:0:
64,192,200368,128,0,200447:0:0:0:0:
64,192,200526,128,0,200605:0:0:0:0:
448,192,200526,128,0,200605:0:0:0:0:
448,192,200684,1,0,0:0:0:0:
64,192,200684,1,0,0:0:0:0:
320,192,200723,1,0,0:0:0:0:
192,192,200763,1,0,0:0:0:0:
64,192,200802,1,0,0:0:0:0:
192,192,200842,1,0,0:0:0:0:
320,192,200881,1,0,0:0:0:0:
448,192,200921,1,0,0:0:0:0:
320,192,200960,1,0,0:0:0:0:
192,192,201000,1,0,0:0:0:0:
64,192,201000,128,0,201078:0:0:0:0:
64,192,201157,128,0,201236:0:0:0:0:
192,192,201157,128,0,201236:0:0:0:0:
320,192,201157,1,0,0:0:0:0:
192,192,201315,128,0,201394:0:0:0:0:
64,192,201315,128,0,201394:0:0:0:0:
448,192,201315,1,0,0:0:0:0:
320,192,201315,128,0,201394:0:0:0:0:
448,192,201473,1,0,0:0:0:0:
64,192,201631,1,0,0:0:0:0:
192,192,201631,1,0,0:0:0:0:
64,192,201710,1,0,0:0:0:0:
192,192,201710,1,0,0:0:0:0:
320,192,201789,1,0,0:0:0:0:
64,192,201947,1,0,0:0:0:0:
448,192,201947,1,0,0:0:0:0:
320,192,201986,1,0,0:0:0:0:
192,192,202026,1,0,0:0:0:0:
320,192,202065,1,0,0:0:0:0:
192,192,202105,128,0,202184:0:0:0:0:
64,192,202105,128,0,202184:0:0:0:0:
448,192,202105,1,0,0:0:0:0:
448,192,202421,128,0,202500:0:0:0:0:
320,192,202421,128,0,202500:0:0:0:0:
64,192,202421,1,0,0:0:0:0:
192,192,202736,1,0,0:0:0:0:
320,192,202736,1,0,0:0:0:0:
448,192,202736,128,0,202815:0:0:0:0:
64,192,202894,128,0,202973:0:0:0:0:
192,192,202894,128,0,202973:0:0:0:0:
64,192,203052,128,0,203131:0:0:0:0:
320,192,203052,128,0,203131:0:0:0:0:
448,192,203052,1,0,0:0:0:0:
192,192,203210,128,0,203289:0:0:0:0:
448,192,203210,128,0,203289:0:0:0:0:
448,192,203368,1,0,0:0:0:0:
64,192,203368,128,0,203447:0:0:0:0:
192,192,203368,128,0,203447:0:0:0:0:
320,192,203368,1,0,0:0:0:0:
320,192,203684,128,0,203763:0:0:0:0:
64,192,203684,1,0,0:0:0:0:
448,192,203684,128,0,203763:0:0:0:0:
192,192,204000,1,0,0:0:0:0:
448,192,204000,128,0,204078:0:0:0:0:
320,192,204000,1,0,0:0:0:0:
64,192,204157,128,0,204236:0:0:0:0:
192,192,204157,128,0,204236:0:0:0:0:
320,192,204315,128,0,204394:0:0:0:0:
64,192,204315,128,0,204394:0:0:0:0:
448,192,204315,1,0,0:0:0:0:
192,192,204473,128,0,204552:0:0:0:0:
448,192,204473,128,0,204552:0:0:0:0:
192,192,204631,128,0,204710:0:0:0:0:
64,192,204631,128,0,204710:0:0:0:0:
448,192,204631,1,0,0:0:0:0:
320,192,204631,1,0,0:0:0:0:
448,192,204947,128,0,205026:0:0:0:0:
64,192,204947,1,0,0:0:0:0:
320,192,204947,128,0,205026:0:0:0:0:
320,192,205263,1,0,0:0:0:0:
448,192,205263,128,0,205342:0:0:0:0:
192,192,205263,1,0,0:0:0:0:
192,192,205421,128,0,205500:0:0:0:0:
64,192,205421,128,0,205500:0:0:0:0:
448,192,205578,1,0,0:0:0:0:
64,192,205578,128,0,205657:0:0:0:0:
320,192,205578,128,0,205657:0:0:0:0:
448,192,205736,128,0,205815:0:0:0:0:
192,192,205736,128,0,205815:0:0:0:0:
448,192,205894,1,0,0:0:0:0:
64,192,205894,128,0,205973:0:0:0:0:
192,192,205894,128,0,205973:0:0:0:0:
320,192,205894,1,0,0:0:0:0:
320,192,206210,128,0,206289:0:0:0:0:
64,192,206210,1,0,0:0:0:0:
448,192,206210,128,0,206289:0:0:0:0:
192,192,206526,1,0,0:0:0:0:
448,192,206526,128,0,206605:0:0:0:0:
320,192,206526,1,0,0:0:0:0:
64,192,206684,128,0,206763:0:0:0:0:
192,192,206684,128,0,206763:0:0:0:0:
320,192,206842,128,0,206921:0:0:0:0:
64,192,206842,128,0,206921:0:0:0:0:
448,192,206842,1,0,0:0:0:0:
192,192,207000,128,0,207078:0:0:0:0:
448,192,207000,128,0,207078:0:0:0:0:
192,192,207157,128,0,207236:0:0:0:0:
64,192,207157,128,0,207236:0:0:0:0:
320,192,207157,1,0,0:0:0:0:
448,192,207236,1,0,0:0:0:0:
320,192,207315,1,0,0:0:0:0:
448,192,207473,128,0,207552:0:0:0:0:
320,192,207473,128,0,207552:0:0:0:0:
192,192,207473,1,0,0:0:0:0:
64,192,207552,1,0,0:0:0:0:
192,192,207631,1,0,0:0:0:0:
64,192,207789,128,0,207868:0:0:0:0:
192,192,207789,128,0,207868:0:0:0:0:
320,192,207789,1,0,0:0:0:0:
448,192,207868,1,0,0:0:0:0:
320,192,207947,1,0,0:0:0:0:
448,192,208105,128,0,208184:0:0:0:0:
192,192,208105,1,0,0:0:0:0:
320,192,208105,128,0,208184:0:0:0:0:
64,192,208184,1,0,0:0:0:0:
192,192,208263,1,0,0:0:0:0:
320,192,208421,1,0,0:0:0:0:
64,192,208421,128,0,208500:0:0:0:0:
192,192,208421,128,0,208500:0:0:0:0:
448,192,208500,1,0,0:0:0:0:
320,192,208578,1,0,0:0:0:0:
320,192,208736,128,0,208815:0:0:0:0:
448,192,208736,128,0,208815:0:0:0:0:
192,192,208736,1,0,0:0:0:0:
64,192,208815,1,0,0:0:0:0:
192,192,208894,1,0,0:0:0:0:
64,192,209052,128,0,209131:0:0:0:0:
192,192,209052,128,0,209131:0:0:0:0:
320,192,209052,1,0,0:0:0:0:
448,192,209131,1,0,0:0:0:0:
320,192,209210,1,0,0:0:0:0:
448,192,209368,128,0,209447:0:0:0:0:
192,192,209368,1,0,0:0:0:0:
320,192,209368,128,0,209447:0:0:0:0:
64,192,209447,1,0,0:0:0:0:
192,192,209526,1,0,0:0:0:0:
320,192,209684,1,0,0:0:0:0:
64,192,209684,128,0,209763:0:0:0:0:
192,192,209684,128,0,209763:0:0:0:0:
448,192,209684,1,0,0:0:0:0:
320,192,209842,1,0,0:0:0:0:
448,192,209842,1,0,0:0:0:0:
64,192,210000,128,0,210078:0:0:0:0:
320,192,210000,128,0,210078:0:0:0:0:
192,192,210000,1,0,0:0:0:0:
448,192,210000,1,0,0:0:0:0:
192,192,210157,1,0,0:0:0:0:
320,192,210157,1,0,0:0:0:0:
64,192,210315,128,0,210394:0:0:0:0:
448,192,210315,128,0,210394:0:0:0:0:
192,192,210315,1,0,0:0:0:0:
320,192,210394,1,0,0:0:0:0:
192,192,210473,1,0,0:0:0:0:
320,192,210552,1,0,0:0:0:0:
448,192,210631,128,0,210710:0:0:0:0:
192,192,210631,128,0,210710:0:0:0:0:
64,192,210631,1,0,0:0:0:0:
320,192,210710,1,0,0:0:0:0:
192,192,210789,1,0,0:0:0:0:
320,192,210868,1,0,0:0:0:0:
64,192,210947,128,0,211263:0:0:0:0:
192,192,210947,128,0,211184:0:0:0:0:
448,192,210947,128,0,211105:0:0:0:0:
320,192,211105,1,0,0:0:0:0:
448,192,211263,1,0,0:0:0:0:
192,192,211421,1,0,0:0:0:0:
320,192,211578,1,0,0:0:0:0:
64,192,211578,1,0,0:0:0:0:
320,192,211736,1,0,0:0:0:0:
192,192,211736,1,0,0:0:0:0:
448,192,211736,1,0,0:0:0:0:
64,192,211894,1,0,0:0:0:0:
448,192,211894,1,0,0:0:0:0:
320,192,211894,1,0,0:0:0:0:
192,192,211894,1,0,0:0:0:0:
192,192,212210,1,0,0:0:0:0:
64,192,212210,1,0,0:0:0:0:
448,192,212210,1,0,0:0:0:0:
320,192,212289,1,0,0:0:0:0:
192,192,212368,1,0,0:0:0:0:
64,192,212447,1,0,0:0:0:0:
448,192,212526,1,0,0:0:0:0:
192,192,212526,1,0,0:0:0:0:
320,192,212605,1,0,0:0:0:0:
192,192,212684,1,0,0:0:0:0:
320,192,212763,1,0,0:0:0:0:
192,192,212842,1,0,0:0:0:0:
64,192,212842,1,0,0:0:0:0:
448,192,212921,1,0,0:0:0:0:
64,192,213000,1,0,0:0:0:0:
320,192,213000,1,0,0:0:0:0:
192,192,213078,1,0,0:0:0:0:
448,192,213157,1,0,0:0:0:0:
320,192,213157,1,0,0:0:0:0:
64,192,213236,1,0,0:0:0:0:
192,192,213315,1,0,0:0:0:0:
448,192,213315,1,0,0:0:0:0:
320,192,213394,1,0,0:0:0:0:
192,192,213473,1,0,0:0:0:0:
64,192,213473,1,0,0:0:0:0:
448,192,213552,1,0,0:0:0:0:
64,192,213631,1,0,0:0:0:0:
320,192,213631,1,0,0:0:0:0:
192,192,213710,1,0,0:0:0:0:
320,192,213789,1,0,0:0:0:0:
448,192,213789,1,0,0:0:0:0:
64,192,213868,1,0,0:0:0:0:
192,192,213947,1,0,0:0:0:0:
320,192,213947,1,0,0:0:0:0:
448,192,214026,1,0,0:0:0:0:
192,192,214105,1,0,0:0:0:0:
64,192,214105,1,0,0:0:0:0:
448,192,214184,1,0,0:0:0:0:
320,192,214263,1,0,0:0:0:0:
192,192,214263,1,0,0:0:0:0:
64,192,214342,1,0,0:0:0:0:
192,192,214421,1,0,0:0:0:0:
448,192,214421,1,0,0:0:0:0:
320,192,214500,1,0,0:0:0:0:
64,192,214578,1,0,0:0:0:0:
448,192,214578,1,0,0:0:0:0:
192,192,214657,1,0,0:0:0:0:
64,192,214736,1,0,0:0:0:0:
320,192,214736,1,0,0:0:0:0:
448,192,214815,1,0,0:0:0:0:
192,192,214894,1,0,0:0:0:0:
320,192,214973,1,0,0:0:0:0:
192,192,215052,1,0,0:0:0:0:
64,192,215052,1,0,0:0:0:0:
448,192,215131,1,0,0:0:0:0:
192,192,215210,1,0,0:0:0:0:
320,192,215289,1,0,0:0:0:0:
64,192,215368,1,0,0:0:0:0:
192,192,215368,1,0,0:0:0:0:
448,192,215447,1,0,0:0:0:0:
320,192,215526,1,0,0:0:0:0:
192,192,215526,1,0,0:0:0:0:
64,192,215605,1,0,0:0:0:0:
192,192,215684,1,0,0:0:0:0:
448,192,215684,1,0,0:0:0:0:
320,192,215763,1,0,0:0:0:0:
192,192,215842,1,0,0:0:0:0:
64,192,215842,1,0,0:0:0:0:
448,192,215921,1,0,0:0:0:0:
320,192,216000,1,0,0:0:0:0:
192,192,216000,1,0,0:0:0:0:
64,192,216078,1,0,0:0:0:0:
192,192,216157,1,0,0:0:0:0:
448,192,216157,1,0,0:0:0:0:
320,192,216236,1,0,0:0:0:0:
448,192,216315,1,0,0:0:0:0:
64,192,216315,1,0,0:0:0:0:
192,192,216394,1,0,0:0:0:0:
64,192,216473,1,0,0:0:0:0:
320,192,216473,1,0,0:0:0:0:
448,192,216552,1,0,0:0:0:0:
192,192,216631,1,0,0:0:0:0:
64,192,216631,1,0,0:0:0:0:
320,192,216710,1,0,0:0:0:0:
64,192,216789,1,0,0:0:0:0:
448,192,216789,1,0,0:0:0:0:
192,192,216868,1,0,0:0:0:0:
448,192,216947,1,0,0:0:0:0:
320,192,216947,1,0,0:0:0:0:
64,192,216947,1,0,0:0:0:0:
192,192,217105,1,0,0:0:0:0:
448,192,217105,1,0,0:0:0:0:
320,192,217105,1,0,0:0:0:0:
64,192,217263,1,0,0:0:0:0:
448,192,217263,1,0,0:0:0:0:
192,192,217263,1,0,0:0:0:0:
320,192,217342,1,0,0:0:0:0:
448,192,217421,1,0,0:0:0:0:
64,192,217500,1,0,0:0:0:0:
192,192,217578,1,0,0:0:0:0:
448,192,217578,1,0,0:0:0:0:
320,192,217657,1,0,0:0:0:0:
192,192,217736,1,0,0:0:0:0:
64,192,217815,1,0,0:0:0:0:
320,192,217894,1,0,0:0:0:0:
448,192,217894,1,0,0:0:0:0:
192,192,217973,1,0,0:0:0:0:
64,192,218052,1,0,0:0:0:0:
320,192,218052,1,0,0:0:0:0:
448,192,218131,1,0,0:0:0:0:
192,192,218210,1,0,0:0:0:0:
64,192,218210,1,0,0:0:0:0:
320,192,218289,1,0,0:0:0:0:
64,192,218368,1,0,0:0:0:0:
448,192,218368,1,0,0:0:0:0:
192,192,218447,1,0,0:0:0:0:
320,192,218526,1,0,0:0:0:0:
448,192,218526,1,0,0:0:0:0:
64,192,218605,1,0,0:0:0:0:
192,192,218684,1,0,0:0:0:0:
448,192,218684,1,0,0:0:0:0:
320,192,218763,1,0,0:0:0:0:
64,192,218842,1,0,0:0:0:0:
448,192,218842,1,0,0:0:0:0:
192,192,218921,1,0,0:0:0:0:
320,192,219000,1,0,0:0:0:0:
64,192,219000,1,0,0:0:0:0:
448,192,219078,1,0,0:0:0:0:
192,192,219157,1,0,0:0:0:0:
64,192,219157,1,0,0:0:0:0:
320,192,219236,1,0,0:0:0:0:
64,192,219315,1,0,0:0:0:0:
448,192,219315,1,0,0:0:0:0:
192,192,219394,1,0,0:0:0:0:
320,192,219473,1,0,0:0:0:0:
448,192,219473,1,0,0:0:0:0:
192,192,219552,1,0,0:0:0:0:
448,192,219631,1,0,0:0:0:0:
64,192,219631,1,0,0:0:0:0:
320,192,219710,1,0,0:0:0:0:
192,192,219710,1,0,0:0:0:0:
64,192,219789,1,0,0:0:0:0:
448,192,219789,1,0,0:0:0:0:
320,192,219868,1,0,0:0:0:0:
192,192,219947,1,0,0:0:0:0:
320,192,220026,1,0,0:0:0:0:
192,192,220105,1,0,0:0:0:0:
64,192,220105,1,0,0:0:0:0:
448,192,220184,1,0,0:0:0:0:
192,192,220263,1,0,0:0:0:0:
320,192,220342,1,0,0:0:0:0:
64,192,220421,1,0,0:0:0:0:
448,192,220421,1,0,0:0:0:0:
192,192,220500,1,0,0:0:0:0:
320,192,220578,1,0,0:0:0:0:
448,192,220578,1,0,0:0:0:0:
64,192,220657,1,0,0:0:0:0:
192,192,220736,1,0,0:0:0:0:
448,192,220736,1,0,0:0:0:0:
320,192,220815,1,0,0:0:0:0:
192,192,220894,1,0,0:0:0:0:
64,192,220894,1,0,0:0:0:0:
448,192,220973,1,0,0:0:0:0:
320,192,221052,1,0,0:0:0:0:
192,192,221052,1,0,0:0:0:0:
64,192,221131,1,0,0:0:0:0:
192,192,221210,1,0,0:0:0:0:
448,192,221210,1,0,0:0:0:0:
320,192,221289,1,0,0:0:0:0:
64,192,221368,1,0,0:0:0:0:
448,192,221368,1,0,0:0:0:0:
192,192,221447,1,0,0:0:0:0:
320,192,221526,1,0,0:0:0:0:
448,192,221526,1,0,0:0:0:0:
64,192,221605,1,0,0:0:0:0:
192,192,221684,1,0,0:0:0:0:
320,192,221684,1,0,0:0:0:0:
448,192,221763,1,0,0:0:0:0:
320,192,221842,1,0,0:0:0:0:
192,192,221842,1,0,0:0:0:0:
64,192,221921,1,0,0:0:0:0:
448,192,222000,1,0,0:0:0:0:
320,192,222039,1,0,0:0:0:0:
192,192,222078,1,0,0:0:0:0:
64,192,222118,1,0,0:0:0:0:
448,192,222157,1,0,0:0:0:0:
320,192,222197,1,0,0:0:0:0:
192,192,222236,1,0,0:0:0:0:
64,192,222276,1,0,0:0:0:0:
320,192,222315,1,0,0:0:0:0:
448,192,222315,1,0,0:0:0:0:
192,192,222394,1,0,0:0:0:0:
320,192,222473,1,0,0:0:0:0:
448,192,222552,1,0,0:0:0:0:
64,192,222631,1,0,0:0:0:0:
320,192,222631,1,0,0:0:0:0:
192,192,222710,1,0,0:0:0:0:
320,192,222789,1,0,0:0:0:0:
192,192,222868,1,0,0:0:0:0:
320,192,222947,1,0,0:0:0:0:
448,192,222947,1,0,0:0:0:0:
64,192,223026,1,0,0:0:0:0:
448,192,223105,1,0,0:0:0:0:
192,192,223105,1,0,0:0:0:0:
320,192,223184,1,0,0:0:0:0:
64,192,223263,1,0,0:0:0:0:
192,192,223263,1,0,0:0:0:0:
448,192,223342,1,0,0:0:0:0:
320,192,223421,1,0,0:0:0:0:
64,192,223421,1,0,0:0:0:0:
192,192,223500,1,0,0:0:0:0:
320,192,223578,1,0,0:0:0:0:
448,192,223578,1,0,0:0:0:0:
64,192,223657,1,0,0:0:0:0:
448,192,223736,1,0,0:0:0:0:
192,192,223736,1,0,0:0:0:0:
320,192,223815,1,0,0:0:0:0:
192,192,223894,1,0,0:0:0:0:
64,192,223894,1,0,0:0:0:0:
448,192,223973,1,0,0:0:0:0:
320,192,224052,1,0,0:0:0:0:
192,192,224052,1,0,0:0:0:0:
64,192,224131,1,0,0:0:0:0:
320,192,224210,1,0,0:0:0:0:
448,192,224210,1,0,0:0:0:0:
64,192,224289,1,0,0:0:0:0:
192,192,224368,1,0,0:0:0:0:
320,192,224368,1,0,0:0:0:0:
448,192,224447,1,0,0:0:0:0:
320,192,224526,1,0,0:0:0:0:
64,192,224526,1,0,0:0:0:0:
192,192,224526,1,0,0:0:0:0:
448,192,224684,1,0,0:0:0:0:
64,192,224684,1,0,0:0:0:0:
320,192,224684,1,0,0:0:0:0:
448,192,224842,1,0,0:0:0:0:
192,192,224842,1,0,0:0:0:0:
320,192,224842,1,0,0:0:0:0:
64,192,224921,1,0,0:0:0:0:
320,192,225000,1,0,0:0:0:0:
192,192,225078,1,0,0:0:0:0:
320,192,225157,1,0,0:0:0:0:
448,192,225157,1,0,0:0:0:0:
64,192,225236,1,0,0:0:0:0:
320,192,225315,1,0,0:0:0:0:
192,192,225394,1,0,0:0:0:0:
448,192,225473,1,0,0:0:0:0:
320,192,225473,1,0,0:0:0:0:
64,192,225552,1,0,0:0:0:0:
192,192,225631,1,0,0:0:0:0:
320,192,225631,1,0,0:0:0:0:
448,192,225710,1,0,0:0:0:0:
320,192,225789,1,0,0:0:0:0:
64,192,225789,1,0,0:0:0:0:
192,192,225868,1,0,0:0:0:0:
320,192,225947,1,0,0:0:0:0:
448,192,225947,1,0,0:0:0:0:
64,192,226026,1,0,0:0:0:0:
192,192,226105,1,0,0:0:0:0:
320,192,226105,1,0,0:0:0:0:
448,192,226184,1,0,0:0:0:0:
320,192,226263,1,0,0:0:0:0:
64,192,226263,1,0,0:0:0:0:
192,192,226342,1,0,0:0:0:0:
64,192,226421,1,0,0:0:0:0:
448,192,226421,1,0,0:0:0:0:
320,192,226500,1,0,0:0:0:0:
448,192,226578,1,0,0:0:0:0:
192,192,226578,1,0,0:0:0:0:
64,192,226657,1,0,0:0:0:0:
320,192,226736,1,0,0:0:0:0:
448,192,226736,1,0,0:0:0:0:
192,192,226815,1,0,0:0:0:0:
448,192,226894,1,0,0:0:0:0:
64,192,226894,1,0,0:0:0:0:
192,192,226973,1,0,0:0:0:0:
320,192,226973,1,0,0:0:0:0:
64,192,227052,1,0,0:0:0:0:
448,192,227052,1,0,0:0:0:0:
192,192,227131,1,0,0:0:0:0:
448,192,227210,1,0,0:0:0:0:
320,192,227250,1,0,0:0:0:0:
192,192,227289,1,0,0:0:0:0:
64,192,227328,1,0,0:0:0:0:
320,192,227368,1,0,0:0:0:0:
448,192,227368,1,0,0:0:0:0:
192,192,227447,1,0,0:0:0:0:
320,192,227526,1,0,0:0:0:0:
64,192,227605,1,0,0:0:0:0:
192,192,227684,1,0,0:0:0:0:
448,192,227684,1,0,0:0:0:0:
320,192,227763,1,0,0:0:0:0:
192,192,227842,1,0,0:0:0:0:
64,192,227921,1,0,0:0:0:0:
320,192,228000,1,0,0:0:0:0:
448,192,228000,1,0,0:0:0:0:
192,192,228078,1,0,0:0:0:0:
64,192,228157,1,0,0:0:0:0:
320,192,228157,1,0,0:0:0:0:
448,192,228236,1,0,0:0:0:0:
192,192,228315,1,0,0:0:0:0:
64,192,228315,1,0,0:0:0:0:
320,192,228394,1,0,0:0:0:0:
64,192,228473,1,0,0:0:0:0:
448,192,228473,1,0,0:0:0:0:
192,192,228552,1,0,0:0:0:0:
320,192,228631,1,0,0:0:0:0:
448,192,228631,1,0,0:0:0:0:
64,192,228710,1,0,0:0:0:0:
192,192,228789,1,0,0:0:0:0:
448,192,228789,1,0,0:0:0:0:
320,192,228868,1,0,0:0:0:0:
64,192,228947,1,0,0:0:0:0:
448,192,228947,1,0,0:0:0:0:
192,192,229026,1,0,0:0:0:0:
320,192,229105,1,0,0:0:0:0:
64,192,229105,1,0,0:0:0:0:
448,192,229184,1,0,0:0:0:0:
192,192,229263,1,0,0:0:0:0:
64,192,229263,1,0,0:0:0:0:
320,192,229342,1,0,0:0:0:0:
64,192,229421,1,0,0:0:0:0:
448,192,229421,1,0,0:0:0:0:
192,192,229500,1,0,0:0:0:0:
320,192,229578,1,0,0:0:0:0:
448,192,229578,1,0,0:0:0:0:
448,192,229736,1,0,0:0:0:0:
320,192,229736,1,0,0:0:0:0:
192,192,229736,1,0,0:0:0:0:
64,192,229894,1,0,0:0:0:0:
192,192,229894,1,0,0:0:0:0:
448,192,229894,1,0,0:0:0:0:
320,192,229973,1,0,0:0:0:0:
192,192,230052,1,0,0:0:0:0:
320,192,230131,1,0,0:0:0:0:
64,192,230210,1,0,0:0:0:0:
192,192,230250,1,0,0:0:0:0:
320,192,230289,1,0,0:0:0:0:
448,192,230328,1,0,0:0:0:0:
64,192,230368,1,0,0:0:0:0:
192,192,230368,1,0,0:0:0:0:
320,192,230447,1,0,0:0:0:0:
192,192,230526,1,0,0:0:0:0:
448,192,230605,1,0,0:0:0:0:
64,192,230684,1,0,0:0:0:0:
192,192,230684,1,0,0:0:0:0:
320,192,230763,1,0,0:0:0:0:
192,192,230842,1,0,0:0:0:0:
448,192,230921,1,0,0:0:0:0:
320,192,231000,1,0,0:0:0:0:
64,192,231000,128,0,231473:0:0:0:0:
192,192,231315,128,0,231473:0:0:0:0:
448,192,231473,1,0,0:0:0:0:
64,192,231631,1,0,0:0:0:0:
64,192,231710,1,0,0:0:0:0:
320,192,231789,1,0,0:0:0:0:
448,192,231789,1,0,0:0:0:0:
192,192,231868,1,0,0:0:0:0:
64,192,231947,1,0,0:0:0:0:
192,192,231986,1,0,0:0:0:0:
448,192,232026,1,0,0:0:0:0:
320,192,232065,1,0,0:0:0:0:
192,192,232105,1,0,0:0:0:0:
64,192,232144,1,0,0:0:0:0:
448,192,232184,1,0,0:0:0:0:
320,192,232223,1,0,0:0:0:0:
192,192,232263,1,0,0:0:0:0:
64,192,232302,1,0,0:0:0:0:
320,192,232342,1,0,0:0:0:0:
448,192,232381,1,0,0:0:0:0:
192,192,232421,1,0,0:0:0:0:
64,192,232421,1,0,0:0:0:0:
320,192,232500,1,0,0:0:0:0:
192,192,232578,1,0,0:0:0:0:
64,192,232657,1,0,0:0:0:0:
448,192,232736,1,0,0:0:0:0:
320,192,232736,1,0,0:0:0:0:
192,192,232815,1,0,0:0:0:0:
320,192,232894,1,0,0:0:0:0:
448,192,232973,1,0,0:0:0:0:
64,192,233052,1,0,0:0:0:0:
192,192,233052,1,0,0:0:0:0:
320,192,233131,1,0,0:0:0:0:
192,192,233210,1,0,0:0:0:0:
64,192,233289,1,0,0:0:0:0:
192,192,233368,1,0,0:0:0:0:
448,192,233368,1,0,0:0:0:0:
320,192,233447,1,0,0:0:0:0:
192,192,233526,1,0,0:0:0:0:
64,192,233605,1,0,0:0:0:0:
448,192,233684,1,0,0:0:0:0:
192,192,233684,1,0,0:0:0:0:
320,192,233763,1,0,0:0:0:0:
192,192,233842,1,0,0:0:0:0:
64,192,233842,1,0,0:0:0:0:
448,192,233921,1,0,0:0:0:0:
320,192,234000,1,0,0:0:0:0:
64,192,234000,1,0,0:0:0:0:
192,192,234078,1,0,0:0:0:0:
320,192,234157,1,0,0:0:0:0:
448,192,234157,1,0,0:0:0:0:
192,192,234236,1,0,0:0:0:0:
64,192,234315,1,0,0:0:0:0:
448,192,234315,1,0,0:0:0:0:
320,192,234394,1,0,0:0:0:0:
192,192,234394,1,0,0:0:0:0:
64,192,234473,1,0,0:0:0:0:
448,192,234473,1,0,0:0:0:0:
192,192,234552,1,0,0:0:0:0:
320,192,234631,1,0,0:0:0:0:
448,192,234631,1,0,0:0:0:0:
64,192,234631,1,0,0:0:0:0:
64,192,234789,1,0,0:0:0:0:
192,192,234789,1,0,0:0:0:0:
448,192,234789,1,0,0:0:0:0:
192,192,234947,1,0,0:0:0:0:
320,192,234947,1,0,0:0:0:0:
448,192,234947,1,0,0:0:0:0:
64,192,235026,1,0,0:0:0:0:
192,192,235105,1,0,0:0:0:0:
320,192,235184,1,0,0:0:0:0:
448,192,235263,1,0,0:0:0:0:
64,192,235263,1,0,0:0:0:0:
192,192,235342,1,0,0:0:0:0:
320,192,235421,1,0,0:0:0:0:
448,192,235500,1,0,0:0:0:0:
64,192,235578,1,0,0:0:0:0:
320,192,235578,1,0,0:0:0:0:
192,192,235657,1,0,0:0:0:0:
320,192,235736,1,0,0:0:0:0:
448,192,235736,1,0,0:0:0:0:
64,192,235815,1,0,0:0:0:0:
192,192,235894,1,0,0:0:0:0:
448,192,235894,1,0,0:0:0:0:
320,192,235973,1,0,0:0:0:0:
192,192,236052,1,0,0:0:0:0:
64,192,236052,1,0,0:0:0:0:
448,192,236131,1,0,0:0:0:0:
320,192,236210,1,0,0:0:0:0:
192,192,236210,1,0,0:0:0:0:
64,192,236289,1,0,0:0:0:0:
448,192,236368,1,0,0:0:0:0:
320,192,236368,1,0,0:0:0:0:
192,192,236447,1,0,0:0:0:0:
448,192,236526,1,0,0:0:0:0:
64,192,236526,1,0,0:0:0:0:
320,192,236605,1,0,0:0:0:0:
192,192,236684,1,0,0:0:0:0:
64,192,236684,1,0,0:0:0:0:
448,192,236763,1,0,0:0:0:0:
320,192,236842,1,0,0:0:0:0:
64,192,236842,1,0,0:0:0:0:
192,192,236921,1,0,0:0:0:0:
320,192,237000,1,0,0:0:0:0:
448,192,237000,1,0,0:0:0:0:
64,192,237078,1,0,0:0:0:0:
448,192,237157,1,0,0:0:0:0:
320,192,237197,1,0,0:0:0:0:
192,192,237236,1,0,0:0:0:0:
64,192,237276,1,0,0:0:0:0:
448,192,237315,1,0,0:0:0:0:
320,192,237355,1,0,0:0:0:0:
192,192,237394,1,0,0:0:0:0:
64,192,237434,1,0,0:0:0:0:
320,192,237473,1,0,0:0:0:0:
448,192,237473,1,0,0:0:0:0:
192,192,237552,1,0,0:0:0:0:
320,192,237631,1,0,0:0:0:0:
448,192,237710,1,0,0:0:0:0:
320,192,237789,1,0,0:0:0:0:
64,192,237789,1,0,0:0:0:0:
192,192,237868,1,0,0:0:0:0:
320,192,237947,1,0,0:0:0:0:
448,192,238026,1,0,0:0:0:0:
64,192,238105,1,0,0:0:0:0:
192,192,238105,1,0,0:0:0:0:
320,192,238184,1,0,0:0:0:0:
192,192,238263,1,0,0:0:0:0:
64,192,238342,1,0,0:0:0:0:
448,192,238421,1,0,0:0:0:0:
192,192,238421,1,0,0:0:0:0:
320,192,238500,1,0,0:0:0:0:
192,192,238578,1,0,0:0:0:0:
320,192,238657,1,0,0:0:0:0:
448,192,238736,1,0,0:0:0:0:
64,192,238736,1,0,0:0:0:0:
192,192,238815,1,0,0:0:0:0:
320,192,238894,1,0,0:0:0:0:
448,192,238894,1,0,0:0:0:0:
192,192,238973,1,0,0:0:0:0:
64,192,239052,1,0,0:0:0:0:
448,192,239052,1,0,0:0:0:0:
320,192,239131,1,0,0:0:0:0:
192,192,239210,1,0,0:0:0:0:
64,192,239210,1,0,0:0:0:0:
448,192,239289,1,0,0:0:0:0:
320,192,239368,1,0,0:0:0:0:
64,192,239368,1,0,0:0:0:0:
192,192,239447,1,0,0:0:0:0:
448,192,239526,1,0,0:0:0:0:
64,192,239526,1,0,0:0:0:0:
320,192,239605,1,0,0:0:0:0:
192,192,239684,1,0,0:0:0:0:
64,192,239684,1,0,0:0:0:0:
448,192,239763,1,0,0:0:0:0:
320,192,239842,1,0,0:0:0:0:
64,192,239842,1,0,0:0:0:0:
192,192,239921,1,0,0:0:0:0:
320,192,240000,1,0,0:0:0:0:
448,192,240000,1,0,0:0:0:0:
64,192,240078,1,0,0:0:0:0:
192,192,240157,1,0,0:0:0:0:
320,192,240236,1,0,0:0:0:0:
192,192,240315,1,0,0:0:0:0:
64,192,240315,1,0,0:0:0:0:
448,192,240394,1,0,0:0:0:0:
320,192,240473,1,0,0:0:0:0:
192,192,240552,1,0,0:0:0:0:
320,192,240631,1,0,0:0:0:0:
448,192,240631,1,0,0:0:0:0:
64,192,240710,1,0,0:0:0:0:
192,192,240789,1,0,0:0:0:0:
448,192,240789,1,0,0:0:0:0:
320,192,240868,1,0,0:0:0:0:
64,192,240947,1,0,0:0:0:0:
192,192,240947,1,0,0:0:0:0:
448,192,241026,1,0,0:0:0:0:
320,192,241105,1,0,0:0:0:0:
64,192,241105,1,0,0:0:0:0:
192,192,241184,1,0,0:0:0:0:
64,192,241263,1,0,0:0:0:0:
448,192,241263,1,0,0:0:0:0:
320,192,241342,5,0,0:0:0:0:
64,192,241421,1,0,0:0:0:0:
192,192,241421,1,0,0:0:0:0:
320,192,241500,1,0,0:0:0:0:
448,192,241578,1,0,0:0:0:0:
64,192,241578,1,0,0:0:0:0:
192,192,241578,1,0,0:0:0:0:
448,192,241736,1,0,0:0:0:0:
320,192,241736,1,0,0:0:0:0:
64,192,241736,1,0,0:0:0:0:
192,192,241894,1,0,0:0:0:0:
64,192,241934,1,0,0:0:0:0:
320,192,241973,1,0,0:0:0:0:
448,192,242013,1,0,0:0:0:0:
64,192,242052,1,0,0:0:0:0:
192,192,242092,1,0,0:0:0:0:
320,192,242131,1,0,0:0:0:0:
448,192,242171,1,0,0:0:0:0:
64,192,242210,1,0,0:0:0:0:
192,192,242250,1,0,0:0:0:0:
448,192,242289,1,0,0:0:0:0:
320,192,242328,1,0,0:0:0:0:
192,192,242368,1,0,0:0:0:0:
64,192,242407,1,0,0:0:0:0:
448,192,242447,1,0,0:0:0:0:
320,192,242486,1,0,0:0:0:0:
192,192,242526,1,0,0:0:0:0:
64,192,242526,1,0,0:0:0:0:
320,192,242684,1,0,0:0:0:0:
192,192,242684,1,0,0:0:0:0:
64,192,242684,1,0,0:0:0:0:
448,192,242842,1,0,0:0:0:0:
64,192,242842,1,0,0:0:0:0:
192,192,242842,1,0,0:0:0:0:
320,192,242921,1,0,0:0:0:0:
192,192,243000,1,0,0:0:0:0:
64,192,243078,1,0,0:0:0:0:
448,192,243157,1,0,0:0:0:0:
320,192,243157,1,0,0:0:0:0:
192,192,243236,1,0,0:0:0:0:
320,192,243315,1,0,0:0:0:0:
448,192,243394,1,0,0:0:0:0:
320,192,243473,1,0,0:0:0:0:
64,192,243473,1,0,0:0:0:0:
192,192,243552,1,0,0:0:0:0:
320,192,243631,1,0,0:0:0:0:
448,192,243710,1,0,0:0:0:0:
64,192,243789,1,0,0:0:0:0:
320,192,243789,1,0,0:0:0:0:
192,192,243868,1,0,0:0:0:0:
320,192,243947,1,0,0:0:0:0:
448,192,243947,1,0,0:0:0:0:
64,192,244026,1,0,0:0:0:0:
192,192,244105,1,0,0:0:0:0:
448,192,244105,1,0,0:0:0:0:
320,192,244184,1,0,0:0:0:0:
192,192,244263,1,0,0:0:0:0:
64,192,244263,1,0,0:0:0:0:
320,192,244342,1,0,0:0:0:0:
448,192,244421,1,0,0:0:0:0:
64,192,244421,1,0,0:0:0:0:
192,192,244500,1,0,0:0:0:0:
320,192,244500,1,0,0:0:0:0:
448,192,244578,1,0,0:0:0:0:
64,192,244578,1,0,0:0:0:0:
320,192,244657,1,0,0:0:0:0:
192,192,244736,1,0,0:0:0:0:
64,192,244736,1,0,0:0:0:0:
448,192,244736,1,0,0:0:0:0:
448,192,244894,1,0,0:0:0:0:
320,192,244894,1,0,0:0:0:0:
64,192,244894,1,0,0:0:0:0:
320,192,245052,1,0,0:0:0:0:
192,192,245052,1,0,0:0:0:0:
64,192,245052,1,0,0:0:0:0:
448,192,245131,1,0,0:0:0:0:
320,192,245210,1,0,0:0:0:0:
192,192,245289,1,0,0:0:0:0:
64,192,245368,1,0,0:0:0:0:
448,192,245368,1,0,0:0:0:0:
320,192,245447,1,0,0:0:0:0:
192,192,245526,1,0,0:0:0:0:
64,192,245605,1,0,0:0:0:0:
448,192,245684,1,0,0:0:0:0:
192,192,245684,1,0,0:0:0:0:
320,192,245763,1,0,0:0:0:0:
192,192,245842,1,0,0:0:0:0:
64,192,245842,1,0,0:0:0:0:
448,192,245921,1,0,0:0:0:0:
320,192,246000,1,0,0:0:0:0:
64,192,246000,1,0,0:0:0:0:
192,192,246078,1,0,0:0:0:0:
320,192,246157,1,0,0:0:0:0:
448,192,246157,1,0,0:0:0:0:
64,192,246236,1,0,0:0:0:0:
192,192,246315,1,0,0:0:0:0:
320,192,246315,1,0,0:0:0:0:
448,192,246394,1,0,0:0:0:0:
64,192,246473,1,0,0:0:0:0:
192,192,246473,1,0,0:0:0:0:
320,192,246552,1,0,0:0:0:0:
64,192,246631,1,0,0:0:0:0:
448,192,246631,1,0,0:0:0:0:
192,192,246710,1,0,0:0:0:0:
320,192,246789,1,0,0:0:0:0:
448,192,246789,1,0,0:0:0:0:
64,192,246868,1,0,0:0:0:0:
192,192,246947,1,0,0:0:0:0:
448,192,246947,1,0,0:0:0:0:
320,192,247026,1,0,0:0:0:0:
192,192,247105,1,0,0:0:0:0:
64,192,247105,1,0,0:0:0:0:
448,192,247184,1,0,0:0:0:0:
64,192,247263,1,0,0:0:0:0:
192,192,247302,1,0,0:0:0:0:
320,192,247342,1,0,0:0:0:0:
448,192,247381,1,0,0:0:0:0:
64,192,247421,1,0,0:0:0:0:
192,192,247460,1,0,0:0:0:0:
320,192,247500,1,0,0:0:0:0:
448,192,247539,1,0,0:0:0:0:
192,192,247578,1,0,0:0:0:0:
64,192,247578,1,0,0:0:0:0:
320,192,247657,1,0,0:0:0:0:
192,192,247736,1,0,0:0:0:0:
64,192,247815,1,0,0:0:0:0:
192,192,247894,1,0,0:0:0:0:
448,192,247894,1,0,0:0:0:0:
320,192,247973,1,0,0:0:0:0:
192,192,248052,1,0,0:0:0:0:
64,192,248131,1,0,0:0:0:0:
320,192,248210,1,0,0:0:0:0:
448,192,248210,1,0,0:0:0:0:
192,192,248289,1,0,0:0:0:0:
320,192,248368,1,0,0:0:0:0:
448,192,248447,1,0,0:0:0:0:
320,192,248526,1,0,0:0:0:0:
64,192,248526,1,0,0:0:0:0:
192,192,248605,1,0,0:0:0:0:
320,192,248684,1,0,0:0:0:0:
448,192,248763,1,0,0:0:0:0:
192,192,248842,1,0,0:0:0:0:
64,192,248842,1,0,0:0:0:0:
320,192,248921,1,0,0:0:0:0:
448,192,249000,1,0,0:0:0:0:
192,192,249000,1,0,0:0:0:0:
64,192,249078,1,0,0:0:0:0:
320,192,249157,1,0,0:0:0:0:
448,192,249157,1,0,0:0:0:0:
192,192,249236,1,0,0:0:0:0:
64,192,249315,1,0,0:0:0:0:
320,192,249315,1,0,0:0:0:0:
448,192,249394,1,0,0:0:0:0:
192,192,249473,1,0,0:0:0:0:
64,192,249473,1,0,0:0:0:0:
320,192,249552,1,0,0:0:0:0:
448,192,249631,1,0,0:0:0:0:
64,192,249631,1,0,0:0:0:0:
192,192,249710,1,0,0:0:0:0:
320,192,249789,1,0,0:0:0:0:
448,192,249789,1,0,0:0:0:0:
64,192,249868,1,0,0:0:0:0:
192,192,249947,1,0,0:0:0:0:
448,192,249947,1,0,0:0:0:0:
320,192,250026,1,0,0:0:0:0:
192,192,250105,1,0,0:0:0:0:
64,192,250105,1,0,0:0:0:0:
448,192,250184,1,0,0:0:0:0:
320,192,250263,1,0,0:0:0:0:
192,192,250342,1,0,0:0:0:0:
64,192,250421,1,0,0:0:0:0:
448,192,250421,1,0,0:0:0:0:
320,192,250500,1,0,0:0:0:0:
192,192,250578,1,0,0:0:0:0:
64,192,250657,1,0,0:0:0:0:
192,192,250736,1,0,0:0:0:0:
448,192,250736,1,0,0:0:0:0:
320,192,250815,1,0,0:0:0:0:
448,192,250894,1,0,0:0:0:0:
192,192,250894,1,0,0:0:0:0:
64,192,250973,1,0,0:0:0:0:
448,192,251052,1,0,0:0:0:0:
320,192,251052,1,0,0:0:0:0:
192,192,251131,1,0,0:0:0:0:
64,192,251210,1,0,0:0:0:0:
448,192,251210,1,0,0:0:0:0:
64,192,252631,5,0,0:0:0:0:
448,192,252631,1,0,0:0:0:0:
192,192,252631,1,0,0:0:0:0:
448,192,252789,1,0,0:0:0:0:
320,192,252789,1,0,0:0:0:0:
64,192,252789,1,0,0:0:0:0:
192,192,252947,1,0,0:0:0:0:
64,192,252947,1,0,0:0:0:0:
320,192,252947,1,0,0:0:0:0:
448,192,253105,1,0,0:0:0:0:
320,192,253105,1,0,0:0:0:0:
192,192,253105,1,0,0:0:0:0:
64,192,253263,1,0,0:0:0:0:
448,192,253263,1,0,0:0:0:0:
192,192,253263,1,0,0:0:0:0:
64,192,253421,1,0,0:0:0:0:
448,192,253421,1,0,0:0:0:0:
320,192,253421,1,0,0:0:0:0:
192,192,253578,1,0,0:0:0:0:
448,192,253578,1,0,0:0:0:0:
320,192,253578,1,0,0:0:0:0:
192,192,253736,1,0,0:0:0:0:
64,192,253736,1,0,0:0:0:0:
320,192,253736,1,0,0:0:0:0:
320,192,253894,1,0,0:0:0:0:
448,192,253894,1,0,0:0:0:0:
64,192,253894,1,0,0:0:0:0:
192,192,253973,1,0,0:0:0:0:
448,192,254052,1,0,0:0:0:0:
64,192,254131,1,0,0:0:0:0:
192,192,254210,1,0,0:0:0:0:
448,192,254210,1,0,0:0:0:0:
320,192,254289,1,0,0:0:0:0:
64,192,254368,1,0,0:0:0:0:
192,192,254447,1,0,0:0:0:0:
448,192,254526,1,0,0:0:0:0:
64,192,254526,1,0,0:0:0:0:
320,192,254605,1,0,0:0:0:0:
192,192,254684,1,0,0:0:0:0:
64,192,254763,1,0,0:0:0:0:
320,192,254842,1,0,0:0:0:0:
448,192,254842,1,0,0:0:0:0:
192,192,255000,1,0,0:0:0:0:
64,192,255000,1,0,0:0:0:0:
320,192,255157,1,0,0:0:0:0:
448,192,255210,1,0,0:0:0:0:
192,192,255263,1,0,0:0:0:0:
320,192,255315,1,0,0:0:0:0:
64,192,255368,1,0,0:0:0:0:
192,192,255421,1,0,0:0:0:0:
448,192,255473,1,0,0:0:0:0:
192,192,255552,1,0,0:0:0:0:
320,192,255631,1,0,0:0:0:0:
64,192,255710,1,0,0:0:0:0:
192,192,255789,1,0,0:0:0:0:
448,192,255789,1,0,0:0:0:0:
320,192,255868,1,0,0:0:0:0:
192,192,255947,1,0,0:0:0:0:
448,192,256026,1,0,0:0:0:0:
320,192,256105,1,0,0:0:0:0:
64,192,256105,1,0,0:0:0:0:
192,192,256184,1,0,0:0:0:0:
320,192,256263,1,0,0:0:0:0:
64,192,256342,1,0,0:0:0:0:
192,192,256421,1,0,0:0:0:0:
448,192,256421,1,0,0:0:0:0:
320,192,256500,1,0,0:0:0:0:
64,192,256578,1,0,0:0:0:0:
192,192,256657,1,0,0:0:0:0:
320,192,256736,1,0,0:0:0:0:
448,192,256736,1,0,0:0:0:0:
448,192,256894,1,0,0:0:0:0:
320,192,256973,1,0,0:0:0:0:
64,192,257052,1,0,0:0:0:0:
192,192,257052,1,0,0:0:0:0:
192,192,257210,1,0,0:0:0:0:
64,192,257210,1,0,0:0:0:0:
320,192,257368,1,0,0:0:0:0:
448,192,257368,1,0,0:0:0:0:
64,192,257407,1,0,0:0:0:0:
192,192,257447,1,0,0:0:0:0:
448,192,257486,1,0,0:0:0:0:
320,192,257526,1,0,0:0:0:0:
192,192,257565,1,0,0:0:0:0:
64,192,257605,1,0,0:0:0:0:
448,192,257644,1,0,0:0:0:0:
320,192,257684,1,0,0:0:0:0:
192,192,257684,1,0,0:0:0:0:
320,192,257842,1,0,0:0:0:0:
192,192,257842,1,0,0:0:0:0:
64,192,257842,1,0,0:0:0:0:
448,192,258000,1,0,0:0:0:0:
192,192,258000,1,0,0:0:0:0:
320,192,258000,1,0,0:0:0:0:
64,192,258157,1,0,0:0:0:0:
448,192,258157,1,0,0:0:0:0:
192,192,258157,1,0,0:0:0:0:
64,192,258315,1,0,0:0:0:0:
448,192,258315,1,0,0:0:0:0:
320,192,258315,1,0,0:0:0:0:
320,192,258473,1,0,0:0:0:0:
192,192,258473,1,0,0:0:0:0:
64,192,258473,1,0,0:0:0:0:
320,192,258631,1,0,0:0:0:0:
448,192,258631,1,0,0:0:0:0:
192,192,258631,1,0,0:0:0:0:
192,192,258789,1,0,0:0:0:0:
64,192,258789,1,0,0:0:0:0:
448,192,258789,1,0,0:0:0:0:
448,192,258947,1,0,0:0:0:0:
64,192,258947,1,0,0:0:0:0:
320,192,258947,1,0,0:0:0:0:
192,192,259026,1,0,0:0:0:0:
320,192,259105,1,0,0:0:0:0:
192,192,259184,1,0,0:0:0:0:
64,192,259263,1,0,0:0:0:0:
448,192,259263,1,0,0:0:0:0:
320,192,259342,1,0,0:0:0:0:
192,192,259421,1,0,0:0:0:0:
320,192,259500,1,0,0:0:0:0:
448,192,259578,1,0,0:0:0:0:
192,192,259578,1,0,0:0:0:0:
64,192,259657,1,0,0:0:0:0:
448,192,259736,1,0,0:0:0:0:
320,192,259815,1,0,0:0:0:0:
192,192,259894,1,0,0:0:0:0:
64,192,259894,1,0,0:0:0:0:
320,192,260052,1,0,0:0:0:0:
192,192,260052,1,0,0:0:0:0:
320,192,260210,1,0,0:0:0:0:
448,192,260210,1,0,0:0:0:0:
192,192,260289,1,0,0:0:0:0:
320,192,260368,1,0,0:0:0:0:
64,192,260447,1,0,0:0:0:0:
192,192,260526,1,0,0:0:0:0:
448,192,260526,1,0,0:0:0:0:
320,192,260605,1,0,0:0:0:0:
64,192,260684,1,0,0:0:0:0:
192,192,260763,1,0,0:0:0:0:
448,192,260842,1,0,0:0:0:0:
320,192,260842,1,0,0:0:0:0:
192,192,260921,1,0,0:0:0:0:
64,192,261000,1,0,0:0:0:0:
448,192,261078,1,0,0:0:0:0:
320,192,261157,1,0,0:0:0:0:
192,192,261157,1,0,0:0:0:0:
64,192,261315,1,0,0:0:0:0:
448,192,261315,1,0,0:0:0:0:
192,192,261473,1,0,0:0:0:0:
64,192,261473,1,0,0:0:0:0:
448,192,261552,1,0,0:0:0:0:
64,192,261631,1,0,0:0:0:0:
192,192,261631,1,0,0:0:0:0:
448,192,261710,1,0,0:0:0:0:
320,192,261789,1,0,0:0:0:0:
64,192,261789,1,0,0:0:0:0:
192,192,261868,1,0,0:0:0:0:
448,192,261947,1,0,0:0:0:0:
192,192,262026,1,0,0:0:0:0:
64,192,262105,1,0,0:0:0:0:
320,192,262105,1,0,0:0:0:0:
448,192,262184,1,0,0:0:0:0:
320,192,262263,1,0,0:0:0:0:
448,192,262421,1,0,0:0:0:0:
320,192,262460,1,0,0:0:0:0:
192,192,262500,1,0,0:0:0:0:
64,192,262539,1,0,0:0:0:0:
448,192,262578,1,0,0:0:0:0:
320,192,262618,1,0,0:0:0:0:
192,192,262657,1,0,0:0:0:0:
64,192,262697,1,0,0:0:0:0:
448,192,262736,1,0,0:0:0:0:
320,192,262736,1,0,0:0:0:0:
192,192,262815,1,0,0:0:0:0:
64,192,262894,1,0,0:0:0:0:
448,192,262973,1,0,0:0:0:0:
320,192,263052,1,0,0:0:0:0:
64,192,263052,1,0,0:0:0:0:
192,192,263131,1,0,0:0:0:0:
320,192,263210,1,0,0:0:0:0:
192,192,263289,1,0,0:0:0:0:
448,192,263368,1,0,0:0:0:0:
64,192,263368,1,0,0:0:0:0:
320,192,263447,1,0,0:0:0:0:
192,192,263526,1,0,0:0:0:0:
448,192,263605,1,0,0:0:0:0:
320,192,263684,1,0,0:0:0:0:
64,192,263684,1,0,0:0:0:0:
192,192,263763,1,0,0:0:0:0:
320,192,263842,1,0,0:0:0:0:
448,192,263921,1,0,0:0:0:0:
192,192,264000,1,0,0:0:0:0:
64,192,264000,1,0,0:0:0:0:
320,192,264078,1,0,0:0:0:0:
64,192,264157,1,0,0:0:0:0:
448,192,264236,1,0,0:0:0:0:
320,192,264315,1,0,0:0:0:0:
64,192,264315,1,0,0:0:0:0:
192,192,264394,1,0,0:0:0:0:
448,192,264473,1,0,0:0:0:0:
320,192,264552,1,0,0:0:0:0:
64,192,264631,1,0,0:0:0:0:
448,192,264631,1,0,0:0:0:0:
192,192,264710,1,0,0:0:0:0:
320,192,264789,1,0,0:0:0:0:
448,192,264868,1,0,0:0:0:0:
64,192,264947,1,0,0:0:0:0:
192,192,264986,1,0,0:0:0:0:
320,192,265026,1,0,0:0:0:0:
448,192,265065,1,0,0:0:0:0:
192,192,265105,1,0,0:0:0:0:
64,192,265105,1,0,0:0:0:0:
192,192,265263,1,0,0:0:0:0:
64,192,265315,1,0,0:0:0:0:
320,192,265368,1,0,0:0:0:0:
192,192,265421,1,0,0:0:0:0:
448,192,265473,1,0,0:0:0:0:
320,192,265526,1,0,0:0:0:0:
64,192,265578,1,0,0:0:0:0:
320,192,265657,1,0,0:0:0:0:
192,192,265736,1,0,0:0:0:0:
448,192,265815,1,0,0:0:0:0:
320,192,265894,1,0,0:0:0:0:
64,192,265894,1,0,0:0:0:0:
192,192,265973,1,0,0:0:0:0:
320,192,266052,1,0,0:0:0:0:
64,192,266131,1,0,0:0:0:0:
192,192,266210,1,0,0:0:0:0:
448,192,266210,1,0,0:0:0:0:
320,192,266289,1,0,0:0:0:0:
192,192,266368,1,0,0:0:0:0:
448,192,266447,1,0,0:0:0:0:
320,192,266526,1,0,0:0:0:0:
64,192,266526,1,0,0:0:0:0:
192,192,266605,1,0,0:0:0:0:
448,192,266684,1,0,0:0:0:0:
320,192,266763,1,0,0:0:0:0:
192,192,266842,1,0,0:0:0:0:
64,192,266842,1,0,0:0:0:0:
64,192,267000,1,0,0:0:0:0:
192,192,267078,1,0,0:0:0:0:
448,192,267157,1,0,0:0:0:0:
320,192,267157,1,0,0:0:0:0:
320,192,267315,1,0,0:0:0:0:
448,192,267315,1,0,0:0:0:0:
64,192,267473,1,0,0:0:0:0:
192,192,267513,1,0,0:0:0:0:
320,192,267552,1,0,0:0:0:0:
448,192,267592,1,0,0:0:0:0:
192,192,267631,1,0,0:0:0:0:
64,192,267631,1,0,0:0:0:0:
192,192,267947,1,0,0:0:0:0:
64,192,267947,1,0,0:0:0:0:
320,192,267947,1,0,0:0:0:0:
448,192,268105,1,0,0:0:0:0:
320,192,268105,1,0,0:0:0:0:
192,192,268105,1,0,0:0:0:0:
64,192,268263,1,0,0:0:0:0:
320,192,268421,1,0,0:0:0:0:
192,192,268421,1,0,0:0:0:0:
64,192,268421,1,0,0:0:0:0:
448,192,268578,1,0,0:0:0:0:
192,192,268657,1,0,0:0:0:0:
448,192,268736,1,0,0:0:0:0:
320,192,268776,1,0,0:0:0:0:
192,192,268815,1,0,0:0:0:0:
64,192,268855,1,0,0:0:0:0:
320,192,268894,1,0,0:0:0:0:
448,192,268894,1,0,0:0:0:0:
192,192,268973,1,0,0:0:0:0:
320,192,269052,1,0,0:0:0:0:
64,192,269210,1,0,0:0:0:0:
192,192,269210,1,0,0:0:0:0:
448,192,269210,1,0,0:0:0:0:
448,192,269368,1,0,0:0:0:0:
320,192,269368,1,0,0:0:0:0:
64,192,269368,1,0,0:0:0:0:
192,192,269526,1,0,0:0:0:0:
320,192,269605,1,0,0:0:0:0:
192,192,269684,1,0,0:0:0:0:
64,192,269684,1,0,0:0:0:0:
448,192,269763,1,0,0:0:0:0:
64,192,269842,1,0,0:0:0:0:
448,192,270000,1,0,0:0:0:0:
320,192,270039,1,0,0:0:0:0:
192,192,270078,1,0,0:0:0:0:
64,192,270118,1,0,0:0:0:0:
320,192,270157,1,0,0:0:0:0:
448,192,270157,1,0,0:0:0:0:
64,192,270315,1,0,0:0:0:0:
192,192,270315,1,0,0:0:0:0:
320,192,270394,1,0,0:0:0:0:
192,192,270473,1,0,0:0:0:0:
448,192,270552,1,0,0:0:0:0:
64,192,270631,1,0,0:0:0:0:
320,192,270631,1,0,0:0:0:0:
192,192,270789,1,0,0:0:0:0:
320,192,270789,1,0,0:0:0:0:
448,192,270947,1,0,0:0:0:0:
192,192,270947,1,0,0:0:0:0:
192,192,271105,1,0,0:0:0:0:
320,192,271105,1,0,0:0:0:0:
448,192,271263,1,0,0:0:0:0:
64,192,271263,1,0,0:0:0:0:
192,192,271421,128,0,271460:0:0:0:0:
320,192,271421,128,0,271460:0:0:0:0:
448,192,272842,1,0,0:0:0:0:
320,192,272842,1,0,0:0:0:0:
