osu file format v14

[General]
AudioFilename: audio.mp3
AudioLeadIn: 0
PreviewTime: 8698
Countdown: 0
SampleSet: Soft
StackLeniency: 0.7
Mode: 3
LetterboxInBreaks: 0
SpecialStyle: 0
WidescreenStoryboard: 1

[Editor]
DistanceSpacing: 1
BeatDivisor: 4
GridSize: 4
TimelineZoom: 3.899999

[Metadata]
Title:IZANA
TitleUnicode:IZANA
Artist:t+pazolite vs P*Light
ArtistUnicode:t+pazolite vs P*Light
Creator:Fawcro32
Version:Past
Source:Arcaea
Tags:hardcore tanoc Martilo
BeatmapID:2866896
BeatmapSetID:1388145

[Difficulty]
HPDrainRate:7
CircleSize:4
OverallDifficulty:7
ApproachRate:5
SliderMultiplier:1.4
SliderTickRate:2

[Events]
//Background and Video events
0,0,"IZANA Cover.png",0,0
//Break Periods
//Storyboard Layer 0 (Background)
//Storyboard Layer 1 (Fail)
//Storyboard Layer 2 (Pass)
//Storyboard Layer 3 (Foreground)
//Storyboard Layer 4 (Overlay)
//Storyboard Sound Samples

[TimingPoints]
50,270.27027027027,4,2,1,50,1,0
7617,-100,4,2,1,60,0,0
27887,-100,4,2,1,5,0,0
28158,-100,4,2,1,60,0,0
51941,-100,4,2,1,50,0,0
69239,-100,4,2,1,60,0,0
77887,-100,4,2,1,60,0,1
94914,-100,4,2,1,60,0,0
114374,-100,4,2,1,5,0,0
114644,-100,4,2,1,60,0,0
120860,-100,4,1,1,40,0,0

[HitObjects]
320,192,50,128,0,860:0:0:0:0:
64,192,1131,128,0,2212:0:0:0:0:
192,192,2212,128,0,2752:0:0:0:0:
320,192,2752,128,0,3158:0:0:0:0:
64,192,3293,128,0,4374:0:0:0:0:
448,192,4374,128,0,5185:0:0:0:0:
192,192,5455,128,0,5995:0:0:0:0:
320,192,5995,128,0,6401:0:0:0:0:
64,192,6536,128,0,7617:0:0:0:0:
320,192,7617,1,8,0:0:0:0:
320,192,7887,1,8,0:0:0:0:
320,192,8158,1,8,0:0:0:0:
192,192,8428,1,2,0:0:0:0:
320,192,8428,1,8,0:0:0:0:
64,192,8698,1,4,0:0:0:0:
192,192,8698,1,0,0:0:0:0:
448,192,8968,1,2,0:0:0:0:
192,192,9239,1,4,0:0:0:0:
320,192,9509,1,2,0:0:0:0:
192,192,9779,1,4,0:0:0:0:
64,192,10049,1,2,0:0:0:0:
448,192,10320,1,4,0:0:0:0:
192,192,10590,1,8,0:0:0:0:
320,192,10590,1,2,0:0:0:0:
64,192,10860,1,4,0:0:0:0:
192,192,11131,1,2,0:0:0:0:
448,192,11401,1,4,0:0:0:0:
192,192,11671,1,2,0:0:0:0:
64,192,11941,1,4,0:0:0:0:
320,192,12212,1,2,0:0:0:0:
192,192,12482,1,4,0:0:0:0:
320,192,12752,1,2,0:0:0:0:
448,192,13022,1,4,0:0:0:0:
192,192,13022,1,0,0:0:0:0:
320,192,13293,1,2,0:0:0:0:
192,192,13563,1,4,0:0:0:0:
448,192,13833,1,2,0:0:0:0:
64,192,14104,1,4,0:0:0:0:
320,192,14374,1,2,0:0:0:0:
64,192,14644,1,4,0:0:0:0:
192,192,14914,1,2,0:0:0:0:
320,192,14914,1,8,0:0:0:0:
320,192,15185,1,4,0:0:0:0:
64,192,15455,1,2,0:0:0:0:
320,192,15725,1,4,0:0:0:0:
448,192,15995,1,2,0:0:0:0:
64,192,16266,1,2,0:0:0:0:
320,192,16266,1,8,0:0:0:0:
64,192,16536,1,2,0:0:0:0:
320,192,16536,1,8,0:0:0:0:
64,192,16806,1,2,0:0:0:0:
320,192,16806,1,8,0:0:0:0:
448,192,17077,128,0,17347:0:0:0:0:
192,192,17347,1,4,0:0:0:0:
320,192,17347,1,0,0:0:0:0:
64,192,17617,1,2,0:0:0:0:
320,192,17887,1,4,0:0:0:0:
192,192,18158,1,2,0:0:0:0:
448,192,18428,1,4,0:0:0:0:
192,192,18698,1,2,0:0:0:0:
64,192,18968,1,4,0:0:0:0:
192,192,19239,1,8,0:0:0:0:
320,192,19239,1,2,0:0:0:0:
448,192,19509,1,4,0:0:0:0:
64,192,19779,1,2,0:0:0:0:
448,192,20049,1,4,0:0:0:0:
320,192,20320,1,2,0:0:0:0:
64,192,20590,1,4,0:0:0:0:
320,192,20860,1,2,0:0:0:0:
192,192,21131,1,4,0:0:0:0:
448,192,21401,1,2,0:0:0:0:
64,192,21671,1,0,0:0:0:0:
320,192,21671,1,4,0:0:0:0:
64,192,21941,1,2,0:0:0:0:
448,192,22212,1,4,0:0:0:0:
192,192,22482,1,2,0:0:0:0:
320,192,22482,1,0,0:0:0:0:
320,192,22752,1,4,0:0:0:0:
448,192,23022,1,2,0:0:0:0:
192,192,23293,1,4,0:0:0:0:
448,192,23563,1,2,0:0:0:0:
192,192,23833,128,0,24914:0:0:0:0:
448,192,24914,1,0,0:0:0:0:
64,192,24914,1,4,0:0:0:0:
64,192,25995,1,4,0:0:0:0:
448,192,25995,1,0,0:0:0:0:
64,192,26401,1,4,0:0:0:0:
448,192,26401,1,0,0:0:0:0:
192,192,26671,1,4,0:0:0:0:
320,192,26806,128,4,26941:0:0:0:0:
192,192,27077,1,4,0:0:0:0:
320,192,27077,1,0,0:0:0:0:
192,192,27482,1,4,0:0:0:0:
320,192,27482,1,0,0:0:0:0:
448,192,27887,128,0,28090:0:0:0:0:
64,192,28158,1,4,0:0:0:0:
192,192,28158,1,0,0:0:0:0:
64,192,28563,1,4,0:0:0:0:
192,192,28563,1,0,0:0:0:0:
320,192,28833,1,4,0:0:0:0:
192,192,28968,128,4,29104:0:0:0:0:
320,192,29239,1,0,0:0:0:0:
448,192,29239,1,4,0:0:0:0:
320,192,29644,1,0,0:0:0:0:
448,192,29644,1,4,0:0:0:0:
64,192,30320,128,8,30860:0:0:0:0:
448,192,30860,128,8,31401:0:0:0:0:
64,192,31401,128,8,31941:0:0:0:0:
448,192,31941,128,8,32482:0:0:0:0:
192,192,32482,128,0,33563:0:0:0:0:
320,192,32482,1,8,0:0:0:0:
320,192,32752,1,8,0:0:0:0:
320,192,33022,1,8,0:0:0:0:
320,192,33293,1,8,0:0:0:0:
448,192,33563,1,0,0:0:0:0:
320,192,34374,1,2,0:0:0:0:
192,192,34374,1,8,0:0:0:0:
64,192,34644,128,4,34914:0:0:0:0:
192,192,34914,1,2,0:0:0:0:
320,192,35185,128,4,35455:0:0:0:0:
64,192,35455,1,2,0:0:0:0:
192,192,35725,128,4,35995:0:0:0:0:
320,192,35995,1,2,0:0:0:0:
64,192,36266,128,4,36536:0:0:0:0:
320,192,36536,1,2,0:0:0:0:
448,192,36806,128,4,37077:0:0:0:0:
192,192,37077,1,2,0:0:0:0:
64,192,37347,128,4,37617:0:0:0:0:
192,192,37617,1,2,0:0:0:0:
320,192,37887,1,8,0:0:0:0:
320,192,38158,1,8,0:0:0:0:
320,192,38428,1,8,0:0:0:0:
64,192,38698,1,2,0:0:0:0:
448,192,38698,1,8,0:0:0:0:
320,192,38968,128,4,39239:0:0:0:0:
64,192,39239,1,2,0:0:0:0:
448,192,39509,128,4,39779:0:0:0:0:
320,192,39779,1,2,0:0:0:0:
192,192,40049,128,4,40320:0:0:0:0:
448,192,40320,1,2,0:0:0:0:
64,192,40590,128,4,40860:0:0:0:0:
448,192,40860,1,0,0:0:0:0:
192,192,41131,1,4,0:0:0:0:
192,192,41536,1,4,0:0:0:0:
192,192,41806,1,4,0:0:0:0:
320,192,41941,1,4,0:0:0:0:
64,192,42212,1,0,0:0:0:0:
448,192,42212,1,4,0:0:0:0:
448,192,42617,1,4,0:0:0:0:
192,192,43022,1,8,0:0:0:0:
320,192,43022,1,8,0:0:0:0:
448,192,43293,128,4,43563:0:0:0:0:
320,192,43563,1,2,0:0:0:0:
320,192,43833,128,4,44104:0:0:0:0:
192,192,44104,1,2,0:0:0:0:
64,192,44374,128,4,44644:0:0:0:0:
192,192,44644,1,2,0:0:0:0:
320,192,44914,128,4,45185:0:0:0:0:
448,192,45185,1,2,0:0:0:0:
192,192,45455,128,4,45725:0:0:0:0:
64,192,45725,1,2,0:0:0:0:
448,192,45995,128,4,46266:0:0:0:0:
192,192,46266,1,2,0:0:0:0:
64,192,46536,1,2,0:0:0:0:
448,192,46739,1,2,0:0:0:0:
64,192,46941,1,2,0:0:0:0:
448,192,47144,1,2,0:0:0:0:
192,192,47347,1,2,0:0:0:0:
320,192,47347,1,4,0:0:0:0:
64,192,47617,128,0,51671:0:0:0:0:
192,192,47887,1,4,0:0:0:0:
192,192,48428,1,4,0:0:0:0:
192,192,48968,1,4,0:0:0:0:
192,192,49509,1,4,0:0:0:0:
448,192,49779,1,4,0:0:0:0:
192,192,50049,1,4,0:0:0:0:
448,192,50320,1,4,0:0:0:0:
192,192,50590,1,4,0:0:0:0:
448,192,50860,1,4,0:0:0:0:
192,192,51131,1,4,0:0:0:0:
448,192,51401,1,4,0:0:0:0:
192,192,51671,1,8,0:0:0:0:
320,192,51671,1,2,0:0:0:0:
192,192,51941,128,0,52752:0:0:0:0:
448,192,53022,128,0,54104:0:0:0:0:
320,192,54104,128,0,54644:0:0:0:0:
192,192,54644,128,0,55049:0:0:0:0:
448,192,55185,128,0,56266:0:0:0:0:
64,192,56266,128,0,57077:0:0:0:0:
320,192,57347,128,0,58428:0:0:0:0:
192,192,58428,128,0,58968:0:0:0:0:
448,192,58968,128,0,59509:0:0:0:0:
320,192,60590,128,0,61401:0:0:0:0:
64,192,61131,1,8,0:0:0:0:
192,192,61671,128,0,62752:0:0:0:0:
448,192,62212,1,8,0:0:0:0:
448,192,62752,128,0,63293:0:0:0:0:
320,192,63293,128,0,63698:0:0:0:0:
64,192,63293,1,8,0:0:0:0:
64,192,63833,128,0,64914:0:0:0:0:
448,192,64374,1,8,0:0:0:0:
192,192,64914,128,0,65725:0:0:0:0:
64,192,65455,1,8,0:0:0:0:
320,192,65995,128,0,66536:0:0:0:0:
192,192,66536,128,0,66941:0:0:0:0:
448,192,66536,1,8,0:0:0:0:
320,192,67077,128,0,67887:0:0:0:0:
64,192,67617,1,8,0:0:0:0:
192,192,67887,1,0,0:0:0:0:
64,192,68698,128,0,73563:0:0:0:0:
192,192,69239,1,2,0:0:0:0:
192,192,69779,1,2,0:0:0:0:
192,192,70320,1,2,0:0:0:0:
192,192,70860,1,2,0:0:0:0:
192,192,71401,1,2,0:0:0:0:
192,192,71941,1,2,0:0:0:0:
192,192,72482,1,2,0:0:0:0:
192,192,73022,1,2,0:0:0:0:
448,192,73563,128,0,76806:0:0:0:0:
320,192,73563,128,2,73833:0:0:0:0:
64,192,74104,128,2,74374:0:0:0:0:
320,192,74644,128,2,74914:0:0:0:0:
64,192,75185,128,2,75455:0:0:0:0:
192,192,75725,1,2,0:0:0:0:
192,192,75995,1,2,0:0:0:0:
192,192,76266,1,2,0:0:0:0:
192,192,76536,1,2,0:0:0:0:
64,192,76806,1,0,0:0:0:0:
192,192,77887,1,0,0:0:0:0:
320,192,77887,1,4,0:0:0:0:
448,192,78158,128,0,78293:0:0:0:0:
64,192,78428,128,0,78563:0:0:0:0:
320,192,78833,128,0,79104:0:0:0:0:
64,192,79104,128,0,79509:0:0:0:0:
192,192,79509,1,4,0:0:0:0:
192,192,79779,1,2,0:0:0:0:
320,192,80320,128,0,80455:0:0:0:0:
192,192,80590,128,0,80725:0:0:0:0:
448,192,80995,128,0,81266:0:0:0:0:
320,192,81266,128,0,81671:0:0:0:0:
64,192,81671,1,4,0:0:0:0:
64,192,81941,1,2,0:0:0:0:
448,192,82482,128,0,82617:0:0:0:0:
192,192,82752,128,0,82887:0:0:0:0:
64,192,83158,128,0,83428:0:0:0:0:
320,192,83428,128,0,83833:0:0:0:0:
192,192,83833,1,4,0:0:0:0:
192,192,84104,1,2,0:0:0:0:
448,192,84374,1,2,0:0:0:0:
320,192,84374,1,4,0:0:0:0:
64,192,84779,1,2,0:0:0:0:
192,192,84779,1,4,0:0:0:0:
320,192,85185,1,4,0:0:0:0:
448,192,85185,1,2,0:0:0:0:
64,192,85590,1,2,0:0:0:0:
192,192,85590,1,4,0:0:0:0:
64,192,85995,1,2,0:0:0:0:
448,192,85995,1,4,0:0:0:0:
448,192,86266,1,4,0:0:0:0:
64,192,86266,1,2,0:0:0:0:
320,192,86536,1,4,0:0:0:0:
192,192,86536,1,2,0:0:0:0:
448,192,86671,128,0,86806:0:0:0:0:
64,192,86941,128,0,87077:0:0:0:0:
320,192,87212,128,0,87347:0:0:0:0:
64,192,87482,128,0,87617:0:0:0:0:
192,192,87752,128,0,87887:0:0:0:0:
448,192,88022,128,0,88158:0:0:0:0:
192,192,88293,128,0,88428:0:0:0:0:
320,192,88563,128,0,88698:0:0:0:0:
64,192,88833,128,0,88968:0:0:0:0:
448,192,89104,128,0,89239:0:0:0:0:
192,192,89374,128,0,89509:0:0:0:0:
448,192,89644,128,0,89779:0:0:0:0:
320,192,89914,128,0,90049:0:0:0:0:
192,192,90185,128,0,90320:0:0:0:0:
64,192,90320,1,4,0:0:0:0:
448,192,90320,1,2,0:0:0:0:
64,192,90590,1,4,0:0:0:0:
448,192,90590,128,2,90860:0:0:0:0:
192,192,91131,128,0,91266:0:0:0:0:
320,192,91401,128,0,91536:0:0:0:0:
64,192,91806,128,0,92077:0:0:0:0:
192,192,92077,128,0,92482:0:0:0:0:
448,192,92482,1,4,0:0:0:0:
448,192,92752,1,4,0:0:0:0:
448,192,93022,128,0,94104:0:0:0:0:
64,192,93022,1,4,0:0:0:0:
192,192,93293,1,4,0:0:0:0:
64,192,93563,1,4,0:0:0:0:
192,192,93833,1,4,0:0:0:0:
64,192,94104,1,4,0:0:0:0:
448,192,94374,5,4,0:0:0:0:
64,192,94644,1,4,0:0:0:0:
192,192,94914,1,8,0:0:0:0:
320,192,94914,1,2,0:0:0:0:
320,192,95185,1,0,0:0:0:0:
448,192,95185,1,4,0:0:0:0:
192,192,95455,1,2,0:0:0:0:
448,192,95725,1,4,0:0:0:0:
448,192,95995,1,2,0:0:0:0:
320,192,96266,1,4,0:0:0:0:
192,192,96536,1,2,0:0:0:0:
448,192,96806,1,4,0:0:0:0:
192,192,97077,1,2,0:0:0:0:
320,192,97077,1,8,0:0:0:0:
448,192,97347,1,4,0:0:0:0:
320,192,97617,1,2,0:0:0:0:
64,192,97887,1,4,0:0:0:0:
320,192,98158,1,2,0:0:0:0:
192,192,98428,1,4,0:0:0:0:
448,192,98698,1,2,0:0:0:0:
64,192,98968,1,4,0:0:0:0:
192,192,99239,1,2,0:0:0:0:
192,192,99509,1,0,0:0:0:0:
448,192,99509,1,4,0:0:0:0:
320,192,99779,1,2,0:0:0:0:
64,192,100049,1,4,0:0:0:0:
64,192,100320,1,2,0:0:0:0:
192,192,100590,1,4,0:0:0:0:
64,192,100860,1,2,0:0:0:0:
448,192,101131,1,4,0:0:0:0:
192,192,101401,1,2,0:0:0:0:
320,192,101401,1,8,0:0:0:0:
64,192,101671,1,2,0:0:0:0:
320,192,101671,1,4,0:0:0:0:
448,192,102077,1,2,0:0:0:0:
192,192,102077,1,4,0:0:0:0:
64,192,102482,1,2,0:0:0:0:
320,192,102482,1,4,0:0:0:0:
448,192,102887,1,2,0:0:0:0:
192,192,102887,1,4,0:0:0:0:
64,192,103293,1,2,0:0:0:0:
448,192,103293,1,4,0:0:0:0:
64,192,103563,1,2,0:0:0:0:
448,192,103563,1,4,0:0:0:0:
192,192,103833,1,4,0:0:0:0:
320,192,103833,1,0,0:0:0:0:
64,192,104104,1,2,0:0:0:0:
320,192,104374,1,4,0:0:0:0:
320,192,104644,1,2,0:0:0:0:
448,192,104914,1,4,0:0:0:0:
192,192,105185,1,2,0:0:0:0:
64,192,105455,1,4,0:0:0:0:
192,192,105725,1,8,0:0:0:0:
320,192,105725,1,2,0:0:0:0:
448,192,105995,1,4,0:0:0:0:
64,192,106266,1,2,0:0:0:0:
448,192,106536,1,4,0:0:0:0:
192,192,106806,1,2,0:0:0:0:
320,192,107077,1,4,0:0:0:0:
64,192,107347,1,2,0:0:0:0:
320,192,107617,1,4,0:0:0:0:
192,192,107887,1,2,0:0:0:0:
64,192,108158,1,0,0:0:0:0:
320,192,108158,1,4,0:0:0:0:
64,192,108428,1,2,0:0:0:0:
448,192,108698,1,4,0:0:0:0:
192,192,108968,1,2,0:0:0:0:
320,192,108968,1,0,0:0:0:0:
320,192,109239,1,4,0:0:0:0:
448,192,109509,1,2,0:0:0:0:
192,192,109779,1,4,0:0:0:0:
448,192,110049,1,2,0:0:0:0:
64,192,110320,128,0,111401:0:0:0:0:
192,192,110320,1,4,0:0:0:0:
448,192,110590,1,2,0:0:0:0:
192,192,110860,1,4,0:0:0:0:
448,192,111131,1,2,0:0:0:0:
192,192,111401,1,4,0:0:0:0:
448,192,111401,1,0,0:0:0:0:
64,192,112482,1,4,0:0:0:0:
192,192,112482,1,0,0:0:0:0:
64,192,112887,1,4,0:0:0:0:
192,192,112887,1,0,0:0:0:0:
320,192,113158,1,4,0:0:0:0:
448,192,113293,128,4,113428:0:0:0:0:
64,192,113563,1,4,0:0:0:0:
320,192,113563,1,0,0:0:0:0:
64,192,113968,1,4,0:0:0:0:
320,192,113968,1,0,0:0:0:0:
192,192,114374,128,0,114577:0:0:0:0:
320,192,114644,1,0,0:0:0:0:
448,192,114644,1,4,0:0:0:0:
320,192,115049,1,0,0:0:0:0:
448,192,115049,1,4,0:0:0:0:
192,192,115320,1,4,0:0:0:0:
64,192,115455,128,4,115590:0:0:0:0:
192,192,115725,1,0,0:0:0:0:
448,192,115725,1,4,0:0:0:0:
192,192,116131,1,0,0:0:0:0:
448,192,116131,1,4,0:0:0:0:
448,192,116806,128,8,117347:0:0:0:0:
64,192,117347,128,8,117887:0:0:0:0:
448,192,117887,128,8,118428:0:0:0:0:
64,192,118428,128,8,118968:0:0:0:0:
448,192,118968,128,0,120049:0:0:0:0:
320,192,118968,1,8,0:0:0:0:
320,192,119239,1,8,0:0:0:0:
320,192,119509,1,8,0:0:0:0:
320,192,119779,1,8,0:0:0:0:
64,192,120049,1,0,0:0:0:0:
192,192,120860,1,4,0:0:0:0:
320,192,120860,1,4,0:0:0:0:
